<?xml version="1.0" standalone="no"?>
<!DOCTYPE svg PUBLIC "-//W3C//DTD SVG 1.1//EN" "http://www.w3.org/Graphics/SVG/1.1/DTD/svg11.dtd" >
<svg xmlns="http://www.w3.org/2000/svg" xmlns:xlink="http://www.w3.org/1999/xlink" version="1.1">
<metadata>
Created by FontForge 20180714 at Tue Aug 14 15:53:09 2018
 By Gisle,,,,
Copyright 2018 IBM Corp. All rights reserved.
</metadata>
<defs>
<font id="Aneliza-Bold" horiz-adv-x="600" >
  <font-face 
    font-family="Aneliza"
    font-weight="700"
    font-stretch="normal"
    units-per-em="1000"
    panose-1="2 11 8 3 5 2 3 0 2 3"
    ascent="780"
    descent="-220"
    x-height="525"
    cap-height="698"
    bbox="-307 -275 1332 1150"
    underline-thickness="100"
    underline-position="-116"
    stemh="115"
    stemv="148"
    unicode-range="U+0020-FB02"
  />
<missing-glyph horiz-adv-x="472" 
d="M32 0v780h408v-780h-408zM132 100h208v580h-208v-580z" />
    <glyph glyph-name="fi" unicode="fi" horiz-adv-x="647" 
d="M95 0v410h-74v115h74v62c0 101 55 153 157 153h96v-115h-105v-100h335v-525h-148v410h-187v-410h-148zM504 581c-60 0 -86 31 -86 73v22c0 42 26 73 86 73s86 -31 86 -73v-22c0 -42 -26 -73 -86 -73z" />
    <glyph glyph-name=".notdef" horiz-adv-x="472" 
d="M32 0v780h408v-780h-408zM132 100h208v580h-208v-580z" />
    <glyph glyph-name="space" unicode=" " horiz-adv-x="236" 
 />
    <glyph glyph-name="exclam" unicode="!" horiz-adv-x="320" 
d="M193 220h-63l-47 284v194h156v-194zM160 -12c-63 0 -89 33 -89 76v24c0 43 26 76 89 76s89 -33 89 -76v-24c0 -43 -26 -76 -89 -76z" />
    <glyph glyph-name="quotedbl" unicode="&#x22;" horiz-adv-x="493" 
d="M425 414h-132v326h132v-326zM200 414h-132v326h132v-326z" />
    <glyph glyph-name="numbersign" unicode="#" horiz-adv-x="632" 
d="M336 0l30 173h-160l-30 -173h-94l30 173h-101v90h117l29 172h-101v90h117l30 173h93l-30 -173h160l30 173h94l-30 -173h101v-90h-117l-29 -172h101v-90h-117l-30 -173h-93zM221 263h160l30 172h-160z" />
    <glyph glyph-name="dollar" unicode="$" horiz-adv-x="601" 
d="M364 -82h-114v92c-101 9 -168 50 -218 105l90 82c38 -40 85 -67 141 -75v180c-150 31 -211 97 -211 194c0 105 69 175 198 190v94h114v-94c80 -9 139 -40 183 -90l-91 -82c-24 27 -56 49 -104 60v-166c140 -32 207 -89 207 -191c0 -98 -62 -181 -195 -203v-96zM190 500
c0 -38 22 -58 73 -72v148c-51 -10 -73 -37 -73 -76zM421 206c0 29 -12 59 -69 76v-158c47 13 69 44 69 82z" />
    <glyph glyph-name="percent" unicode="%" horiz-adv-x="974" 
d="M311 0h-132l484 698h132zM230 314c-116 0 -180 68 -180 198s64 198 180 198s180 -68 180 -198s-64 -198 -180 -198zM230 400c34 0 52 26 52 86v52c0 60 -18 86 -52 86s-52 -26 -52 -86v-52c0 -60 18 -86 52 -86zM744 -12c-116 0 -180 68 -180 198s64 198 180 198
s180 -68 180 -198s-64 -198 -180 -198zM744 74c34 0 52 26 52 86v52c0 60 -18 86 -52 86s-52 -26 -52 -86v-52c0 -60 18 -86 52 -86z" />
    <glyph glyph-name="ampersand" unicode="&#x26;" horiz-adv-x="721" 
d="M539 0l-52 57c-44 -36 -103 -69 -200 -69c-154 0 -237 83 -237 195c0 95 59 147 140 194c-39 44 -78 102 -78 166c0 92 81 167 209 167c114 0 201 -58 201 -160c0 -88 -63 -142 -139 -187l108 -117c17 43 26 92 29 139h167v-123h-63c-11 -41 -26 -79 -45 -111l139 -151
h-179zM317 597c-36 0 -64 -21 -64 -57v-4c0 -26 16 -48 57 -94c47 28 71 54 71 94v4c0 36 -28 57 -64 57zM309 111c40 0 74 10 101 28l-147 159c-45 -27 -62 -53 -62 -89v-10c0 -51 36 -88 108 -88z" />
    <glyph glyph-name="quotesingle" unicode="'" horiz-adv-x="268" 
d="M200 414h-132v326h132v-326z" />
    <glyph glyph-name="parenleft" unicode="(" horiz-adv-x="338" 
d="M37 312c0 193 75 361 175 448h139c-107 -100 -174 -244 -174 -414v-70c0 -176 68 -317 174 -414h-140c-97 84 -174 255 -174 450z" />
    <glyph glyph-name="parenright" unicode=")" horiz-adv-x="338" 
d="M301 312c0 -195 -77 -366 -174 -450h-140c106 97 174 238 174 414v70c0 170 -67 314 -174 414h139c100 -87 175 -255 175 -448z" />
    <glyph glyph-name="asterisk" unicode="*" horiz-adv-x="601" 
d="M300 401l-108 -163l-104 70l127 153l-183 55l39 114l174 -73l-9 190h129l-9 -190l174 73l39 -114l-183 -55l126 -153l-104 -69z" />
    <glyph glyph-name="plus" unicode="+" 
d="M364 63h-128v184h-169v118h169v184h128v-184h169v-118h-169v-184z" />
    <glyph glyph-name="comma" unicode="," horiz-adv-x="310" 
d="M157 169c60 0 88 -34 88 -80v-20c0 -81 -43 -167 -107 -216h-100c47 44 81 85 98 138c-46 8 -67 39 -67 78v20c0 46 28 80 88 80z" />
    <glyph glyph-name="hyphen" unicode="-" horiz-adv-x="403" 
d="M350 233h-297v144h297v-144z" />
    <glyph glyph-name="period" unicode="." horiz-adv-x="310" 
d="M155 -11c-60 0 -88 34 -88 80v20c0 46 28 80 88 80s88 -34 88 -80v-20c0 -46 -28 -80 -88 -80z" />
    <glyph glyph-name="slash" unicode="/" horiz-adv-x="460" 
d="M125 -151h-122l298 891h122z" />
    <glyph glyph-name="zero" unicode="0" 
d="M300 -12c-183 0 -269 133 -269 361s86 361 269 361s269 -133 269 -361s-86 -361 -269 -361zM300 115c80 0 106 62 106 168v132c0 106 -26 168 -106 168s-106 -62 -106 -168v-132c0 -106 26 -168 106 -168z" />
    <glyph glyph-name="one" unicode="1" 
d="M580 0h-486v121h188v468h-9l-142 -186l-96 75l167 220h230v-577h148v-121z" />
    <glyph glyph-name="two" unicode="2" 
d="M551 126v-126h-494v137l215 184c78 67 105 106 105 165v14c0 53 -47 80 -92 80c-66 0 -98 -45 -112 -98l-131 50c31 97 112 178 257 178c151 0 238 -89 238 -210c0 -120 -86 -193 -186 -272l-130 -102h330z" />
    <glyph glyph-name="three" unicode="3" 
d="M197 422h65c74 0 107 32 107 75v7c0 50 -35 84 -94 84c-56 0 -107 -30 -142 -83l-94 88c53 69 121 117 241 117c150 0 247 -73 247 -185c0 -89 -61 -144 -133 -157v-6c83 -15 145 -72 145 -168c0 -125 -107 -206 -265 -206c-142 0 -213 63 -258 134l111 86
c30 -57 72 -98 147 -98c68 0 108 37 108 95v6c0 57 -46 86 -122 86h-63v125z" />
    <glyph glyph-name="four" unicode="4" 
d="M480 0h-143v134h-307v128l272 436h178v-448h88v-116h-88v-134zM327 543l-177 -293h187v293h-10z" />
    <glyph glyph-name="five" unicode="5" 
d="M522 698v-131h-317l-15 -221h8c28 66 61 111 150 111c119 0 215 -82 215 -222c0 -142 -96 -247 -268 -247c-135 0 -207 63 -249 134l109 86c30 -54 69 -98 141 -98s109 45 109 113v8c0 64 -40 104 -105 104c-54 0 -90 -28 -108 -49l-123 17l26 395h427z" />
    <glyph glyph-name="six" unicode="6" 
d="M304 -12c-166 0 -262 109 -262 277c0 196 131 352 250 433h207c-170 -122 -272 -217 -300 -350l9 -3c24 53 65 105 154 105c115 0 204 -85 204 -217c0 -143 -103 -245 -262 -245zM304 105c66 0 106 38 106 106v18c0 68 -40 106 -106 106s-106 -38 -106 -106v-18
c0 -68 40 -106 106 -106z" />
    <glyph glyph-name="seven" unicode="7" 
d="M324 0h-158l234 576h-218v-127h-127v249h494v-130z" />
    <glyph glyph-name="eight" unicode="8" 
d="M300 -12c-165 0 -260 86 -260 203c0 89 54 146 137 169v8c-68 25 -116 77 -116 158c0 107 85 184 239 184s239 -77 239 -184c0 -81 -48 -133 -116 -158v-8c83 -23 137 -80 137 -169c0 -117 -95 -203 -260 -203zM300 103c66 0 103 34 103 89v20c0 55 -37 89 -103 89
s-103 -34 -103 -89v-20c0 -55 37 -89 103 -89zM300 411c63 0 98 32 98 84v16c0 52 -35 84 -98 84s-98 -32 -98 -84v-16c0 -52 35 -84 98 -84z" />
    <glyph glyph-name="nine" unicode="9" 
d="M558 433c0 -196 -131 -352 -250 -433h-207c170 122 272 217 300 350l-9 3c-24 -53 -65 -105 -154 -105c-115 0 -204 85 -204 217c0 143 103 245 262 245c166 0 262 -109 262 -277zM296 363c66 0 106 38 106 106v18c0 68 -40 106 -106 106s-106 -38 -106 -106v-18
c0 -68 40 -106 106 -106z" />
    <glyph glyph-name="colon" unicode=":" horiz-adv-x="330" 
d="M165 356c-60 0 -88 34 -88 80v20c0 46 28 80 88 80s88 -34 88 -80v-20c0 -46 -28 -80 -88 -80zM165 -11c-60 0 -88 34 -88 80v20c0 46 28 80 88 80s88 -34 88 -80v-20c0 -46 -28 -80 -88 -80z" />
    <glyph glyph-name="semicolon" unicode=";" horiz-adv-x="330" 
d="M165 356c-60 0 -88 34 -88 80v20c0 46 28 80 88 80s88 -34 88 -80v-20c0 -46 -28 -80 -88 -80zM167 169c60 0 88 -34 88 -80v-20c0 -81 -43 -167 -107 -216h-100c47 44 81 85 98 138c-46 8 -67 39 -67 78v20c0 46 28 80 88 80z" />
    <glyph glyph-name="less" unicode="&#x3c;" 
d="M497 -2l-394 260v87l394 259v-149l-238 -150v-7l238 -150v-150z" />
    <glyph glyph-name="equal" unicode="=" 
d="M533 362h-466v118h466v-118zM533 130h-466v118h466v-118z" />
    <glyph glyph-name="greater" unicode="&#x3e;" 
d="M103 -2v150l238 150v7l-238 150v149l394 -258v-87z" />
    <glyph glyph-name="question" unicode="?" horiz-adv-x="500" 
d="M298 233h-140v153c105 4 158 32 158 106v14c0 51 -33 78 -81 78c-52 0 -87 -36 -99 -85l-122 51c23 80 90 160 226 160c140 0 233 -84 233 -206c0 -112 -81 -184 -175 -199v-72zM230 -12c-63 0 -89 33 -89 76v24c0 43 26 76 89 76s89 -33 89 -76v-24
c0 -43 -26 -76 -89 -76z" />
    <glyph glyph-name="at" unicode="@" horiz-adv-x="903" 
d="M672 -33v-88h-210c-253 0 -401 168 -401 412s154 418 401 418c230 0 384 -146 384 -374c0 -159 -73 -253 -187 -253c-72 0 -121 38 -125 94h-5c-13 -55 -49 -92 -115 -92c-88 0 -154 71 -154 207s66 207 154 207c55 0 91 -34 103 -78h5v69h111v-269c0 -33 16 -50 44 -50
c45 0 76 48 76 150v28c0 171 -121 274 -291 274c-188 0 -308 -130 -308 -312v-38c0 -182 120 -305 308 -305h210zM455 175c34 0 67 32 67 62v116c0 31 -32 54 -67 54c-48 0 -79 -34 -79 -82v-68c0 -48 31 -82 79 -82z" />
    <glyph glyph-name="A" unicode="A" horiz-adv-x="685" 
d="M665 0h-158l-50 166h-233l-50 -166h-154l230 698h188zM420 295l-78 265h-5l-77 -265h160z" />
    <glyph glyph-name="B" unicode="B" horiz-adv-x="667" 
d="M77 0v698h339c115 0 184 -71 184 -179c0 -107 -59 -147 -130 -150v-6c66 0 157 -44 157 -164c0 -110 -77 -199 -180 -199h-370zM229 288v-160h175c40 0 65 23 65 63v34c0 40 -25 63 -65 63h-175zM229 570v-158h151c40 0 64 24 64 64v30c0 40 -24 64 -64 64h-151z" />
    <glyph glyph-name="C" unicode="C" horiz-adv-x="651" 
d="M359 -12c-188 0 -309 120 -309 356s121 366 309 366c128 0 210 -52 261 -164l-131 -68c-18 58 -55 97 -130 97c-89 0 -148 -60 -148 -170v-112c0 -110 59 -170 148 -170c75 0 118 47 139 104l124 -72c-52 -106 -135 -167 -263 -167z" />
    <glyph glyph-name="D" unicode="D" horiz-adv-x="697" 
d="M77 0v698h263c185 0 307 -117 307 -349s-122 -349 -307 -349h-263zM229 135h111c90 0 146 49 146 160v108c0 111 -56 160 -146 160h-111v-428z" />
    <glyph glyph-name="E" unicode="E" horiz-adv-x="607" 
d="M552 0h-475v698h475v-135h-323v-143h277v-134h-277v-151h323v-135z" />
    <glyph glyph-name="F" unicode="F" horiz-adv-x="585" 
d="M229 0h-152v698h463v-135h-311v-143h265v-134h-265v-286z" />
    <glyph glyph-name="G" unicode="G" horiz-adv-x="719" 
d="M520 0v111h-5c-10 -70 -74 -123 -179 -123c-160 0 -286 124 -286 358c0 235 127 364 316 364c124 0 217 -55 269 -162l-124 -71c-21 54 -64 98 -145 98c-94 0 -155 -54 -155 -170v-112c0 -116 61 -170 155 -170c76 0 137 36 137 104v35h-130v127h275v-389h-128z" />
    <glyph glyph-name="H" unicode="H" horiz-adv-x="724" 
d="M495 0v286h-266v-286h-152v698h152v-278h266v278h152v-698h-152z" />
    <glyph glyph-name="I" unicode="I" horiz-adv-x="432" 
d="M382 0h-332v121h90v456h-90v121h332v-121h-90v-456h90v-121z" />
    <glyph glyph-name="J" unicode="J" horiz-adv-x="559" 
d="M122 698h364v-496c0 -128 -86 -213 -230 -213c-138 0 -211 79 -231 196l142 28c11 -59 40 -91 87 -91c44 0 80 27 80 87v367h-212v122z" />
    <glyph glyph-name="K" unicode="K" horiz-adv-x="696" 
d="M505 0l-185 304l-91 -110v-194h-152v698h152v-332h6l99 135l157 197h172l-235 -287l256 -411h-179z" />
    <glyph glyph-name="L" unicode="L" horiz-adv-x="530" 
d="M495 0h-418v698h152v-563h266v-135z" />
    <glyph glyph-name="M" unicode="M" horiz-adv-x="819" 
d="M599 0v458h-3l-51 -102l-136 -247l-133 246l-53 110h-3v-465h-143v698h161l171 -327h2l169 327h162v-698h-143z" />
    <glyph glyph-name="N" unicode="N" horiz-adv-x="724" 
d="M481 0l-191 330l-67 140h-3v-470h-143v698h166l191 -330l67 -140h3v470h143v-698h-166z" />
    <glyph glyph-name="O" unicode="O" horiz-adv-x="714" 
d="M357 -12c-185 0 -307 124 -307 361s122 361 307 361s307 -124 307 -361s-122 -361 -307 -361zM357 123c91 0 146 63 146 174v104c0 111 -55 174 -146 174s-146 -63 -146 -174v-104c0 -111 55 -174 146 -174z" />
    <glyph glyph-name="P" unicode="P" horiz-adv-x="656" 
d="M229 0h-152v698h330c130 0 212 -91 212 -223s-82 -223 -212 -223h-178v-252zM229 566v-182h160c45 0 73 24 73 69v44c0 45 -28 69 -73 69h-160z" />
    <glyph glyph-name="Q" unicode="Q" horiz-adv-x="714" 
d="M542 -60v-124h-94c-108 0 -155 52 -155 148v29c-149 27 -243 148 -243 356c0 237 122 361 307 361s307 -124 307 -361c0 -202 -88 -322 -229 -353v-56h107zM357 123c91 0 146 63 146 174v104c0 111 -55 174 -146 174s-146 -63 -146 -174v-104c0 -111 55 -174 146 -174z
" />
    <glyph glyph-name="R" unicode="R" horiz-adv-x="674" 
d="M229 256v-256h-152v698h331c129 0 211 -90 211 -223c0 -94 -42 -169 -127 -201l137 -274h-169l-122 256h-109zM229 384h160c45 0 73 24 73 69v44c0 45 -28 69 -73 69h-160v-182z" />
    <glyph glyph-name="S" unicode="S" horiz-adv-x="624" 
d="M303 -12c-122 0 -205 47 -265 113l100 101c47 -53 107 -80 175 -80c74 0 110 33 110 84c0 38 -16 66 -81 75l-69 9c-147 19 -214 91 -214 208c0 125 98 212 262 212c105 0 185 -35 242 -98l-101 -102c-33 39 -78 66 -150 66c-68 0 -101 -26 -101 -68c0 -48 25 -66 83 -75
l69 -11c143 -23 212 -87 212 -207c0 -134 -98 -227 -272 -227z" />
    <glyph glyph-name="T" unicode="T" horiz-adv-x="584" 
d="M557 563h-189v-563h-152v563h-189v135h530v-135z" />
    <glyph glyph-name="U" unicode="U" horiz-adv-x="694" 
d="M73 698h148v-428c0 -98 36 -147 126 -147s126 49 126 147v428h148v-412c0 -206 -74 -298 -274 -298s-274 92 -274 298v412z" />
    <glyph glyph-name="V" unicode="V" horiz-adv-x="650" 
d="M409 0h-170l-225 698h154l104 -335l55 -219h3l53 219l104 335h149z" />
    <glyph glyph-name="W" unicode="W" horiz-adv-x="973" 
d="M361 0h-174l-158 698h150l66 -335l37 -194h3l44 194l77 335h166l78 -335l43 -194h3l37 194l67 335h144l-162 -698h-173l-88 378l-34 153h-3l-35 -153z" />
    <glyph glyph-name="X" unicode="X" horiz-adv-x="673" 
d="M16 0l224 361l-213 337h177l136 -236h3l138 236h164l-215 -340l227 -358h-176l-151 257h-3l-147 -257h-164z" />
    <glyph glyph-name="Y" unicode="Y" horiz-adv-x="649" 
d="M401 0h-153v273l-239 425h170l150 -278h2l144 278h165l-239 -424v-274z" />
    <glyph glyph-name="Z" unicode="Z" horiz-adv-x="607" 
d="M568 135v-135h-529v135l344 428h-327v135h504v-135l-345 -428h353z" />
    <glyph glyph-name="bracketleft" unicode="[" horiz-adv-x="334" 
d="M284 -138h-207v898h207v-104h-70v-690h70v-104z" />
    <glyph glyph-name="backslash" unicode="\" horiz-adv-x="460" 
d="M456 -151h-122l-298 891h122z" />
    <glyph glyph-name="bracketright" unicode="]" horiz-adv-x="334" 
d="M50 760h207v-898h-207v104h70v690h-70v104z" />
    <glyph glyph-name="asciicircum" unicode="^" 
d="M559 334l-119 -57l-140 260h-6l-140 -260l-112 57l200 364h120z" />
    <glyph glyph-name="underscore" unicode="_" horiz-adv-x="556" 
d="M526 -190h-496v123h496v-123z" />
    <glyph glyph-name="grave" unicode="`" 
d="M284 579l-134 176l123 61l99 -194z" />
    <glyph glyph-name="a" unicode="a" horiz-adv-x="569" 
d="M539 0h-82c-53 0 -91 36 -100 92h-6c-16 -68 -74 -104 -154 -104c-105 0 -163 62 -163 153c0 111 86 164 225 164h83v33c0 51 -25 83 -87 83c-59 0 -90 -30 -113 -62l-88 78c42 62 102 100 212 100c148 0 224 -68 224 -192v-230h49v-115zM252 91c49 0 90 20 90 68v62h-72
c-57 0 -87 -21 -87 -59v-15c0 -38 25 -56 69 -56z" />
    <glyph glyph-name="b" unicode="b" horiz-adv-x="608" 
d="M69 0v740h148v-303h5c15 58 73 100 141 100c133 0 202 -96 202 -274s-69 -275 -202 -275c-68 0 -126 43 -141 100h-5v-88h-148zM314 108c56 0 97 43 97 109v91c0 66 -41 109 -97 109s-97 -29 -97 -77v-155c0 -48 41 -77 97 -77z" />
    <glyph glyph-name="c" unicode="c" horiz-adv-x="517" 
d="M281 -12c-158 0 -245 107 -245 275s87 274 245 274c106 0 179 -51 210 -137l-120 -52c-9 40 -38 72 -90 72c-60 0 -91 -43 -91 -109v-98c0 -66 31 -108 91 -108c59 0 83 36 98 78l115 -50c-35 -100 -110 -145 -213 -145z" />
    <glyph glyph-name="d" unicode="d" horiz-adv-x="608" 
d="M391 0v88h-5c-15 -57 -73 -100 -141 -100c-133 0 -202 97 -202 275s69 274 202 274c68 0 126 -42 141 -100h5v303h148v-740h-148zM294 108c56 0 97 29 97 77v155c0 48 -41 77 -97 77s-97 -43 -97 -109v-91c0 -66 41 -109 97 -109z" />
    <glyph glyph-name="e" unicode="e" horiz-adv-x="562" 
d="M288 -12c-161 0 -252 107 -252 275c0 166 88 274 246 274c174 0 244 -126 244 -268v-44h-337v-8c0 -69 37 -113 116 -113c62 0 96 29 129 63l74 -92c-47 -54 -124 -87 -220 -87zM285 428c-59 0 -96 -43 -96 -108v-8h184v9c0 64 -29 107 -88 107z" />
    <glyph glyph-name="f" unicode="f" horiz-adv-x="361" 
d="M95 0v410h-74v115h74v62c0 101 55 153 157 153h96v-115h-105v-100h105v-115h-105v-410h-148z" />
    <glyph glyph-name="g" unicode="g" horiz-adv-x="562" 
d="M555 -38c0 -111 -70 -174 -284 -174c-182 0 -249 46 -249 122c0 58 37 92 98 100v11c-50 9 -76 47 -76 92c0 55 49 83 98 93v4c-63 29 -94 82 -94 150c0 106 74 177 225 177c33 0 69 -3 99 -12h174v-99h-64c11 -19 16 -42 16 -66c0 -105 -73 -174 -225 -174
c-35 0 -66 4 -93 11c-14 -9 -23 -24 -23 -42c0 -25 18 -40 63 -40h152c128 0 183 -56 183 -153zM273 283c58 0 87 26 87 72v12c0 46 -29 72 -87 72s-87 -26 -87 -72v-12c0 -46 29 -72 87 -72zM416 -58c0 30 -22 47 -81 47h-180c-13 -13 -19 -31 -19 -47
c0 -38 30 -56 110 -56h60c80 0 110 18 110 56z" />
    <glyph glyph-name="h" unicode="h" horiz-adv-x="596" 
d="M69 0v740h148v-304h6c19 55 63 101 146 101c107 0 164 -76 164 -208v-329h-148v317c0 67 -19 100 -73 100c-48 0 -95 -25 -95 -77v-340h-148z" />
    <glyph glyph-name="i" unicode="i" horiz-adv-x="286" 
d="M143 581c-60 0 -86 31 -86 73v22c0 42 26 73 86 73s86 -31 86 -73v-22c0 -42 -26 -73 -86 -73zM69 0v525h148v-525h-148z" />
    <glyph glyph-name="j" unicode="j" horiz-adv-x="286" 
d="M69 -85v610h148v-581c0 -93 -45 -144 -148 -144h-78v115h78zM143 581c-60 0 -86 31 -86 73v22c0 42 26 73 86 73s86 -31 86 -73v-22c0 -42 -26 -73 -86 -73z" />
    <glyph glyph-name="k" unicode="k" horiz-adv-x="577" 
d="M69 0v740h148v-437h6l65 97l105 125h164l-175 -201l195 -324h-176l-118 222l-66 -74v-148h-148z" />
    <glyph glyph-name="l" unicode="l" horiz-adv-x="303" 
d="M283 0h-67c-101 0 -147 51 -147 144v596h148v-625h66v-115z" />
    <glyph glyph-name="m" unicode="m" horiz-adv-x="894" 
d="M217 0h-148v525h148v-89h6c19 56 63 101 141 101c72 0 124 -37 147 -106h3c19 59 80 106 160 106c101 0 157 -76 157 -208v-329h-148v317c0 68 -23 100 -72 100c-44 0 -87 -25 -87 -77v-340h-148v317c0 68 -24 100 -72 100c-43 0 -87 -25 -87 -77v-340z" />
    <glyph glyph-name="n" unicode="n" horiz-adv-x="596" 
d="M217 0h-148v525h148v-89h6c19 55 63 101 146 101c107 0 164 -76 164 -208v-329h-148v317c0 67 -19 100 -73 100c-48 0 -95 -25 -95 -77v-340z" />
    <glyph glyph-name="o" unicode="o" horiz-adv-x="564" 
d="M282 -12c-154 0 -246 106 -246 275s92 274 246 274s246 -105 246 -274s-92 -275 -246 -275zM282 105c58 0 92 38 92 104v107c0 66 -34 104 -92 104s-92 -38 -92 -104v-107c0 -66 34 -104 92 -104z" />
    <glyph glyph-name="p" unicode="p" horiz-adv-x="608" 
d="M69 -200v725h148v-88h5c15 58 73 100 141 100c133 0 202 -96 202 -274s-69 -275 -202 -275c-68 0 -126 43 -141 100h-5v-288h-148zM314 108c56 0 97 43 97 109v91c0 66 -41 109 -97 109s-97 -29 -97 -77v-155c0 -48 41 -77 97 -77z" />
    <glyph glyph-name="q" unicode="q" horiz-adv-x="608" 
d="M391 -200v288h-5c-15 -57 -73 -100 -141 -100c-133 0 -202 97 -202 275s69 274 202 274c68 0 126 -42 141 -100h5v88h148v-725h-148zM294 108c56 0 97 29 97 77v155c0 48 -41 77 -97 77s-97 -43 -97 -109v-91c0 -66 41 -109 97 -109z" />
    <glyph glyph-name="r" unicode="r" horiz-adv-x="404" 
d="M217 0h-148v525h148v-114h5c12 58 52 114 134 114h26v-138h-37c-86 0 -128 -19 -128 -80v-307z" />
    <glyph glyph-name="s" unicode="s" horiz-adv-x="504" 
d="M247 -12c-101 0 -167 34 -221 94l87 88c37 -41 82 -67 139 -67c58 0 78 19 78 50c0 26 -16 39 -53 44l-57 7c-119 15 -177 67 -177 162c0 101 79 171 204 171c110 0 161 -30 214 -82l-85 -87c-33 33 -77 54 -121 54c-50 0 -70 -18 -70 -44c0 -28 12 -43 55 -49l59 -8
c114 -15 173 -67 173 -158c0 -101 -90 -175 -225 -175z" />
    <glyph glyph-name="t" unicode="t" horiz-adv-x="383" 
d="M341 0h-88c-102 0 -156 53 -156 153v257h-74v115h37c40 0 52 20 52 56v86h133v-142h104v-115h-104v-295h96v-115z" />
    <glyph glyph-name="u" unicode="u" horiz-adv-x="596" 
d="M379 0v88h-5c-18 -53 -61 -100 -147 -100c-107 0 -164 75 -164 207v330h148v-317c0 -64 21 -100 75 -100c46 0 93 26 93 76v341h148v-525h-148z" />
    <glyph glyph-name="v" unicode="v" horiz-adv-x="538" 
d="M357 0h-176l-172 525h146l65 -212l49 -190h8l49 190l63 212h140z" />
    <glyph glyph-name="w" unicode="w" horiz-adv-x="841" 
d="M166 0l-147 525h143l51 -212l36 -160h4l42 160l60 212h135l61 -212l43 -160h4l36 160l51 212h137l-145 -525h-155l-64 222l-37 136h-3l-36 -136l-64 -222h-152z" />
    <glyph glyph-name="x" unicode="x" horiz-adv-x="560" 
d="M172 0h-154l173 267l-171 258h168l98 -165h4l95 165h156l-174 -263l175 -262h-168l-101 171h-4z" />
    <glyph glyph-name="y" unicode="y" horiz-adv-x="534" 
d="M313 280l77 245h138l-202 -606c-27 -81 -71 -119 -161 -119h-92v115h99l18 58l-184 552h147l77 -245l38 -152h6z" />
    <glyph glyph-name="z" unicode="z" horiz-adv-x="518" 
d="M479 0h-440v117l261 293h-252v115h424v-116l-262 -294h269v-115z" />
    <glyph glyph-name="braceleft" unicode="{" horiz-adv-x="372" 
d="M322 -138h-109c-54 0 -97 36 -97 101v203c0 58 -41 89 -97 89v113c56 0 97 31 97 89v202c0 65 43 101 97 101h109v-104h-69v-215c0 -65 -48 -117 -104 -128v-4c56 -11 104 -63 104 -128v-215h69v-104z" />
    <glyph glyph-name="bar" unicode="|" horiz-adv-x="402" 
d="M264 -138h-126v898h126v-898z" />
    <glyph glyph-name="braceright" unicode="}" horiz-adv-x="372" 
d="M50 760h109c54 0 97 -36 97 -101v-202c0 -58 41 -89 97 -89v-113c-56 0 -97 -31 -97 -89v-203c0 -65 -43 -101 -97 -101h-109v104h69v216c0 65 48 117 104 128v4c-56 11 -104 63 -104 128v214h-69v104z" />
    <glyph glyph-name="asciitilde" unicode="~" 
d="M416 212c-49 0 -82 14 -126 36c-36 18 -69 33 -110 33c-30 0 -49 -8 -78 -27l-49 84c24 34 66 62 131 62c49 0 82 -14 126 -36c36 -18 69 -33 110 -33c30 0 49 8 78 27l49 -84c-24 -34 -66 -62 -131 -62z" />
    <glyph glyph-name="uni00A0" unicode="&#xa0;" horiz-adv-x="236" 
 />
    <glyph glyph-name="exclamdown" unicode="&#xa1;" horiz-adv-x="320" 
d="M238 -173h-156v194l46 284h63l47 -284v-194zM160 361c-63 0 -89 33 -89 76v24c0 43 26 76 89 76s89 -33 89 -76v-24c0 -43 -26 -76 -89 -76z" />
    <glyph glyph-name="cent" unicode="&#xa2;" horiz-adv-x="552" 
d="M347 -114h-110v107c-124 24 -196 120 -196 265s73 242 196 265v107h110v-106c81 -13 132 -59 161 -122l-106 -58c-13 29 -34 55 -64 67v-307c34 12 57 39 73 69l105 -59c-30 -63 -85 -110 -169 -122v-106zM182 216c0 -53 22 -93 65 -110v304c-42 -17 -65 -57 -65 -110
v-84z" />
    <glyph glyph-name="sterling" unicode="&#xa3;" horiz-adv-x="582" 
d="M554 0h-488v136c51 23 83 65 83 122c0 11 -1 22 -4 33h-111v120h66c-10 28 -18 59 -18 94c0 123 98 205 250 205c108 0 183 -41 236 -121l-110 -77c-37 48 -74 67 -122 67c-65 0 -101 -36 -101 -98c0 -26 6 -48 14 -70h196v-120h-150c1 -9 2 -18 2 -28
c0 -70 -42 -108 -77 -126v-9h334v-128z" />
    <glyph glyph-name="currency" unicode="&#xa4;" horiz-adv-x="628" 
d="M314 107c-51 0 -97 11 -132 30l-91 -92l-81 80l91 91c-21 36 -32 81 -32 133s11 97 32 133l-91 91l81 80l91 -92c35 19 81 30 132 30s97 -11 132 -30l91 92l81 -80l-91 -91c21 -36 32 -81 32 -133s-11 -97 -32 -133l91 -91l-81 -80l-91 92c-35 -19 -81 -30 -132 -30z
M314 214c61 0 97 39 97 107v56c0 68 -36 107 -97 107s-97 -39 -97 -107v-56c0 -68 36 -107 97 -107z" />
    <glyph glyph-name="yen" unicode="&#xa5;" horiz-adv-x="650" 
d="M567 133h-168v-133h-153v133h-168v90h168v68h-168v90h110l-169 317h172l138 -275h2l137 275h163l-174 -317h110v-90h-168v-68h168v-90z" />
    <glyph glyph-name="brokenbar" unicode="&#xa6;" horiz-adv-x="402" 
d="M264 401h-126v359h126v-359zM264 -138h-126v359h126v-359z" />
    <glyph glyph-name="section" unicode="&#xa7;" horiz-adv-x="569" 
d="M488 13c0 -109 -89 -174 -217 -174c-69 0 -142 19 -199 72l72 88c35 -35 77 -55 129 -55c54 0 91 22 91 63c0 37 -27 55 -87 71l-77 21c-113 31 -150 90 -150 148c0 57 34 107 107 138v17c-47 31 -77 77 -77 139c0 109 90 169 216 169c71 0 143 -18 201 -72l-73 -88
c-35 34 -73 55 -131 55c-51 0 -89 -17 -89 -59c0 -35 27 -52 87 -68l77 -21c113 -31 151 -91 151 -150c0 -57 -34 -107 -108 -138v-16c47 -31 77 -77 77 -140zM396 262c0 34 -16 65 -80 83l-76 21c-11 3 -21 6 -32 10c-23 -26 -36 -53 -36 -84c0 -33 16 -63 80 -81l76 -21
c11 -3 22 -7 33 -11c22 26 35 53 35 83z" />
    <glyph glyph-name="dieresis" unicode="&#xa8;" 
d="M190 600c-60 0 -80 28 -80 63v25c0 35 20 63 80 63s80 -28 80 -63v-25c0 -35 -20 -63 -80 -63zM410 600c-60 0 -80 28 -80 63v25c0 35 20 63 80 63s80 -28 80 -63v-25c0 -35 -20 -63 -80 -63z" />
    <glyph glyph-name="copyright" unicode="&#xa9;" horiz-adv-x="792" 
d="M396 -12c-203 0 -348 138 -348 361s145 361 348 361s348 -138 348 -361s-145 -361 -348 -361zM396 52c159 0 274 115 274 263v68c0 148 -115 263 -274 263s-274 -115 -274 -263v-68c0 -148 115 -263 274 -263zM403 134c-130 0 -208 85 -208 215s78 215 208 215
c97 0 154 -46 181 -113l-100 -48c-16 35 -37 58 -81 58s-71 -28 -71 -72v-80c0 -44 27 -72 71 -72s71 25 88 58l101 -47c-28 -61 -82 -114 -189 -114z" />
    <glyph glyph-name="ordfeminine" unicode="&#xaa;" horiz-adv-x="449" 
d="M405 405v-75h-60c-33 0 -67 15 -73 64h-4c-13 -46 -54 -70 -108 -70c-68 0 -114 40 -114 109c0 75 56 111 160 111h56v19c0 44 -17 65 -63 65c-43 0 -68 -19 -87 -45l-56 50c24 42 75 71 155 71c96 0 155 -46 155 -137v-162h39zM262 488h-53c-40 0 -62 -15 -62 -43v-14
c0 -27 21 -39 53 -39c35 0 62 17 62 52v44z" />
    <glyph glyph-name="guillemotleft" unicode="&#xab;" horiz-adv-x="558" 
d="M508 141l-43 -92l-186 160v126l186 160l43 -92l-120 -131zM267 141l-43 -92l-186 160v126l186 160l43 -92l-120 -131z" />
    <glyph glyph-name="logicalnot" unicode="&#xac;" 
d="M533 78h-121v169h-360v118h481v-287z" />
    <glyph glyph-name="uni00AD" unicode="&#xad;" horiz-adv-x="403" 
d="M350 233h-297v144h297v-144z" />
    <glyph glyph-name="registered" unicode="&#xae;" horiz-adv-x="464" 
d="M232 298c-113 0 -202 88 -202 206s89 206 202 206s202 -88 202 -206s-89 -206 -202 -206zM232 345c80 0 148 53 148 143v32c0 90 -68 143 -148 143s-148 -53 -148 -143v-32c0 -90 68 -143 148 -143zM209 461v-61h-64v209h102c56 0 80 -30 80 -70c0 -33 -14 -55 -37 -66
l43 -73h-69l-32 61h-23zM209 508h25c18 0 28 7 28 23v7c0 16 -10 23 -28 23h-25v-53z" />
    <glyph glyph-name="macron" unicode="&#xaf;" 
d="M147 624v103h306v-103h-306z" />
    <glyph glyph-name="degree" unicode="&#xb0;" horiz-adv-x="470" 
d="M235 334c-105 0 -185 80 -185 188s80 188 185 188s185 -80 185 -188s-80 -188 -185 -188zM235 429c51 0 84 40 84 93s-33 93 -84 93s-84 -40 -84 -93s33 -93 84 -93z" />
    <glyph glyph-name="plusminus" unicode="&#xb1;" 
d="M364 184h-128v167h-169v119h169v165h128v-165h169v-119h-169v-167zM533 0h-466v119h466v-119z" />
    <glyph glyph-name="twosuperior" unicode="&#xb2;" horiz-adv-x="347" 
d="M322 412v-83h-289v88l109 83c50 38 67 53 67 83v1c0 27 -24 34 -43 34c-33 0 -48 -21 -55 -45l-89 33c19 56 70 98 154 98c90 0 142 -48 142 -114c0 -68 -55 -112 -114 -145l-59 -33h177z" />
    <glyph glyph-name="threesuperior" unicode="&#xb3;" horiz-adv-x="345" 
d="M117 558h34c36 0 51 12 51 27v4c0 19 -16 36 -45 36c-28 0 -59 -15 -80 -43l-62 59c35 41 75 63 145 63c94 0 150 -41 150 -101c0 -46 -35 -76 -76 -81v-4c50 -8 82 -38 82 -85c0 -68 -64 -110 -157 -110c-86 0 -129 34 -155 75l76 58c15 -31 39 -54 79 -54
c31 0 50 16 50 40v2c0 23 -25 32 -61 32h-31v82z" />
    <glyph glyph-name="acute" unicode="&#xb4;" 
d="M450 755l-134 -176l-88 43l99 194z" />
    <glyph glyph-name="mu" unicode="&#xb5;" horiz-adv-x="602" 
d="M217 -200h-148v725h148v-319c0 -63 21 -98 74 -98c51 0 94 29 94 77v340h148v-525h-148v88h-5c-17 -54 -56 -100 -116 -100c-38 0 -61 18 -72 42h-5l30 -136v-94z" />
    <glyph glyph-name="paragraph" unicode="&#xb6;" horiz-adv-x="677" 
d="M242 -149v409c-118 0 -211 99 -211 219s93 219 211 219h382v-106h-66v-741h-109v741h-98v-741h-109z" />
    <glyph glyph-name="periodcentered" unicode="&#xb7;" horiz-adv-x="358" 
d="M179 213c-60 0 -88 34 -88 80v20c0 46 28 80 88 80s88 -34 88 -80v-20c0 -46 -28 -80 -88 -80z" />
    <glyph glyph-name="cedilla" unicode="&#xb8;" 
d="M314 -212c-69 0 -107 24 -124 44l46 56c13 -16 35 -29 66 -29c25 0 44 8 44 25c0 15 -13 34 -75 40l-21 2l22 104h67l-18 -85l4 -4c16 4 32 7 48 7c40 0 73 -20 73 -69c0 -68 -64 -91 -132 -91z" />
    <glyph glyph-name="onesuperior" unicode="&#xb9;" horiz-adv-x="344" 
d="M324 329h-275v79h93v210h-6l-61 -83l-67 48l85 115h150v-290h81v-79z" />
    <glyph glyph-name="ordmasculine" unicode="&#xba;" horiz-adv-x="433" 
d="M217 324c-112 0 -179 73 -179 190s67 190 179 190s179 -73 179 -190s-67 -190 -179 -190zM217 402c45 0 72 28 72 83v58c0 55 -27 83 -72 83s-72 -28 -72 -83v-58c0 -55 27 -83 72 -83z" />
    <glyph glyph-name="guillemotright" unicode="&#xbb;" horiz-adv-x="558" 
d="M291 141l120 131l-120 131l43 92l186 -160v-126l-186 -160zM50 141l120 131l-120 131l43 92l186 -160v-126l-186 -160z" />
    <glyph glyph-name="onequarter" unicode="&#xbc;" horiz-adv-x="837" 
d="M772 0h-98v70h-166v85l149 214h115v-223h46v-76h-46v-70zM674 146v113h-7l-80 -113h87zM222 0h-108l529 698h108zM324 329h-275v79h93v210h-6l-61 -83l-67 48l85 115h150v-290h81v-79z" />
    <glyph glyph-name="onehalf" unicode="&#xbd;" horiz-adv-x="859" 
d="M834 83v-83h-289v88l109 83c50 38 67 53 67 83v1c0 27 -24 34 -43 34c-33 0 -48 -21 -55 -45l-89 33c19 56 70 98 154 98c90 0 142 -48 142 -114c0 -68 -55 -112 -114 -145l-59 -33h177zM222 0h-108l529 698h108zM324 329h-275v79h93v210h-6l-61 -83l-67 48l85 115h150
v-290h81v-79z" />
    <glyph glyph-name="threequarters" unicode="&#xbe;" horiz-adv-x="828" 
d="M763 0h-98v70h-166v85l149 214h115v-223h46v-76h-46v-70zM665 146v113h-7l-80 -113h87zM213 0h-108l529 698h108zM117 558h34c36 0 51 12 51 27v4c0 19 -16 36 -45 36c-28 0 -59 -15 -80 -43l-62 59c35 41 75 63 145 63c94 0 150 -41 150 -101c0 -46 -35 -76 -76 -81v-4
c50 -8 82 -38 82 -85c0 -68 -64 -110 -157 -110c-86 0 -129 34 -155 75l76 58c15 -31 39 -54 79 -54c31 0 50 16 50 40v2c0 23 -25 32 -61 32h-31v82z" />
    <glyph glyph-name="questiondown" unicode="&#xbf;" horiz-adv-x="494" 
d="M260 -185c-140 0 -233 84 -233 206c0 112 81 184 175 199v72h140v-153c-105 -4 -158 -32 -158 -106v-14c0 -51 33 -78 81 -78c52 0 87 36 99 85l122 -51c-23 -80 -90 -160 -226 -160zM270 361c-63 0 -89 33 -89 76v24c0 43 26 76 89 76s89 -33 89 -76v-24
c0 -43 -26 -76 -89 -76z" />
    <glyph glyph-name="Agrave" unicode="&#xc0;" horiz-adv-x="685" 
d="M323 740l-134 176l123 61l99 -194zM665 0h-158l-50 166h-233l-50 -166h-154l230 698h188zM420 295l-78 265h-5l-77 -265h160z" />
    <glyph glyph-name="Aacute" unicode="&#xc1;" horiz-adv-x="685" 
d="M489 916l-134 -176l-88 43l99 194zM665 0h-158l-50 166h-233l-50 -166h-154l230 698h188zM420 295l-78 265h-5l-77 -265h160z" />
    <glyph glyph-name="Acircumflex" unicode="&#xc2;" horiz-adv-x="685" 
d="M277 956h124l132 -159l-73 -58l-121 115l-121 -115l-73 58zM665 0h-158l-50 166h-233l-50 -166h-154l230 698h188zM420 295l-78 265h-5l-77 -265h160z" />
    <glyph glyph-name="Atilde" unicode="&#xc3;" horiz-adv-x="685" 
d="M415 762c-30 0 -52 9 -77 20c-29 12 -52 22 -78 22c-23 0 -38 -8 -59 -25l-52 68c24 36 61 64 114 64c30 0 52 -9 77 -20c29 -12 52 -22 78 -22c23 0 38 8 59 25l52 -68c-24 -36 -61 -64 -114 -64zM665 0h-158l-50 166h-233l-50 -166h-154l230 698h188zM420 295l-78 265
h-5l-77 -265h160z" />
    <glyph glyph-name="Adieresis" unicode="&#xc4;" horiz-adv-x="685" 
d="M229 761c-60 0 -80 28 -80 63v25c0 35 20 63 80 63s80 -28 80 -63v-25c0 -35 -20 -63 -80 -63zM449 761c-60 0 -80 28 -80 63v25c0 35 20 63 80 63s80 -28 80 -63v-25c0 -35 -20 -63 -80 -63zM665 0h-158l-50 166h-233l-50 -166h-154l230 698h188zM420 295l-78 265h-5
l-77 -265h160z" />
    <glyph glyph-name="Aring" unicode="&#xc5;" horiz-adv-x="685" 
d="M339 719c-83 0 -148 60 -148 143s65 143 148 143s148 -60 148 -143s-65 -143 -148 -143zM339 794c33 0 51 20 51 51v34c0 31 -18 51 -51 51s-51 -20 -51 -51v-34c0 -31 18 -51 51 -51zM665 0h-158l-50 166h-233l-50 -166h-154l230 698h188zM420 295l-78 265h-5l-77 -265
h160z" />
    <glyph glyph-name="AE" unicode="&#xc6;" horiz-adv-x="968" 
d="M438 0v166h-209l-78 -166h-152l341 698h573v-135h-324v-143h278v-134h-278v-151h324v-135h-475zM438 563h-23l-125 -268h148v268z" />
    <glyph glyph-name="Ccedilla" unicode="&#xc7;" horiz-adv-x="651" 
d="M359 575c-89 0 -148 -60 -148 -170v-112c0 -110 59 -170 148 -170c75 0 118 47 139 104l124 -72c-52 -106 -135 -167 -258 -167l-9 -43l4 -4c16 4 32 7 48 7c40 0 73 -20 73 -69c0 -68 -64 -91 -132 -91c-69 0 -107 24 -124 44l46 56c13 -16 35 -29 66 -29
c25 0 44 8 44 25c0 15 -13 34 -75 40l-21 2l14 67c-153 23 -248 142 -248 351c0 236 121 366 309 366c128 0 210 -52 261 -164l-131 -68c-18 58 -55 97 -130 97z" />
    <glyph glyph-name="Egrave" unicode="&#xc8;" horiz-adv-x="607" 
d="M299 740l-134 176l123 61l99 -194zM552 0h-475v698h475v-135h-323v-143h277v-134h-277v-151h323v-135z" />
    <glyph glyph-name="Eacute" unicode="&#xc9;" horiz-adv-x="607" 
d="M465 916l-134 -176l-88 43l99 194zM552 0h-475v698h475v-135h-323v-143h277v-134h-277v-151h323v-135z" />
    <glyph glyph-name="Ecircumflex" unicode="&#xca;" horiz-adv-x="607" 
d="M253 956h124l132 -159l-73 -58l-121 115l-121 -115l-73 58zM552 0h-475v698h475v-135h-323v-143h277v-134h-277v-151h323v-135z" />
    <glyph glyph-name="Edieresis" unicode="&#xcb;" horiz-adv-x="607" 
d="M205 761c-60 0 -80 28 -80 63v25c0 35 20 63 80 63s80 -28 80 -63v-25c0 -35 -20 -63 -80 -63zM425 761c-60 0 -80 28 -80 63v25c0 35 20 63 80 63s80 -28 80 -63v-25c0 -35 -20 -63 -80 -63zM552 0h-475v698h475v-135h-323v-143h277v-134h-277v-151h323v-135z" />
    <glyph glyph-name="Igrave" unicode="&#xcc;" horiz-adv-x="432" 
d="M200 740l-134 176l123 61l99 -194zM382 0h-332v121h90v456h-90v121h332v-121h-90v-456h90v-121z" />
    <glyph glyph-name="Iacute" unicode="&#xcd;" horiz-adv-x="432" 
d="M366 916l-134 -176l-88 43l99 194zM382 0h-332v121h90v456h-90v121h332v-121h-90v-456h90v-121z" />
    <glyph glyph-name="Icircumflex" unicode="&#xce;" horiz-adv-x="432" 
d="M154 956h124l132 -159l-73 -58l-121 115l-121 -115l-73 58zM382 0h-332v121h90v456h-90v121h332v-121h-90v-456h90v-121z" />
    <glyph glyph-name="Idieresis" unicode="&#xcf;" horiz-adv-x="432" 
d="M106 761c-60 0 -80 28 -80 63v25c0 35 20 63 80 63s80 -28 80 -63v-25c0 -35 -20 -63 -80 -63zM326 761c-60 0 -80 28 -80 63v25c0 35 20 63 80 63s80 -28 80 -63v-25c0 -35 -20 -63 -80 -63zM382 0h-332v121h90v456h-90v121h332v-121h-90v-456h90v-121z" />
    <glyph glyph-name="Eth" unicode="&#xd0;" horiz-adv-x="702" 
d="M82 0v297h-75v114h75v287h263c185 0 307 -117 307 -349s-122 -349 -307 -349h-263zM234 135h111c90 0 146 49 146 160v108c0 111 -56 160 -146 160h-111v-152h119v-114h-119v-162z" />
    <glyph glyph-name="Ntilde" unicode="&#xd1;" horiz-adv-x="724" 
d="M437 762c-30 0 -52 9 -77 20c-29 12 -52 22 -78 22c-23 0 -38 -8 -59 -25l-52 68c24 36 61 64 114 64c30 0 52 -9 77 -20c29 -12 52 -22 78 -22c23 0 38 8 59 25l52 -68c-24 -36 -61 -64 -114 -64zM481 0l-191 330l-67 140h-3v-470h-143v698h166l191 -330l67 -140h3v470
h143v-698h-166z" />
    <glyph glyph-name="Ograve" unicode="&#xd2;" horiz-adv-x="714" 
d="M341 740l-134 176l123 61l99 -194zM357 -12c-185 0 -307 124 -307 361s122 361 307 361s307 -124 307 -361s-122 -361 -307 -361zM357 123c91 0 146 63 146 174v104c0 111 -55 174 -146 174s-146 -63 -146 -174v-104c0 -111 55 -174 146 -174z" />
    <glyph glyph-name="Oacute" unicode="&#xd3;" horiz-adv-x="714" 
d="M507 916l-134 -176l-88 43l99 194zM357 -12c-185 0 -307 124 -307 361s122 361 307 361s307 -124 307 -361s-122 -361 -307 -361zM357 123c91 0 146 63 146 174v104c0 111 -55 174 -146 174s-146 -63 -146 -174v-104c0 -111 55 -174 146 -174z" />
    <glyph glyph-name="Ocircumflex" unicode="&#xd4;" horiz-adv-x="714" 
d="M295 956h124l132 -159l-73 -58l-121 115l-121 -115l-73 58zM357 -12c-185 0 -307 124 -307 361s122 361 307 361s307 -124 307 -361s-122 -361 -307 -361zM357 123c91 0 146 63 146 174v104c0 111 -55 174 -146 174s-146 -63 -146 -174v-104c0 -111 55 -174 146 -174z
" />
    <glyph glyph-name="Otilde" unicode="&#xd5;" horiz-adv-x="714" 
d="M433 762c-30 0 -52 9 -77 20c-29 12 -52 22 -78 22c-23 0 -38 -8 -59 -25l-52 68c24 36 61 64 114 64c30 0 52 -9 77 -20c29 -12 52 -22 78 -22c23 0 38 8 59 25l52 -68c-24 -36 -61 -64 -114 -64zM357 -12c-185 0 -307 124 -307 361s122 361 307 361s307 -124 307 -361
s-122 -361 -307 -361zM357 123c91 0 146 63 146 174v104c0 111 -55 174 -146 174s-146 -63 -146 -174v-104c0 -111 55 -174 146 -174z" />
    <glyph glyph-name="Odieresis" unicode="&#xd6;" horiz-adv-x="714" 
d="M247 761c-60 0 -80 28 -80 63v25c0 35 20 63 80 63s80 -28 80 -63v-25c0 -35 -20 -63 -80 -63zM467 761c-60 0 -80 28 -80 63v25c0 35 20 63 80 63s80 -28 80 -63v-25c0 -35 -20 -63 -80 -63zM357 -12c-185 0 -307 124 -307 361s122 361 307 361s307 -124 307 -361
s-122 -361 -307 -361zM357 123c91 0 146 63 146 174v104c0 111 -55 174 -146 174s-146 -63 -146 -174v-104c0 -111 55 -174 146 -174z" />
    <glyph glyph-name="multiply" unicode="&#xd7;" 
d="M439 71l-139 146l-139 -146l-82 82l139 146l-139 146l82 82l139 -146l139 146l82 -82l-139 -146l139 -146z" />
    <glyph glyph-name="Oslash" unicode="&#xd8;" horiz-adv-x="714" 
d="M357 -12c-56 0 -107 12 -150 34l-53 -78l-92 59l61 90c-47 60 -73 146 -73 256c0 237 122 361 307 361c56 0 107 -12 150 -34l53 78l92 -59l-61 -90c47 -60 73 -146 73 -256c0 -237 -122 -361 -307 -361zM204 294c0 -31 4 -59 12 -83l223 354c-22 14 -50 21 -82 21
c-96 0 -153 -66 -153 -182v-110zM510 404c0 31 -4 59 -12 83l-223 -354c22 -14 50 -21 82 -21c96 0 153 66 153 182v110z" />
    <glyph glyph-name="Ugrave" unicode="&#xd9;" horiz-adv-x="694" 
d="M331 740l-134 176l123 61l99 -194zM73 698h148v-428c0 -98 36 -147 126 -147s126 49 126 147v428h148v-412c0 -206 -74 -298 -274 -298s-274 92 -274 298v412z" />
    <glyph glyph-name="Uacute" unicode="&#xda;" horiz-adv-x="694" 
d="M497 916l-134 -176l-88 43l99 194zM73 698h148v-428c0 -98 36 -147 126 -147s126 49 126 147v428h148v-412c0 -206 -74 -298 -274 -298s-274 92 -274 298v412z" />
    <glyph glyph-name="Ucircumflex" unicode="&#xdb;" horiz-adv-x="694" 
d="M285 956h124l132 -159l-73 -58l-121 115l-121 -115l-73 58zM73 698h148v-428c0 -98 36 -147 126 -147s126 49 126 147v428h148v-412c0 -206 -74 -298 -274 -298s-274 92 -274 298v412z" />
    <glyph glyph-name="Udieresis" unicode="&#xdc;" horiz-adv-x="694" 
d="M237 761c-60 0 -80 28 -80 63v25c0 35 20 63 80 63s80 -28 80 -63v-25c0 -35 -20 -63 -80 -63zM457 761c-60 0 -80 28 -80 63v25c0 35 20 63 80 63s80 -28 80 -63v-25c0 -35 -20 -63 -80 -63zM73 698h148v-428c0 -98 36 -147 126 -147s126 49 126 147v428h148v-412
c0 -206 -74 -298 -274 -298s-274 92 -274 298v412z" />
    <glyph glyph-name="Yacute" unicode="&#xdd;" horiz-adv-x="649" 
d="M475 916l-134 -176l-88 43l99 194zM401 0h-153v273l-239 425h170l150 -278h2l144 278h165l-239 -424v-274z" />
    <glyph glyph-name="Thorn" unicode="&#xde;" horiz-adv-x="656" 
d="M229 0h-152v698h152v-120h178c130 0 212 -93 212 -223s-82 -223 -212 -223h-178v-132zM229 446v-182h160c45 0 73 24 73 69v44c0 45 -28 69 -73 69h-160z" />
    <glyph glyph-name="germandbls" unicode="&#xdf;" horiz-adv-x="692" 
d="M667 173c0 -114 -80 -185 -194 -185c-84 0 -147 23 -186 75l84 86c30 -36 62 -51 100 -51c36 0 60 20 60 57c0 34 -20 49 -66 64l-31 10c-69 22 -112 64 -112 145c0 80 52 135 141 155v2c0 77 -37 111 -110 111s-110 -34 -110 -111v-531h-148v410h-74v115h74v4
c0 140 104 223 254 223s250 -81 250 -221v-97h-56c-62 0 -85 -12 -85 -47c0 -32 20 -42 62 -56l31 -10c72 -23 116 -66 116 -148z" />
    <glyph glyph-name="agrave" unicode="&#xe0;" horiz-adv-x="569" 
d="M252 579l-134 176l123 61l99 -194zM539 0h-82c-53 0 -91 36 -100 92h-6c-16 -68 -74 -104 -154 -104c-105 0 -163 62 -163 153c0 111 86 164 225 164h83v33c0 51 -25 83 -87 83c-59 0 -90 -30 -113 -62l-88 78c42 62 102 100 212 100c148 0 224 -68 224 -192v-230h49
v-115zM252 91c49 0 90 20 90 68v62h-72c-57 0 -87 -21 -87 -59v-15c0 -38 25 -56 69 -56z" />
    <glyph glyph-name="aacute" unicode="&#xe1;" horiz-adv-x="569" 
d="M418 755l-134 -176l-88 43l99 194zM539 0h-82c-53 0 -91 36 -100 92h-6c-16 -68 -74 -104 -154 -104c-105 0 -163 62 -163 153c0 111 86 164 225 164h83v33c0 51 -25 83 -87 83c-59 0 -90 -30 -113 -62l-88 78c42 62 102 100 212 100c148 0 224 -68 224 -192v-230h49
v-115zM252 91c49 0 90 20 90 68v62h-72c-57 0 -87 -21 -87 -59v-15c0 -38 25 -56 69 -56z" />
    <glyph glyph-name="acircumflex" unicode="&#xe2;" horiz-adv-x="569" 
d="M206 795h124l132 -159l-73 -58l-121 115l-121 -115l-73 58zM539 0h-82c-53 0 -91 36 -100 92h-6c-16 -68 -74 -104 -154 -104c-105 0 -163 62 -163 153c0 111 86 164 225 164h83v33c0 51 -25 83 -87 83c-59 0 -90 -30 -113 -62l-88 78c42 62 102 100 212 100
c148 0 224 -68 224 -192v-230h49v-115zM252 91c49 0 90 20 90 68v62h-72c-57 0 -87 -21 -87 -59v-15c0 -38 25 -56 69 -56z" />
    <glyph glyph-name="atilde" unicode="&#xe3;" horiz-adv-x="569" 
d="M344 601c-30 0 -52 9 -77 20c-29 12 -52 22 -78 22c-23 0 -38 -8 -59 -25l-52 68c24 36 61 64 114 64c30 0 52 -9 77 -20c29 -12 52 -22 78 -22c23 0 38 8 59 25l52 -68c-24 -36 -61 -64 -114 -64zM539 0h-82c-53 0 -91 36 -100 92h-6c-16 -68 -74 -104 -154 -104
c-105 0 -163 62 -163 153c0 111 86 164 225 164h83v33c0 51 -25 83 -87 83c-59 0 -90 -30 -113 -62l-88 78c42 62 102 100 212 100c148 0 224 -68 224 -192v-230h49v-115zM252 91c49 0 90 20 90 68v62h-72c-57 0 -87 -21 -87 -59v-15c0 -38 25 -56 69 -56z" />
    <glyph glyph-name="adieresis" unicode="&#xe4;" horiz-adv-x="569" 
d="M158 600c-60 0 -80 28 -80 63v25c0 35 20 63 80 63s80 -28 80 -63v-25c0 -35 -20 -63 -80 -63zM378 600c-60 0 -80 28 -80 63v25c0 35 20 63 80 63s80 -28 80 -63v-25c0 -35 -20 -63 -80 -63zM539 0h-82c-53 0 -91 36 -100 92h-6c-16 -68 -74 -104 -154 -104
c-105 0 -163 62 -163 153c0 111 86 164 225 164h83v33c0 51 -25 83 -87 83c-59 0 -90 -30 -113 -62l-88 78c42 62 102 100 212 100c148 0 224 -68 224 -192v-230h49v-115zM252 91c49 0 90 20 90 68v62h-72c-57 0 -87 -21 -87 -59v-15c0 -38 25 -56 69 -56z" />
    <glyph glyph-name="aring" unicode="&#xe5;" horiz-adv-x="569" 
d="M268 558c-83 0 -148 60 -148 143s65 143 148 143s148 -60 148 -143s-65 -143 -148 -143zM268 633c33 0 51 19 51 51v34c0 32 -18 51 -51 51s-51 -19 -51 -51v-34c0 -32 18 -51 51 -51zM539 0h-82c-53 0 -91 36 -100 92h-6c-16 -68 -74 -104 -154 -104
c-105 0 -163 62 -163 153c0 111 86 164 225 164h83v33c0 51 -25 83 -87 83c-59 0 -90 -30 -113 -62l-88 78c42 62 102 100 212 100c148 0 224 -68 224 -192v-230h49v-115zM252 91c49 0 90 20 90 68v62h-72c-57 0 -87 -21 -87 -59v-15c0 -38 25 -56 69 -56z" />
    <glyph glyph-name="ae" unicode="&#xe6;" horiz-adv-x="864" 
d="M342 225h-72c-53 0 -87 -21 -87 -59v-14c0 -39 23 -61 71 -61c46 0 88 20 88 68v66zM491 312h184v9c0 64 -29 107 -88 107s-96 -43 -96 -108v-8zM610 106c61 0 100 31 129 61l74 -92c-47 -54 -124 -87 -220 -87c-99 0 -176 45 -204 103h-6c-22 -57 -75 -103 -185 -103
c-106 0 -164 66 -164 156c0 113 94 168 225 168h83v26c0 51 -25 83 -87 83c-59 0 -90 -30 -113 -62l-88 78c42 62 102 100 212 100c64 0 115 -22 148 -74h6c32 50 93 74 168 74c174 0 240 -126 240 -268v-44h-338v-8c0 -68 44 -111 120 -111z" />
    <glyph glyph-name="ccedilla" unicode="&#xe7;" horiz-adv-x="517" 
d="M281 537c106 0 179 -51 210 -137l-120 -52c-9 40 -38 72 -90 72c-60 0 -91 -43 -91 -109v-98c0 -66 31 -108 91 -108c59 0 83 36 98 78l115 -50c-34 -97 -106 -142 -203 -145l-9 -43l4 -4c16 4 32 7 48 7c40 0 73 -20 73 -69c0 -68 -64 -91 -132 -91
c-69 0 -107 24 -124 44l46 56c13 -16 35 -29 66 -29c25 0 44 8 44 25c0 15 -13 34 -75 40l-21 2l14 67c-122 23 -189 123 -189 270c0 168 87 274 245 274z" />
    <glyph glyph-name="egrave" unicode="&#xe8;" horiz-adv-x="562" 
d="M271 579l-134 176l123 61l99 -194zM288 -12c-161 0 -252 107 -252 275c0 166 88 274 246 274c174 0 244 -126 244 -268v-44h-337v-8c0 -69 37 -113 116 -113c62 0 96 29 129 63l74 -92c-47 -54 -124 -87 -220 -87zM285 428c-59 0 -96 -43 -96 -108v-8h184v9
c0 64 -29 107 -88 107z" />
    <glyph glyph-name="eacute" unicode="&#xe9;" horiz-adv-x="562" 
d="M437 755l-134 -176l-88 43l99 194zM288 -12c-161 0 -252 107 -252 275c0 166 88 274 246 274c174 0 244 -126 244 -268v-44h-337v-8c0 -69 37 -113 116 -113c62 0 96 29 129 63l74 -92c-47 -54 -124 -87 -220 -87zM285 428c-59 0 -96 -43 -96 -108v-8h184v9
c0 64 -29 107 -88 107z" />
    <glyph glyph-name="ecircumflex" unicode="&#xea;" horiz-adv-x="562" 
d="M225 795h124l132 -159l-73 -58l-121 115l-121 -115l-73 58zM288 -12c-161 0 -252 107 -252 275c0 166 88 274 246 274c174 0 244 -126 244 -268v-44h-337v-8c0 -69 37 -113 116 -113c62 0 96 29 129 63l74 -92c-47 -54 -124 -87 -220 -87zM285 428
c-59 0 -96 -43 -96 -108v-8h184v9c0 64 -29 107 -88 107z" />
    <glyph glyph-name="edieresis" unicode="&#xeb;" horiz-adv-x="562" 
d="M177 600c-60 0 -80 28 -80 63v25c0 35 20 63 80 63s80 -28 80 -63v-25c0 -35 -20 -63 -80 -63zM397 600c-60 0 -80 28 -80 63v25c0 35 20 63 80 63s80 -28 80 -63v-25c0 -35 -20 -63 -80 -63zM288 -12c-161 0 -252 107 -252 275c0 166 88 274 246 274
c174 0 244 -126 244 -268v-44h-337v-8c0 -69 37 -113 116 -113c62 0 96 29 129 63l74 -92c-47 -54 -124 -87 -220 -87zM285 428c-59 0 -96 -43 -96 -108v-8h184v9c0 64 -29 107 -88 107z" />
    <glyph glyph-name="igrave" unicode="&#xec;" horiz-adv-x="286" 
d="M127 579l-134 176l123 61l99 -194zM217 0h-148v525h148v-525z" />
    <glyph glyph-name="iacute" unicode="&#xed;" horiz-adv-x="286" 
d="M293 755l-134 -176l-88 43l99 194zM217 0h-148v525h148v-525z" />
    <glyph glyph-name="icircumflex" unicode="&#xee;" horiz-adv-x="286" 
d="M81 795h124l132 -159l-73 -58l-121 115l-121 -115l-73 58zM217 0h-148v525h148v-525z" />
    <glyph glyph-name="idieresis" unicode="&#xef;" horiz-adv-x="286" 
d="M33 600c-60 0 -80 28 -80 63v25c0 35 20 63 80 63s80 -28 80 -63v-25c0 -35 -20 -63 -80 -63zM253 600c-60 0 -80 28 -80 63v25c0 35 20 63 80 63s80 -28 80 -63v-25c0 -35 -20 -63 -80 -63zM217 0h-148v525h148v-525z" />
    <glyph glyph-name="eth" unicode="&#xf0;" horiz-adv-x="603" 
d="M429 753l50 -60l-73 -44c96 -100 149 -227 149 -371c0 -203 -103 -290 -254 -290c-163 0 -260 101 -260 265c0 149 79 247 198 247c74 0 124 -38 156 -98l7 3c-18 63 -58 122 -112 176l-89 -53l-51 60l80 47c-49 40 -103 75 -159 105h226c17 -11 33 -24 49 -36zM298 98
c64 0 104 42 104 118v54c0 76 -40 118 -104 118s-104 -42 -104 -118v-54c0 -76 40 -118 104 -118z" />
    <glyph glyph-name="ntilde" unicode="&#xf1;" horiz-adv-x="596" 
d="M375 601c-30 0 -52 9 -77 20c-29 12 -52 22 -78 22c-23 0 -38 -8 -59 -25l-52 68c24 36 61 64 114 64c30 0 52 -9 77 -20c29 -12 52 -22 78 -22c23 0 38 8 59 25l52 -68c-24 -36 -61 -64 -114 -64zM217 0h-148v525h148v-89h6c19 55 63 101 146 101
c107 0 164 -76 164 -208v-329h-148v317c0 67 -19 100 -73 100c-48 0 -95 -25 -95 -77v-340z" />
    <glyph glyph-name="ograve" unicode="&#xf2;" horiz-adv-x="564" 
d="M265 579l-134 176l123 61l99 -194zM282 -12c-154 0 -246 106 -246 275s92 274 246 274s246 -105 246 -274s-92 -275 -246 -275zM282 105c58 0 92 38 92 104v107c0 66 -34 104 -92 104s-92 -38 -92 -104v-107c0 -66 34 -104 92 -104z" />
    <glyph glyph-name="oacute" unicode="&#xf3;" horiz-adv-x="564" 
d="M431 755l-134 -176l-88 43l99 194zM282 -12c-154 0 -246 106 -246 275s92 274 246 274s246 -105 246 -274s-92 -275 -246 -275zM282 105c58 0 92 38 92 104v107c0 66 -34 104 -92 104s-92 -38 -92 -104v-107c0 -66 34 -104 92 -104z" />
    <glyph glyph-name="ocircumflex" unicode="&#xf4;" horiz-adv-x="564" 
d="M219 795h124l132 -159l-73 -58l-121 115l-121 -115l-73 58zM282 -12c-154 0 -246 106 -246 275s92 274 246 274s246 -105 246 -274s-92 -275 -246 -275zM282 105c58 0 92 38 92 104v107c0 66 -34 104 -92 104s-92 -38 -92 -104v-107c0 -66 34 -104 92 -104z" />
    <glyph glyph-name="otilde" unicode="&#xf5;" horiz-adv-x="564" 
d="M357 601c-30 0 -52 9 -77 20c-29 12 -52 22 -78 22c-23 0 -38 -8 -59 -25l-52 68c24 36 61 64 114 64c30 0 52 -9 77 -20c29 -12 52 -22 78 -22c23 0 38 8 59 25l52 -68c-24 -36 -61 -64 -114 -64zM282 -12c-154 0 -246 106 -246 275s92 274 246 274s246 -105 246 -274
s-92 -275 -246 -275zM282 105c58 0 92 38 92 104v107c0 66 -34 104 -92 104s-92 -38 -92 -104v-107c0 -66 34 -104 92 -104z" />
    <glyph glyph-name="odieresis" unicode="&#xf6;" horiz-adv-x="564" 
d="M171 600c-60 0 -80 28 -80 63v25c0 35 20 63 80 63s80 -28 80 -63v-25c0 -35 -20 -63 -80 -63zM391 600c-60 0 -80 28 -80 63v25c0 35 20 63 80 63s80 -28 80 -63v-25c0 -35 -20 -63 -80 -63zM282 -12c-154 0 -246 106 -246 275s92 274 246 274s246 -105 246 -274
s-92 -275 -246 -275zM282 105c58 0 92 38 92 104v107c0 66 -34 104 -92 104s-92 -38 -92 -104v-107c0 -66 34 -104 92 -104z" />
    <glyph glyph-name="divide" unicode="&#xf7;" 
d="M532 247h-465v118h465v-118zM300 28c-62 0 -87 32 -87 69v24c0 37 25 69 87 69s87 -32 87 -69v-24c0 -37 -25 -69 -87 -69zM300 420c-62 0 -87 32 -87 69v24c0 37 25 69 87 69s87 -32 87 -69v-24c0 -37 -25 -69 -87 -69z" />
    <glyph glyph-name="oslash" unicode="&#xf8;" horiz-adv-x="572" 
d="M94 -50l-80 60l67 83c-27 45 -41 102 -41 170c0 169 92 274 246 274c51 0 95 -12 132 -34l60 72l80 -60l-68 -84c28 -44 42 -102 42 -169c0 -169 -92 -274 -246 -274c-51 0 -96 12 -132 33zM286 96c61 0 97 47 97 118v98l-161 -193c16 -15 38 -23 64 -23zM189 311v-97
l160 192c-16 15 -38 23 -63 23c-61 0 -97 -47 -97 -118z" />
    <glyph glyph-name="ugrave" unicode="&#xf9;" horiz-adv-x="596" 
d="M279 579l-134 176l123 61l99 -194zM379 0v88h-5c-18 -53 -61 -100 -147 -100c-107 0 -164 75 -164 207v330h148v-317c0 -64 21 -100 75 -100c46 0 93 26 93 76v341h148v-525h-148z" />
    <glyph glyph-name="uacute" unicode="&#xfa;" horiz-adv-x="596" 
d="M445 755l-134 -176l-88 43l99 194zM379 0v88h-5c-18 -53 -61 -100 -147 -100c-107 0 -164 75 -164 207v330h148v-317c0 -64 21 -100 75 -100c46 0 93 26 93 76v341h148v-525h-148z" />
    <glyph glyph-name="ucircumflex" unicode="&#xfb;" horiz-adv-x="596" 
d="M233 795h124l132 -159l-73 -58l-121 115l-121 -115l-73 58zM379 0v88h-5c-18 -53 -61 -100 -147 -100c-107 0 -164 75 -164 207v330h148v-317c0 -64 21 -100 75 -100c46 0 93 26 93 76v341h148v-525h-148z" />
    <glyph glyph-name="udieresis" unicode="&#xfc;" horiz-adv-x="596" 
d="M185 600c-60 0 -80 28 -80 63v25c0 35 20 63 80 63s80 -28 80 -63v-25c0 -35 -20 -63 -80 -63zM405 600c-60 0 -80 28 -80 63v25c0 35 20 63 80 63s80 -28 80 -63v-25c0 -35 -20 -63 -80 -63zM379 0v88h-5c-18 -53 -61 -100 -147 -100c-107 0 -164 75 -164 207v330h148
v-317c0 -64 21 -100 75 -100c46 0 93 26 93 76v341h148v-525h-148z" />
    <glyph glyph-name="yacute" unicode="&#xfd;" horiz-adv-x="534" 
d="M421 755l-134 -176l-88 43l99 194zM313 280l77 245h138l-202 -606c-27 -81 -71 -119 -161 -119h-92v115h99l18 58l-184 552h147l77 -245l38 -152h6z" />
    <glyph glyph-name="thorn" unicode="&#xfe;" horiz-adv-x="608" 
d="M69 -200v940h148v-303h5c15 58 73 100 141 100c133 0 202 -96 202 -274s-69 -275 -202 -275c-68 0 -126 43 -141 100h-5v-288h-148zM314 108c56 0 97 43 97 109v91c0 66 -41 109 -97 109s-97 -29 -97 -77v-155c0 -48 41 -77 97 -77z" />
    <glyph glyph-name="ydieresis" unicode="&#xff;" horiz-adv-x="534" 
d="M161 600c-60 0 -80 28 -80 63v25c0 35 20 63 80 63s80 -28 80 -63v-25c0 -35 -20 -63 -80 -63zM381 600c-60 0 -80 28 -80 63v25c0 35 20 63 80 63s80 -28 80 -63v-25c0 -35 -20 -63 -80 -63zM313 280l77 245h138l-202 -606c-27 -81 -71 -119 -161 -119h-92v115h99l18 58
l-184 552h147l77 -245l38 -152h6z" />
    <glyph glyph-name="Amacron" unicode="&#x100;" horiz-adv-x="685" 
d="M186 785v103h306v-103h-306zM665 0h-158l-50 166h-233l-50 -166h-154l230 698h188zM420 295l-78 265h-5l-77 -265h160z" />
    <glyph glyph-name="amacron" unicode="&#x101;" horiz-adv-x="569" 
d="M115 624v103h306v-103h-306zM539 0h-82c-53 0 -91 36 -100 92h-6c-16 -68 -74 -104 -154 -104c-105 0 -163 62 -163 153c0 111 86 164 225 164h83v33c0 51 -25 83 -87 83c-59 0 -90 -30 -113 -62l-88 78c42 62 102 100 212 100c148 0 224 -68 224 -192v-230h49v-115z
M252 91c49 0 90 20 90 68v62h-72c-57 0 -87 -21 -87 -59v-15c0 -38 25 -56 69 -56z" />
    <glyph glyph-name="Abreve" unicode="&#x102;" horiz-adv-x="685" 
d="M339 740c-118 0 -166 98 -190 170l81 42l19 -32c29 -49 53 -77 90 -77s62 28 91 77l19 32l80 -42c-24 -72 -77 -170 -190 -170zM665 0h-158l-50 166h-233l-50 -166h-154l230 698h188zM420 295l-78 265h-5l-77 -265h160z" />
    <glyph glyph-name="abreve" unicode="&#x103;" horiz-adv-x="569" 
d="M268 579c-118 0 -165 98 -190 170l81 42l20 -33c29 -48 54 -76 89 -76s61 28 90 76l20 33l80 -42c-25 -72 -77 -170 -190 -170zM539 0h-82c-53 0 -91 36 -100 92h-6c-16 -68 -74 -104 -154 -104c-105 0 -163 62 -163 153c0 111 86 164 225 164h83v33c0 51 -25 83 -87 83
c-59 0 -90 -30 -113 -62l-88 78c42 62 102 100 212 100c148 0 224 -68 224 -192v-230h49v-115zM252 91c49 0 90 20 90 68v62h-72c-57 0 -87 -21 -87 -59v-15c0 -38 25 -56 69 -56z" />
    <glyph glyph-name="Aogonek" unicode="&#x104;" horiz-adv-x="685" 
d="M20 0l230 698h188l227 -698c-98 -60 -114 -81 -114 -105c0 -25 18 -33 38 -33c24 0 41 12 55 28l53 -51c-17 -32 -59 -51 -122 -51c-66 0 -124 21 -124 85c0 56 45 89 119 123l-1 4h-62l-50 166h-233l-50 -166h-154zM420 295l-78 265h-5l-77 -265h160z" />
    <glyph glyph-name="aogonek" unicode="&#x105;" horiz-adv-x="569" 
d="M539 116v-116c-98 -60 -114 -81 -114 -105c0 -25 18 -33 38 -33c24 0 41 12 55 28l53 -51c-17 -32 -59 -51 -122 -51c-66 0 -124 21 -124 85c0 56 45 89 119 123l-2 5c-45 6 -77 40 -85 91h-6c-16 -68 -74 -104 -154 -104c-105 0 -163 62 -163 153c0 111 86 164 225 164
h83v33c0 51 -25 83 -87 83c-59 0 -90 -30 -113 -62l-88 78c42 62 102 100 212 100c148 0 224 -68 224 -192v-229h49zM342 221h-72c-57 0 -87 -21 -87 -59v-15c0 -38 25 -56 69 -56c49 0 90 20 90 68v62z" />
    <glyph glyph-name="Cacute" unicode="&#x106;" horiz-adv-x="651" 
d="M505 916l-134 -176l-88 43l99 194zM359 -12c-188 0 -309 120 -309 356s121 366 309 366c128 0 210 -52 261 -164l-131 -68c-18 58 -55 97 -130 97c-89 0 -148 -60 -148 -170v-112c0 -110 59 -170 148 -170c75 0 118 47 139 104l124 -72c-52 -106 -135 -167 -263 -167z
" />
    <glyph glyph-name="cacute" unicode="&#x107;" horiz-adv-x="517" 
d="M424 755l-134 -176l-88 43l99 194zM281 -12c-158 0 -245 107 -245 275s87 274 245 274c106 0 179 -51 210 -137l-120 -52c-9 40 -38 72 -90 72c-60 0 -91 -43 -91 -109v-98c0 -66 31 -108 91 -108c59 0 83 36 98 78l115 -50c-35 -100 -110 -145 -213 -145z" />
    <glyph glyph-name="Ccircumflex" unicode="&#x108;" horiz-adv-x="651" 
d="M293 956h124l132 -159l-73 -58l-121 115l-121 -115l-73 58zM359 -12c-188 0 -309 120 -309 356s121 366 309 366c128 0 210 -52 261 -164l-131 -68c-18 58 -55 97 -130 97c-89 0 -148 -60 -148 -170v-112c0 -110 59 -170 148 -170c75 0 118 47 139 104l124 -72
c-52 -106 -135 -167 -263 -167z" />
    <glyph glyph-name="ccircumflex" unicode="&#x109;" horiz-adv-x="517" 
d="M212 795h124l132 -159l-73 -58l-121 115l-121 -115l-73 58zM281 -12c-158 0 -245 107 -245 275s87 274 245 274c106 0 179 -51 210 -137l-120 -52c-9 40 -38 72 -90 72c-60 0 -91 -43 -91 -109v-98c0 -66 31 -108 91 -108c59 0 83 36 98 78l115 -50
c-35 -100 -110 -145 -213 -145z" />
    <glyph glyph-name="Cdotaccent" unicode="&#x10a;" horiz-adv-x="651" 
d="M355 752c-66 0 -89 31 -89 70v29c0 39 23 70 89 70s89 -31 89 -70v-29c0 -39 -23 -70 -89 -70zM359 -12c-188 0 -309 120 -309 356s121 366 309 366c128 0 210 -52 261 -164l-131 -68c-18 58 -55 97 -130 97c-89 0 -148 -60 -148 -170v-112c0 -110 59 -170 148 -170
c75 0 118 47 139 104l124 -72c-52 -106 -135 -167 -263 -167z" />
    <glyph glyph-name="cdotaccent" unicode="&#x10b;" horiz-adv-x="517" 
d="M274 591c-66 0 -89 31 -89 70v29c0 39 23 70 89 70s89 -31 89 -70v-29c0 -39 -23 -70 -89 -70zM281 -12c-158 0 -245 107 -245 275s87 274 245 274c106 0 179 -51 210 -137l-120 -52c-9 40 -38 72 -90 72c-60 0 -91 -43 -91 -109v-98c0 -66 31 -108 91 -108
c59 0 83 36 98 78l115 -50c-35 -100 -110 -145 -213 -145z" />
    <glyph glyph-name="Ccaron" unicode="&#x10c;" horiz-adv-x="651" 
d="M417 748h-124l-132 159l73 58l121 -115l121 115l73 -58zM359 -12c-188 0 -309 120 -309 356s121 366 309 366c128 0 210 -52 261 -164l-131 -68c-18 58 -55 97 -130 97c-89 0 -148 -60 -148 -170v-112c0 -110 59 -170 148 -170c75 0 118 47 139 104l124 -72
c-52 -106 -135 -167 -263 -167z" />
    <glyph glyph-name="ccaron" unicode="&#x10d;" horiz-adv-x="517" 
d="M336 587h-124l-132 159l73 58l121 -115l121 115l73 -58zM281 -12c-158 0 -245 107 -245 275s87 274 245 274c106 0 179 -51 210 -137l-120 -52c-9 40 -38 72 -90 72c-60 0 -91 -43 -91 -109v-98c0 -66 31 -108 91 -108c59 0 83 36 98 78l115 -50
c-35 -100 -110 -145 -213 -145z" />
    <glyph glyph-name="Dcaron" unicode="&#x10e;" horiz-adv-x="697" 
d="M385 748h-124l-132 159l73 58l121 -115l121 115l73 -58zM77 0v698h263c185 0 307 -117 307 -349s-122 -349 -307 -349h-263zM229 135h111c90 0 146 49 146 160v108c0 111 -56 160 -146 160h-111v-428z" />
    <glyph glyph-name="dcaron" unicode="&#x10f;" horiz-adv-x="682" 
d="M765 740l-66 -215h-97l6 215h157zM391 0v88h-5c-15 -57 -73 -100 -141 -100c-133 0 -202 97 -202 275s69 274 202 274c68 0 126 -42 141 -100h5v303h148v-740h-148zM294 108c56 0 97 29 97 77v155c0 48 -41 77 -97 77s-97 -43 -97 -109v-91c0 -66 41 -109 97 -109z" />
    <glyph glyph-name="Dcroat" unicode="&#x110;" horiz-adv-x="702" 
d="M82 0v297h-75v114h75v287h263c185 0 307 -117 307 -349s-122 -349 -307 -349h-263zM234 135h111c90 0 146 49 146 160v108c0 111 -56 160 -146 160h-111v-152h119v-114h-119v-162z" />
    <glyph glyph-name="dcroat" unicode="&#x111;" horiz-adv-x="611" 
d="M391 0v88h-5c-15 -57 -73 -100 -141 -100c-133 0 -202 97 -202 275s69 274 202 274c68 0 126 -42 141 -100h5v153h-141v100h141v50h148v-50h61v-100h-61v-590h-148zM294 108c56 0 97 29 97 77v155c0 48 -41 77 -97 77s-97 -43 -97 -109v-91c0 -66 41 -109 97 -109z" />
    <glyph glyph-name="Emacron" unicode="&#x112;" horiz-adv-x="607" 
d="M162 785v103h306v-103h-306zM552 0h-475v698h475v-135h-323v-143h277v-134h-277v-151h323v-135z" />
    <glyph glyph-name="emacron" unicode="&#x113;" horiz-adv-x="562" 
d="M134 624v103h306v-103h-306zM288 -12c-161 0 -252 107 -252 275c0 166 88 274 246 274c174 0 244 -126 244 -268v-44h-337v-8c0 -69 37 -113 116 -113c62 0 96 29 129 63l74 -92c-47 -54 -124 -87 -220 -87zM285 428c-59 0 -96 -43 -96 -108v-8h184v9
c0 64 -29 107 -88 107z" />
    <glyph glyph-name="Ebreve" unicode="&#x114;" horiz-adv-x="607" 
d="M315 740c-118 0 -166 98 -190 170l81 42l19 -32c29 -49 53 -77 90 -77s62 28 91 77l19 32l80 -42c-24 -72 -77 -170 -190 -170zM552 0h-475v698h475v-135h-323v-143h277v-134h-277v-151h323v-135z" />
    <glyph glyph-name="ebreve" unicode="&#x115;" horiz-adv-x="562" 
d="M287 579c-118 0 -165 98 -190 170l81 42l20 -33c29 -48 54 -76 89 -76s61 28 90 76l20 33l80 -42c-25 -72 -77 -170 -190 -170zM288 -12c-161 0 -252 107 -252 275c0 166 88 274 246 274c174 0 244 -126 244 -268v-44h-337v-8c0 -69 37 -113 116 -113c62 0 96 29 129 63
l74 -92c-47 -54 -124 -87 -220 -87zM285 428c-59 0 -96 -43 -96 -108v-8h184v9c0 64 -29 107 -88 107z" />
    <glyph glyph-name="Edotaccent" unicode="&#x116;" horiz-adv-x="607" 
d="M315 752c-66 0 -89 31 -89 70v29c0 39 23 70 89 70s89 -31 89 -70v-29c0 -39 -23 -70 -89 -70zM552 0h-475v698h475v-135h-323v-143h277v-134h-277v-151h323v-135z" />
    <glyph glyph-name="edotaccent" unicode="&#x117;" horiz-adv-x="562" 
d="M287 591c-66 0 -89 31 -89 70v29c0 39 23 70 89 70s89 -31 89 -70v-29c0 -39 -23 -70 -89 -70zM288 -12c-161 0 -252 107 -252 275c0 166 88 274 246 274c174 0 244 -126 244 -268v-44h-337v-8c0 -69 37 -113 116 -113c62 0 96 29 129 63l74 -92
c-47 -54 -124 -87 -220 -87zM285 428c-59 0 -96 -43 -96 -108v-8h184v9c0 64 -29 107 -88 107z" />
    <glyph glyph-name="Eogonek" unicode="&#x118;" horiz-adv-x="607" 
d="M77 0v698h475v-135h-323v-143h277v-134h-277v-151h323v-135c-98 -60 -113 -81 -113 -105c0 -25 18 -33 38 -33c24 0 41 12 55 28l53 -51c-17 -32 -59 -51 -122 -51c-66 0 -124 21 -124 85c0 56 45 89 119 123l-1 4h-380z" />
    <glyph glyph-name="eogonek" unicode="&#x119;" horiz-adv-x="562" 
d="M336 -212c-64 0 -122 21 -122 84c0 56 45 86 114 116l-1 4c-18 -4 -32 -4 -44 -4c-158 0 -247 107 -247 275c0 166 88 274 246 274c174 0 244 -126 244 -268v-44h-337v-8c0 -69 37 -113 118 -113c58 0 99 32 128 63l74 -92c-15 -17 -47 -41 -107 -85
c-58 -43 -89 -67 -89 -96c0 -23 18 -32 38 -32c23 0 40 12 54 28l52 -51c-17 -32 -58 -51 -121 -51zM189 312h184v9c0 64 -29 107 -88 107s-96 -43 -96 -108v-8z" />
    <glyph glyph-name="Ecaron" unicode="&#x11a;" horiz-adv-x="607" 
d="M377 748h-124l-132 159l73 58l121 -115l121 115l73 -58zM552 0h-475v698h475v-135h-323v-143h277v-134h-277v-151h323v-135z" />
    <glyph glyph-name="ecaron" unicode="&#x11b;" horiz-adv-x="562" 
d="M349 587h-124l-132 159l73 58l121 -115l121 115l73 -58zM288 -12c-161 0 -252 107 -252 275c0 166 88 274 246 274c174 0 244 -126 244 -268v-44h-337v-8c0 -69 37 -113 116 -113c62 0 96 29 129 63l74 -92c-47 -54 -124 -87 -220 -87zM285 428c-59 0 -96 -43 -96 -108
v-8h184v9c0 64 -29 107 -88 107z" />
    <glyph glyph-name="Gcircumflex" unicode="&#x11c;" horiz-adv-x="719" 
d="M296 956h124l132 -159l-73 -58l-121 115l-121 -115l-73 58zM520 0v111h-5c-10 -70 -74 -123 -179 -123c-160 0 -286 124 -286 358c0 235 127 364 316 364c124 0 217 -55 269 -162l-124 -71c-21 54 -64 98 -145 98c-94 0 -155 -54 -155 -170v-112c0 -116 61 -170 155 -170
c76 0 137 36 137 104v35h-130v127h275v-389h-128z" />
    <glyph glyph-name="gcircumflex" unicode="&#x11d;" horiz-adv-x="562" 
d="M216 795h124l132 -159l-73 -58l-121 115l-121 -115l-73 58zM555 -38c0 -111 -70 -174 -284 -174c-182 0 -249 46 -249 122c0 58 37 92 98 100v11c-50 9 -76 47 -76 92c0 55 49 83 98 93v4c-63 29 -94 82 -94 150c0 106 74 177 225 177c33 0 69 -3 99 -12h174v-99h-64
c11 -19 16 -42 16 -66c0 -105 -73 -174 -225 -174c-35 0 -66 4 -93 11c-14 -9 -23 -24 -23 -42c0 -25 18 -40 63 -40h152c128 0 183 -56 183 -153zM273 283c58 0 87 26 87 72v12c0 46 -29 72 -87 72s-87 -26 -87 -72v-12c0 -46 29 -72 87 -72zM416 -58c0 30 -22 47 -81 47
h-180c-13 -13 -19 -31 -19 -47c0 -38 30 -56 110 -56h60c80 0 110 18 110 56z" />
    <glyph glyph-name="Gbreve" unicode="&#x11e;" horiz-adv-x="719" 
d="M358 740c-118 0 -166 98 -190 170l81 42l19 -32c29 -49 53 -77 90 -77s62 28 91 77l19 32l80 -42c-24 -72 -77 -170 -190 -170zM520 0v111h-5c-10 -70 -74 -123 -179 -123c-160 0 -286 124 -286 358c0 235 127 364 316 364c124 0 217 -55 269 -162l-124 -71
c-21 54 -64 98 -145 98c-94 0 -155 -54 -155 -170v-112c0 -116 61 -170 155 -170c76 0 137 36 137 104v35h-130v127h275v-389h-128z" />
    <glyph glyph-name="gbreve" unicode="&#x11f;" horiz-adv-x="562" 
d="M278 579c-118 0 -165 98 -190 170l81 42l20 -33c29 -48 54 -76 89 -76s61 28 90 76l20 33l80 -42c-25 -72 -77 -170 -190 -170zM555 -38c0 -111 -70 -174 -284 -174c-182 0 -249 46 -249 122c0 58 37 92 98 100v11c-50 9 -76 47 -76 92c0 55 49 83 98 93v4
c-63 29 -94 82 -94 150c0 106 74 177 225 177c33 0 69 -3 99 -12h174v-99h-64c11 -19 16 -42 16 -66c0 -105 -73 -174 -225 -174c-35 0 -66 4 -93 11c-14 -9 -23 -24 -23 -42c0 -25 18 -40 63 -40h152c128 0 183 -56 183 -153zM273 283c58 0 87 26 87 72v12
c0 46 -29 72 -87 72s-87 -26 -87 -72v-12c0 -46 29 -72 87 -72zM416 -58c0 30 -22 47 -81 47h-180c-13 -13 -19 -31 -19 -47c0 -38 30 -56 110 -56h60c80 0 110 18 110 56z" />
    <glyph glyph-name="Gdotaccent" unicode="&#x120;" horiz-adv-x="719" 
d="M358 752c-66 0 -89 31 -89 70v29c0 39 23 70 89 70s89 -31 89 -70v-29c0 -39 -23 -70 -89 -70zM520 0v111h-5c-10 -70 -74 -123 -179 -123c-160 0 -286 124 -286 358c0 235 127 364 316 364c124 0 217 -55 269 -162l-124 -71c-21 54 -64 98 -145 98
c-94 0 -155 -54 -155 -170v-112c0 -116 61 -170 155 -170c76 0 137 36 137 104v35h-130v127h275v-389h-128z" />
    <glyph glyph-name="gdotaccent" unicode="&#x121;" horiz-adv-x="562" 
d="M274 591c-66 0 -89 31 -89 70v29c0 39 23 70 89 70s89 -31 89 -70v-29c0 -39 -23 -70 -89 -70zM555 -38c0 -111 -70 -174 -284 -174c-182 0 -249 46 -249 122c0 58 37 92 98 100v11c-50 9 -76 47 -76 92c0 55 49 83 98 93v4c-63 29 -94 82 -94 150c0 106 74 177 225 177
c33 0 69 -3 99 -12h174v-99h-64c11 -19 16 -42 16 -66c0 -105 -73 -174 -225 -174c-35 0 -66 4 -93 11c-14 -9 -23 -24 -23 -42c0 -25 18 -40 63 -40h152c128 0 183 -56 183 -153zM273 283c58 0 87 26 87 72v12c0 46 -29 72 -87 72s-87 -26 -87 -72v-12c0 -46 29 -72 87 -72
zM416 -58c0 30 -22 47 -81 47h-180c-13 -13 -19 -31 -19 -47c0 -38 30 -56 110 -56h60c80 0 110 18 110 56z" />
    <glyph glyph-name="Gcommaaccent" unicode="&#x122;" horiz-adv-x="719" 
d="M348 -42c44 0 70 -22 70 -62v-14c0 -61 -29 -124 -67 -157h-85c34 29 52 59 62 99c-38 3 -50 32 -50 61v11c0 40 26 62 70 62zM520 0v111h-5c-10 -70 -74 -123 -179 -123c-160 0 -286 124 -286 358c0 235 127 364 316 364c124 0 217 -55 269 -162l-124 -71
c-21 54 -64 98 -145 98c-94 0 -155 -54 -155 -170v-112c0 -116 61 -170 155 -170c76 0 137 36 137 104v35h-130v127h275v-389h-128z" />
    <glyph glyph-name="gcommaaccent" unicode="&#x123;" horiz-adv-x="562" 
d="M275 576c-44 0 -70 22 -70 62v14c0 61 29 124 67 157h85c-34 -29 -52 -59 -62 -99c38 -3 50 -32 50 -61v-11c0 -40 -26 -62 -70 -62zM555 -38c0 -111 -70 -174 -284 -174c-182 0 -249 46 -249 122c0 58 37 92 98 100v11c-50 9 -76 47 -76 92c0 55 49 83 98 93v4
c-63 29 -94 82 -94 150c0 106 74 177 225 177c33 0 69 -3 99 -12h174v-99h-64c11 -19 16 -42 16 -66c0 -105 -73 -174 -225 -174c-35 0 -66 4 -93 11c-14 -9 -23 -24 -23 -42c0 -25 18 -40 63 -40h152c128 0 183 -56 183 -153zM273 283c58 0 87 26 87 72v12
c0 46 -29 72 -87 72s-87 -26 -87 -72v-12c0 -46 29 -72 87 -72zM416 -58c0 30 -22 47 -81 47h-180c-13 -13 -19 -31 -19 -47c0 -38 30 -56 110 -56h60c80 0 110 18 110 56z" />
    <glyph glyph-name="Hcircumflex" unicode="&#x124;" horiz-adv-x="724" 
d="M300 956h124l132 -159l-73 -58l-121 115l-121 -115l-73 58zM495 0v286h-266v-286h-152v698h152v-278h266v278h152v-698h-152z" />
    <glyph glyph-name="hcircumflex" unicode="&#x125;" horiz-adv-x="596" 
d="M81 953h124l132 -159l-73 -58l-121 115l-121 -115l-73 58zM69 0v740h148v-304h6c19 55 63 101 146 101c107 0 164 -76 164 -208v-329h-148v317c0 67 -19 100 -73 100c-48 0 -95 -25 -95 -77v-340h-148z" />
    <glyph glyph-name="Hbar" unicode="&#x126;" horiz-adv-x="734" 
d="M500 0v286h-266v-286h-152v506h-74v114h74v78h152v-78h266v78h152v-78h74v-114h-74v-506h-152zM234 420h266v86h-266v-86z" />
    <glyph glyph-name="hbar" unicode="&#x127;" horiz-adv-x="596" 
d="M217 0h-148v590h-62v100h62v50h148v-50h140v-100h-140v-154h6c19 55 63 101 146 101c107 0 164 -76 164 -208v-329h-148v317c0 67 -19 100 -73 100c-48 0 -95 -25 -95 -77v-340z" />
    <glyph glyph-name="Itilde" unicode="&#x128;" horiz-adv-x="432" 
d="M292 762c-30 0 -52 9 -77 20c-29 12 -52 22 -78 22c-23 0 -38 -8 -59 -25l-52 68c24 36 61 64 114 64c30 0 52 -9 77 -20c29 -12 52 -22 78 -22c23 0 38 8 59 25l52 -68c-24 -36 -61 -64 -114 -64zM382 0h-332v121h90v456h-90v121h332v-121h-90v-456h90v-121z" />
    <glyph glyph-name="itilde" unicode="&#x129;" horiz-adv-x="286" 
d="M219 601c-30 0 -52 9 -77 20c-29 12 -52 22 -78 22c-23 0 -38 -8 -59 -25l-52 68c24 36 61 64 114 64c30 0 52 -9 77 -20c29 -12 52 -22 78 -22c23 0 38 8 59 25l52 -68c-24 -36 -61 -64 -114 -64zM217 0h-148v525h148v-525z" />
    <glyph glyph-name="Imacron" unicode="&#x12a;" horiz-adv-x="432" 
d="M63 785v103h306v-103h-306zM382 0h-332v121h90v456h-90v121h332v-121h-90v-456h90v-121z" />
    <glyph glyph-name="imacron" unicode="&#x12b;" horiz-adv-x="286" 
d="M-10 624v103h306v-103h-306zM217 0h-148v525h148v-525z" />
    <glyph glyph-name="Ibreve" unicode="&#x12c;" horiz-adv-x="432" 
d="M216 740c-118 0 -166 98 -190 170l81 42l19 -32c29 -49 53 -77 90 -77s62 28 91 77l19 32l80 -42c-24 -72 -77 -170 -190 -170zM382 0h-332v121h90v456h-90v121h332v-121h-90v-456h90v-121z" />
    <glyph glyph-name="ibreve" unicode="&#x12d;" horiz-adv-x="286" 
d="M143 579c-118 0 -165 98 -190 170l81 42l20 -33c29 -48 54 -76 89 -76s61 28 90 76l20 33l80 -42c-25 -72 -77 -170 -190 -170zM217 0h-148v525h148v-525z" />
    <glyph glyph-name="Iogonek" unicode="&#x12e;" horiz-adv-x="432" 
d="M50 0v121h90v456h-90v121h333v-121h-91v-456h91v-121c-98 -60 -114 -81 -114 -105c0 -25 18 -33 38 -33c24 0 41 12 55 28l53 -51c-17 -32 -59 -51 -122 -51c-66 0 -124 21 -124 85c0 56 45 89 119 123l-1 4h-237z" />
    <glyph glyph-name="iogonek" unicode="&#x12f;" horiz-adv-x="286" 
d="M69 0v525h148v-525c-98 -60 -114 -81 -114 -105c0 -25 18 -33 38 -33c24 0 41 12 55 28l53 -51c-17 -32 -59 -51 -122 -51c-66 0 -124 21 -124 85c0 56 45 89 119 123l-1 4h-52zM143 581c-60 0 -86 31 -86 73v22c0 42 26 73 86 73s86 -31 86 -73v-22
c0 -42 -26 -73 -86 -73z" />
    <glyph glyph-name="Idotaccent" unicode="&#x130;" horiz-adv-x="432" 
d="M216 752c-66 0 -89 31 -89 70v29c0 39 23 70 89 70s89 -31 89 -70v-29c0 -39 -23 -70 -89 -70zM382 0h-332v121h90v456h-90v121h332v-121h-90v-456h90v-121z" />
    <glyph glyph-name="dotlessi" unicode="&#x131;" horiz-adv-x="286" 
d="M217 0h-148v525h148v-525z" />
    <glyph glyph-name="IJ" unicode="&#x132;" horiz-adv-x="656" 
d="M330 -11c-148 0 -230 79 -250 196l142 28c11 -59 50 -91 107 -91c52 0 102 27 102 97v357h-88v122h240v-488c0 -136 -101 -221 -253 -221zM73 309v389h152v-389h-152z" />
    <glyph glyph-name="ij" unicode="&#x133;" horiz-adv-x="566" 
d="M349 -85v610h148v-581c0 -93 -45 -144 -148 -144h-78v115h78zM423 581c-60 0 -86 31 -86 73v22c0 42 26 73 86 73s86 -31 86 -73v-22c0 -42 -26 -73 -86 -73zM143 581c-60 0 -86 31 -86 73v22c0 42 26 73 86 73s86 -31 86 -73v-22c0 -42 -26 -73 -86 -73zM69 0v525h148
v-525h-148z" />
    <glyph glyph-name="Jcircumflex" unicode="&#x134;" horiz-adv-x="559" 
d="M241 956h124l132 -159l-73 -58l-121 115l-121 -115l-73 58zM122 698h364v-496c0 -128 -86 -213 -230 -213c-138 0 -211 79 -231 196l142 28c11 -59 40 -91 87 -91c44 0 80 27 80 87v367h-212v122z" />
    <glyph glyph-name="jcircumflex" unicode="&#x135;" horiz-adv-x="286" 
d="M81 795h124l132 -159l-73 -58l-121 115l-121 -115l-73 58zM-9 -200v115h78v610h148v-581c0 -93 -45 -144 -148 -144h-78z" />
    <glyph glyph-name="Kcommaaccent" unicode="&#x136;" horiz-adv-x="696" 
d="M364 -42c44 0 70 -22 70 -62v-14c0 -61 -29 -124 -67 -157h-85c34 29 52 59 62 99c-38 3 -50 32 -50 61v11c0 40 26 62 70 62zM505 0l-185 304l-91 -110v-194h-152v698h152v-332h6l99 135l157 197h172l-235 -287l256 -411h-179z" />
    <glyph glyph-name="kcommaaccent" unicode="&#x137;" horiz-adv-x="577" 
d="M323 -42c44 0 70 -22 70 -62v-14c0 -61 -29 -124 -67 -157h-85c34 29 52 59 62 99c-38 3 -50 32 -50 61v11c0 40 26 62 70 62zM69 0v740h148v-437h6l65 97l105 125h164l-175 -201l195 -324h-176l-118 222l-66 -74v-148h-148z" />
    <glyph glyph-name="kgreenlandic" unicode="&#x138;" horiz-adv-x="577" 
d="M404 0l-122 219l-65 -71v-148h-148v525h148v-222h6l69 93l113 129h166l-186 -205l192 -320h-173z" />
    <glyph glyph-name="Lacute" unicode="&#x139;" horiz-adv-x="530" 
d="M303 916l-134 -176l-88 43l99 194zM495 0h-418v698h152v-563h266v-135z" />
    <glyph glyph-name="lacute" unicode="&#x13a;" horiz-adv-x="303" 
d="M293 955l-134 -176l-88 43l99 194zM283 0h-67c-101 0 -147 51 -147 144v596h148v-625h66v-115z" />
    <glyph glyph-name="Lcommaaccent" unicode="&#x13b;" horiz-adv-x="530" 
d="M285 -42c44 0 70 -22 70 -62v-14c0 -61 -29 -124 -67 -157h-85c34 29 52 59 62 99c-38 3 -50 32 -50 61v11c0 40 26 62 70 62zM495 0h-418v698h152v-563h266v-135z" />
    <glyph glyph-name="lcommaaccent" unicode="&#x13c;" horiz-adv-x="303" 
d="M174 -42c44 0 70 -22 70 -62v-14c0 -61 -29 -124 -67 -157h-85c34 29 52 59 62 99c-38 3 -50 32 -50 61v11c0 40 26 62 70 62zM283 0h-67c-101 0 -147 51 -147 144v596h148v-625h66v-115z" />
    <glyph glyph-name="Lcaron" unicode="&#x13d;" horiz-adv-x="530" 
d="M464 740l-66 -215h-97l6 215h157zM495 0h-418v698h152v-563h266v-135z" />
    <glyph glyph-name="lcaron" unicode="&#x13e;" horiz-adv-x="360" 
d="M443 740l-66 -215h-97l6 215h157zM283 0h-67c-101 0 -147 51 -147 144v596h148v-625h66v-115z" />
    <glyph glyph-name="Ldot" unicode="&#x13f;" horiz-adv-x="530" 
d="M414 321c-66 0 -89 31 -89 70v29c0 39 23 70 89 70s89 -31 89 -70v-29c0 -39 -23 -70 -89 -70zM495 0h-418v698h152v-563h266v-135z" />
    <glyph glyph-name="ldot" unicode="&#x140;" horiz-adv-x="448" 
d="M363 273c-66 0 -89 31 -89 70v29c0 39 23 70 89 70s89 -31 89 -70v-29c0 -39 -23 -70 -89 -70zM283 0h-67c-101 0 -147 51 -147 144v596h148v-625h66v-115z" />
    <glyph glyph-name="Lslash" unicode="&#x141;" horiz-adv-x="540" 
d="M500 135v-135h-418v243l-89 -29v113l89 29v342h152v-294l158 51v-113l-158 -51v-156h266z" />
    <glyph glyph-name="lslash" unicode="&#x142;" horiz-adv-x="314" 
d="M289 115v-115h-67c-101 0 -147 51 -147 144v151l-77 -25v109l77 25v336h148v-288l104 34v-109l-104 -34v-228h66z" />
    <glyph glyph-name="Nacute" unicode="&#x143;" horiz-adv-x="724" 
d="M511 916l-134 -176l-88 43l99 194zM481 0l-191 330l-67 140h-3v-470h-143v698h166l191 -330l67 -140h3v470h143v-698h-166z" />
    <glyph glyph-name="nacute" unicode="&#x144;" horiz-adv-x="596" 
d="M449 755l-134 -176l-88 43l99 194zM217 0h-148v525h148v-89h6c19 55 63 101 146 101c107 0 164 -76 164 -208v-329h-148v317c0 67 -19 100 -73 100c-48 0 -95 -25 -95 -77v-340z" />
    <glyph glyph-name="Ncommaaccent" unicode="&#x145;" horiz-adv-x="724" 
d="M360 -42c44 0 70 -22 70 -62v-14c0 -61 -29 -124 -67 -157h-85c34 29 52 59 62 99c-38 3 -50 32 -50 61v11c0 40 26 62 70 62zM481 0l-191 330l-67 140h-3v-470h-143v698h166l191 -330l67 -140h3v470h143v-698h-166z" />
    <glyph glyph-name="ncommaaccent" unicode="&#x146;" horiz-adv-x="596" 
d="M301 -42c44 0 70 -22 70 -62v-14c0 -61 -29 -124 -67 -157h-85c34 29 52 59 62 99c-38 3 -50 32 -50 61v11c0 40 26 62 70 62zM217 0h-148v525h148v-89h6c19 55 63 101 146 101c107 0 164 -76 164 -208v-329h-148v317c0 67 -19 100 -73 100c-48 0 -95 -25 -95 -77v-340z
" />
    <glyph glyph-name="Ncaron" unicode="&#x147;" horiz-adv-x="724" 
d="M423 748h-124l-132 159l73 58l121 -115l121 115l73 -58zM481 0l-191 330l-67 140h-3v-470h-143v698h166l191 -330l67 -140h3v470h143v-698h-166z" />
    <glyph glyph-name="ncaron" unicode="&#x148;" horiz-adv-x="596" 
d="M361 587h-124l-132 159l73 58l121 -115l121 115l73 -58zM217 0h-148v525h148v-89h6c19 55 63 101 146 101c107 0 164 -76 164 -208v-329h-148v317c0 67 -19 100 -73 100c-48 0 -95 -25 -95 -77v-340z" />
    <glyph glyph-name="napostrophe" unicode="&#x149;" horiz-adv-x="886" 
d="M507 0h-148v525h148v-89h6c19 55 63 101 146 101c107 0 164 -76 164 -208v-329h-148v317c0 67 -19 100 -73 100c-48 0 -95 -25 -95 -77v-340zM152 750c60 0 86 -31 86 -72v-21c0 -78 -48 -160 -109 -207h-93c44 40 76 80 92 130c-43 8 -62 38 -62 73v25c0 41 26 72 86 72
z" />
    <glyph glyph-name="Eng" unicode="&#x14a;" horiz-adv-x="724" 
d="M220 0h-143v698h166l191 -330l67 -140h3v470h143v-754c0 -93 -46 -144 -148 -144h-79v115h84v85h-23l-191 330l-67 140h-3v-470z" />
    <glyph glyph-name="eng" unicode="&#x14b;" horiz-adv-x="596" 
d="M307 -200v115h78v402c0 67 -19 100 -73 100c-48 0 -95 -24 -95 -77v-340h-148v525h148v-89h6c19 55 63 101 146 101c107 0 164 -76 164 -208v-385c0 -93 -45 -144 -147 -144h-79z" />
    <glyph glyph-name="Omacron" unicode="&#x14c;" horiz-adv-x="714" 
d="M204 785v103h306v-103h-306zM357 -12c-185 0 -307 124 -307 361s122 361 307 361s307 -124 307 -361s-122 -361 -307 -361zM357 123c91 0 146 63 146 174v104c0 111 -55 174 -146 174s-146 -63 -146 -174v-104c0 -111 55 -174 146 -174z" />
    <glyph glyph-name="omacron" unicode="&#x14d;" horiz-adv-x="564" 
d="M128 624v103h306v-103h-306zM282 -12c-154 0 -246 106 -246 275s92 274 246 274s246 -105 246 -274s-92 -275 -246 -275zM282 105c58 0 92 38 92 104v107c0 66 -34 104 -92 104s-92 -38 -92 -104v-107c0 -66 34 -104 92 -104z" />
    <glyph glyph-name="Obreve" unicode="&#x14e;" horiz-adv-x="714" 
d="M357 740c-118 0 -166 98 -190 170l81 42l19 -32c29 -49 53 -77 90 -77s62 28 91 77l19 32l80 -42c-24 -72 -77 -170 -190 -170zM357 -12c-185 0 -307 124 -307 361s122 361 307 361s307 -124 307 -361s-122 -361 -307 -361zM357 123c91 0 146 63 146 174v104
c0 111 -55 174 -146 174s-146 -63 -146 -174v-104c0 -111 55 -174 146 -174z" />
    <glyph glyph-name="obreve" unicode="&#x14f;" horiz-adv-x="564" 
d="M281 579c-118 0 -165 98 -190 170l81 42l20 -33c29 -48 54 -76 89 -76s61 28 90 76l20 33l80 -42c-25 -72 -77 -170 -190 -170zM282 -12c-154 0 -246 106 -246 275s92 274 246 274s246 -105 246 -274s-92 -275 -246 -275zM282 105c58 0 92 38 92 104v107
c0 66 -34 104 -92 104s-92 -38 -92 -104v-107c0 -66 34 -104 92 -104z" />
    <glyph glyph-name="Ohungarumlaut" unicode="&#x150;" horiz-adv-x="714" 
d="M401 916l-134 -176l-81 39l99 194zM606 916l-134 -176l-81 39l99 194zM357 -12c-185 0 -307 124 -307 361s122 361 307 361s307 -124 307 -361s-122 -361 -307 -361zM357 123c91 0 146 63 146 174v104c0 111 -55 174 -146 174s-146 -63 -146 -174v-104
c0 -111 55 -174 146 -174z" />
    <glyph glyph-name="ohungarumlaut" unicode="&#x151;" horiz-adv-x="564" 
d="M325 755l-134 -176l-81 39l99 194zM530 755l-134 -176l-81 39l99 194zM282 -12c-154 0 -246 106 -246 275s92 274 246 274s246 -105 246 -274s-92 -275 -246 -275zM282 105c58 0 92 38 92 104v107c0 66 -34 104 -92 104s-92 -38 -92 -104v-107c0 -66 34 -104 92 -104z
" />
    <glyph glyph-name="OE" unicode="&#x152;" horiz-adv-x="998" 
d="M943 0h-471c-29 -8 -70 -12 -115 -12c-185 0 -307 124 -307 361s122 361 307 361c45 0 86 -4 123 -12h463v-135h-324v-143h278v-134h-278v-151h324v-135zM357 123c39 0 76 3 110 9v433c-34 6 -71 10 -110 10c-90 0 -146 -63 -146 -174v-104c0 -111 56 -174 146 -174z" />
    <glyph glyph-name="oe" unicode="&#x153;" horiz-adv-x="901" 
d="M282 105c58 0 92 38 92 104v107c0 66 -34 104 -92 104s-92 -38 -92 -104v-107c0 -66 34 -104 92 -104zM527 312h184v9c0 64 -29 107 -88 107s-96 -43 -96 -108v-8zM630 -12c-89 0 -155 30 -176 74h-6c-26 -47 -83 -74 -166 -74c-154 0 -246 109 -246 278s92 271 246 271
c75 0 134 -22 166 -74h6c27 46 87 74 171 74c156 0 240 -105 240 -268v-44h-338v-8c0 -69 39 -113 120 -113c62 0 96 29 129 63l74 -92c-47 -54 -124 -87 -220 -87z" />
    <glyph glyph-name="Racute" unicode="&#x154;" horiz-adv-x="674" 
d="M474 916l-134 -176l-88 43l99 194zM229 256v-256h-152v698h331c129 0 211 -90 211 -223c0 -94 -42 -169 -127 -201l137 -274h-169l-122 256h-109zM229 384h160c45 0 73 24 73 69v44c0 45 -28 69 -73 69h-160v-182z" />
    <glyph glyph-name="racute" unicode="&#x155;" horiz-adv-x="404" 
d="M374 755l-134 -176l-88 43l99 194zM217 0h-148v525h148v-114h5c12 58 52 114 134 114h26v-138h-37c-86 0 -128 -19 -128 -80v-307z" />
    <glyph glyph-name="Rcommaaccent" unicode="&#x156;" horiz-adv-x="674" 
d="M353 -42c44 0 70 -22 70 -62v-14c0 -61 -29 -124 -67 -157h-85c34 29 52 59 62 99c-38 3 -50 32 -50 61v11c0 40 26 62 70 62zM229 256v-256h-152v698h331c129 0 211 -90 211 -223c0 -94 -42 -169 -127 -201l137 -274h-169l-122 256h-109zM229 384h160c45 0 73 24 73 69
v44c0 45 -28 69 -73 69h-160v-182z" />
    <glyph glyph-name="rcommaaccent" unicode="&#x157;" horiz-adv-x="404" 
d="M142 -42c44 0 70 -22 70 -62v-14c0 -61 -29 -124 -67 -157h-85c34 29 52 59 62 99c-38 3 -50 32 -50 61v11c0 40 26 62 70 62zM217 0h-148v525h148v-114h5c12 58 52 114 134 114h26v-138h-37c-86 0 -128 -19 -128 -80v-307z" />
    <glyph glyph-name="Rcaron" unicode="&#x158;" horiz-adv-x="674" 
d="M386 748h-124l-132 159l73 58l121 -115l121 115l73 -58zM229 256v-256h-152v698h331c129 0 211 -90 211 -223c0 -94 -42 -169 -127 -201l137 -274h-169l-122 256h-109zM229 384h160c45 0 73 24 73 69v44c0 45 -28 69 -73 69h-160v-182z" />
    <glyph glyph-name="rcaron" unicode="&#x159;" horiz-adv-x="404" 
d="M286 587h-124l-132 159l73 58l121 -115l121 115l73 -58zM217 0h-148v525h148v-114h5c12 58 52 114 134 114h26v-138h-37c-86 0 -128 -19 -128 -80v-307z" />
    <glyph glyph-name="Sacute" unicode="&#x15a;" horiz-adv-x="624" 
d="M460 916l-134 -176l-88 43l99 194zM303 -12c-122 0 -205 47 -265 113l100 101c47 -53 107 -80 175 -80c74 0 110 33 110 84c0 38 -16 66 -81 75l-69 9c-147 19 -214 91 -214 208c0 125 98 212 262 212c105 0 185 -35 242 -98l-101 -102c-33 39 -78 66 -150 66
c-68 0 -101 -26 -101 -68c0 -48 25 -66 83 -75l69 -11c143 -23 212 -87 212 -207c0 -134 -98 -227 -272 -227z" />
    <glyph glyph-name="sacute" unicode="&#x15b;" horiz-adv-x="504" 
d="M400 755l-134 -176l-88 43l99 194zM247 -12c-101 0 -167 34 -221 94l87 88c37 -41 82 -67 139 -67c58 0 78 19 78 50c0 26 -16 39 -53 44l-57 7c-119 15 -177 67 -177 162c0 101 79 171 204 171c110 0 161 -30 214 -82l-85 -87c-33 33 -77 54 -121 54
c-50 0 -70 -18 -70 -44c0 -28 12 -43 55 -49l59 -8c114 -15 173 -67 173 -158c0 -101 -90 -175 -225 -175z" />
    <glyph glyph-name="Scircumflex" unicode="&#x15c;" horiz-adv-x="624" 
d="M248 956h124l132 -159l-73 -58l-121 115l-121 -115l-73 58zM303 -12c-122 0 -205 47 -265 113l100 101c47 -53 107 -80 175 -80c74 0 110 33 110 84c0 38 -16 66 -81 75l-69 9c-147 19 -214 91 -214 208c0 125 98 212 262 212c105 0 185 -35 242 -98l-101 -102
c-33 39 -78 66 -150 66c-68 0 -101 -26 -101 -68c0 -48 25 -66 83 -75l69 -11c143 -23 212 -87 212 -207c0 -134 -98 -227 -272 -227z" />
    <glyph glyph-name="scircumflex" unicode="&#x15d;" horiz-adv-x="504" 
d="M188 795h124l132 -159l-73 -58l-121 115l-121 -115l-73 58zM247 -12c-101 0 -167 34 -221 94l87 88c37 -41 82 -67 139 -67c58 0 78 19 78 50c0 26 -16 39 -53 44l-57 7c-119 15 -177 67 -177 162c0 101 79 171 204 171c110 0 161 -30 214 -82l-85 -87
c-33 33 -77 54 -121 54c-50 0 -70 -18 -70 -44c0 -28 12 -43 55 -49l59 -8c114 -15 173 -67 173 -158c0 -101 -90 -175 -225 -175z" />
    <glyph glyph-name="Scedilla" unicode="&#x15e;" horiz-adv-x="624" 
d="M312 576c-68 0 -101 -26 -101 -68c0 -48 25 -66 83 -75l69 -11c143 -23 212 -87 212 -207c0 -125 -86 -215 -240 -226l-9 -44l4 -4c16 4 32 7 48 7c40 0 73 -20 73 -69c0 -68 -64 -91 -132 -91c-69 0 -107 24 -124 44l46 56c13 -16 35 -29 66 -29c25 0 44 8 44 25
c0 15 -13 34 -75 40l-21 2l13 63c-103 8 -176 52 -230 112l100 101c47 -53 107 -80 175 -80c74 0 110 33 110 84c0 38 -16 66 -81 75l-69 9c-147 19 -214 91 -214 208c0 125 98 212 262 212c105 0 185 -35 242 -98l-101 -102c-33 39 -78 66 -150 66z" />
    <glyph glyph-name="scedilla" unicode="&#x15f;" horiz-adv-x="504" 
d="M262 -212c-69 0 -107 24 -124 44l46 56c13 -16 35 -29 66 -29c25 0 44 8 44 25c0 15 -13 34 -75 40l-21 2l13 64c-81 7 -138 39 -185 92l87 88c37 -41 82 -67 139 -67c58 0 78 19 78 50c0 26 -16 39 -53 44l-57 7c-119 15 -177 67 -177 162c0 101 79 171 204 171
c110 0 161 -30 214 -82l-85 -87c-33 33 -77 54 -121 54c-50 0 -70 -18 -70 -44c0 -28 12 -43 55 -49l59 -8c114 -15 173 -67 173 -158c0 -93 -76 -163 -194 -174l-9 -44l4 -4c16 4 32 7 48 7c40 0 73 -20 73 -69c0 -68 -64 -91 -132 -91z" />
    <glyph glyph-name="Scaron" unicode="&#x160;" horiz-adv-x="624" 
d="M372 748h-124l-132 159l73 58l121 -115l121 115l73 -58zM303 -12c-122 0 -205 47 -265 113l100 101c47 -53 107 -80 175 -80c74 0 110 33 110 84c0 38 -16 66 -81 75l-69 9c-147 19 -214 91 -214 208c0 125 98 212 262 212c105 0 185 -35 242 -98l-101 -102
c-33 39 -78 66 -150 66c-68 0 -101 -26 -101 -68c0 -48 25 -66 83 -75l69 -11c143 -23 212 -87 212 -207c0 -134 -98 -227 -272 -227z" />
    <glyph glyph-name="scaron" unicode="&#x161;" horiz-adv-x="504" 
d="M312 587h-124l-132 159l73 58l121 -115l121 115l73 -58zM247 -12c-101 0 -167 34 -221 94l87 88c37 -41 82 -67 139 -67c58 0 78 19 78 50c0 26 -16 39 -53 44l-57 7c-119 15 -177 67 -177 162c0 101 79 171 204 171c110 0 161 -30 214 -82l-85 -87
c-33 33 -77 54 -121 54c-50 0 -70 -18 -70 -44c0 -28 12 -43 55 -49l59 -8c114 -15 173 -67 173 -158c0 -101 -90 -175 -225 -175z" />
    <glyph glyph-name="uni0162" unicode="&#x162;" horiz-adv-x="584" 
d="M291 -42c44 0 70 -22 70 -62v-14c0 -61 -29 -124 -67 -157h-85c34 29 52 59 62 99c-38 3 -50 32 -50 61v11c0 40 26 62 70 62zM557 563h-189v-563h-152v563h-189v135h530v-135z" />
    <glyph glyph-name="uni0163" unicode="&#x163;" horiz-adv-x="383" 
d="M228 -42c44 0 70 -22 70 -62v-14c0 -61 -29 -124 -67 -157h-85c34 29 52 59 62 99c-38 3 -50 32 -50 61v11c0 40 26 62 70 62zM341 0h-88c-102 0 -156 53 -156 153v257h-74v115h37c40 0 52 20 52 56v86h133v-142h104v-115h-104v-295h96v-115z" />
    <glyph glyph-name="Tcaron" unicode="&#x164;" horiz-adv-x="584" 
d="M354 748h-124l-132 159l73 58l121 -115l121 115l73 -58zM557 563h-189v-563h-152v563h-189v135h530v-135z" />
    <glyph glyph-name="tcaron" unicode="&#x165;" horiz-adv-x="388" 
d="M471 791l-66 -215h-97l6 215h157zM341 0h-88c-102 0 -156 53 -156 153v257h-74v115h37c40 0 52 20 52 56v86h133v-142h104v-115h-104v-295h96v-115z" />
    <glyph glyph-name="Tbar" unicode="&#x166;" horiz-adv-x="594" 
d="M512 274h-139v-274h-152v274h-139v114h139v175h-189v135h530v-135h-189v-175h139v-114z" />
    <glyph glyph-name="tbar" unicode="&#x167;" horiz-adv-x="391" 
d="M345 115v-115h-88c-102 0 -156 53 -156 153v68h-64v100h64v89h-74v115h37c40 0 52 20 52 56v86h133v-142h104v-115h-104v-89h85v-100h-85v-106h96z" />
    <glyph glyph-name="Utilde" unicode="&#x168;" horiz-adv-x="694" 
d="M423 762c-30 0 -52 9 -77 20c-29 12 -52 22 -78 22c-23 0 -38 -8 -59 -25l-52 68c24 36 61 64 114 64c30 0 52 -9 77 -20c29 -12 52 -22 78 -22c23 0 38 8 59 25l52 -68c-24 -36 -61 -64 -114 -64zM73 698h148v-428c0 -98 36 -147 126 -147s126 49 126 147v428h148v-412
c0 -206 -74 -298 -274 -298s-274 92 -274 298v412z" />
    <glyph glyph-name="utilde" unicode="&#x169;" horiz-adv-x="596" 
d="M371 601c-30 0 -52 9 -77 20c-29 12 -52 22 -78 22c-23 0 -38 -8 -59 -25l-52 68c24 36 61 64 114 64c30 0 52 -9 77 -20c29 -12 52 -22 78 -22c23 0 38 8 59 25l52 -68c-24 -36 -61 -64 -114 -64zM379 0v88h-5c-18 -53 -61 -100 -147 -100c-107 0 -164 75 -164 207v330
h148v-317c0 -64 21 -100 75 -100c46 0 93 26 93 76v341h148v-525h-148z" />
    <glyph glyph-name="Umacron" unicode="&#x16a;" horiz-adv-x="694" 
d="M194 785v103h306v-103h-306zM73 698h148v-428c0 -98 36 -147 126 -147s126 49 126 147v428h148v-412c0 -206 -74 -298 -274 -298s-274 92 -274 298v412z" />
    <glyph glyph-name="umacron" unicode="&#x16b;" horiz-adv-x="596" 
d="M142 624v103h306v-103h-306zM379 0v88h-5c-18 -53 -61 -100 -147 -100c-107 0 -164 75 -164 207v330h148v-317c0 -64 21 -100 75 -100c46 0 93 26 93 76v341h148v-525h-148z" />
    <glyph glyph-name="Ubreve" unicode="&#x16c;" horiz-adv-x="694" 
d="M347 740c-118 0 -166 98 -190 170l81 42l19 -32c29 -49 53 -77 90 -77s62 28 91 77l19 32l80 -42c-24 -72 -77 -170 -190 -170zM73 698h148v-428c0 -98 36 -147 126 -147s126 49 126 147v428h148v-412c0 -206 -74 -298 -274 -298s-274 92 -274 298v412z" />
    <glyph glyph-name="ubreve" unicode="&#x16d;" horiz-adv-x="596" 
d="M295 579c-118 0 -165 98 -190 170l81 42l20 -33c29 -48 54 -76 89 -76s61 28 90 76l20 33l80 -42c-25 -72 -77 -170 -190 -170zM379 0v88h-5c-18 -53 -61 -100 -147 -100c-107 0 -164 75 -164 207v330h148v-317c0 -64 21 -100 75 -100c46 0 93 26 93 76v341h148v-525
h-148z" />
    <glyph glyph-name="Uring" unicode="&#x16e;" horiz-adv-x="694" 
d="M347 719c-83 0 -148 60 -148 143s65 143 148 143s148 -60 148 -143s-65 -143 -148 -143zM347 794c33 0 51 20 51 51v34c0 31 -18 51 -51 51s-51 -20 -51 -51v-34c0 -31 18 -51 51 -51zM73 698h148v-428c0 -98 36 -147 126 -147s126 49 126 147v428h148v-412
c0 -206 -74 -298 -274 -298s-274 92 -274 298v412z" />
    <glyph glyph-name="uring" unicode="&#x16f;" horiz-adv-x="596" 
d="M295 558c-83 0 -148 60 -148 143s65 143 148 143s148 -60 148 -143s-65 -143 -148 -143zM295 633c33 0 51 19 51 51v34c0 32 -18 51 -51 51s-51 -19 -51 -51v-34c0 -32 18 -51 51 -51zM379 0v88h-5c-18 -53 -61 -100 -147 -100c-107 0 -164 75 -164 207v330h148v-317
c0 -64 21 -100 75 -100c46 0 93 26 93 76v341h148v-525h-148z" />
    <glyph glyph-name="Uhungarumlaut" unicode="&#x170;" horiz-adv-x="694" 
d="M391 916l-134 -176l-81 39l99 194zM596 916l-134 -176l-81 39l99 194zM73 698h148v-428c0 -98 36 -147 126 -147s126 49 126 147v428h148v-412c0 -206 -74 -298 -274 -298s-274 92 -274 298v412z" />
    <glyph glyph-name="uhungarumlaut" unicode="&#x171;" horiz-adv-x="596" 
d="M339 755l-134 -176l-81 39l99 194zM544 755l-134 -176l-81 39l99 194zM379 0v88h-5c-18 -53 -61 -100 -147 -100c-107 0 -164 75 -164 207v330h148v-317c0 -64 21 -100 75 -100c46 0 93 26 93 76v341h148v-525h-148z" />
    <glyph glyph-name="Uogonek" unicode="&#x172;" horiz-adv-x="694" 
d="M73 698h148v-428c0 -98 36 -147 126 -147s126 49 126 147v428h148v-412c0 -139 -26 -221 -122 -292c-44 -32 -102 -61 -102 -100c0 -23 18 -32 38 -32c24 0 40 12 54 28l53 -51c-17 -32 -59 -51 -121 -51c-66 0 -123 22 -123 84c0 56 46 83 119 114l-2 6
c-21 -3 -43 -4 -68 -4c-200 0 -274 92 -274 298v412z" />
    <glyph glyph-name="uogonek" unicode="&#x173;" horiz-adv-x="596" 
d="M526 525v-525c-98 -60 -113 -81 -113 -105c0 -25 18 -33 38 -33c24 0 41 12 55 28l53 -51c-17 -32 -59 -51 -122 -51c-66 0 -124 21 -124 85c0 56 45 89 119 123l-1 4h-52v88h-5c-18 -53 -61 -100 -147 -100c-107 0 -164 75 -164 207v330h148v-317c0 -64 21 -100 75 -100
c46 0 93 26 93 76v341h147z" />
    <glyph glyph-name="Wcircumflex" unicode="&#x174;" horiz-adv-x="973" 
d="M425 956h124l132 -159l-73 -58l-121 115l-121 -115l-73 58zM361 0h-174l-158 698h150l66 -335l37 -194h3l44 194l77 335h166l78 -335l43 -194h3l37 194l67 335h144l-162 -698h-173l-88 378l-34 153h-3l-35 -153z" />
    <glyph glyph-name="wcircumflex" unicode="&#x175;" horiz-adv-x="841" 
d="M359 795h124l132 -159l-73 -58l-121 115l-121 -115l-73 58zM166 0l-147 525h143l51 -212l36 -160h4l42 160l60 212h135l61 -212l43 -160h4l36 160l51 212h137l-145 -525h-155l-64 222l-37 136h-3l-36 -136l-64 -222h-152z" />
    <glyph glyph-name="Ycircumflex" unicode="&#x176;" horiz-adv-x="649" 
d="M263 956h124l132 -159l-73 -58l-121 115l-121 -115l-73 58zM401 0h-153v273l-239 425h170l150 -278h2l144 278h165l-239 -424v-274z" />
    <glyph glyph-name="ycircumflex" unicode="&#x177;" horiz-adv-x="534" 
d="M209 795h124l132 -159l-73 -58l-121 115l-121 -115l-73 58zM313 280l77 245h138l-202 -606c-27 -81 -71 -119 -161 -119h-92v115h99l18 58l-184 552h147l77 -245l38 -152h6z" />
    <glyph glyph-name="Ydieresis" unicode="&#x178;" horiz-adv-x="649" 
d="M215 761c-60 0 -80 28 -80 63v25c0 35 20 63 80 63s80 -28 80 -63v-25c0 -35 -20 -63 -80 -63zM435 761c-60 0 -80 28 -80 63v25c0 35 20 63 80 63s80 -28 80 -63v-25c0 -35 -20 -63 -80 -63zM401 0h-153v273l-239 425h170l150 -278h2l144 278h165l-239 -424v-274z" />
    <glyph glyph-name="Zacute" unicode="&#x179;" horiz-adv-x="607" 
d="M453 916l-134 -176l-88 43l99 194zM568 135v-135h-529v135l344 428h-327v135h504v-135l-345 -428h353z" />
    <glyph glyph-name="zacute" unicode="&#x17a;" horiz-adv-x="518" 
d="M409 755l-134 -176l-88 43l99 194zM479 0h-440v117l261 293h-252v115h424v-116l-262 -294h269v-115z" />
    <glyph glyph-name="Zdotaccent" unicode="&#x17b;" horiz-adv-x="607" 
d="M303 752c-66 0 -89 31 -89 70v29c0 39 23 70 89 70s89 -31 89 -70v-29c0 -39 -23 -70 -89 -70zM568 135v-135h-529v135l344 428h-327v135h504v-135l-345 -428h353z" />
    <glyph glyph-name="zdotaccent" unicode="&#x17c;" horiz-adv-x="518" 
d="M259 591c-66 0 -89 31 -89 70v29c0 39 23 70 89 70s89 -31 89 -70v-29c0 -39 -23 -70 -89 -70zM479 0h-440v117l261 293h-252v115h424v-116l-262 -294h269v-115z" />
    <glyph glyph-name="Zcaron" unicode="&#x17d;" horiz-adv-x="607" 
d="M365 748h-124l-132 159l73 58l121 -115l121 115l73 -58zM568 135v-135h-529v135l344 428h-327v135h504v-135l-345 -428h353z" />
    <glyph glyph-name="zcaron" unicode="&#x17e;" horiz-adv-x="518" 
d="M321 587h-124l-132 159l73 58l121 -115l121 115l73 -58zM479 0h-440v117l261 293h-252v115h424v-116l-262 -294h269v-115z" />
    <glyph glyph-name="uni018F" unicode="&#x18f;" horiz-adv-x="714" 
d="M50 349v50h453v3c0 110 -56 173 -146 173s-127 -42 -146 -111l-137 49c36 109 125 197 283 197c186 0 307 -125 307 -361s-121 -361 -307 -361s-307 125 -307 361zM357 123c84 0 138 54 145 151h-290c7 -97 61 -151 145 -151z" />
    <glyph glyph-name="florin" unicode="&#x192;" horiz-adv-x="484" 
d="M5 -134l12 115h115l28 270h-106l12 120h106l18 175c9 88 66 152 172 152h110l-12 -115h-119l-22 -212h125l-10 -120h-127l-24 -234c-9 -88 -65 -151 -172 -151h-106z" />
    <glyph glyph-name="Ohorn" unicode="&#x1a0;" horiz-adv-x="714" 
d="M561 804h124v-94c0 -65 -20 -100 -98 -101c49 -60 77 -147 77 -260c0 -237 -122 -361 -307 -361s-307 124 -307 361s122 361 307 361c33 0 65 -4 93 -12h111v106zM357 123c91 0 146 63 146 174v104c0 111 -55 174 -146 174s-146 -63 -146 -174v-104
c0 -111 55 -174 146 -174z" />
    <glyph glyph-name="ohorn" unicode="&#x1a1;" horiz-adv-x="564" 
d="M427 631h124v-94c0 -62 -19 -91 -68 -98c32 -49 45 -103 45 -173c0 -169 -92 -278 -246 -278s-246 109 -246 278s92 271 246 271c31 0 59 -4 85 -12h60v106zM282 105c58 0 92 38 92 104v107c0 66 -34 104 -92 104s-92 -38 -92 -104v-107c0 -66 34 -104 92 -104z" />
    <glyph glyph-name="Uhorn" unicode="&#x1af;" horiz-adv-x="694" 
d="M73 698h148v-428c0 -98 36 -147 126 -147s126 49 126 147v428h77v106h124v-94c0 -51 -12 -82 -53 -94v-330c0 -206 -74 -298 -274 -298s-274 92 -274 298v412z" />
    <glyph glyph-name="uhorn" unicode="&#x1b0;" horiz-adv-x="596" 
d="M590 631v-94c0 -57 -15 -90 -64 -98v-439h-147v88h-5c-18 -53 -61 -100 -147 -100c-107 0 -164 75 -164 207v330h148v-317c0 -64 21 -100 75 -100c46 0 93 26 93 76v341h87v106h124z" />
    <glyph glyph-name="Aringacute" unicode="&#x1fa;" horiz-adv-x="685" 
d="M482 1069l-150 -93l-53 57l129 117zM339 725c-85 0 -152 44 -152 120s67 120 152 120s152 -44 152 -120s-67 -120 -152 -120zM339 795c36 0 55 13 55 45v10c0 32 -19 45 -55 45s-55 -13 -55 -45v-10c0 -32 19 -45 55 -45zM665 0h-158l-50 166h-233l-50 -166h-154l230 698
h188zM420 295l-78 265h-5l-77 -265h160z" />
    <glyph glyph-name="aringacute" unicode="&#x1fb;" horiz-adv-x="569" 
d="M411 908l-150 -93l-53 57l129 117zM268 564c-85 0 -152 44 -152 120s67 120 152 120s152 -44 152 -120s-67 -120 -152 -120zM268 634c36 0 55 14 55 45v10c0 31 -19 45 -55 45s-55 -14 -55 -45v-10c0 -31 19 -45 55 -45zM539 0h-82c-53 0 -91 36 -100 92h-6
c-16 -68 -74 -104 -154 -104c-105 0 -163 62 -163 153c0 111 86 164 225 164h83v33c0 51 -25 83 -87 83c-59 0 -90 -30 -113 -62l-88 78c42 62 102 100 212 100c148 0 224 -68 224 -192v-230h49v-115zM252 91c49 0 90 20 90 68v62h-72c-57 0 -87 -21 -87 -59v-15
c0 -38 25 -56 69 -56z" />
    <glyph glyph-name="AEacute" unicode="&#x1fc;" horiz-adv-x="968" 
d="M795 916l-134 -176l-88 43l99 194zM438 0v166h-209l-78 -166h-152l341 698h573v-135h-324v-143h278v-134h-278v-151h324v-135h-475zM438 563h-23l-125 -268h148v268z" />
    <glyph glyph-name="aeacute" unicode="&#x1fd;" horiz-adv-x="864" 
d="M582 755l-134 -176l-88 43l99 194zM342 225h-72c-53 0 -87 -21 -87 -59v-14c0 -39 23 -61 71 -61c46 0 88 20 88 68v66zM491 312h184v9c0 64 -29 107 -88 107s-96 -43 -96 -108v-8zM610 106c61 0 100 31 129 61l74 -92c-47 -54 -124 -87 -220 -87c-99 0 -176 45 -204 103
h-6c-22 -57 -75 -103 -185 -103c-106 0 -164 66 -164 156c0 113 94 168 225 168h83v26c0 51 -25 83 -87 83c-59 0 -90 -30 -113 -62l-88 78c42 62 102 100 212 100c64 0 115 -22 148 -74h6c32 50 93 74 168 74c174 0 240 -126 240 -268v-44h-338v-8c0 -68 44 -111 120 -111z
" />
    <glyph glyph-name="Oslashacute" unicode="&#x1fe;" horiz-adv-x="714" 
d="M507 916l-134 -176l-88 43l99 194zM357 -12c-56 0 -107 12 -150 34l-53 -78l-92 59l61 90c-47 60 -73 146 -73 256c0 237 122 361 307 361c56 0 107 -12 150 -34l53 78l92 -59l-61 -90c47 -60 73 -146 73 -256c0 -237 -122 -361 -307 -361zM204 294c0 -31 4 -59 12 -83
l223 354c-22 14 -50 21 -82 21c-96 0 -153 -66 -153 -182v-110zM510 404c0 31 -4 59 -12 83l-223 -354c22 -14 50 -21 82 -21c96 0 153 66 153 182v110z" />
    <glyph glyph-name="oslashacute" unicode="&#x1ff;" horiz-adv-x="572" 
d="M435 755l-134 -176l-88 43l99 194zM94 -50l-80 60l67 83c-27 45 -41 102 -41 170c0 169 92 274 246 274c51 0 95 -12 132 -34l60 72l80 -60l-68 -84c28 -44 42 -102 42 -169c0 -169 -92 -274 -246 -274c-51 0 -96 12 -132 33zM286 96c61 0 97 47 97 118v98l-161 -193
c16 -15 38 -23 64 -23zM189 311v-97l160 192c-16 15 -38 23 -63 23c-61 0 -97 -47 -97 -118z" />
    <glyph glyph-name="Scommaaccent" unicode="&#x218;" horiz-adv-x="624" 
d="M309 -42c44 0 70 -22 70 -62v-14c0 -61 -29 -124 -67 -157h-85c34 29 52 59 62 99c-38 3 -50 32 -50 61v11c0 40 26 62 70 62zM303 -12c-122 0 -205 47 -265 113l100 101c47 -53 107 -80 175 -80c74 0 110 33 110 84c0 38 -16 66 -81 75l-69 9c-147 19 -214 91 -214 208
c0 125 98 212 262 212c105 0 185 -35 242 -98l-101 -102c-33 39 -78 66 -150 66c-68 0 -101 -26 -101 -68c0 -48 25 -66 83 -75l69 -11c143 -23 212 -87 212 -207c0 -134 -98 -227 -272 -227z" />
    <glyph glyph-name="scommaaccent" unicode="&#x219;" horiz-adv-x="504" 
d="M248 -42c44 0 70 -22 70 -62v-14c0 -61 -29 -124 -67 -157h-85c34 29 52 59 62 99c-38 3 -50 32 -50 61v11c0 40 26 62 70 62zM247 -12c-101 0 -167 34 -221 94l87 88c37 -41 82 -67 139 -67c58 0 78 19 78 50c0 26 -16 39 -53 44l-57 7c-119 15 -177 67 -177 162
c0 101 79 171 204 171c110 0 161 -30 214 -82l-85 -87c-33 33 -77 54 -121 54c-50 0 -70 -18 -70 -44c0 -28 12 -43 55 -49l59 -8c114 -15 173 -67 173 -158c0 -101 -90 -175 -225 -175z" />
    <glyph glyph-name="uni021A" unicode="&#x21a;" horiz-adv-x="584" 
d="M291 -42c44 0 70 -22 70 -62v-14c0 -61 -29 -124 -67 -157h-85c34 29 52 59 62 99c-38 3 -50 32 -50 61v11c0 40 26 62 70 62zM557 563h-189v-563h-152v563h-189v135h530v-135z" />
    <glyph glyph-name="uni021B" unicode="&#x21b;" horiz-adv-x="383" 
d="M228 -42c44 0 70 -22 70 -62v-14c0 -61 -29 -124 -67 -157h-85c34 29 52 59 62 99c-38 3 -50 32 -50 61v11c0 40 26 62 70 62zM341 0h-88c-102 0 -156 53 -156 153v257h-74v115h37c40 0 52 20 52 56v86h133v-142h104v-115h-104v-295h96v-115z" />
    <glyph glyph-name="uni0237" unicode="&#x237;" horiz-adv-x="286" 
d="M-9 -200v115h78v610h148v-581c0 -93 -45 -144 -148 -144h-78z" />
    <glyph glyph-name="uni0259" unicode="&#x259;" horiz-adv-x="562" 
d="M36 300h337v8c0 69 -35 113 -111 113c-67 0 -100 -35 -126 -63l-74 92c47 54 122 87 217 87c158 0 247 -107 247 -275c0 -166 -88 -274 -246 -274c-174 0 -244 126 -244 268v44zM189 213v-9c0 -64 29 -107 88 -107s96 43 96 108v8h-184z" />
    <glyph glyph-name="uni02BB" unicode="&#x2bb;" 
d="M301 576c-44 0 -70 22 -70 62v14c0 61 29 124 67 157h85c-34 -29 -52 -59 -62 -99c38 -3 50 -32 50 -61v-11c0 -40 -26 -62 -70 -62z" />
    <glyph glyph-name="uni02BC" unicode="&#x2bc;" 
d="M300 740l-66 -215h-97l6 215h157z" />
    <glyph glyph-name="circumflex" unicode="&#x2c6;" 
d="M238 795h124l132 -159l-73 -58l-121 115l-121 -115l-73 58z" />
    <glyph glyph-name="caron" unicode="&#x2c7;" 
d="M362 587h-124l-132 159l73 58l121 -115l121 115l73 -58z" />
    <glyph glyph-name="breve" unicode="&#x2d8;" 
d="M300 579c-118 0 -165 98 -190 170l81 42l20 -33c29 -48 54 -76 89 -76s61 28 90 76l20 33l80 -42c-25 -72 -77 -170 -190 -170z" />
    <glyph glyph-name="dotaccent" unicode="&#x2d9;" 
d="M300 591c-66 0 -89 31 -89 70v29c0 39 23 70 89 70s89 -31 89 -70v-29c0 -39 -23 -70 -89 -70z" />
    <glyph glyph-name="ring" unicode="&#x2da;" 
d="M300 558c-83 0 -148 60 -148 143s65 143 148 143s148 -60 148 -143s-65 -143 -148 -143zM300 633c33 0 51 19 51 51v34c0 32 -18 51 -51 51s-51 -19 -51 -51v-34c0 -32 18 -51 51 -51z" />
    <glyph glyph-name="ogonek" unicode="&#x2db;" 
d="M210 -212c-66 0 -124 21 -124 85c0 56 45 89 119 123l-8 26h93l10 -22c-98 -60 -114 -81 -114 -105c0 -25 18 -33 38 -33c24 0 41 12 55 28l53 -51c-17 -32 -59 -51 -122 -51z" />
    <glyph glyph-name="tilde" unicode="&#x2dc;" 
d="M376 601c-30 0 -52 9 -77 20c-29 12 -52 22 -78 22c-23 0 -38 -8 -59 -25l-52 68c24 36 61 64 114 64c30 0 52 -9 77 -20c29 -12 52 -22 78 -22c23 0 38 8 59 25l52 -68c-24 -36 -61 -64 -114 -64z" />
    <glyph glyph-name="hungarumlaut" unicode="&#x2dd;" 
d="M344 755l-134 -176l-81 39l99 194zM549 755l-134 -176l-81 39l99 194z" />
    <glyph glyph-name="uni0300" unicode="&#x300;" horiz-adv-x="0" 
d="M-16 579l-134 176l123 61l99 -194z" />
    <glyph glyph-name="uni0301" unicode="&#x301;" horiz-adv-x="0" 
d="M150 755l-134 -176l-88 43l99 194z" />
    <glyph glyph-name="uni0302" unicode="&#x302;" horiz-adv-x="0" 
d="M-62 795h124l132 -159l-73 -58l-121 115l-121 -115l-73 58z" />
    <glyph glyph-name="uni0303" unicode="&#x303;" horiz-adv-x="0" 
d="M76 601c-30 0 -52 9 -77 20c-29 12 -52 22 -78 22c-23 0 -38 -8 -59 -25l-52 68c24 36 61 64 114 64c30 0 52 -9 77 -20c29 -12 52 -22 78 -22c23 0 38 8 59 25l52 -68c-24 -36 -61 -64 -114 -64z" />
    <glyph glyph-name="uni0304" unicode="&#x304;" horiz-adv-x="0" 
d="M-153 624v103h306v-103h-306z" />
    <glyph glyph-name="uni0306" unicode="&#x306;" horiz-adv-x="0" 
d="M0 579c-118 0 -165 98 -190 170l81 42l20 -33c29 -48 54 -76 89 -76s61 28 90 76l20 33l80 -42c-25 -72 -77 -170 -190 -170z" />
    <glyph glyph-name="uni0307" unicode="&#x307;" horiz-adv-x="0" 
d="M0 591c-66 0 -89 31 -89 70v29c0 39 23 70 89 70s89 -31 89 -70v-29c0 -39 -23 -70 -89 -70z" />
    <glyph glyph-name="uni0308" unicode="&#x308;" horiz-adv-x="0" 
d="M-110 600c-60 0 -80 28 -80 63v25c0 35 20 63 80 63s80 -28 80 -63v-25c0 -35 -20 -63 -80 -63zM110 600c-60 0 -80 28 -80 63v25c0 35 20 63 80 63s80 -28 80 -63v-25c0 -35 -20 -63 -80 -63z" />
    <glyph glyph-name="uni0309" unicode="&#x309;" horiz-adv-x="0" 
d="M-120 696v106h143c75 0 98 -34 98 -73s-24 -86 -57 -126l-28 -34l-75 35l41 92h-122z" />
    <glyph glyph-name="uni030A" unicode="&#x30a;" horiz-adv-x="0" 
d="M0 558c-83 0 -148 60 -148 143s65 143 148 143s148 -60 148 -143s-65 -143 -148 -143zM0 633c33 0 51 19 51 51v34c0 32 -18 51 -51 51s-51 -19 -51 -51v-34c0 -32 18 -51 51 -51z" />
    <glyph glyph-name="uni030B" unicode="&#x30b;" horiz-adv-x="0" 
d="M44 755l-134 -176l-81 39l99 194zM249 755l-134 -176l-81 39l99 194z" />
    <glyph glyph-name="uni030C" unicode="&#x30c;" horiz-adv-x="0" 
d="M62 587h-124l-132 159l73 58l121 -115l121 115l73 -58z" />
    <glyph glyph-name="uni0312" unicode="&#x312;" horiz-adv-x="0" 
d="M1 576c-44 0 -70 22 -70 62v14c0 61 29 124 67 157h85c-34 -29 -52 -59 -62 -99c38 -3 50 -32 50 -61v-11c0 -40 -26 -62 -70 -62z" />
    <glyph glyph-name="uni0315" unicode="&#x315;" horiz-adv-x="0" 
d="M163 740l-66 -215h-97l6 215h157z" />
    <glyph glyph-name="uni031B" unicode="&#x31b;" horiz-adv-x="0" 
d="M125 631v-94c0 -67 -20 -101 -100 -101h-150v89h126v106h124z" />
    <glyph glyph-name="uni0323" unicode="&#x323;" horiz-adv-x="0" 
d="M0 -204c-59 0 -81 28 -81 63v26c0 35 22 63 81 63s81 -28 81 -63v-26c0 -35 -22 -63 -81 -63z" />
    <glyph glyph-name="uni0326" unicode="&#x326;" horiz-adv-x="0" 
d="M-1 -42c44 0 70 -22 70 -62v-14c0 -61 -29 -124 -67 -157h-85c34 29 52 59 62 99c-38 3 -50 32 -50 61v11c0 40 26 62 70 62z" />
    <glyph glyph-name="uni0327" unicode="&#x327;" horiz-adv-x="0" 
d="M14 -212c-69 0 -107 24 -124 44l46 56c13 -16 35 -29 66 -29c25 0 44 8 44 25c0 15 -13 34 -75 40l-21 2l22 104h67l-18 -85l4 -4c16 4 32 7 48 7c40 0 73 -20 73 -69c0 -68 -64 -91 -132 -91z" />
    <glyph glyph-name="uni0328" unicode="&#x328;" horiz-adv-x="0" 
d="M-90 -212c-66 0 -124 21 -124 85c0 56 45 89 119 123l-8 26h93l10 -22c-98 -60 -114 -81 -114 -105c0 -25 18 -33 38 -33c24 0 41 12 55 28l53 -51c-17 -32 -59 -51 -122 -51z" />
    <glyph glyph-name="uni037E" unicode="&#x37e;" horiz-adv-x="330" 
d="M164 355c-60 0 -88 34 -88 80v20c0 46 28 80 88 80s88 -34 88 -80v-20c0 -46 -28 -80 -88 -80zM165 169c60 0 88 -34 88 -80v-20c0 -81 -43 -167 -107 -216h-100c47 44 81 85 98 138c-46 8 -67 39 -67 78v20c0 46 28 80 88 80z" />
    <glyph glyph-name="tonos" unicode="&#x384;" 
d="M425 796l-73 -217l-95 14l35 223z" />
    <glyph glyph-name="dieresistonos" unicode="&#x385;" 
d="M183 605c-42 0 -64 21 -64 58v24c0 38 22 59 64 59s64 -21 64 -58v-24c0 -38 -22 -59 -64 -59zM411 799l-73 -220l-63 11l35 226zM477 605c-42 0 -64 21 -64 58v24c0 38 22 59 64 59s64 -21 64 -58v-24c0 -38 -22 -59 -64 -59z" />
    <glyph glyph-name="Alphatonos" unicode="&#x386;" horiz-adv-x="685" 
d="M209 796l-73 -217l-95 14l35 223zM665 0h-158l-50 166h-233l-50 -166h-154l230 698h188zM420 295l-78 265h-5l-77 -265h160z" />
    <glyph glyph-name="anoteleia" unicode="&#x387;" horiz-adv-x="330" 
d="M165 355c-60 0 -88 34 -88 80v20c0 46 28 80 88 80s88 -34 88 -80v-20c0 -46 -28 -80 -88 -80z" />
    <glyph glyph-name="Epsilontonos" unicode="&#x388;" horiz-adv-x="703" 
d="M152 796l-73 -217l-95 14l35 223zM648 0h-475v698h475v-135h-323v-143h277v-134h-277v-151h323v-135z" />
    <glyph glyph-name="Etatonos" unicode="&#x389;" horiz-adv-x="820" 
d="M152 796l-73 -217l-95 14l35 223zM591 0v286h-266v-286h-152v698h152v-278h266v278h152v-698h-152z" />
    <glyph glyph-name="Iotatonos" unicode="&#x38a;" horiz-adv-x="555" 
d="M152 796l-73 -217l-95 14l35 223zM505 0h-332v121h90v456h-90v121h332v-121h-90v-456h90v-121z" />
    <glyph glyph-name="Omicrontonos" unicode="&#x38c;" horiz-adv-x="756" 
d="M152 796l-73 -217l-95 14l35 223zM399 -12c-185 0 -307 124 -307 361s122 361 307 361s307 -124 307 -361s-122 -361 -307 -361zM399 123c91 0 146 63 146 174v104c0 111 -55 174 -146 174s-146 -63 -146 -174v-104c0 -111 55 -174 146 -174z" />
    <glyph glyph-name="Upsilontonos" unicode="&#x38e;" horiz-adv-x="793" 
d="M152 796l-73 -217l-95 14l35 223zM545 0h-153v273l-239 425h170l150 -278h2l144 278h165l-239 -424v-274z" />
    <glyph glyph-name="Omegatonos" unicode="&#x38f;" horiz-adv-x="767" 
d="M152 796l-73 -217l-95 14l35 223zM93 0v134h159v10c-99 45 -154 127 -154 256c0 173 112 310 307 310s307 -137 307 -310c0 -129 -55 -211 -154 -256v-10h159v-134h-269v205c62 18 104 81 104 145v81c0 75 -56 144 -147 144s-147 -69 -147 -144v-81
c0 -64 42 -127 104 -145v-205h-269z" />
    <glyph glyph-name="iotadieresistonos" unicode="&#x390;" horiz-adv-x="329" 
d="M8 605c-42 0 -64 21 -64 58v24c0 38 22 59 64 59s64 -21 64 -58v-24c0 -38 -22 -59 -64 -59zM236 799l-73 -220l-63 11l35 226zM302 605c-42 0 -64 21 -64 58v24c0 38 22 59 64 59s64 -21 64 -58v-24c0 -38 -22 -59 -64 -59zM313 115v-115h-88c-102 0 -156 53 -156 153
v372h148v-410h96z" />
    <glyph glyph-name="Alpha" unicode="&#x391;" horiz-adv-x="685" 
d="M665 0h-158l-50 166h-233l-50 -166h-154l230 698h188zM420 295l-78 265h-5l-77 -265h160z" />
    <glyph glyph-name="Beta" unicode="&#x392;" horiz-adv-x="667" 
d="M77 0v698h339c115 0 184 -71 184 -179c0 -107 -59 -147 -130 -150v-6c66 0 157 -44 157 -164c0 -110 -77 -199 -180 -199h-370zM229 288v-160h175c40 0 65 23 65 63v34c0 40 -25 63 -65 63h-175zM229 570v-158h151c40 0 64 24 64 64v30c0 40 -24 64 -64 64h-151z" />
    <glyph glyph-name="Gamma" unicode="&#x393;" horiz-adv-x="514" 
d="M77 0v698h410v-135h-258v-563h-152z" />
    <glyph glyph-name="uni0394" unicode="&#x394;" horiz-adv-x="684" 
d="M49 0v121l199 577h188l199 -577v-121h-586zM475 135l-133 425h-5l-133 -425h271z" />
    <glyph glyph-name="Epsilon" unicode="&#x395;" horiz-adv-x="607" 
d="M552 0h-475v698h475v-135h-323v-143h277v-134h-277v-151h323v-135z" />
    <glyph glyph-name="Zeta" unicode="&#x396;" horiz-adv-x="607" 
d="M568 135v-135h-529v135l344 428h-327v135h504v-135l-345 -428h353z" />
    <glyph glyph-name="Eta" unicode="&#x397;" horiz-adv-x="724" 
d="M495 0v286h-266v-286h-152v698h152v-278h266v278h152v-698h-152z" />
    <glyph glyph-name="Theta" unicode="&#x398;" horiz-adv-x="724" 
d="M362 -12c-191 0 -312 124 -312 361s121 361 312 361s312 -124 312 -361s-121 -361 -312 -361zM362 123c97 0 151 63 151 174v104c0 111 -54 174 -151 174s-151 -63 -151 -174v-104c0 -111 54 -174 151 -174zM458 286h-192v134h192v-134z" />
    <glyph glyph-name="Iota" unicode="&#x399;" horiz-adv-x="432" 
d="M382 0h-332v121h90v456h-90v121h332v-121h-90v-456h90v-121z" />
    <glyph glyph-name="Kappa" unicode="&#x39a;" horiz-adv-x="696" 
d="M505 0l-185 304l-91 -110v-194h-152v698h152v-332h6l99 135l157 197h172l-235 -287l256 -411h-179z" />
    <glyph glyph-name="Lambda" unicode="&#x39b;" horiz-adv-x="671" 
d="M247 698h179l225 -698h-158l-104 335l-55 219h-3l-53 -219l-104 -335h-154z" />
    <glyph glyph-name="Mu" unicode="&#x39c;" horiz-adv-x="819" 
d="M599 0v458h-3l-51 -102l-136 -247l-133 246l-53 110h-3v-465h-143v698h161l171 -327h2l169 327h162v-698h-143z" />
    <glyph glyph-name="Nu" unicode="&#x39d;" horiz-adv-x="724" 
d="M481 0l-191 330l-67 140h-3v-470h-143v698h166l191 -330l67 -140h3v470h143v-698h-166z" />
    <glyph glyph-name="Xi" unicode="&#x39e;" horiz-adv-x="605" 
d="M55 563v135h495v-135h-495zM116 286v134h373v-134h-373zM55 0v135h495v-135h-495z" />
    <glyph glyph-name="Omicron" unicode="&#x39f;" horiz-adv-x="714" 
d="M357 -12c-185 0 -307 124 -307 361s122 361 307 361s307 -124 307 -361s-122 -361 -307 -361zM357 123c91 0 146 63 146 174v104c0 111 -55 174 -146 174s-146 -63 -146 -174v-104c0 -111 55 -174 146 -174z" />
    <glyph glyph-name="Pi" unicode="&#x3a0;" horiz-adv-x="709" 
d="M77 0v698h555v-698h-152v563h-251v-563h-152z" />
    <glyph glyph-name="Rho" unicode="&#x3a1;" horiz-adv-x="656" 
d="M229 0h-152v698h330c130 0 212 -91 212 -223s-82 -223 -212 -223h-178v-252zM229 566v-182h160c45 0 73 24 73 69v44c0 45 -28 69 -73 69h-160z" />
    <glyph glyph-name="Sigma" unicode="&#x3a3;" horiz-adv-x="611" 
d="M559 0h-515v135l222 215l-212 213v135h505v-134h-317l208 -209l-227 -221h336v-134z" />
    <glyph glyph-name="Tau" unicode="&#x3a4;" horiz-adv-x="584" 
d="M557 563h-189v-563h-152v563h-189v135h530v-135z" />
    <glyph glyph-name="Upsilon" unicode="&#x3a5;" horiz-adv-x="649" 
d="M401 0h-153v273l-239 425h170l150 -278h2l144 278h165l-239 -424v-274z" />
    <glyph glyph-name="Phi" unicode="&#x3a6;" horiz-adv-x="848" 
d="M347 -44v76h-10c-181 0 -297 125 -297 321c0 198 116 323 297 323h10v64h154v-64h10c181 0 297 -125 297 -321c0 -198 -116 -323 -297 -323h-10v-76h-154zM350 157v394h-10c-74 0 -144 -62 -144 -166v-62c0 -104 70 -166 144 -166h10zM498 157h10c74 0 144 62 144 166v62
c0 104 -70 166 -144 166h-10v-394z" />
    <glyph glyph-name="Chi" unicode="&#x3a7;" horiz-adv-x="673" 
d="M16 0l224 361l-213 337h177l136 -236h3l138 236h164l-215 -340l227 -358h-176l-151 257h-3l-147 -257h-164z" />
    <glyph glyph-name="Psi" unicode="&#x3a8;" horiz-adv-x="840" 
d="M343 0v176c-191 0 -277 113 -277 293v229h152v-229c0 -126 43 -168 125 -168v397h154v-397c82 0 125 42 125 168v229h152v-229c0 -180 -86 -293 -277 -293v-176h-154z" />
    <glyph glyph-name="uni03A9" unicode="&#x3a9;" horiz-adv-x="724" 
d="M50 0v134h159v10c-99 45 -154 127 -154 256c0 173 112 310 307 310s307 -137 307 -310c0 -129 -55 -211 -154 -256v-10h159v-134h-269v205c62 18 104 81 104 145v81c0 75 -56 144 -147 144s-147 -69 -147 -144v-81c0 -64 42 -127 104 -145v-205h-269z" />
    <glyph glyph-name="Iotadieresis" unicode="&#x3aa;" horiz-adv-x="432" 
d="M106 761c-60 0 -80 28 -80 63v25c0 35 20 63 80 63s80 -28 80 -63v-25c0 -35 -20 -63 -80 -63zM326 761c-60 0 -80 28 -80 63v25c0 35 20 63 80 63s80 -28 80 -63v-25c0 -35 -20 -63 -80 -63zM382 0h-332v121h90v456h-90v121h332v-121h-90v-456h90v-121z" />
    <glyph glyph-name="Upsilondieresis" unicode="&#x3ab;" horiz-adv-x="649" 
d="M215 761c-60 0 -80 28 -80 63v25c0 35 20 63 80 63s80 -28 80 -63v-25c0 -35 -20 -63 -80 -63zM435 761c-60 0 -80 28 -80 63v25c0 35 20 63 80 63s80 -28 80 -63v-25c0 -35 -20 -63 -80 -63zM401 0h-153v273l-239 425h170l150 -278h2l144 278h165l-239 -424v-274z" />
    <glyph glyph-name="alphatonos" unicode="&#x3ac;" horiz-adv-x="667" 
d="M405 796l-73 -217l-95 14l35 223zM633 115v-115h-59c-78 0 -112 26 -128 104l-9 44h-3c-32 -106 -85 -160 -183 -160c-128 0 -208 96 -208 274s80 275 208 275c98 0 157 -50 189 -160h4l18 71l23 77h148l-116 -259l60 -151h56zM264 108c32 0 60 27 82 91l22 64l-22 63
c-22 64 -50 91 -82 91c-44 0 -67 -35 -67 -115v-79c0 -80 23 -115 67 -115z" />
    <glyph glyph-name="epsilontonos" unicode="&#x3ad;" horiz-adv-x="528" 
d="M394 796l-73 -217l-95 14l35 223zM431 167l74 -92c-51 -54 -130 -87 -235 -87c-141 0 -230 63 -230 160c0 74 48 115 124 125v5c-76 10 -111 48 -111 110c0 85 77 149 218 149c101 0 169 -28 225 -82l-85 -87c-34 34 -77 53 -129 53c-53 0 -80 -19 -80 -50v-10
c0 -31 21 -45 59 -45h103v-98h-116c-38 0 -59 -14 -59 -45v-11c0 -38 28 -58 99 -58c61 0 104 23 143 63z" />
    <glyph glyph-name="etatonos" unicode="&#x3ae;" horiz-adv-x="610" 
d="M430 796l-73 -217l-95 14l35 223zM231 0h-148v410h-49v115h82c66 0 105 -30 113 -94h6c20 60 65 106 148 106c107 0 164 -76 164 -208v-529h-148v517c0 67 -19 100 -73 100c-48 0 -95 -25 -95 -77v-340z" />
    <glyph glyph-name="iotatonos" unicode="&#x3af;" horiz-adv-x="329" 
d="M266 796l-73 -217l-95 14l35 223zM313 115v-115h-88c-102 0 -156 53 -156 153v372h148v-410h96z" />
    <glyph glyph-name="upsilondieresistonos" unicode="&#x3b0;" horiz-adv-x="582" 
d="M156 605c-42 0 -64 21 -64 58v24c0 38 22 59 64 59s64 -21 64 -58v-24c0 -38 -22 -59 -64 -59zM384 799l-73 -220l-63 11l35 226zM450 605c-42 0 -64 21 -64 58v24c0 38 22 59 64 59s64 -21 64 -58v-24c0 -38 -22 -59 -64 -59zM207 525v-315c0 -70 26 -105 84 -105
s84 35 84 105v315h148v-286c0 -166 -78 -251 -232 -251s-232 85 -232 251v286h148z" />
    <glyph glyph-name="alpha" unicode="&#x3b1;" horiz-adv-x="667" 
d="M633 115v-115h-59c-78 0 -112 26 -128 104l-9 44h-3c-32 -106 -85 -160 -183 -160c-128 0 -208 96 -208 274s80 275 208 275c98 0 157 -50 189 -160h4l18 71l23 77h148l-116 -259l60 -151h56zM264 108c32 0 60 27 82 91l22 64l-22 63c-22 64 -50 91 -82 91
c-44 0 -67 -35 -67 -115v-79c0 -80 23 -115 67 -115z" />
    <glyph glyph-name="beta" unicode="&#x3b2;" horiz-adv-x="609" 
d="M69 -200v678c0 178 77 274 232 274c164 0 233 -87 233 -192c0 -90 -42 -147 -118 -171v-5c94 -12 149 -70 149 -167c0 -134 -69 -229 -200 -229c-72 0 -128 43 -143 100h-5v-288h-148zM277 320v115h33c42 0 75 32 75 79v30c0 54 -26 91 -84 91c-50 0 -84 -38 -84 -104
v-346c0 -51 39 -80 99 -80c62 0 100 35 100 95v34c0 53 -38 86 -100 86h-39z" />
    <glyph glyph-name="gamma" unicode="&#x3b3;" horiz-adv-x="540" 
d="M192 -200v200l-135 410h-49v115h52c78 0 115 -26 138 -107l35 -125l33 -148h8l41 148l76 232h140l-191 -525v-200h-148z" />
    <glyph glyph-name="delta" unicode="&#x3b4;" horiz-adv-x="564" 
d="M481 625h-158l-93 11v-4l105 -64c142 -87 193 -185 193 -305c0 -170 -92 -275 -246 -275s-246 110 -246 262c0 156 87 242 185 242v6l-131 102v140h391v-115zM374 250c0 84 -17 132 -82 191c-67 -10 -102 -63 -102 -138v-94c0 -66 34 -104 92 -104s92 38 92 104v41z" />
    <glyph glyph-name="epsilon" unicode="&#x3b5;" horiz-adv-x="528" 
d="M431 167l74 -92c-51 -54 -130 -87 -235 -87c-141 0 -230 63 -230 160c0 74 48 115 124 125v5c-76 10 -111 48 -111 110c0 85 77 149 218 149c101 0 169 -28 225 -82l-85 -87c-34 34 -77 53 -129 53c-53 0 -80 -19 -80 -50v-10c0 -31 21 -45 59 -45h103v-98h-116
c-38 0 -59 -14 -59 -45v-11c0 -38 28 -58 99 -58c61 0 104 23 143 63z" />
    <glyph glyph-name="zeta" unicode="&#x3b6;" horiz-adv-x="438" 
d="M58 625v115h374v-116l-170 -227c-53 -71 -72 -118 -72 -162v-14c0 -44 24 -74 76 -88l74 -20c55 -15 84 -55 84 -102c0 -17 -4 -35 -12 -55l-54 -131l-120 46l48 117l-74 20c-130 35 -176 103 -176 195c0 88 19 147 127 276l127 151v5l-82 -10h-150z" />
    <glyph glyph-name="eta" unicode="&#x3b7;" horiz-adv-x="610" 
d="M231 0h-148v410h-49v115h82c66 0 105 -30 113 -94h6c20 60 65 106 148 106c107 0 164 -76 164 -208v-529h-148v517c0 67 -19 100 -73 100c-48 0 -95 -25 -95 -77v-340z" />
    <glyph glyph-name="theta" unicode="&#x3b8;" horiz-adv-x="576" 
d="M288 752c152 0 246 -95 246 -382s-94 -382 -246 -382s-246 95 -246 382s94 382 246 382zM288 105c60 0 92 32 92 155v53h-184v-53c0 -123 32 -155 92 -155zM196 480v-52h184v52c0 123 -32 155 -92 155s-92 -32 -92 -155z" />
    <glyph glyph-name="iota" unicode="&#x3b9;" horiz-adv-x="329" 
d="M313 115v-115h-88c-102 0 -156 53 -156 153v372h148v-410h96z" />
    <glyph glyph-name="kappa" unicode="&#x3ba;" horiz-adv-x="580" 
d="M393 0l-110 219l-66 -66v-153h-148v525h148v-225h6l67 88l79 89c34 38 61 48 115 48h52v-115h-61l-94 -94l185 -316h-173z" />
    <glyph glyph-name="lambda" unicode="&#x3bb;" horiz-adv-x="538" 
d="M192 525l-33 100h-86v115h89c76 0 109 -25 133 -98l172 -527h61v-115h-64c-76 0 -109 25 -133 98l-42 130l-28 124h-11l-29 -124l-77 -228h-140z" />
    <glyph glyph-name="uni03BC" unicode="&#x3bc;" horiz-adv-x="616" 
d="M216 -200h-147v725h148v-319c0 -63 21 -98 74 -98c51 0 94 29 94 77v340h148v-410h49v-115h-50c-85 0 -128 36 -142 96h-5c-16 -74 -54 -108 -108 -108c-42 0 -68 16 -94 56h-5l38 -140v-104z" />
    <glyph glyph-name="nu" unicode="&#x3bd;" horiz-adv-x="540" 
d="M354 0h-176l-121 410h-49v115h52c78 0 117 -27 138 -109l37 -142l31 -151h8l40 151l77 251h140z" />
    <glyph glyph-name="xi" unicode="&#x3be;" horiz-adv-x="441" 
d="M439 625h-131c-60 0 -94 -29 -94 -89v-16c0 -50 38 -85 100 -85h49v-115h-95c-42 0 -75 -32 -75 -77v-26c0 -47 20 -70 74 -85l70 -19c55 -15 84 -55 84 -102c0 -17 -4 -35 -12 -55l-54 -131l-120 46l48 117l-70 19c-128 35 -169 100 -169 206c0 84 55 156 149 170v5
c-82 14 -123 56 -123 122c0 48 30 91 78 107v8h-115v115h406v-115z" />
    <glyph glyph-name="omicron" unicode="&#x3bf;" horiz-adv-x="564" 
d="M282 -12c-154 0 -246 106 -246 275s92 274 246 274s246 -105 246 -274s-92 -275 -246 -275zM282 105c58 0 92 38 92 104v107c0 66 -34 104 -92 104s-92 -38 -92 -104v-107c0 -66 34 -104 92 -104z" />
    <glyph glyph-name="pi" unicode="&#x3c0;" horiz-adv-x="655" 
d="M526 410v-295h66v-115h-58c-102 0 -156 53 -156 153v257h-127v-410h-148v410h-80v115h598v-115h-95z" />
    <glyph glyph-name="rho" unicode="&#x3c1;" horiz-adv-x="577" 
d="M48 -200v463c0 178 74 274 240 274c176 0 246 -96 246 -274s-69 -275 -195 -275c-65 0 -123 43 -138 100h-5v-288h-148zM288 105c51 0 92 39 92 112v99c0 66 -34 104 -92 104s-92 -38 -92 -104v-131c0 -51 41 -80 92 -80z" />
    <glyph glyph-name="sigma1" unicode="&#x3c2;" horiz-adv-x="507" 
d="M260 -129l48 117l-63 17c-149 40 -209 108 -209 276c0 150 91 256 245 256c106 0 179 -51 210 -137l-120 -52c-9 40 -38 72 -90 72c-60 0 -91 -43 -91 -109v-58c0 -60 34 -103 109 -123l63 -17c55 -15 84 -55 84 -102c0 -17 -4 -35 -12 -55l-54 -131z" />
    <glyph glyph-name="sigma" unicode="&#x3c3;" horiz-adv-x="586" 
d="M564 410h-115v-8c52 -32 79 -77 79 -155c0 -153 -92 -259 -246 -259s-246 106 -246 269c0 169 92 268 246 268h282v-115zM330 410h-48c-58 0 -92 -34 -92 -100v-101c0 -66 34 -104 92 -104s92 38 92 104v101c0 44 -16 78 -44 100z" />
    <glyph glyph-name="tau" unicode="&#x3c4;" horiz-adv-x="500" 
d="M416 0h-98c-102 0 -156 53 -156 153v257h-142v115h452v-115h-162v-295h106v-115z" />
    <glyph glyph-name="upsilon" unicode="&#x3c5;" horiz-adv-x="582" 
d="M207 525v-315c0 -70 26 -105 84 -105s84 35 84 105v315h148v-286c0 -166 -78 -251 -232 -251s-232 85 -232 251v286h148z" />
    <glyph glyph-name="phi" unicode="&#x3c6;" horiz-adv-x="773" 
d="M311 -200v188c-164 0 -268 101 -268 277c0 122 38 222 130 272l94 -89c-50 -38 -70 -91 -70 -149v-74c0 -82 50 -122 114 -122v206c0 138 63 228 205 228s214 -73 214 -265c0 -183 -100 -284 -274 -284v-188h-145zM456 330v-227c72 0 120 40 120 122v105
c0 68 -20 92 -60 92s-60 -24 -60 -92z" />
    <glyph glyph-name="chi" unicode="&#x3c7;" horiz-adv-x="545" 
d="M19 525h69c76 0 108 -25 132 -90l58 -156h4l97 246h156l-170 -353l106 -257h66v-115h-69c-76 0 -109 26 -132 90l-61 173h-4l-103 -263h-156l177 369l-104 241h-66v115z" />
    <glyph glyph-name="psi" unicode="&#x3c8;" horiz-adv-x="759" 
d="M452 -200h-145v188c-161 0 -248 85 -248 265v272h148v-303c0 -84 35 -119 100 -119v607h145v-607c65 0 100 35 100 119v303h148v-272c0 -180 -87 -265 -248 -265v-188z" />
    <glyph glyph-name="omega" unicode="&#x3c9;" horiz-adv-x="770" 
d="M459 369v-172c0 -68 17 -92 57 -92s57 24 57 92v102c0 58 -22 109 -70 149l94 89c88 -46 130 -132 130 -288c0 -176 -75 -261 -191 -261c-80 0 -129 47 -149 137h-4c-20 -90 -69 -137 -149 -137c-116 0 -191 85 -191 261c0 150 44 242 130 288l94 -89
c-50 -38 -70 -91 -70 -149v-102c0 -68 17 -92 57 -92s57 24 57 92v172h148z" />
    <glyph glyph-name="iotadieresis" unicode="&#x3ca;" horiz-adv-x="329" 
d="M39 600c-60 0 -80 28 -80 63v25c0 35 20 63 80 63s80 -28 80 -63v-25c0 -35 -20 -63 -80 -63zM259 600c-60 0 -80 28 -80 63v25c0 35 20 63 80 63s80 -28 80 -63v-25c0 -35 -20 -63 -80 -63zM313 115v-115h-88c-102 0 -156 53 -156 153v372h148v-410h96z" />
    <glyph glyph-name="upsilondieresis" unicode="&#x3cb;" horiz-adv-x="582" 
d="M187 600c-60 0 -80 28 -80 63v25c0 35 20 63 80 63s80 -28 80 -63v-25c0 -35 -20 -63 -80 -63zM407 600c-60 0 -80 28 -80 63v25c0 35 20 63 80 63s80 -28 80 -63v-25c0 -35 -20 -63 -80 -63zM207 525v-315c0 -70 26 -105 84 -105s84 35 84 105v315h148v-286
c0 -166 -78 -251 -232 -251s-232 85 -232 251v286h148z" />
    <glyph glyph-name="omicrontonos" unicode="&#x3cc;" horiz-adv-x="564" 
d="M398 796l-73 -217l-95 14l35 223zM282 -12c-154 0 -246 106 -246 275s92 274 246 274s246 -105 246 -274s-92 -275 -246 -275zM282 105c58 0 92 38 92 104v107c0 66 -34 104 -92 104s-92 -38 -92 -104v-107c0 -66 34 -104 92 -104z" />
    <glyph glyph-name="upsilontonos" unicode="&#x3cd;" horiz-adv-x="582" 
d="M414 796l-73 -217l-95 14l35 223zM207 525v-315c0 -70 26 -105 84 -105s84 35 84 105v315h148v-286c0 -166 -78 -251 -232 -251s-232 85 -232 251v286h148z" />
    <glyph glyph-name="omegatonos" unicode="&#x3ce;" horiz-adv-x="770" 
d="M502 796l-73 -217l-95 14l35 223zM459 369v-172c0 -68 17 -92 57 -92s57 24 57 92v102c0 58 -22 109 -70 149l94 89c88 -46 130 -132 130 -288c0 -176 -75 -261 -191 -261c-80 0 -129 47 -149 137h-4c-20 -90 -69 -137 -149 -137c-116 0 -191 85 -191 261
c0 150 44 242 130 288l94 -89c-50 -38 -70 -91 -70 -149v-102c0 -68 17 -92 57 -92s57 24 57 92v172h148z" />
    <glyph glyph-name="uni0400" unicode="&#x400;" horiz-adv-x="607" 
d="M299 740l-134 176l123 61l99 -194zM552 0h-475v698h475v-135h-323v-143h277v-134h-277v-151h323v-135z" />
    <glyph glyph-name="uni0401" unicode="&#x401;" horiz-adv-x="607" 
d="M205 761c-60 0 -80 28 -80 63v25c0 35 20 63 80 63s80 -28 80 -63v-25c0 -35 -20 -63 -80 -63zM425 761c-60 0 -80 28 -80 63v25c0 35 20 63 80 63s80 -28 80 -63v-25c0 -35 -20 -63 -80 -63zM552 0h-475v698h475v-135h-323v-143h277v-134h-277v-151h323v-135z" />
    <glyph glyph-name="uni0402" unicode="&#x402;" horiz-adv-x="807" 
d="M472 -184v141h103c16 22 26 62 26 112v126c0 79 -38 119 -114 119c-53 0 -90 -6 -119 -18v-296h-152v563h-189v135h530v-135h-189v-140h5c32 14 73 23 128 23c168 0 252 -87 252 -257v-126c0 -162 -84 -247 -229 -247h-52z" />
    <glyph glyph-name="uni0403" unicode="&#x403;" horiz-adv-x="514" 
d="M432 916l-134 -176l-88 43l99 194zM77 0v698h410v-135h-258v-563h-152z" />
    <glyph glyph-name="uni0404" unicode="&#x404;" horiz-adv-x="671" 
d="M369 -12c-200 0 -319 120 -319 356s119 366 319 366c134 0 211 -54 269 -156l-127 -72c-24 56 -57 93 -142 93c-97 0 -152 -55 -158 -155h231v-134h-231v-4c4 -103 60 -159 158 -159c85 0 127 42 149 100l123 -76c-50 -100 -132 -159 -272 -159z" />
    <glyph glyph-name="uni0405" unicode="&#x405;" horiz-adv-x="624" 
d="M303 -12c-122 0 -205 47 -265 113l100 101c47 -53 107 -80 175 -80c74 0 110 33 110 84c0 38 -16 66 -81 75l-69 9c-147 19 -214 91 -214 208c0 125 98 212 262 212c105 0 185 -35 242 -98l-101 -102c-33 39 -78 66 -150 66c-68 0 -101 -26 -101 -68c0 -48 25 -66 83 -75
l69 -11c143 -23 212 -87 212 -207c0 -134 -98 -227 -272 -227z" />
    <glyph glyph-name="uni0406" unicode="&#x406;" horiz-adv-x="432" 
d="M382 0h-332v121h90v456h-90v121h332v-121h-90v-456h90v-121z" />
    <glyph glyph-name="uni0407" unicode="&#x407;" horiz-adv-x="432" 
d="M106 761c-60 0 -80 28 -80 63v25c0 35 20 63 80 63s80 -28 80 -63v-25c0 -35 -20 -63 -80 -63zM326 761c-60 0 -80 28 -80 63v25c0 35 20 63 80 63s80 -28 80 -63v-25c0 -35 -20 -63 -80 -63zM382 0h-332v121h90v456h-90v121h332v-121h-90v-456h90v-121z" />
    <glyph glyph-name="uni0408" unicode="&#x408;" horiz-adv-x="559" 
d="M122 698h364v-496c0 -128 -86 -213 -230 -213c-138 0 -211 79 -231 196l142 28c11 -59 40 -91 87 -91c44 0 80 27 80 87v367h-212v122z" />
    <glyph glyph-name="uni0409" unicode="&#x409;" horiz-adv-x="1047" 
d="M20 -6v141h83c42 46 66 129 66 341v222h465v-252h168c130 0 212 -91 212 -223s-82 -223 -212 -223h-320v563h-165v-108c0 -246 -38 -352 -90 -404c-41 -41 -85 -57 -155 -57h-52zM634 132h150c45 0 73 24 73 69v44c0 45 -28 69 -73 69h-150v-182z" />
    <glyph glyph-name="uni040A" unicode="&#x40a;" horiz-adv-x="1040" 
d="M77 0v698h152v-278h246v278h152v-252h168c130 0 212 -91 212 -223s-82 -223 -212 -223h-320v286h-246v-286h-152zM627 132h150c45 0 73 24 73 69v44c0 45 -28 69 -73 69h-150v-182z" />
    <glyph glyph-name="uni040B" unicode="&#x40b;" horiz-adv-x="817" 
d="M216 0v563h-189v135h530v-135h-189v-140h5c32 14 73 23 133 23c173 0 257 -87 257 -257v-189h-152v195c0 79 -38 119 -119 119c-58 0 -95 -6 -124 -18v-296h-152z" />
    <glyph glyph-name="uni040C" unicode="&#x40c;" horiz-adv-x="675" 
d="M504 916l-134 -176l-88 43l99 194zM77 0v698h152v-278h101l104 195c30 56 66 83 125 83h62v-135h-62l-72 -136c-19 -36 -41 -54 -73 -64v-6c34 -6 58 -25 77 -63l82 -159h62v-135h-79c-56 0 -88 20 -122 85l-104 201h-101v-286h-152z" />
    <glyph glyph-name="uni040D" unicode="&#x40d;" horiz-adv-x="724" 
d="M348 740l-134 176l123 61l99 -194zM77 0v698h148v-341l-16 -147h3l69 133l230 355h136v-698h-148v341l16 147h-3l-69 -133l-230 -355h-136z" />
    <glyph glyph-name="uni040E" unicode="&#x40e;" horiz-adv-x="631" 
d="M318 740c-88 0 -141 40 -171 112l-21 51l115 43l32 -101c8 -4 28 -7 45 -7s37 3 45 7l32 101l115 -43l-21 -51c-30 -72 -83 -112 -171 -112zM119 0v135h122l15 38l-244 525h160l98 -217l58 -139h3l51 140l86 216h149l-246 -600c-30 -72 -69 -98 -152 -98h-100z" />
    <glyph glyph-name="uni040F" unicode="&#x40f;" horiz-adv-x="709" 
d="M283 -150v150h-206v698h152v-563h251v563h152v-698h-206v-150h-143z" />
    <glyph glyph-name="uni0410" unicode="&#x410;" horiz-adv-x="685" 
d="M665 0h-158l-50 166h-233l-50 -166h-154l230 698h188zM420 295l-78 265h-5l-77 -265h160z" />
    <glyph glyph-name="uni0411" unicode="&#x411;" horiz-adv-x="657" 
d="M77 0v698h472v-135h-320v-131h178c130 0 212 -91 212 -217c0 -124 -82 -215 -212 -215h-330zM229 132h160c45 0 73 24 73 69v30c0 45 -28 69 -73 69h-160v-168z" />
    <glyph glyph-name="uni0412" unicode="&#x412;" horiz-adv-x="667" 
d="M77 0v698h339c115 0 184 -71 184 -179c0 -107 -59 -147 -130 -150v-6c66 0 157 -44 157 -164c0 -110 -77 -199 -180 -199h-370zM229 288v-160h175c40 0 65 23 65 63v34c0 40 -25 63 -65 63h-175zM229 570v-158h151c40 0 64 24 64 64v30c0 40 -24 64 -64 64h-151z" />
    <glyph glyph-name="uni0413" unicode="&#x413;" horiz-adv-x="514" 
d="M77 0v698h410v-135h-258v-563h-152z" />
    <glyph glyph-name="uni0414" unicode="&#x414;" horiz-adv-x="815" 
d="M17 -150v285h76c46 44 81 133 81 341v222h501v-563h113v-285h-143v150h-485v-150h-143zM265 135h258v429h-201v-109c0 -183 -21 -265 -57 -317v-3z" />
    <glyph glyph-name="uni0415" unicode="&#x415;" horiz-adv-x="607" 
d="M552 0h-475v698h475v-135h-323v-143h277v-134h-277v-151h323v-135z" />
    <glyph glyph-name="uni0416" unicode="&#x416;" horiz-adv-x="1006" 
d="M40 0v135h62l77 163c17 36 41 54 75 59v6c-32 9 -53 26 -73 66l-65 134h-62v135h63c59 0 97 -26 125 -84l94 -194h91v278h152v-278h91l94 194c28 58 66 84 125 84h62v-135h-62l-64 -134c-20 -40 -41 -57 -73 -66v-6c34 -5 58 -23 75 -59l77 -163h62v-135h-80
c-56 0 -91 20 -122 87l-94 199h-91v-286h-152v286h-91l-94 -199c-31 -67 -66 -87 -122 -87h-80z" />
    <glyph glyph-name="uni0417" unicode="&#x417;" horiz-adv-x="608" 
d="M285 -12c-102 0 -188 33 -256 103l100 101c42 -44 94 -69 156 -69c80 0 122 30 122 80v8c0 53 -31 75 -99 75h-121v134h115c62 0 93 25 93 77v5c0 48 -35 73 -105 73c-55 0 -113 -23 -149 -63l-92 96c58 64 145 102 241 102c165 0 266 -75 266 -195
c0 -95 -65 -140 -145 -148v-6c80 -4 157 -53 157 -154c0 -130 -109 -219 -283 -219z" />
    <glyph glyph-name="uni0418" unicode="&#x418;" horiz-adv-x="724" 
d="M77 0v698h148v-341l-16 -147h3l69 133l230 355h136v-698h-148v341l16 147h-3l-69 -133l-230 -355h-136z" />
    <glyph glyph-name="uni0419" unicode="&#x419;" horiz-adv-x="724" 
d="M364 740c-88 0 -141 40 -171 112l-21 51l115 43l32 -101c8 -4 28 -7 45 -7s37 3 45 7l32 101l115 -43l-21 -51c-30 -72 -83 -112 -171 -112zM77 0v698h148v-341l-16 -147h3l69 133l230 355h136v-698h-148v341l16 147h-3l-69 -133l-230 -355h-136z" />
    <glyph glyph-name="uni041A" unicode="&#x41a;" horiz-adv-x="675" 
d="M77 0v698h152v-278h101l104 195c30 56 66 83 125 83h62v-135h-62l-72 -136c-19 -36 -41 -54 -73 -64v-6c34 -6 58 -25 77 -63l82 -159h62v-135h-79c-56 0 -88 20 -122 85l-104 201h-101v-286h-152z" />
    <glyph glyph-name="uni041B" unicode="&#x41b;" horiz-adv-x="739" 
d="M20 -6v141h83c42 46 66 129 66 341v222h493v-698h-152v563h-193v-108c0 -246 -38 -352 -90 -404c-41 -41 -85 -57 -155 -57h-52z" />
    <glyph glyph-name="uni041C" unicode="&#x41c;" horiz-adv-x="819" 
d="M599 0v458h-3l-51 -102l-136 -247l-133 246l-53 110h-3v-465h-143v698h161l171 -327h2l169 327h162v-698h-143z" />
    <glyph glyph-name="uni041D" unicode="&#x41d;" horiz-adv-x="724" 
d="M495 0v286h-266v-286h-152v698h152v-278h266v278h152v-698h-152z" />
    <glyph glyph-name="uni041E" unicode="&#x41e;" horiz-adv-x="714" 
d="M357 -12c-185 0 -307 124 -307 361s122 361 307 361s307 -124 307 -361s-122 -361 -307 -361zM357 123c91 0 146 63 146 174v104c0 111 -55 174 -146 174s-146 -63 -146 -174v-104c0 -111 55 -174 146 -174z" />
    <glyph glyph-name="uni041F" unicode="&#x41f;" horiz-adv-x="709" 
d="M77 0v698h555v-698h-152v563h-251v-563h-152z" />
    <glyph glyph-name="uni0420" unicode="&#x420;" horiz-adv-x="656" 
d="M229 0h-152v698h330c130 0 212 -91 212 -223s-82 -223 -212 -223h-178v-252zM229 566v-182h160c45 0 73 24 73 69v44c0 45 -28 69 -73 69h-160z" />
    <glyph glyph-name="uni0421" unicode="&#x421;" horiz-adv-x="651" 
d="M359 -12c-188 0 -309 120 -309 356s121 366 309 366c128 0 210 -52 261 -164l-131 -68c-18 58 -55 97 -130 97c-89 0 -148 -60 -148 -170v-112c0 -110 59 -170 148 -170c75 0 118 47 139 104l124 -72c-52 -106 -135 -167 -263 -167z" />
    <glyph glyph-name="uni0422" unicode="&#x422;" horiz-adv-x="584" 
d="M557 563h-189v-563h-152v563h-189v135h530v-135z" />
    <glyph glyph-name="uni0423" unicode="&#x423;" horiz-adv-x="631" 
d="M119 0v135h122l15 38l-244 525h160l98 -217l58 -139h3l51 140l86 216h149l-246 -600c-30 -72 -69 -98 -152 -98h-100z" />
    <glyph glyph-name="uni0424" unicode="&#x424;" horiz-adv-x="904" 
d="M375 -44v90h-41c-177 0 -299 131 -299 301s118 303 299 303h41v90h154v-90h41c181 0 299 -133 299 -303s-122 -301 -299 -301h-41v-90h-154zM334 171h44v354h-44c-100 0 -143 -64 -143 -146v-62c0 -84 47 -146 143 -146zM526 171h44c96 0 143 62 143 146v62
c0 82 -43 146 -143 146h-44v-354z" />
    <glyph glyph-name="uni0425" unicode="&#x425;" horiz-adv-x="673" 
d="M16 0l224 361l-213 337h177l136 -236h3l138 236h164l-215 -340l227 -358h-176l-151 257h-3l-147 -257h-164z" />
    <glyph glyph-name="uni0426" unicode="&#x426;" horiz-adv-x="772" 
d="M602 -150v150h-525v698h152v-563h251v563h152v-563h113v-285h-143z" />
    <glyph glyph-name="uni0427" unicode="&#x427;" horiz-adv-x="678" 
d="M449 0v247h-5c-32 -14 -73 -23 -133 -23c-173 0 -257 87 -257 257v217h152v-223c0 -79 38 -119 119 -119c58 0 95 6 124 18v324h152v-698h-152z" />
    <glyph glyph-name="uni0428" unicode="&#x428;" horiz-adv-x="1030" 
d="M77 0v698h152v-563h211v563h152v-563h209v563h152v-698h-876z" />
    <glyph glyph-name="uni0429" unicode="&#x429;" horiz-adv-x="1093" 
d="M923 -150v150h-846v698h152v-563h210v563h152v-563h210v563h152v-563h113v-285h-143z" />
    <glyph glyph-name="uni042A" unicode="&#x42a;" horiz-adv-x="758" 
d="M173 0v563h-151v135h303v-252h188c130 0 212 -91 212 -223s-82 -223 -212 -223h-340zM325 132h170c45 0 73 24 73 69v44c0 45 -28 69 -73 69h-170v-182z" />
    <glyph glyph-name="uni042B" unicode="&#x42b;" horiz-adv-x="933" 
d="M77 0v698h152v-252h178c130 0 212 -91 212 -223s-82 -223 -212 -223h-330zM229 132h160c45 0 73 24 73 69v44c0 45 -28 69 -73 69h-160v-182zM704 0v698h152v-698h-152z" />
    <glyph glyph-name="uni042C" unicode="&#x42c;" horiz-adv-x="662" 
d="M77 0v698h152v-252h188c130 0 212 -91 212 -223s-82 -223 -212 -223h-340zM229 132h170c45 0 73 24 73 69v44c0 45 -28 69 -73 69h-170v-182z" />
    <glyph glyph-name="uni042D" unicode="&#x42d;" horiz-adv-x="671" 
d="M229 286v134h231c0 100 -62 155 -157 155c-85 0 -118 -37 -142 -93l-127 72c58 102 135 156 269 156c198 0 318 -120 318 -356s-120 -366 -318 -366c-140 0 -223 59 -273 159l124 76c22 -58 64 -100 149 -100c95 0 157 54 157 155v8h-231z" />
    <glyph glyph-name="uni042E" unicode="&#x42e;" horiz-adv-x="1016" 
d="M659 -12c-170 0 -283 103 -305 298h-125v-286h-152v698h152v-278h127c20 190 139 290 303 290c185 0 307 -124 307 -361s-122 -361 -307 -361zM659 123c91 0 146 63 146 174v104c0 111 -55 174 -146 174s-146 -63 -146 -174v-104c0 -111 55 -174 146 -174z" />
    <glyph glyph-name="uni042F" unicode="&#x42f;" horiz-adv-x="678" 
d="M42 0v135h62l57 89c16 25 32 40 68 46v6c-102 10 -170 84 -170 199c0 133 82 223 211 223h331v-698h-152v256h-92l-117 -183c-38 -60 -70 -73 -124 -73h-74zM289 384h160v182h-160c-45 0 -73 -24 -73 -69v-43c0 -46 28 -70 73 -70z" />
    <glyph glyph-name="uni0430" unicode="&#x430;" horiz-adv-x="569" 
d="M539 0h-82c-53 0 -91 36 -100 92h-6c-16 -68 -74 -104 -154 -104c-105 0 -163 62 -163 153c0 111 86 164 225 164h83v33c0 51 -25 83 -87 83c-59 0 -90 -30 -113 -62l-88 78c42 62 102 100 212 100c148 0 224 -68 224 -192v-230h49v-115zM252 91c49 0 90 20 90 68v62h-72
c-57 0 -87 -21 -87 -59v-15c0 -38 25 -56 69 -56z" />
    <glyph glyph-name="uni0431" unicode="&#x431;" horiz-adv-x="567" 
d="M286 -12c-155 0 -246 103 -246 337c0 266 88 390 286 410l170 17v-142l-171 -17c-98 -10 -127 -52 -131 -186h5c22 68 63 103 137 103c110 0 195 -93 195 -247c0 -170 -91 -275 -245 -275zM286 105c58 0 92 38 92 104v80c0 66 -34 104 -92 104s-92 -38 -92 -104v-80
c0 -66 34 -104 92 -104z" />
    <glyph glyph-name="uni0432" unicode="&#x432;" horiz-adv-x="576" 
d="M69 0v525h299c96 0 148 -53 148 -132c0 -67 -35 -105 -111 -115v-5c86 -8 131 -50 131 -121c0 -93 -62 -152 -166 -152h-301zM213 105h130c27 0 44 15 44 42v31c0 27 -17 43 -44 43h-130v-116zM213 309h112c26 0 42 16 42 42v27c0 26 -16 42 -42 42h-112v-111z" />
    <glyph glyph-name="uni0433" unicode="&#x433;" horiz-adv-x="444" 
d="M69 0v525h355v-115h-207v-410h-148z" />
    <glyph glyph-name="uni0434" unicode="&#x434;" horiz-adv-x="658" 
d="M10 -140v255h69c36 51 52 124 52 261v149h422v-410h90v-255h-134v140h-365v-140h-134zM234 115h171v295h-132v-42c0 -144 -17 -215 -39 -253z" />
    <glyph glyph-name="uni0435" unicode="&#x435;" horiz-adv-x="562" 
d="M288 -12c-161 0 -252 107 -252 275c0 166 88 274 246 274c174 0 244 -126 244 -268v-44h-337v-8c0 -69 37 -113 116 -113c62 0 96 29 129 63l74 -92c-47 -54 -124 -87 -220 -87zM285 428c-59 0 -96 -43 -96 -108v-8h184v9c0 64 -29 107 -88 107z" />
    <glyph glyph-name="uni0436" unicode="&#x436;" horiz-adv-x="866" 
d="M40 0v115h54l55 108c14 26 34 40 58 45v5c-24 6 -44 23 -56 47l-45 90h-54v115h61c56 0 89 -21 116 -74l64 -127h66v201h148v-201h66l64 127c27 53 60 74 116 74h61v-115h-54l-45 -90c-12 -24 -32 -41 -56 -47v-5c24 -5 44 -19 58 -45l55 -108h54v-115h-67
c-56 0 -89 20 -117 75l-69 134h-66v-209h-148v209h-66l-69 -134c-28 -55 -61 -75 -117 -75h-67z" />
    <glyph glyph-name="uni0437" unicode="&#x437;" horiz-adv-x="531" 
d="M252 -12c-103 0 -171 34 -229 94l87 88c38 -43 87 -66 143 -66c60 0 89 22 89 58v11c0 31 -21 45 -59 45h-116v98h103c38 0 59 14 59 45v10c0 31 -27 50 -80 50c-54 0 -101 -24 -127 -62l-88 78c52 64 126 100 226 100c145 0 218 -60 218 -144c0 -67 -35 -105 -111 -115
v-5c76 -8 124 -51 124 -117c0 -105 -89 -168 -239 -168z" />
    <glyph glyph-name="uni0438" unicode="&#x438;" horiz-adv-x="612" 
d="M69 0v525h145v-211l-13 -122h3l61 112l146 221h132v-525h-145v211l13 122h-3l-61 -112l-146 -221h-132z" />
    <glyph glyph-name="uni0439" unicode="&#x439;" horiz-adv-x="612" 
d="M307 579c-88 0 -141 40 -171 112l-21 51l115 43l32 -101c8 -4 28 -7 45 -7s37 3 45 7l32 101l115 -43l-21 -51c-30 -72 -83 -112 -171 -112zM69 0v525h145v-211l-13 -122h3l61 112l146 221h132v-525h-145v211l13 122h-3l-61 -112l-146 -221h-132z" />
    <glyph glyph-name="uni043A" unicode="&#x43a;" horiz-adv-x="591" 
d="M69 0v525h148v-201h76l69 128c28 52 60 73 116 73h61v-115h-53l-45 -84c-18 -34 -35 -47 -59 -53v-5c23 -5 42 -17 58 -46l59 -107h54v-115h-69c-56 0 -87 21 -117 75l-74 134h-76v-209h-148z" />
    <glyph glyph-name="uni043B" unicode="&#x43b;" horiz-adv-x="611" 
d="M15 -6v121h68c26 36 42 100 42 244v166h417v-525h-148v410h-127v-59c0 -182 -29 -269 -73 -313c-32 -32 -72 -44 -134 -44h-45z" />
    <glyph glyph-name="uni043C" unicode="&#x43c;" horiz-adv-x="726" 
d="M69 0v525h160l132 -215h4l132 215h160v-525h-144v341h-3l-40 -73l-107 -174l-107 174l-40 73h-3v-341h-144z" />
    <glyph glyph-name="uni043D" unicode="&#x43d;" horiz-adv-x="612" 
d="M69 0v525h148v-201h178v201h148v-525h-148v209h-178v-209h-148z" />
    <glyph glyph-name="uni043E" unicode="&#x43e;" horiz-adv-x="564" 
d="M282 -12c-154 0 -246 106 -246 275s92 274 246 274s246 -105 246 -274s-92 -275 -246 -275zM282 105c58 0 92 38 92 104v107c0 66 -34 104 -92 104s-92 -38 -92 -104v-107c0 -66 34 -104 92 -104z" />
    <glyph glyph-name="uni043F" unicode="&#x43f;" horiz-adv-x="597" 
d="M69 0v525h459v-525h-148v410h-163v-410h-148z" />
    <glyph glyph-name="uni0440" unicode="&#x440;" horiz-adv-x="608" 
d="M69 -200v725h148v-88h5c15 58 73 100 141 100c133 0 202 -96 202 -274s-69 -275 -202 -275c-68 0 -126 43 -141 100h-5v-288h-148zM314 108c56 0 97 43 97 109v91c0 66 -41 109 -97 109s-97 -29 -97 -77v-155c0 -48 41 -77 97 -77z" />
    <glyph glyph-name="uni0441" unicode="&#x441;" horiz-adv-x="517" 
d="M281 -12c-158 0 -245 107 -245 275s87 274 245 274c106 0 179 -51 210 -137l-120 -52c-9 40 -38 72 -90 72c-60 0 -91 -43 -91 -109v-98c0 -66 31 -108 91 -108c59 0 83 36 98 78l115 -50c-35 -100 -110 -145 -213 -145z" />
    <glyph glyph-name="uni0442" unicode="&#x442;" horiz-adv-x="492" 
d="M172 0v410h-152v115h452v-115h-152v-410h-148z" />
    <glyph glyph-name="uni0443" unicode="&#x443;" horiz-adv-x="534" 
d="M313 280l77 245h138l-202 -606c-27 -81 -71 -119 -161 -119h-92v115h99l18 58l-184 552h147l77 -245l38 -152h6z" />
    <glyph glyph-name="uni0444" unicode="&#x444;" horiz-adv-x="804" 
d="M328 -200v256h-5c-24 -46 -63 -68 -115 -68c-117 0 -168 78 -168 274s51 275 168 275c52 0 91 -24 115 -70h5v243h148v-243h5c24 46 63 70 115 70c117 0 168 -79 168 -275s-51 -274 -168 -274c-52 0 -91 22 -115 68h-5v-256h-148zM267 94c44 0 61 24 61 58v221
c0 34 -17 58 -61 58c-54 0 -75 -37 -75 -117v-103c0 -80 21 -117 75 -117zM537 94c54 0 75 37 75 117v103c0 80 -21 117 -75 117c-44 0 -61 -24 -61 -58v-221c0 -34 17 -58 61 -58z" />
    <glyph glyph-name="uni0445" unicode="&#x445;" horiz-adv-x="560" 
d="M172 0h-154l173 267l-171 258h168l98 -165h4l95 165h156l-174 -263l175 -262h-168l-101 171h-4z" />
    <glyph glyph-name="uni0446" unicode="&#x446;" horiz-adv-x="633" 
d="M484 -140v140h-415v525h148v-410h163v410h148v-410h90v-255h-134z" />
    <glyph glyph-name="uni0447" unicode="&#x447;" horiz-adv-x="578" 
d="M361 0v223h-5c-24 -42 -68 -69 -136 -69c-118 0 -170 61 -170 187v184h148v-177c0 -52 23 -74 79 -74s84 23 84 53v198h148v-525h-148z" />
    <glyph glyph-name="uni0448" unicode="&#x448;" horiz-adv-x="844" 
d="M69 0v525h148v-410h131v410h148v-410h131v410h148v-525h-706z" />
    <glyph glyph-name="uni0449" unicode="&#x449;" horiz-adv-x="880" 
d="M731 -140v140h-662v525h148v-410h131v410h148v-410h131v410h148v-410h90v-255h-134z" />
    <glyph glyph-name="uni044A" unicode="&#x44a;" horiz-adv-x="639" 
d="M147 0v410h-127v115h275v-156h138c102 0 181 -65 181 -184c0 -120 -79 -185 -181 -185h-286zM295 105h106c39 0 64 21 64 60v39c0 39 -25 60 -64 60h-106v-159z" />
    <glyph glyph-name="uni044B" unicode="&#x44b;" horiz-adv-x="809" 
d="M69 0v525h148v-156h127c102 0 181 -65 181 -184c0 -120 -79 -185 -181 -185h-275zM217 105h95c39 0 64 21 64 60v39c0 39 -25 60 -64 60h-95v-159zM592 0v525h148v-525h-148z" />
    <glyph glyph-name="uni044C" unicode="&#x44c;" horiz-adv-x="561" 
d="M69 0v525h148v-156h138c102 0 181 -65 181 -184c0 -120 -79 -185 -181 -185h-286zM217 105h106c39 0 64 21 64 60v39c0 39 -25 60 -64 60h-106v-159z" />
    <glyph glyph-name="uni044D" unicode="&#x44d;" horiz-adv-x="535" 
d="M181 218v98h164v3c0 60 -34 102 -98 102c-63 0 -89 -25 -103 -69l-118 61c38 76 102 124 221 124c167 0 252 -106 252 -274s-87 -275 -255 -275c-113 0 -171 38 -221 132l113 59c20 -52 51 -75 108 -75c70 0 101 37 101 109v5h-164z" />
    <glyph glyph-name="uni044E" unicode="&#x44e;" horiz-adv-x="822" 
d="M545 -12c-137 0 -221 83 -238 221h-90v-209h-148v525h148v-201h91c19 133 102 213 237 213c154 0 241 -105 241 -274s-87 -275 -241 -275zM545 105c58 0 87 38 87 104v107c0 66 -29 104 -87 104s-87 -38 -87 -104v-107c0 -66 29 -104 87 -104z" />
    <glyph glyph-name="uni044F" unicode="&#x44f;" horiz-adv-x="585" 
d="M43 0v115h56l24 47c12 24 31 38 55 40v5c-78 10 -129 57 -129 143c0 109 79 175 181 175h286v-525h-148v183h-81l-55 -108c-28 -55 -62 -75 -118 -75h-71zM262 288h106v132h-106c-39 0 -64 -21 -64 -60v-17c0 -32 25 -55 64 -55z" />
    <glyph glyph-name="uni0450" unicode="&#x450;" horiz-adv-x="562" 
d="M271 579l-134 176l123 61l99 -194zM288 -12c-161 0 -252 107 -252 275c0 166 88 274 246 274c174 0 244 -126 244 -268v-44h-337v-8c0 -69 37 -113 116 -113c62 0 96 29 129 63l74 -92c-47 -54 -124 -87 -220 -87zM285 428c-59 0 -96 -43 -96 -108v-8h184v9
c0 64 -29 107 -88 107z" />
    <glyph glyph-name="uni0451" unicode="&#x451;" horiz-adv-x="562" 
d="M177 600c-60 0 -80 28 -80 63v25c0 35 20 63 80 63s80 -28 80 -63v-25c0 -35 -20 -63 -80 -63zM397 600c-60 0 -80 28 -80 63v25c0 35 20 63 80 63s80 -28 80 -63v-25c0 -35 -20 -63 -80 -63zM288 -12c-161 0 -252 107 -252 275c0 166 88 274 246 274
c174 0 244 -126 244 -268v-44h-337v-8c0 -69 37 -113 116 -113c62 0 96 29 129 63l74 -92c-47 -54 -124 -87 -220 -87zM285 428c-59 0 -96 -43 -96 -108v-8h184v9c0 64 -29 107 -88 107z" />
    <glyph glyph-name="uni0452" unicode="&#x452;" horiz-adv-x="602" 
d="M307 -200v115h78v402c0 67 -19 100 -73 100c-48 0 -95 -25 -95 -77v-340h-148v590h-62v100h62v50h148v-50h140v-100h-140v-154h6c19 55 63 101 146 101c107 0 164 -76 164 -208v-385c0 -93 -45 -144 -148 -144h-78z" />
    <glyph glyph-name="uni0453" unicode="&#x453;" horiz-adv-x="444" 
d="M388 755l-134 -176l-88 43l99 194zM69 0v525h355v-115h-207v-410h-148z" />
    <glyph glyph-name="uni0454" unicode="&#x454;" horiz-adv-x="535" 
d="M291 -12c-168 0 -255 107 -255 275s87 274 252 274c121 0 183 -48 221 -124l-118 -61c-14 44 -40 69 -103 69c-65 0 -97 -42 -98 -105h164v-98h-164v-5c0 -66 31 -109 101 -109c57 0 88 23 108 75l113 -59c-50 -94 -108 -132 -221 -132z" />
    <glyph glyph-name="uni0455" unicode="&#x455;" horiz-adv-x="504" 
d="M247 -12c-101 0 -167 34 -221 94l87 88c37 -41 82 -67 139 -67c58 0 78 19 78 50c0 26 -16 39 -53 44l-57 7c-119 15 -177 67 -177 162c0 101 79 171 204 171c110 0 161 -30 214 -82l-85 -87c-33 33 -77 54 -121 54c-50 0 -70 -18 -70 -44c0 -28 12 -43 55 -49l59 -8
c114 -15 173 -67 173 -158c0 -101 -90 -175 -225 -175z" />
    <glyph glyph-name="uni0456" unicode="&#x456;" horiz-adv-x="286" 
d="M143 581c-60 0 -86 31 -86 73v22c0 42 26 73 86 73s86 -31 86 -73v-22c0 -42 -26 -73 -86 -73zM69 0v525h148v-525h-148z" />
    <glyph glyph-name="uni0457" unicode="&#x457;" horiz-adv-x="286" 
d="M33 600c-60 0 -80 28 -80 63v25c0 35 20 63 80 63s80 -28 80 -63v-25c0 -35 -20 -63 -80 -63zM253 600c-60 0 -80 28 -80 63v25c0 35 20 63 80 63s80 -28 80 -63v-25c0 -35 -20 -63 -80 -63zM217 0h-148v525h148v-525z" />
    <glyph glyph-name="uni0458" unicode="&#x458;" horiz-adv-x="286" 
d="M69 -85v610h148v-581c0 -93 -45 -144 -148 -144h-78v115h78zM143 581c-60 0 -86 31 -86 73v22c0 42 26 73 86 73s86 -31 86 -73v-22c0 -42 -26 -73 -86 -73z" />
    <glyph glyph-name="uni0459" unicode="&#x459;" horiz-adv-x="863" 
d="M15 -6v121h68c26 36 42 100 42 244v166h405v-156h127c102 0 181 -65 181 -184c0 -120 -79 -185 -181 -185h-275v410h-115v-59c0 -182 -29 -269 -73 -313c-32 -32 -72 -44 -134 -44h-45zM530 105h95c39 0 64 21 64 60v39c0 39 -25 60 -64 60h-95v-159z" />
    <glyph glyph-name="uni045A" unicode="&#x45a;" horiz-adv-x="869" 
d="M69 0v525h148v-201h171v201h148v-156h127c102 0 181 -65 181 -184c0 -120 -79 -185 -181 -185h-275v209h-171v-209h-148zM536 105h95c39 0 64 21 64 60v39c0 39 -25 60 -64 60h-95v-159z" />
    <glyph glyph-name="uni045B" unicode="&#x45b;" horiz-adv-x="596" 
d="M217 0h-148v590h-62v100h62v50h148v-50h140v-100h-140v-154h6c19 55 63 101 146 101c107 0 164 -76 164 -208v-329h-148v317c0 67 -19 100 -73 100c-48 0 -95 -25 -95 -77v-340z" />
    <glyph glyph-name="uni045C" unicode="&#x45c;" horiz-adv-x="591" 
d="M452 755l-134 -176l-88 43l99 194zM69 0v525h148v-201h76l69 128c28 52 60 73 116 73h61v-115h-53l-45 -84c-18 -34 -35 -47 -59 -53v-5c23 -5 42 -17 58 -46l59 -107h54v-115h-69c-56 0 -87 21 -117 75l-74 134h-76v-209h-148z" />
    <glyph glyph-name="uni045D" unicode="&#x45d;" horiz-adv-x="612" 
d="M291 579l-134 176l123 61l99 -194zM69 0v525h145v-211l-13 -122h3l61 112l146 221h132v-525h-145v211l13 122h-3l-61 -112l-146 -221h-132z" />
    <glyph glyph-name="uni045E" unicode="&#x45e;" horiz-adv-x="534" 
d="M271 579c-88 0 -141 40 -171 112l-21 51l115 43l32 -101c8 -4 28 -7 45 -7s37 3 45 7l32 101l115 -43l-21 -51c-30 -72 -83 -112 -171 -112zM313 280l77 245h138l-202 -606c-27 -81 -71 -119 -161 -119h-92v115h99l18 58l-184 552h147l77 -245l38 -152h6z" />
    <glyph glyph-name="uni045F" unicode="&#x45f;" horiz-adv-x="598" 
d="M232 -140v140h-163v525h148v-410h164v410h148v-525h-163v-140h-134z" />
    <glyph glyph-name="uni0472" unicode="&#x472;" horiz-adv-x="714" 
d="M357 -12c-185 0 -307 124 -307 361s122 361 307 361s307 -124 307 -361s-122 -361 -307 -361zM357 113c93 0 152 60 156 172h-312c3 -112 63 -172 156 -172zM357 585c-92 0 -151 -58 -156 -166h312c-5 108 -64 166 -156 166z" />
    <glyph glyph-name="uni0473" unicode="&#x473;" horiz-adv-x="564" 
d="M282 -12c-154 0 -246 106 -246 275s92 274 246 274s246 -105 246 -274s-92 -275 -246 -275zM282 95c63 0 102 39 102 110v10h-204v-10c0 -71 39 -110 102 -110zM180 320v-7h204v7c0 71 -39 110 -102 110s-102 -39 -102 -110z" />
    <glyph glyph-name="uni0490" unicode="&#x490;" horiz-adv-x="514" 
d="M77 0v698h267v150h143v-285h-258v-563h-152z" />
    <glyph glyph-name="uni0491" unicode="&#x491;" horiz-adv-x="444" 
d="M69 0v525h221v140h134v-255h-207v-410h-148z" />
    <glyph glyph-name="uni0492" unicode="&#x492;" horiz-adv-x="545" 
d="M108 0v282h-86v114h86v302h410v-135h-258v-167h172v-114h-172v-282h-152z" />
    <glyph glyph-name="uni0493" unicode="&#x493;" horiz-adv-x="461" 
d="M86 0v205h-64v98h64v222h355v-115h-207v-107h123v-98h-123v-205h-148z" />
    <glyph glyph-name="uni0494" unicode="&#x494;" horiz-adv-x="668" 
d="M323 -184v141h103c22 24 36 66 36 124v64c0 79 -38 119 -114 119c-53 0 -90 -6 -119 -18v-246h-152v698h410v-135h-258v-190h5c32 14 73 23 128 23c168 0 252 -87 252 -257v-65c0 -176 -94 -258 -239 -258h-52z" />
    <glyph glyph-name="uni0495" unicode="&#x495;" horiz-adv-x="574" 
d="M273 -200v115h84c16 18 23 42 23 96v95c0 66 -23 86 -79 86s-84 -23 -84 -53v-139h-148v525h355v-115h-207v-167h5c24 42 68 69 136 69c118 0 170 -59 170 -199v-114c0 -138 -62 -199 -190 -199h-65z" />
    <glyph glyph-name="uni0496" unicode="&#x496;" horiz-adv-x="1029" 
d="M874 -150v150c-49 3 -82 25 -110 87l-94 199h-91v-286h-152v286h-91l-94 -199c-31 -67 -66 -87 -122 -87h-80v135h62l77 163c17 36 41 54 75 59v6c-32 9 -53 26 -73 66l-65 134h-62v135h63c59 0 97 -26 125 -84l94 -194h91v278h152v-278h91l94 194c28 58 66 84 125 84h62
v-135h-62l-64 -134c-20 -40 -41 -57 -73 -66v-6c34 -5 58 -23 75 -59l77 -163h113v-285h-143z" />
    <glyph glyph-name="uni0497" unicode="&#x497;" horiz-adv-x="874" 
d="M728 -140v142c-39 7 -64 28 -86 73l-69 134h-66v-209h-148v209h-66l-69 -134c-28 -55 -61 -75 -117 -75h-67v115h54l55 108c14 26 34 40 58 45v5c-24 6 -44 23 -56 47l-45 90h-54v115h61c56 0 89 -21 116 -74l64 -127h66v201h148v-201h66l64 127c27 53 60 74 116 74h61
v-115h-54l-45 -90c-12 -24 -32 -41 -56 -47v-5c24 -5 44 -19 58 -45l55 -108h90v-255h-134z" />
    <glyph glyph-name="uni0498" unicode="&#x498;" horiz-adv-x="608" 
d="M214 -150v144c-72 12 -134 44 -185 97l100 101c42 -44 94 -69 156 -69c80 0 122 30 122 80v8c0 53 -31 75 -99 75h-121v134h115c62 0 93 25 93 77v5c0 48 -35 73 -105 73c-55 0 -113 -23 -149 -63l-92 96c58 64 145 102 241 102c165 0 266 -75 266 -195
c0 -95 -65 -140 -145 -148v-6c80 -4 157 -53 157 -154c0 -111 -80 -192 -211 -213v-144h-143z" />
    <glyph glyph-name="uni0499" unicode="&#x499;" horiz-adv-x="531" 
d="M186 -140v134c-68 11 -119 42 -163 88l87 88c38 -43 87 -66 143 -66c60 0 89 22 89 58v11c0 31 -21 45 -59 45h-116v98h103c38 0 59 14 59 45v10c0 31 -27 50 -80 50c-54 0 -101 -24 -127 -62l-88 78c52 64 126 100 226 100c145 0 218 -60 218 -144
c0 -67 -35 -105 -111 -115v-5c76 -8 124 -51 124 -117c0 -88 -63 -147 -171 -163v-133h-134z" />
    <glyph glyph-name="uni049A" unicode="&#x49a;" horiz-adv-x="698" 
d="M543 -150v150c-48 3 -78 25 -109 85l-104 201h-101v-286h-152v698h152v-278h101l104 195c29 57 66 83 125 83h62v-135h-62l-72 -136c-19 -36 -41 -54 -73 -64v-6c34 -6 58 -25 77 -63l82 -159h113v-285h-143z" />
    <glyph glyph-name="uni049B" unicode="&#x49b;" horiz-adv-x="601" 
d="M455 -140v142c-39 6 -64 29 -88 73l-74 134h-76v-209h-148v525h148v-201h76l69 128c28 52 60 73 116 73h61v-115h-53l-45 -84c-18 -34 -35 -47 -59 -53v-5c23 -5 42 -17 58 -46l59 -107h90v-255h-134z" />
    <glyph glyph-name="uni049C" unicode="&#x49c;" horiz-adv-x="755" 
d="M77 0v698h152v-278h42v133h114v-133h35l94 195c30 56 66 83 125 83h62v-135h-62l-63 -132c-16 -34 -38 -56 -72 -68v-6c34 -8 59 -27 77 -67l72 -155h62v-135h-79c-56 0 -91 18 -122 85l-94 201h-35v-133h-114v133h-42v-286h-152z" />
    <glyph glyph-name="uni049D" unicode="&#x49d;" horiz-adv-x="671" 
d="M69 0v525h148v-201h41v114h94v-114h31l55 116c28 60 61 85 120 85h61v-115h-53l-40 -84c-17 -35 -32 -47 -54 -53v-5c24 -6 41 -16 55 -46l52 -107h54v-115h-69c-58 0 -92 25 -118 79l-63 130h-31v-114h-94v114h-41v-209h-148z" />
    <glyph glyph-name="uni04A0" unicode="&#x4a0;" horiz-adv-x="771" 
d="M173 0v563h-151v135h303v-278h101l104 195c29 57 66 83 125 83h62v-135h-62l-72 -136c-19 -36 -41 -54 -73 -64v-6c34 -6 58 -25 77 -63l82 -159h62v-135h-79c-56 0 -88 20 -122 85l-104 201h-101v-286h-152z" />
    <glyph glyph-name="uni04A1" unicode="&#x4a1;" horiz-adv-x="669" 
d="M147 0v410h-127v115h275v-201h76l69 128c28 52 60 73 116 73h61v-115h-53l-45 -84c-18 -34 -35 -47 -59 -53v-5c23 -5 42 -17 58 -46l59 -107h54v-115h-69c-56 0 -87 21 -117 75l-74 134h-76v-209h-148z" />
    <glyph glyph-name="uni04A2" unicode="&#x4a2;" horiz-adv-x="787" 
d="M617 -150v150h-122v286h-266v-286h-152v698h152v-278h266v278h152v-563h113v-285h-143z" />
    <glyph glyph-name="uni04A3" unicode="&#x4a3;" horiz-adv-x="648" 
d="M499 -140v140h-104v209h-178v-209h-148v525h148v-201h178v201h148v-410h90v-255h-134z" />
    <glyph glyph-name="uni04A4" unicode="&#x4a4;" horiz-adv-x="912" 
d="M77 0v698h152v-278h246v278h410v-135h-258v-563h-152v286h-246v-286h-152z" />
    <glyph glyph-name="uni04A5" unicode="&#x4a5;" horiz-adv-x="763" 
d="M69 0v525h148v-201h171v201h355v-115h-207v-410h-148v209h-171v-209h-148z" />
    <glyph glyph-name="uni04AA" unicode="&#x4aa;" horiz-adv-x="651" 
d="M288 -150v144c-147 27 -238 145 -238 350c0 236 121 366 309 366c128 0 210 -52 261 -164l-131 -68c-18 58 -55 97 -130 97c-89 0 -148 -60 -148 -170v-112c0 -110 59 -170 148 -170c75 0 118 47 139 104l124 -72c-42 -85 -103 -141 -191 -160v-145h-143z" />
    <glyph glyph-name="uni04AB" unicode="&#x4ab;" horiz-adv-x="517" 
d="M214 -140v135c-116 26 -178 125 -178 268c0 168 87 274 245 274c106 0 179 -51 210 -137l-120 -52c-9 40 -38 72 -90 72c-60 0 -91 -43 -91 -109v-98c0 -66 31 -109 91 -109c59 0 83 37 98 79l115 -50c-27 -77 -78 -121 -146 -137v-136h-134z" />
    <glyph glyph-name="uni04AE" unicode="&#x4ae;" horiz-adv-x="649" 
d="M401 0h-153v273l-239 425h170l150 -278h2l144 278h165l-239 -424v-274z" />
    <glyph glyph-name="uni04AF" unicode="&#x4af;" horiz-adv-x="538" 
d="M195 -200v200l-186 525h146l69 -212l45 -168h8l46 168l66 212h140l-186 -525v-200h-148z" />
    <glyph glyph-name="uni04B0" unicode="&#x4b0;" horiz-adv-x="649" 
d="M248 0v159h-139v114h139l-239 425h170l150 -278h2l144 278h165l-239 -425h138v-114h-138v-159h-153z" />
    <glyph glyph-name="uni04B1" unicode="&#x4b1;" horiz-adv-x="538" 
d="M195 -200v102h-120v98h120l-186 525h146l69 -212l45 -168h8l46 168l66 212h140l-186 -525h120v-98h-120v-102h-148z" />
    <glyph glyph-name="uni04B2" unicode="&#x4b2;" horiz-adv-x="695" 
d="M541 -150v150h-60l-151 257h-3l-147 -257h-164l224 361l-213 337h177l136 -236h3l138 236h164l-215 -340l141 -223h113v-285h-143z" />
    <glyph glyph-name="uni04B3" unicode="&#x4b3;" horiz-adv-x="573" 
d="M431 -140v140h-57l-101 171h-4l-97 -171h-154l173 267l-171 258h168l98 -165h4l95 165h156l-174 -263l98 -147h100v-255h-134z" />
    <glyph glyph-name="uni04B6" unicode="&#x4b6;" horiz-adv-x="741" 
d="M571 -150v150h-122v247h-5c-32 -14 -73 -23 -133 -23c-173 0 -257 87 -257 257v217h152v-223c0 -79 38 -119 119 -119c58 0 95 6 124 18v324h152v-563h113v-285h-143z" />
    <glyph glyph-name="uni04B7" unicode="&#x4b7;" horiz-adv-x="614" 
d="M465 -140v140h-104v223h-5c-24 -42 -68 -69 -136 -69c-118 0 -170 61 -170 187v184h148v-177c0 -52 23 -74 79 -74s84 23 84 53v198h148v-410h90v-255h-134z" />
    <glyph glyph-name="uni04B8" unicode="&#x4b8;" horiz-adv-x="698" 
d="M469 0v247h-5c-18 -8 -39 -14 -65 -18v-125h-114v121c-156 9 -231 95 -231 256v217h152v-223c0 -64 25 -103 79 -115v144h114v-146c25 2 48 7 70 16v324h152v-698h-152z" />
    <glyph glyph-name="uni04B9" unicode="&#x4b9;" horiz-adv-x="598" 
d="M381 0v206h-5c-9 -14 -24 -31 -40 -41v-92h-94v81c-134 0 -192 61 -192 187v184h148v-177c0 -41 15 -61 44 -69v137h94v-137c24 2 45 21 45 43v203h148v-525h-148z" />
    <glyph glyph-name="uni04BA" unicode="&#x4ba;" horiz-adv-x="678" 
d="M77 0v698h152v-247h5c32 14 73 23 133 23c173 0 257 -87 257 -257v-217h-152v223c0 79 -38 119 -119 119c-58 0 -95 -6 -124 -18v-324h-152z" />
    <glyph glyph-name="uni04BB" unicode="&#x4bb;" horiz-adv-x="596" 
d="M69 0v740h148v-304h6c19 55 63 101 146 101c107 0 164 -76 164 -208v-329h-148v317c0 67 -19 100 -73 100c-48 0 -95 -25 -95 -77v-340h-148z" />
    <glyph glyph-name="uni04C0" unicode="&#x4c0;" horiz-adv-x="432" 
d="M382 0h-332v121h90v456h-90v121h332v-121h-90v-456h90v-121z" />
    <glyph glyph-name="uni04C1" unicode="&#x4c1;" horiz-adv-x="1006" 
d="M503 740c-88 0 -141 40 -171 112l-21 51l115 43l32 -101c8 -4 28 -7 45 -7s37 3 45 7l32 101l115 -43l-21 -51c-30 -72 -83 -112 -171 -112zM40 0v135h62l77 163c17 36 41 54 75 59v6c-32 9 -53 26 -73 66l-65 134h-62v135h63c59 0 97 -26 125 -84l94 -194h91v278h152
v-278h91l94 194c28 58 66 84 125 84h62v-135h-62l-64 -134c-20 -40 -41 -57 -73 -66v-6c34 -5 58 -23 75 -59l77 -163h62v-135h-80c-56 0 -91 20 -122 87l-94 199h-91v-286h-152v286h-91l-94 -199c-31 -67 -66 -87 -122 -87h-80z" />
    <glyph glyph-name="uni04C2" unicode="&#x4c2;" horiz-adv-x="866" 
d="M433 579c-88 0 -141 40 -171 112l-21 51l115 43l32 -101c8 -4 28 -7 45 -7s37 3 45 7l32 101l115 -43l-21 -51c-30 -72 -83 -112 -171 -112zM40 0v115h54l55 108c14 26 34 40 58 45v5c-24 6 -44 23 -56 47l-45 90h-54v115h61c56 0 89 -21 116 -74l64 -127h66v201h148
v-201h66l64 127c27 53 60 74 116 74h61v-115h-54l-45 -90c-12 -24 -32 -41 -56 -47v-5c24 -5 44 -19 58 -45l55 -108h54v-115h-67c-56 0 -89 20 -117 75l-69 134h-66v-209h-148v209h-66l-69 -134c-28 -55 -61 -75 -117 -75h-67z" />
    <glyph glyph-name="uni04CF" unicode="&#x4cf;" horiz-adv-x="286" 
d="M69 0v740h148v-740h-148z" />
    <glyph glyph-name="uni04D0" unicode="&#x4d0;" horiz-adv-x="685" 
d="M339 740c-88 0 -141 40 -171 112l-21 51l115 43l32 -101c8 -4 28 -7 45 -7s37 3 45 7l32 101l115 -43l-21 -51c-30 -72 -83 -112 -171 -112zM665 0h-158l-50 166h-233l-50 -166h-154l230 698h188zM420 295l-78 265h-5l-77 -265h160z" />
    <glyph glyph-name="uni04D1" unicode="&#x4d1;" horiz-adv-x="569" 
d="M268 579c-88 0 -141 40 -171 112l-21 51l115 43l32 -101c8 -4 28 -7 45 -7s37 3 45 7l32 101l115 -43l-21 -51c-30 -72 -83 -112 -171 -112zM539 0h-82c-53 0 -91 36 -100 92h-6c-16 -68 -74 -104 -154 -104c-105 0 -163 62 -163 153c0 111 86 164 225 164h83v33
c0 51 -25 83 -87 83c-59 0 -90 -30 -113 -62l-88 78c42 62 102 100 212 100c148 0 224 -68 224 -192v-230h49v-115zM252 91c49 0 90 20 90 68v62h-72c-57 0 -87 -21 -87 -59v-15c0 -38 25 -56 69 -56z" />
    <glyph glyph-name="uni04D2" unicode="&#x4d2;" horiz-adv-x="685" 
d="M229 761c-60 0 -80 28 -80 63v25c0 35 20 63 80 63s80 -28 80 -63v-25c0 -35 -20 -63 -80 -63zM449 761c-60 0 -80 28 -80 63v25c0 35 20 63 80 63s80 -28 80 -63v-25c0 -35 -20 -63 -80 -63zM665 0h-158l-50 166h-233l-50 -166h-154l230 698h188zM420 295l-78 265h-5
l-77 -265h160z" />
    <glyph glyph-name="uni04D3" unicode="&#x4d3;" horiz-adv-x="569" 
d="M158 600c-60 0 -80 28 -80 63v25c0 35 20 63 80 63s80 -28 80 -63v-25c0 -35 -20 -63 -80 -63zM378 600c-60 0 -80 28 -80 63v25c0 35 20 63 80 63s80 -28 80 -63v-25c0 -35 -20 -63 -80 -63zM539 0h-82c-53 0 -91 36 -100 92h-6c-16 -68 -74 -104 -154 -104
c-105 0 -163 62 -163 153c0 111 86 164 225 164h83v33c0 51 -25 83 -87 83c-59 0 -90 -30 -113 -62l-88 78c42 62 102 100 212 100c148 0 224 -68 224 -192v-230h49v-115zM252 91c49 0 90 20 90 68v62h-72c-57 0 -87 -21 -87 -59v-15c0 -38 25 -56 69 -56z" />
    <glyph glyph-name="uni04D4" unicode="&#x4d4;" horiz-adv-x="968" 
d="M438 0v166h-209l-78 -166h-152l341 698h573v-135h-324v-143h278v-134h-278v-151h324v-135h-475zM438 563h-23l-125 -268h148v268z" />
    <glyph glyph-name="uni04D5" unicode="&#x4d5;" horiz-adv-x="864" 
d="M342 225h-72c-53 0 -87 -21 -87 -59v-14c0 -39 23 -61 71 -61c46 0 88 20 88 68v66zM491 312h184v9c0 64 -29 107 -88 107s-96 -43 -96 -108v-8zM610 106c61 0 100 31 129 61l74 -92c-47 -54 -124 -87 -220 -87c-99 0 -176 45 -204 103h-6c-22 -57 -75 -103 -185 -103
c-106 0 -164 66 -164 156c0 113 94 168 225 168h83v26c0 51 -25 83 -87 83c-59 0 -90 -30 -113 -62l-88 78c42 62 102 100 212 100c64 0 115 -22 148 -74h6c32 50 93 74 168 74c174 0 240 -126 240 -268v-44h-338v-8c0 -68 44 -111 120 -111z" />
    <glyph glyph-name="uni04D6" unicode="&#x4d6;" horiz-adv-x="607" 
d="M315 740c-88 0 -141 40 -171 112l-21 51l115 43l32 -101c8 -4 28 -7 45 -7s37 3 45 7l32 101l115 -43l-21 -51c-30 -72 -83 -112 -171 -112zM552 0h-475v698h475v-135h-323v-143h277v-134h-277v-151h323v-135z" />
    <glyph glyph-name="uni04D7" unicode="&#x4d7;" horiz-adv-x="562" 
d="M287 579c-88 0 -141 40 -171 112l-21 51l115 43l32 -101c8 -4 28 -7 45 -7s37 3 45 7l32 101l115 -43l-21 -51c-30 -72 -83 -112 -171 -112zM288 -12c-161 0 -252 107 -252 275c0 166 88 274 246 274c174 0 244 -126 244 -268v-44h-337v-8c0 -69 37 -113 116 -113
c62 0 96 29 129 63l74 -92c-47 -54 -124 -87 -220 -87zM285 428c-59 0 -96 -43 -96 -108v-8h184v9c0 64 -29 107 -88 107z" />
    <glyph glyph-name="uni04D8" unicode="&#x4d8;" horiz-adv-x="714" 
d="M50 349v50h453v3c0 110 -56 173 -146 173s-127 -42 -146 -111l-137 49c36 109 125 197 283 197c186 0 307 -125 307 -361s-121 -361 -307 -361s-307 125 -307 361zM357 123c84 0 138 54 145 151h-290c7 -97 61 -151 145 -151z" />
    <glyph glyph-name="uni04D9" unicode="&#x4d9;" horiz-adv-x="562" 
d="M36 300h337v8c0 69 -35 113 -111 113c-67 0 -100 -35 -126 -63l-74 92c47 54 122 87 217 87c158 0 247 -107 247 -275c0 -166 -88 -274 -246 -274c-174 0 -244 126 -244 268v44zM189 213v-9c0 -64 29 -107 88 -107s96 43 96 108v8h-184z" />
    <glyph glyph-name="uni04DC" unicode="&#x4dc;" horiz-adv-x="1006" 
d="M393 761c-60 0 -80 28 -80 63v25c0 35 20 63 80 63s80 -28 80 -63v-25c0 -35 -20 -63 -80 -63zM613 761c-60 0 -80 28 -80 63v25c0 35 20 63 80 63s80 -28 80 -63v-25c0 -35 -20 -63 -80 -63zM40 0v135h62l77 163c17 36 41 54 75 59v6c-32 9 -53 26 -73 66l-65 134h-62
v135h63c59 0 97 -26 125 -84l94 -194h91v278h152v-278h91l94 194c28 58 66 84 125 84h62v-135h-62l-64 -134c-20 -40 -41 -57 -73 -66v-6c34 -5 58 -23 75 -59l77 -163h62v-135h-80c-56 0 -91 20 -122 87l-94 199h-91v-286h-152v286h-91l-94 -199c-31 -67 -66 -87 -122 -87
h-80z" />
    <glyph glyph-name="uni04DD" unicode="&#x4dd;" horiz-adv-x="866" 
d="M323 600c-60 0 -80 28 -80 63v25c0 35 20 63 80 63s80 -28 80 -63v-25c0 -35 -20 -63 -80 -63zM543 600c-60 0 -80 28 -80 63v25c0 35 20 63 80 63s80 -28 80 -63v-25c0 -35 -20 -63 -80 -63zM40 0v115h54l55 108c14 26 34 40 58 45v5c-24 6 -44 23 -56 47l-45 90h-54
v115h61c56 0 89 -21 116 -74l64 -127h66v201h148v-201h66l64 127c27 53 60 74 116 74h61v-115h-54l-45 -90c-12 -24 -32 -41 -56 -47v-5c24 -5 44 -19 58 -45l55 -108h54v-115h-67c-56 0 -89 20 -117 75l-69 134h-66v-209h-148v209h-66l-69 -134c-28 -55 -61 -75 -117 -75
h-67z" />
    <glyph glyph-name="uni04DE" unicode="&#x4de;" horiz-adv-x="608" 
d="M180 761c-60 0 -80 28 -80 63v25c0 35 20 63 80 63s80 -28 80 -63v-25c0 -35 -20 -63 -80 -63zM400 761c-60 0 -80 28 -80 63v25c0 35 20 63 80 63s80 -28 80 -63v-25c0 -35 -20 -63 -80 -63zM285 -12c-102 0 -188 33 -256 103l100 101c42 -44 94 -69 156 -69
c80 0 122 30 122 80v8c0 53 -31 75 -99 75h-121v134h115c62 0 93 25 93 77v5c0 48 -35 73 -105 73c-55 0 -113 -23 -149 -63l-92 96c58 64 145 102 241 102c165 0 266 -75 266 -195c0 -95 -65 -140 -145 -148v-6c80 -4 157 -53 157 -154c0 -130 -109 -219 -283 -219z" />
    <glyph glyph-name="uni04DF" unicode="&#x4df;" horiz-adv-x="531" 
d="M150 600c-60 0 -80 28 -80 63v25c0 35 20 63 80 63s80 -28 80 -63v-25c0 -35 -20 -63 -80 -63zM370 600c-60 0 -80 28 -80 63v25c0 35 20 63 80 63s80 -28 80 -63v-25c0 -35 -20 -63 -80 -63zM252 -12c-103 0 -171 34 -229 94l87 88c38 -43 87 -66 143 -66
c60 0 89 22 89 58v11c0 31 -21 45 -59 45h-116v98h103c38 0 59 14 59 45v10c0 31 -27 50 -80 50c-54 0 -101 -24 -127 -62l-88 78c52 64 126 100 226 100c145 0 218 -60 218 -144c0 -67 -35 -105 -111 -115v-5c76 -8 124 -51 124 -117c0 -105 -89 -168 -239 -168z" />
    <glyph glyph-name="uni04E2" unicode="&#x4e2;" horiz-adv-x="724" 
d="M211 785v103h306v-103h-306zM77 0v698h148v-341l-16 -147h3l69 133l230 355h136v-698h-148v341l16 147h-3l-69 -133l-230 -355h-136z" />
    <glyph glyph-name="uni04E3" unicode="&#x4e3;" horiz-adv-x="612" 
d="M154 624v103h306v-103h-306zM69 0v525h145v-211l-13 -122h3l61 112l146 221h132v-525h-145v211l13 122h-3l-61 -112l-146 -221h-132z" />
    <glyph glyph-name="uni04E4" unicode="&#x4e4;" horiz-adv-x="724" 
d="M254 761c-60 0 -80 28 -80 63v25c0 35 20 63 80 63s80 -28 80 -63v-25c0 -35 -20 -63 -80 -63zM474 761c-60 0 -80 28 -80 63v25c0 35 20 63 80 63s80 -28 80 -63v-25c0 -35 -20 -63 -80 -63zM77 0v698h148v-341l-16 -147h3l69 133l230 355h136v-698h-148v341l16 147h-3
l-69 -133l-230 -355h-136z" />
    <glyph glyph-name="uni04E5" unicode="&#x4e5;" horiz-adv-x="612" 
d="M197 600c-60 0 -80 28 -80 63v25c0 35 20 63 80 63s80 -28 80 -63v-25c0 -35 -20 -63 -80 -63zM417 600c-60 0 -80 28 -80 63v25c0 35 20 63 80 63s80 -28 80 -63v-25c0 -35 -20 -63 -80 -63zM69 0v525h145v-211l-13 -122h3l61 112l146 221h132v-525h-145v211l13 122h-3
l-61 -112l-146 -221h-132z" />
    <glyph glyph-name="uni04E6" unicode="&#x4e6;" horiz-adv-x="714" 
d="M247 761c-60 0 -80 28 -80 63v25c0 35 20 63 80 63s80 -28 80 -63v-25c0 -35 -20 -63 -80 -63zM467 761c-60 0 -80 28 -80 63v25c0 35 20 63 80 63s80 -28 80 -63v-25c0 -35 -20 -63 -80 -63zM357 -12c-185 0 -307 124 -307 361s122 361 307 361s307 -124 307 -361
s-122 -361 -307 -361zM357 123c91 0 146 63 146 174v104c0 111 -55 174 -146 174s-146 -63 -146 -174v-104c0 -111 55 -174 146 -174z" />
    <glyph glyph-name="uni04E7" unicode="&#x4e7;" horiz-adv-x="564" 
d="M171 600c-60 0 -80 28 -80 63v25c0 35 20 63 80 63s80 -28 80 -63v-25c0 -35 -20 -63 -80 -63zM391 600c-60 0 -80 28 -80 63v25c0 35 20 63 80 63s80 -28 80 -63v-25c0 -35 -20 -63 -80 -63zM282 -12c-154 0 -246 106 -246 275s92 274 246 274s246 -105 246 -274
s-92 -275 -246 -275zM282 105c58 0 92 38 92 104v107c0 66 -34 104 -92 104s-92 -38 -92 -104v-107c0 -66 34 -104 92 -104z" />
    <glyph glyph-name="uni04E8" unicode="&#x4e8;" horiz-adv-x="714" 
d="M357 -12c-185 0 -307 124 -307 361s122 361 307 361s307 -124 307 -361s-122 -361 -307 -361zM357 113c93 0 152 60 156 172h-312c3 -112 63 -172 156 -172zM357 585c-92 0 -151 -58 -156 -166h312c-5 108 -64 166 -156 166z" />
    <glyph glyph-name="uni04E9" unicode="&#x4e9;" horiz-adv-x="564" 
d="M282 -12c-154 0 -246 106 -246 275s92 274 246 274s246 -105 246 -274s-92 -275 -246 -275zM282 95c63 0 102 39 102 110v10h-204v-10c0 -71 39 -110 102 -110zM180 320v-7h204v7c0 71 -39 110 -102 110s-102 -39 -102 -110z" />
    <glyph glyph-name="uni04EE" unicode="&#x4ee;" horiz-adv-x="631" 
d="M165 785v103h306v-103h-306zM119 0v135h122l15 38l-244 525h160l98 -217l58 -139h3l51 140l86 216h149l-246 -600c-30 -72 -69 -98 -152 -98h-100z" />
    <glyph glyph-name="uni04EF" unicode="&#x4ef;" horiz-adv-x="534" 
d="M118 624v103h306v-103h-306zM313 280l77 245h138l-202 -606c-27 -81 -71 -119 -161 -119h-92v115h99l18 58l-184 552h147l77 -245l38 -152h6z" />
    <glyph glyph-name="uni04F0" unicode="&#x4f0;" horiz-adv-x="631" 
d="M208 761c-60 0 -80 28 -80 63v25c0 35 20 63 80 63s80 -28 80 -63v-25c0 -35 -20 -63 -80 -63zM428 761c-60 0 -80 28 -80 63v25c0 35 20 63 80 63s80 -28 80 -63v-25c0 -35 -20 -63 -80 -63zM119 0v135h122l15 38l-244 525h160l98 -217l58 -139h3l51 140l86 216h149
l-246 -600c-30 -72 -69 -98 -152 -98h-100z" />
    <glyph glyph-name="uni04F1" unicode="&#x4f1;" horiz-adv-x="534" 
d="M161 600c-60 0 -80 28 -80 63v25c0 35 20 63 80 63s80 -28 80 -63v-25c0 -35 -20 -63 -80 -63zM381 600c-60 0 -80 28 -80 63v25c0 35 20 63 80 63s80 -28 80 -63v-25c0 -35 -20 -63 -80 -63zM313 280l77 245h138l-202 -606c-27 -81 -71 -119 -161 -119h-92v115h99l18 58
l-184 552h147l77 -245l38 -152h6z" />
    <glyph glyph-name="uni04F2" unicode="&#x4f2;" horiz-adv-x="631" 
d="M362 916l-134 -176l-81 39l99 194zM567 916l-134 -176l-81 39l99 194zM119 0v135h122l15 38l-244 525h160l98 -217l58 -139h3l51 140l86 216h149l-246 -600c-30 -72 -69 -98 -152 -98h-100z" />
    <glyph glyph-name="uni04F3" unicode="&#x4f3;" horiz-adv-x="534" 
d="M315 755l-134 -176l-81 39l99 194zM520 755l-134 -176l-81 39l99 194zM313 280l77 245h138l-202 -606c-27 -81 -71 -119 -161 -119h-92v115h99l18 58l-184 552h147l77 -245l38 -152h6z" />
    <glyph glyph-name="uni04F4" unicode="&#x4f4;" horiz-adv-x="678" 
d="M217 761c-60 0 -80 28 -80 63v25c0 35 20 63 80 63s80 -28 80 -63v-25c0 -35 -20 -63 -80 -63zM437 761c-60 0 -80 28 -80 63v25c0 35 20 63 80 63s80 -28 80 -63v-25c0 -35 -20 -63 -80 -63zM449 0v247h-5c-32 -14 -73 -23 -133 -23c-173 0 -257 87 -257 257v217h152
v-223c0 -79 38 -119 119 -119c58 0 95 6 124 18v324h152v-698h-152z" />
    <glyph glyph-name="uni04F5" unicode="&#x4f5;" horiz-adv-x="578" 
d="M170 600c-60 0 -80 28 -80 63v25c0 35 20 63 80 63s80 -28 80 -63v-25c0 -35 -20 -63 -80 -63zM390 600c-60 0 -80 28 -80 63v25c0 35 20 63 80 63s80 -28 80 -63v-25c0 -35 -20 -63 -80 -63zM361 0v223h-5c-24 -42 -68 -69 -136 -69c-118 0 -170 61 -170 187v184h148
v-177c0 -52 23 -74 79 -74s84 23 84 53v198h148v-525h-148z" />
    <glyph glyph-name="uni04F8" unicode="&#x4f8;" horiz-adv-x="933" 
d="M357 761c-60 0 -80 28 -80 63v25c0 35 20 63 80 63s80 -28 80 -63v-25c0 -35 -20 -63 -80 -63zM577 761c-60 0 -80 28 -80 63v25c0 35 20 63 80 63s80 -28 80 -63v-25c0 -35 -20 -63 -80 -63zM77 0v698h152v-252h178c130 0 212 -91 212 -223s-82 -223 -212 -223h-330z
M229 132h160c45 0 73 24 73 69v44c0 45 -28 69 -73 69h-160v-182zM704 0v698h152v-698h-152z" />
    <glyph glyph-name="uni04F9" unicode="&#x4f9;" horiz-adv-x="809" 
d="M294 600c-60 0 -80 28 -80 63v25c0 35 20 63 80 63s80 -28 80 -63v-25c0 -35 -20 -63 -80 -63zM514 600c-60 0 -80 28 -80 63v25c0 35 20 63 80 63s80 -28 80 -63v-25c0 -35 -20 -63 -80 -63zM69 0v525h148v-156h127c102 0 181 -65 181 -184c0 -120 -79 -185 -181 -185
h-275zM217 105h95c39 0 64 21 64 60v39c0 39 -25 60 -64 60h-95v-159zM592 0v525h148v-525h-148z" />
    <glyph glyph-name="uni0E3F" unicode="&#xe3f;" horiz-adv-x="665" 
d="M390 20v-110h-114v110h-199v658h199v102h114v-102h37c108 0 173 -67 173 -169c0 -91 -41 -130 -128 -141v-6c85 -5 153 -48 153 -154c0 -104 -73 -188 -170 -188h-65zM220 408h66v149h-66v-149zM381 557v-149h10c38 0 61 21 61 59v31c0 38 -23 59 -61 59h-10zM220 141h66
v151h-66v-151zM381 292v-151h34c38 0 62 22 62 60v31c0 38 -24 60 -62 60h-34z" />
    <glyph glyph-name="Wgrave" unicode="&#x1e80;" horiz-adv-x="973" 
d="M471 740l-134 176l123 61l99 -194zM361 0h-174l-158 698h150l66 -335l37 -194h3l44 194l77 335h166l78 -335l43 -194h3l37 194l67 335h144l-162 -698h-173l-88 378l-34 153h-3l-35 -153z" />
    <glyph glyph-name="wgrave" unicode="&#x1e81;" horiz-adv-x="841" 
d="M405 579l-134 176l123 61l99 -194zM166 0l-147 525h143l51 -212l36 -160h4l42 160l60 212h135l61 -212l43 -160h4l36 160l51 212h137l-145 -525h-155l-64 222l-37 136h-3l-36 -136l-64 -222h-152z" />
    <glyph glyph-name="Wacute" unicode="&#x1e82;" horiz-adv-x="973" 
d="M637 916l-134 -176l-88 43l99 194zM361 0h-174l-158 698h150l66 -335l37 -194h3l44 194l77 335h166l78 -335l43 -194h3l37 194l67 335h144l-162 -698h-173l-88 378l-34 153h-3l-35 -153z" />
    <glyph glyph-name="wacute" unicode="&#x1e83;" horiz-adv-x="841" 
d="M571 755l-134 -176l-88 43l99 194zM166 0l-147 525h143l51 -212l36 -160h4l42 160l60 212h135l61 -212l43 -160h4l36 160l51 212h137l-145 -525h-155l-64 222l-37 136h-3l-36 -136l-64 -222h-152z" />
    <glyph glyph-name="Wdieresis" unicode="&#x1e84;" horiz-adv-x="973" 
d="M377 761c-60 0 -80 28 -80 63v25c0 35 20 63 80 63s80 -28 80 -63v-25c0 -35 -20 -63 -80 -63zM597 761c-60 0 -80 28 -80 63v25c0 35 20 63 80 63s80 -28 80 -63v-25c0 -35 -20 -63 -80 -63zM361 0h-174l-158 698h150l66 -335l37 -194h3l44 194l77 335h166l78 -335
l43 -194h3l37 194l67 335h144l-162 -698h-173l-88 378l-34 153h-3l-35 -153z" />
    <glyph glyph-name="wdieresis" unicode="&#x1e85;" horiz-adv-x="841" 
d="M311 600c-60 0 -80 28 -80 63v25c0 35 20 63 80 63s80 -28 80 -63v-25c0 -35 -20 -63 -80 -63zM531 600c-60 0 -80 28 -80 63v25c0 35 20 63 80 63s80 -28 80 -63v-25c0 -35 -20 -63 -80 -63zM166 0l-147 525h143l51 -212l36 -160h4l42 160l60 212h135l61 -212l43 -160h4
l36 160l51 212h137l-145 -525h-155l-64 222l-37 136h-3l-36 -136l-64 -222h-152z" />
    <glyph glyph-name="uni1E9E" unicode="&#x1e9e;" horiz-adv-x="731" 
d="M701 216c0 -130 -87 -228 -229 -228c-87 0 -154 30 -198 79l95 97c28 -30 56 -50 103 -50s76 35 76 78v36c0 43 -27 74 -96 74h-96v117l130 151h-257v-570h-152v698h560v-139l-124 -144v-4c82 -6 188 -61 188 -195z" />
    <glyph glyph-name="uni1EA0" unicode="&#x1ea0;" horiz-adv-x="685" 
d="M339 -204c-59 0 -81 28 -81 63v26c0 35 22 63 81 63s81 -28 81 -63v-26c0 -35 -22 -63 -81 -63zM665 0h-158l-50 166h-233l-50 -166h-154l230 698h188zM420 295l-78 265h-5l-77 -265h160z" />
    <glyph glyph-name="uni1EA1" unicode="&#x1ea1;" horiz-adv-x="569" 
d="M269 -204c-59 0 -81 28 -81 63v26c0 35 22 63 81 63s81 -28 81 -63v-26c0 -35 -22 -63 -81 -63zM539 0h-82c-53 0 -91 36 -100 92h-6c-16 -68 -74 -104 -154 -104c-105 0 -163 62 -163 153c0 111 86 164 225 164h83v33c0 51 -25 83 -87 83c-59 0 -90 -30 -113 -62l-88 78
c42 62 102 100 212 100c148 0 224 -68 224 -192v-230h49v-115zM252 91c49 0 90 20 90 68v62h-72c-57 0 -87 -21 -87 -59v-15c0 -38 25 -56 69 -56z" />
    <glyph glyph-name="uni1EA2" unicode="&#x1ea2;" horiz-adv-x="685" 
d="M219 857v106h143c75 0 98 -34 98 -73s-24 -86 -57 -126l-28 -34l-75 35l41 92h-122zM665 0h-158l-50 166h-233l-50 -166h-154l230 698h188zM420 295l-78 265h-5l-77 -265h160z" />
    <glyph glyph-name="uni1EA3" unicode="&#x1ea3;" horiz-adv-x="569" 
d="M148 696v106h143c75 0 98 -34 98 -73s-24 -86 -57 -126l-28 -34l-75 35l41 92h-122zM539 0h-82c-53 0 -91 36 -100 92h-6c-16 -68 -74 -104 -154 -104c-105 0 -163 62 -163 153c0 111 86 164 225 164h83v33c0 51 -25 83 -87 83c-59 0 -90 -30 -113 -62l-88 78
c42 62 102 100 212 100c148 0 224 -68 224 -192v-230h49v-115zM252 91c49 0 90 20 90 68v62h-72c-57 0 -87 -21 -87 -59v-15c0 -38 25 -56 69 -56z" />
    <glyph glyph-name="uni1EA4" unicode="&#x1ea4;" horiz-adv-x="685" 
d="M646 1070l-134 -176l-79 39l99 194zM292 942h94l145 -147l-68 -64l-124 104l-124 -104l-68 64zM665 0h-158l-50 166h-233l-50 -166h-154l230 698h188zM420 295l-78 265h-5l-77 -265h160z" />
    <glyph glyph-name="uni1EA5" unicode="&#x1ea5;" horiz-adv-x="569" 
d="M575 909l-134 -176l-79 39l99 194zM221 781h94l145 -147l-68 -64l-124 104l-124 -104l-68 64zM539 0h-82c-53 0 -91 36 -100 92h-6c-16 -68 -74 -104 -154 -104c-105 0 -163 62 -163 153c0 111 86 164 225 164h83v33c0 51 -25 83 -87 83c-59 0 -90 -30 -113 -62l-88 78
c42 62 102 100 212 100c148 0 224 -68 224 -192v-230h49v-115zM252 91c49 0 90 20 90 68v62h-72c-57 0 -87 -21 -87 -59v-15c0 -38 25 -56 69 -56z" />
    <glyph glyph-name="uni1EA6" unicode="&#x1ea6;" horiz-adv-x="685" 
d="M166 894l-134 176l114 57l99 -194zM292 942h94l145 -147l-68 -64l-124 104l-124 -104l-68 64zM665 0h-158l-50 166h-233l-50 -166h-154l230 698h188zM420 295l-78 265h-5l-77 -265h160z" />
    <glyph glyph-name="uni1EA7" unicode="&#x1ea7;" horiz-adv-x="569" 
d="M95 733l-134 176l114 57l99 -194zM221 781h94l145 -147l-68 -64l-124 104l-124 -104l-68 64zM539 0h-82c-53 0 -91 36 -100 92h-6c-16 -68 -74 -104 -154 -104c-105 0 -163 62 -163 153c0 111 86 164 225 164h83v33c0 51 -25 83 -87 83c-59 0 -90 -30 -113 -62l-88 78
c42 62 102 100 212 100c148 0 224 -68 224 -192v-230h49v-115zM252 91c49 0 90 20 90 68v62h-72c-57 0 -87 -21 -87 -59v-15c0 -38 25 -56 69 -56z" />
    <glyph glyph-name="uni1EA8" unicode="&#x1ea8;" horiz-adv-x="685" 
d="M377 1012v101h134c74 0 98 -34 98 -72c0 -40 -30 -87 -63 -127l-27 -33l-66 34l43 97h-119zM292 942h94l145 -147l-68 -64l-124 104l-124 -104l-68 64zM665 0h-158l-50 166h-233l-50 -166h-154l230 698h188zM420 295l-78 265h-5l-77 -265h160z" />
    <glyph glyph-name="uni1EA9" unicode="&#x1ea9;" horiz-adv-x="569" 
d="M306 851v101h134c74 0 98 -34 98 -72c0 -40 -30 -87 -63 -127l-27 -33l-66 34l43 97h-119zM221 781h94l145 -147l-68 -64l-124 104l-124 -104l-68 64zM539 0h-82c-53 0 -91 36 -100 92h-6c-16 -68 -74 -104 -154 -104c-105 0 -163 62 -163 153c0 111 86 164 225 164h83
v33c0 51 -25 83 -87 83c-59 0 -90 -30 -113 -62l-88 78c42 62 102 100 212 100c148 0 224 -68 224 -192v-230h49v-115zM252 91c49 0 90 20 90 68v62h-72c-57 0 -87 -21 -87 -59v-15c0 -38 25 -56 69 -56z" />
    <glyph glyph-name="uni1EAA" unicode="&#x1eaa;" horiz-adv-x="685" 
d="M264 1103c30 0 52 -9 77 -20c29 -12 52 -22 78 -22c23 0 38 8 59 25l50 -64c-24 -36 -61 -64 -114 -64c-30 0 -52 9 -77 20c-29 12 -52 22 -78 22c-23 0 -38 -8 -59 -25l-50 64c24 36 61 64 114 64zM291 929h96l142 -134l-66 -64l-124 95l-124 -95l-66 64zM665 0h-158
l-50 166h-233l-50 -166h-154l230 698h188zM420 295l-78 265h-5l-77 -265h160z" />
    <glyph glyph-name="uni1EAB" unicode="&#x1eab;" horiz-adv-x="569" 
d="M193 942c30 0 52 -9 77 -20c29 -12 52 -22 78 -22c23 0 38 8 59 25l50 -64c-24 -36 -61 -64 -114 -64c-30 0 -52 9 -77 20c-29 12 -52 22 -78 22c-23 0 -38 -8 -59 -25l-50 64c24 36 61 64 114 64zM220 768h96l142 -134l-66 -64l-124 95l-124 -95l-66 64zM539 0h-82
c-53 0 -91 36 -100 92h-6c-16 -68 -74 -104 -154 -104c-105 0 -163 62 -163 153c0 111 86 164 225 164h83v33c0 51 -25 83 -87 83c-59 0 -90 -30 -113 -62l-88 78c42 62 102 100 212 100c148 0 224 -68 224 -192v-230h49v-115zM252 91c49 0 90 20 90 68v62h-72
c-57 0 -87 -21 -87 -59v-15c0 -38 25 -56 69 -56z" />
    <glyph glyph-name="uni1EAC" unicode="&#x1eac;" horiz-adv-x="685" 
d="M339 -204c-59 0 -81 28 -81 63v26c0 35 22 63 81 63s81 -28 81 -63v-26c0 -35 -22 -63 -81 -63zM277 956h124l132 -159l-73 -58l-121 115l-121 -115l-73 58zM665 0h-158l-50 166h-233l-50 -166h-154l230 698h188zM420 295l-78 265h-5l-77 -265h160z" />
    <glyph glyph-name="uni1EAD" unicode="&#x1ead;" horiz-adv-x="569" 
d="M269 -204c-59 0 -81 28 -81 63v26c0 35 22 63 81 63s81 -28 81 -63v-26c0 -35 -22 -63 -81 -63zM206 795h124l132 -159l-73 -58l-121 115l-121 -115l-73 58zM539 0h-82c-53 0 -91 36 -100 92h-6c-16 -68 -74 -104 -154 -104c-105 0 -163 62 -163 153
c0 111 86 164 225 164h83v33c0 51 -25 83 -87 83c-59 0 -90 -30 -113 -62l-88 78c42 62 102 100 212 100c148 0 224 -68 224 -192v-230h49v-115zM252 91c49 0 90 20 90 68v62h-72c-57 0 -87 -21 -87 -59v-15c0 -38 25 -56 69 -56z" />
    <glyph glyph-name="uni1EAE" unicode="&#x1eae;" horiz-adv-x="685" 
d="M339 733c-111 0 -172 81 -198 149l75 47l20 -30c35 -52 72 -65 103 -65c35 0 69 14 103 65l20 30l75 -47c-26 -68 -87 -149 -198 -149zM489 1070l-130 -176l-79 39l96 194zM665 0h-158l-50 166h-233l-50 -166h-154l230 698h188zM420 295l-78 265h-5l-77 -265h160z" />
    <glyph glyph-name="uni1EAF" unicode="&#x1eaf;" horiz-adv-x="569" 
d="M268 572c-111 0 -172 81 -198 149l75 47l20 -30c35 -52 72 -65 103 -65c35 0 69 14 103 65l20 30l75 -47c-26 -68 -87 -149 -198 -149zM418 909l-130 -176l-79 39l96 194zM539 0h-82c-53 0 -91 36 -100 92h-6c-16 -68 -74 -104 -154 -104c-105 0 -163 62 -163 153
c0 111 86 164 225 164h83v33c0 51 -25 83 -87 83c-59 0 -90 -30 -113 -62l-88 78c42 62 102 100 212 100c148 0 224 -68 224 -192v-230h49v-115zM252 91c49 0 90 20 90 68v62h-72c-57 0 -87 -21 -87 -59v-15c0 -38 25 -56 69 -56z" />
    <glyph glyph-name="uni1EB0" unicode="&#x1eb0;" horiz-adv-x="685" 
d="M339 733c-111 0 -172 81 -198 149l75 47l20 -30c35 -52 72 -65 103 -65c35 0 69 14 103 65l20 30l75 -47c-26 -68 -87 -149 -198 -149zM319 894l-127 176l111 57l96 -192zM665 0h-158l-50 166h-233l-50 -166h-154l230 698h188zM420 295l-78 265h-5l-77 -265h160z" />
    <glyph glyph-name="uni1EB1" unicode="&#x1eb1;" horiz-adv-x="569" 
d="M268 572c-111 0 -172 81 -198 149l75 47l20 -30c35 -52 72 -65 103 -65c35 0 69 14 103 65l20 30l75 -47c-26 -68 -87 -149 -198 -149zM248 733l-127 176l111 57l96 -192zM539 0h-82c-53 0 -91 36 -100 92h-6c-16 -68 -74 -104 -154 -104c-105 0 -163 62 -163 153
c0 111 86 164 225 164h83v33c0 51 -25 83 -87 83c-59 0 -90 -30 -113 -62l-88 78c42 62 102 100 212 100c148 0 224 -68 224 -192v-230h49v-115zM252 91c49 0 90 20 90 68v62h-72c-57 0 -87 -21 -87 -59v-15c0 -38 25 -56 69 -56z" />
    <glyph glyph-name="uni1EB2" unicode="&#x1eb2;" horiz-adv-x="685" 
d="M209 1012v101h136c75 0 98 -34 98 -72c0 -40 -29 -86 -62 -127l-27 -33l-66 32l43 99h-122zM339 733c-111 0 -172 81 -198 149l75 47l20 -30c35 -52 72 -65 103 -65c35 0 69 14 103 65l20 30l75 -47c-26 -68 -87 -149 -198 -149zM665 0h-158l-50 166h-233l-50 -166h-154
l230 698h188zM420 295l-78 265h-5l-77 -265h160z" />
    <glyph glyph-name="uni1EB3" unicode="&#x1eb3;" horiz-adv-x="569" 
d="M268 572c-111 0 -172 81 -198 149l75 47l20 -30c35 -52 72 -65 103 -65c35 0 69 14 103 65l20 30l75 -47c-26 -68 -87 -149 -198 -149zM138 851v101h136c75 0 98 -34 98 -72c0 -40 -29 -86 -62 -127l-27 -33l-66 32l43 99h-122zM539 0h-82c-53 0 -91 36 -100 92h-6
c-16 -68 -74 -104 -154 -104c-105 0 -163 62 -163 153c0 111 86 164 225 164h83v33c0 51 -25 83 -87 83c-59 0 -90 -30 -113 -62l-88 78c42 62 102 100 212 100c148 0 224 -68 224 -192v-230h49v-115zM252 91c49 0 90 20 90 68v62h-72c-57 0 -87 -21 -87 -59v-15
c0 -38 25 -56 69 -56z" />
    <glyph glyph-name="uni1EB4" unicode="&#x1eb4;" horiz-adv-x="685" 
d="M410 948c-28 0 -49 8 -73 18c-28 12 -50 22 -75 22c-23 0 -38 -7 -59 -24l-50 64c24 36 61 63 114 63c29 0 50 -9 74 -20c28 -11 49 -20 74 -20c23 0 38 8 59 25l50 -64c-24 -36 -61 -64 -114 -64zM339 733c-111 0 -172 81 -198 149l75 47l20 -30c35 -52 72 -65 103 -65
c35 0 69 14 103 65l20 30l75 -47c-26 -68 -87 -149 -198 -149zM665 0h-158l-50 166h-233l-50 -166h-154l230 698h188zM420 295l-78 265h-5l-77 -265h160z" />
    <glyph glyph-name="uni1EB5" unicode="&#x1eb5;" horiz-adv-x="569" 
d="M268 572c-111 0 -172 81 -198 149l75 47l20 -30c35 -52 72 -65 103 -65c35 0 69 14 103 65l20 30l75 -47c-26 -68 -87 -149 -198 -149zM339 788c-28 0 -49 8 -73 18c-28 12 -50 22 -75 22c-23 0 -38 -7 -59 -24l-50 64c24 36 61 63 114 63c29 0 50 -9 74 -20
c28 -11 49 -20 74 -20c23 0 38 8 59 25l50 -64c-24 -36 -61 -64 -114 -64zM539 0h-82c-53 0 -91 36 -100 92h-6c-16 -68 -74 -104 -154 -104c-105 0 -163 62 -163 153c0 111 86 164 225 164h83v33c0 51 -25 83 -87 83c-59 0 -90 -30 -113 -62l-88 78c42 62 102 100 212 100
c148 0 224 -68 224 -192v-230h49v-115zM252 91c49 0 90 20 90 68v62h-72c-57 0 -87 -21 -87 -59v-15c0 -38 25 -56 69 -56z" />
    <glyph glyph-name="uni1EB6" unicode="&#x1eb6;" horiz-adv-x="685" 
d="M339 -204c-59 0 -81 28 -81 63v26c0 35 22 63 81 63s81 -28 81 -63v-26c0 -35 -22 -63 -81 -63zM339 740c-118 0 -166 98 -190 170l81 42l19 -32c29 -49 53 -77 90 -77s62 28 91 77l19 32l80 -42c-24 -72 -77 -170 -190 -170zM665 0h-158l-50 166h-233l-50 -166h-154
l230 698h188zM420 295l-78 265h-5l-77 -265h160z" />
    <glyph glyph-name="uni1EB7" unicode="&#x1eb7;" horiz-adv-x="569" 
d="M269 -204c-59 0 -81 28 -81 63v26c0 35 22 63 81 63s81 -28 81 -63v-26c0 -35 -22 -63 -81 -63zM268 579c-118 0 -165 98 -190 170l81 42l20 -33c29 -48 54 -76 89 -76s61 28 90 76l20 33l80 -42c-25 -72 -77 -170 -190 -170zM539 0h-82c-53 0 -91 36 -100 92h-6
c-16 -68 -74 -104 -154 -104c-105 0 -163 62 -163 153c0 111 86 164 225 164h83v33c0 51 -25 83 -87 83c-59 0 -90 -30 -113 -62l-88 78c42 62 102 100 212 100c148 0 224 -68 224 -192v-230h49v-115zM252 91c49 0 90 20 90 68v62h-72c-57 0 -87 -21 -87 -59v-15
c0 -38 25 -56 69 -56z" />
    <glyph glyph-name="uni1EB8" unicode="&#x1eb8;" horiz-adv-x="607" 
d="M315 -204c-59 0 -81 28 -81 63v26c0 35 22 63 81 63s81 -28 81 -63v-26c0 -35 -22 -63 -81 -63zM552 0h-475v698h475v-135h-323v-143h277v-134h-277v-151h323v-135z" />
    <glyph glyph-name="uni1EB9" unicode="&#x1eb9;" horiz-adv-x="562" 
d="M283 -204c-59 0 -81 28 -81 63v26c0 35 22 63 81 63s81 -28 81 -63v-26c0 -35 -22 -63 -81 -63zM288 -12c-161 0 -252 107 -252 275c0 166 88 274 246 274c174 0 244 -126 244 -268v-44h-337v-8c0 -69 37 -113 116 -113c62 0 96 29 129 63l74 -92
c-47 -54 -124 -87 -220 -87zM285 428c-59 0 -96 -43 -96 -108v-8h184v9c0 64 -29 107 -88 107z" />
    <glyph glyph-name="uni1EBA" unicode="&#x1eba;" horiz-adv-x="607" 
d="M195 857v106h143c75 0 98 -34 98 -73s-24 -86 -57 -126l-28 -34l-75 35l41 92h-122zM552 0h-475v698h475v-135h-323v-143h277v-134h-277v-151h323v-135z" />
    <glyph glyph-name="uni1EBB" unicode="&#x1ebb;" horiz-adv-x="562" 
d="M167 696v106h143c75 0 98 -34 98 -73s-24 -86 -57 -126l-28 -34l-75 35l41 92h-122zM288 -12c-161 0 -252 107 -252 275c0 166 88 274 246 274c174 0 244 -126 244 -268v-44h-337v-8c0 -69 37 -113 116 -113c62 0 96 29 129 63l74 -92c-47 -54 -124 -87 -220 -87z
M285 428c-59 0 -96 -43 -96 -108v-8h184v9c0 64 -29 107 -88 107z" />
    <glyph glyph-name="uni1EBC" unicode="&#x1ebc;" horiz-adv-x="607" 
d="M391 762c-30 0 -52 9 -77 20c-29 12 -52 22 -78 22c-23 0 -38 -8 -59 -25l-52 68c24 36 61 64 114 64c30 0 52 -9 77 -20c29 -12 52 -22 78 -22c23 0 38 8 59 25l52 -68c-24 -36 -61 -64 -114 -64zM552 0h-475v698h475v-135h-323v-143h277v-134h-277v-151h323v-135z" />
    <glyph glyph-name="uni1EBD" unicode="&#x1ebd;" horiz-adv-x="562" 
d="M363 601c-30 0 -52 9 -77 20c-29 12 -52 22 -78 22c-23 0 -38 -8 -59 -25l-52 68c24 36 61 64 114 64c30 0 52 -9 77 -20c29 -12 52 -22 78 -22c23 0 38 8 59 25l52 -68c-24 -36 -61 -64 -114 -64zM288 -12c-161 0 -252 107 -252 275c0 166 88 274 246 274
c174 0 244 -126 244 -268v-44h-337v-8c0 -69 37 -113 116 -113c62 0 96 29 129 63l74 -92c-47 -54 -124 -87 -220 -87zM285 428c-59 0 -96 -43 -96 -108v-8h184v9c0 64 -29 107 -88 107z" />
    <glyph glyph-name="uni1EBE" unicode="&#x1ebe;" horiz-adv-x="607" 
d="M622 1070l-134 -176l-79 39l99 194zM268 942h94l145 -147l-68 -64l-124 104l-124 -104l-68 64zM552 0h-475v698h475v-135h-323v-143h277v-134h-277v-151h323v-135z" />
    <glyph glyph-name="uni1EBF" unicode="&#x1ebf;" horiz-adv-x="562" 
d="M594 909l-134 -176l-79 39l99 194zM240 781h94l145 -147l-68 -64l-124 104l-124 -104l-68 64zM288 -12c-161 0 -252 107 -252 275c0 166 88 274 246 274c174 0 244 -126 244 -268v-44h-337v-8c0 -69 37 -113 116 -113c62 0 96 29 129 63l74 -92
c-47 -54 -124 -87 -220 -87zM285 428c-59 0 -96 -43 -96 -108v-8h184v9c0 64 -29 107 -88 107z" />
    <glyph glyph-name="uni1EC0" unicode="&#x1ec0;" horiz-adv-x="607" 
d="M142 894l-134 176l114 57l99 -194zM268 942h94l145 -147l-68 -64l-124 104l-124 -104l-68 64zM552 0h-475v698h475v-135h-323v-143h277v-134h-277v-151h323v-135z" />
    <glyph glyph-name="uni1EC1" unicode="&#x1ec1;" horiz-adv-x="562" 
d="M114 733l-134 176l114 57l99 -194zM240 781h94l145 -147l-68 -64l-124 104l-124 -104l-68 64zM288 -12c-161 0 -252 107 -252 275c0 166 88 274 246 274c174 0 244 -126 244 -268v-44h-337v-8c0 -69 37 -113 116 -113c62 0 96 29 129 63l74 -92
c-47 -54 -124 -87 -220 -87zM285 428c-59 0 -96 -43 -96 -108v-8h184v9c0 64 -29 107 -88 107z" />
    <glyph glyph-name="uni1EC2" unicode="&#x1ec2;" horiz-adv-x="607" 
d="M353 1012v101h134c74 0 98 -34 98 -72c0 -40 -30 -87 -63 -127l-27 -33l-66 34l43 97h-119zM268 942h94l145 -147l-68 -64l-124 104l-124 -104l-68 64zM552 0h-475v698h475v-135h-323v-143h277v-134h-277v-151h323v-135z" />
    <glyph glyph-name="uni1EC3" unicode="&#x1ec3;" horiz-adv-x="562" 
d="M325 851v101h134c74 0 98 -34 98 -72c0 -40 -30 -87 -63 -127l-27 -33l-66 34l43 97h-119zM240 781h94l145 -147l-68 -64l-124 104l-124 -104l-68 64zM288 -12c-161 0 -252 107 -252 275c0 166 88 274 246 274c174 0 244 -126 244 -268v-44h-337v-8
c0 -69 37 -113 116 -113c62 0 96 29 129 63l74 -92c-47 -54 -124 -87 -220 -87zM285 428c-59 0 -96 -43 -96 -108v-8h184v9c0 64 -29 107 -88 107z" />
    <glyph glyph-name="uni1EC4" unicode="&#x1ec4;" horiz-adv-x="607" 
d="M240 1103c30 0 52 -9 77 -20c29 -12 52 -22 78 -22c23 0 38 8 59 25l50 -64c-24 -36 -61 -64 -114 -64c-30 0 -52 9 -77 20c-29 12 -52 22 -78 22c-23 0 -38 -8 -59 -25l-50 64c24 36 61 64 114 64zM267 929h96l142 -134l-66 -64l-124 95l-124 -95l-66 64zM552 0h-475
v698h475v-135h-323v-143h277v-134h-277v-151h323v-135z" />
    <glyph glyph-name="uni1EC5" unicode="&#x1ec5;" horiz-adv-x="562" 
d="M212 942c30 0 52 -9 77 -20c29 -12 52 -22 78 -22c23 0 38 8 59 25l50 -64c-24 -36 -61 -64 -114 -64c-30 0 -52 9 -77 20c-29 12 -52 22 -78 22c-23 0 -38 -8 -59 -25l-50 64c24 36 61 64 114 64zM239 768h96l142 -134l-66 -64l-124 95l-124 -95l-66 64zM288 -12
c-161 0 -252 107 -252 275c0 166 88 274 246 274c174 0 244 -126 244 -268v-44h-337v-8c0 -69 37 -113 116 -113c62 0 96 29 129 63l74 -92c-47 -54 -124 -87 -220 -87zM285 428c-59 0 -96 -43 -96 -108v-8h184v9c0 64 -29 107 -88 107z" />
    <glyph glyph-name="uni1EC6" unicode="&#x1ec6;" horiz-adv-x="607" 
d="M315 -204c-59 0 -81 28 -81 63v26c0 35 22 63 81 63s81 -28 81 -63v-26c0 -35 -22 -63 -81 -63zM253 956h124l132 -159l-73 -58l-121 115l-121 -115l-73 58zM552 0h-475v698h475v-135h-323v-143h277v-134h-277v-151h323v-135z" />
    <glyph glyph-name="uni1EC7" unicode="&#x1ec7;" horiz-adv-x="562" 
d="M283 -204c-59 0 -81 28 -81 63v26c0 35 22 63 81 63s81 -28 81 -63v-26c0 -35 -22 -63 -81 -63zM225 795h124l132 -159l-73 -58l-121 115l-121 -115l-73 58zM288 -12c-161 0 -252 107 -252 275c0 166 88 274 246 274c174 0 244 -126 244 -268v-44h-337v-8
c0 -69 37 -113 116 -113c62 0 96 29 129 63l74 -92c-47 -54 -124 -87 -220 -87zM285 428c-59 0 -96 -43 -96 -108v-8h184v9c0 64 -29 107 -88 107z" />
    <glyph glyph-name="uni1EC8" unicode="&#x1ec8;" horiz-adv-x="432" 
d="M96 857v106h143c75 0 98 -34 98 -73s-24 -86 -57 -126l-28 -34l-75 35l41 92h-122zM382 0h-332v121h90v456h-90v121h332v-121h-90v-456h90v-121z" />
    <glyph glyph-name="uni1EC9" unicode="&#x1ec9;" horiz-adv-x="286" 
d="M23 696v106h143c75 0 98 -34 98 -73s-24 -86 -57 -126l-28 -34l-75 35l41 92h-122zM217 0h-148v525h148v-525z" />
    <glyph glyph-name="uni1ECA" unicode="&#x1eca;" horiz-adv-x="432" 
d="M216 -204c-59 0 -81 28 -81 63v26c0 35 22 63 81 63s81 -28 81 -63v-26c0 -35 -22 -63 -81 -63zM382 0h-332v121h90v456h-90v121h332v-121h-90v-456h90v-121z" />
    <glyph glyph-name="uni1ECB" unicode="&#x1ecb;" horiz-adv-x="286" 
d="M143 -204c-59 0 -81 28 -81 63v26c0 35 22 63 81 63s81 -28 81 -63v-26c0 -35 -22 -63 -81 -63zM143 581c-60 0 -86 31 -86 73v22c0 42 26 73 86 73s86 -31 86 -73v-22c0 -42 -26 -73 -86 -73zM69 0v525h148v-525h-148z" />
    <glyph glyph-name="uni1ECC" unicode="&#x1ecc;" horiz-adv-x="714" 
d="M357 -204c-59 0 -81 28 -81 63v26c0 35 22 63 81 63s81 -28 81 -63v-26c0 -35 -22 -63 -81 -63zM357 -12c-185 0 -307 124 -307 361s122 361 307 361s307 -124 307 -361s-122 -361 -307 -361zM357 123c91 0 146 63 146 174v104c0 111 -55 174 -146 174
s-146 -63 -146 -174v-104c0 -111 55 -174 146 -174z" />
    <glyph glyph-name="uni1ECD" unicode="&#x1ecd;" horiz-adv-x="564" 
d="M281 -204c-59 0 -81 28 -81 63v26c0 35 22 63 81 63s81 -28 81 -63v-26c0 -35 -22 -63 -81 -63zM282 -12c-154 0 -246 106 -246 275s92 274 246 274s246 -105 246 -274s-92 -275 -246 -275zM282 105c58 0 92 38 92 104v107c0 66 -34 104 -92 104s-92 -38 -92 -104v-107
c0 -66 34 -104 92 -104z" />
    <glyph glyph-name="uni1ECE" unicode="&#x1ece;" horiz-adv-x="714" 
d="M237 857v106h143c75 0 98 -34 98 -73s-24 -86 -57 -126l-28 -34l-75 35l41 92h-122zM357 -12c-185 0 -307 124 -307 361s122 361 307 361s307 -124 307 -361s-122 -361 -307 -361zM357 123c91 0 146 63 146 174v104c0 111 -55 174 -146 174s-146 -63 -146 -174v-104
c0 -111 55 -174 146 -174z" />
    <glyph glyph-name="uni1ECF" unicode="&#x1ecf;" horiz-adv-x="564" 
d="M161 696v106h143c75 0 98 -34 98 -73s-24 -86 -57 -126l-28 -34l-75 35l41 92h-122zM282 -12c-154 0 -246 106 -246 275s92 274 246 274s246 -105 246 -274s-92 -275 -246 -275zM282 105c58 0 92 38 92 104v107c0 66 -34 104 -92 104s-92 -38 -92 -104v-107
c0 -66 34 -104 92 -104z" />
    <glyph glyph-name="uni1ED0" unicode="&#x1ed0;" horiz-adv-x="714" 
d="M664 1070l-134 -176l-79 39l99 194zM310 942h94l145 -147l-68 -64l-124 104l-124 -104l-68 64zM357 -12c-185 0 -307 124 -307 361s122 361 307 361s307 -124 307 -361s-122 -361 -307 -361zM357 123c91 0 146 63 146 174v104c0 111 -55 174 -146 174s-146 -63 -146 -174
v-104c0 -111 55 -174 146 -174z" />
    <glyph glyph-name="uni1ED1" unicode="&#x1ed1;" horiz-adv-x="564" 
d="M588 909l-134 -176l-79 39l99 194zM234 781h94l145 -147l-68 -64l-124 104l-124 -104l-68 64zM282 -12c-154 0 -246 106 -246 275s92 274 246 274s246 -105 246 -274s-92 -275 -246 -275zM282 105c58 0 92 38 92 104v107c0 66 -34 104 -92 104s-92 -38 -92 -104v-107
c0 -66 34 -104 92 -104z" />
    <glyph glyph-name="uni1ED2" unicode="&#x1ed2;" horiz-adv-x="714" 
d="M184 894l-134 176l114 57l99 -194zM310 942h94l145 -147l-68 -64l-124 104l-124 -104l-68 64zM357 -12c-185 0 -307 124 -307 361s122 361 307 361s307 -124 307 -361s-122 -361 -307 -361zM357 123c91 0 146 63 146 174v104c0 111 -55 174 -146 174s-146 -63 -146 -174
v-104c0 -111 55 -174 146 -174z" />
    <glyph glyph-name="uni1ED3" unicode="&#x1ed3;" horiz-adv-x="564" 
d="M108 733l-134 176l114 57l99 -194zM234 781h94l145 -147l-68 -64l-124 104l-124 -104l-68 64zM282 -12c-154 0 -246 106 -246 275s92 274 246 274s246 -105 246 -274s-92 -275 -246 -275zM282 105c58 0 92 38 92 104v107c0 66 -34 104 -92 104s-92 -38 -92 -104v-107
c0 -66 34 -104 92 -104z" />
    <glyph glyph-name="uni1ED4" unicode="&#x1ed4;" horiz-adv-x="714" 
d="M395 1012v101h134c74 0 98 -34 98 -72c0 -40 -30 -87 -63 -127l-27 -33l-66 34l43 97h-119zM310 942h94l145 -147l-68 -64l-124 104l-124 -104l-68 64zM357 -12c-185 0 -307 124 -307 361s122 361 307 361s307 -124 307 -361s-122 -361 -307 -361zM357 123
c91 0 146 63 146 174v104c0 111 -55 174 -146 174s-146 -63 -146 -174v-104c0 -111 55 -174 146 -174z" />
    <glyph glyph-name="uni1ED5" unicode="&#x1ed5;" horiz-adv-x="564" 
d="M319 851v101h134c74 0 98 -34 98 -72c0 -40 -30 -87 -63 -127l-27 -33l-66 34l43 97h-119zM234 781h94l145 -147l-68 -64l-124 104l-124 -104l-68 64zM282 -12c-154 0 -246 106 -246 275s92 274 246 274s246 -105 246 -274s-92 -275 -246 -275zM282 105
c58 0 92 38 92 104v107c0 66 -34 104 -92 104s-92 -38 -92 -104v-107c0 -66 34 -104 92 -104z" />
    <glyph glyph-name="uni1ED6" unicode="&#x1ed6;" horiz-adv-x="714" 
d="M282 1103c30 0 52 -9 77 -20c29 -12 52 -22 78 -22c23 0 38 8 59 25l50 -64c-24 -36 -61 -64 -114 -64c-30 0 -52 9 -77 20c-29 12 -52 22 -78 22c-23 0 -38 -8 -59 -25l-50 64c24 36 61 64 114 64zM309 929h96l142 -134l-66 -64l-124 95l-124 -95l-66 64zM357 -12
c-185 0 -307 124 -307 361s122 361 307 361s307 -124 307 -361s-122 -361 -307 -361zM357 123c91 0 146 63 146 174v104c0 111 -55 174 -146 174s-146 -63 -146 -174v-104c0 -111 55 -174 146 -174z" />
    <glyph glyph-name="uni1ED7" unicode="&#x1ed7;" horiz-adv-x="564" 
d="M206 942c30 0 52 -9 77 -20c29 -12 52 -22 78 -22c23 0 38 8 59 25l50 -64c-24 -36 -61 -64 -114 -64c-30 0 -52 9 -77 20c-29 12 -52 22 -78 22c-23 0 -38 -8 -59 -25l-50 64c24 36 61 64 114 64zM233 768h96l142 -134l-66 -64l-124 95l-124 -95l-66 64zM282 -12
c-154 0 -246 106 -246 275s92 274 246 274s246 -105 246 -274s-92 -275 -246 -275zM282 105c58 0 92 38 92 104v107c0 66 -34 104 -92 104s-92 -38 -92 -104v-107c0 -66 34 -104 92 -104z" />
    <glyph glyph-name="uni1ED8" unicode="&#x1ed8;" horiz-adv-x="714" 
d="M357 -204c-59 0 -81 28 -81 63v26c0 35 22 63 81 63s81 -28 81 -63v-26c0 -35 -22 -63 -81 -63zM295 956h124l132 -159l-73 -58l-121 115l-121 -115l-73 58zM357 -12c-185 0 -307 124 -307 361s122 361 307 361s307 -124 307 -361s-122 -361 -307 -361zM357 123
c91 0 146 63 146 174v104c0 111 -55 174 -146 174s-146 -63 -146 -174v-104c0 -111 55 -174 146 -174z" />
    <glyph glyph-name="uni1ED9" unicode="&#x1ed9;" horiz-adv-x="564" 
d="M281 -204c-59 0 -81 28 -81 63v26c0 35 22 63 81 63s81 -28 81 -63v-26c0 -35 -22 -63 -81 -63zM219 795h124l132 -159l-73 -58l-121 115l-121 -115l-73 58zM282 -12c-154 0 -246 106 -246 275s92 274 246 274s246 -105 246 -274s-92 -275 -246 -275zM282 105
c58 0 92 38 92 104v107c0 66 -34 104 -92 104s-92 -38 -92 -104v-107c0 -66 34 -104 92 -104z" />
    <glyph glyph-name="uni1EDA" unicode="&#x1eda;" horiz-adv-x="714" 
d="M507 916l-134 -176l-88 43l99 194zM561 804h124v-94c0 -65 -20 -100 -98 -101c49 -60 77 -147 77 -260c0 -237 -122 -361 -307 -361s-307 124 -307 361s122 361 307 361c33 0 65 -4 93 -12h111v106zM357 123c91 0 146 63 146 174v104c0 111 -55 174 -146 174
s-146 -63 -146 -174v-104c0 -111 55 -174 146 -174z" />
    <glyph glyph-name="uni1EDB" unicode="&#x1edb;" horiz-adv-x="564" 
d="M431 755l-134 -176l-88 43l99 194zM427 631h124v-94c0 -62 -19 -91 -68 -98c32 -49 45 -103 45 -173c0 -169 -92 -278 -246 -278s-246 109 -246 278s92 271 246 271c31 0 59 -4 85 -12h60v106zM282 105c58 0 92 38 92 104v107c0 66 -34 104 -92 104s-92 -38 -92 -104
v-107c0 -66 34 -104 92 -104z" />
    <glyph glyph-name="uni1EDC" unicode="&#x1edc;" horiz-adv-x="714" 
d="M341 740l-134 176l123 61l99 -194zM561 804h124v-94c0 -65 -20 -100 -98 -101c49 -60 77 -147 77 -260c0 -237 -122 -361 -307 -361s-307 124 -307 361s122 361 307 361c33 0 65 -4 93 -12h111v106zM357 123c91 0 146 63 146 174v104c0 111 -55 174 -146 174
s-146 -63 -146 -174v-104c0 -111 55 -174 146 -174z" />
    <glyph glyph-name="uni1EDD" unicode="&#x1edd;" horiz-adv-x="564" 
d="M265 579l-134 176l123 61l99 -194zM427 631h124v-94c0 -62 -19 -91 -68 -98c32 -49 45 -103 45 -173c0 -169 -92 -278 -246 -278s-246 109 -246 278s92 271 246 271c31 0 59 -4 85 -12h60v106zM282 105c58 0 92 38 92 104v107c0 66 -34 104 -92 104s-92 -38 -92 -104
v-107c0 -66 34 -104 92 -104z" />
    <glyph glyph-name="uni1EDE" unicode="&#x1ede;" horiz-adv-x="714" 
d="M237 857v106h143c75 0 98 -34 98 -73s-24 -86 -57 -126l-28 -34l-75 35l41 92h-122zM561 804h124v-94c0 -65 -20 -100 -98 -101c49 -60 77 -147 77 -260c0 -237 -122 -361 -307 -361s-307 124 -307 361s122 361 307 361c33 0 65 -4 93 -12h111v106zM357 123
c91 0 146 63 146 174v104c0 111 -55 174 -146 174s-146 -63 -146 -174v-104c0 -111 55 -174 146 -174z" />
    <glyph glyph-name="uni1EDF" unicode="&#x1edf;" horiz-adv-x="564" 
d="M161 696v106h143c75 0 98 -34 98 -73s-24 -86 -57 -126l-28 -34l-75 35l41 92h-122zM427 631h124v-94c0 -62 -19 -91 -68 -98c32 -49 45 -103 45 -173c0 -169 -92 -278 -246 -278s-246 109 -246 278s92 271 246 271c31 0 59 -4 85 -12h60v106zM282 105c58 0 92 38 92 104
v107c0 66 -34 104 -92 104s-92 -38 -92 -104v-107c0 -66 34 -104 92 -104z" />
    <glyph glyph-name="uni1EE0" unicode="&#x1ee0;" horiz-adv-x="714" 
d="M423 762c-26 0 -45 9 -67 20c-25 12 -45 22 -67 22c-17 0 -32 -6 -49 -21l-51 62c22 37 54 66 102 66c26 0 45 -9 67 -20c25 -12 45 -22 67 -22c17 0 32 6 49 21l51 -62c-22 -37 -54 -66 -102 -66zM561 804h124v-94c0 -65 -20 -100 -98 -101c49 -60 77 -147 77 -260
c0 -237 -122 -361 -307 -361s-307 124 -307 361s122 361 307 361c33 0 65 -4 93 -12h111v106zM357 123c91 0 146 63 146 174v104c0 111 -55 174 -146 174s-146 -63 -146 -174v-104c0 -111 55 -174 146 -174z" />
    <glyph glyph-name="uni1EE1" unicode="&#x1ee1;" horiz-adv-x="564" 
d="M347 601c-26 0 -45 9 -67 20c-25 12 -45 22 -67 22c-17 0 -32 -6 -49 -21l-51 62c22 37 54 66 102 66c26 0 45 -9 67 -20c25 -12 45 -22 67 -22c17 0 32 6 49 21l51 -62c-22 -37 -54 -66 -102 -66zM427 631h124v-94c0 -62 -19 -91 -68 -98c32 -49 45 -103 45 -173
c0 -169 -92 -278 -246 -278s-246 109 -246 278s92 271 246 271c31 0 59 -4 85 -12h60v106zM282 105c58 0 92 38 92 104v107c0 66 -34 104 -92 104s-92 -38 -92 -104v-107c0 -66 34 -104 92 -104z" />
    <glyph glyph-name="uni1EE2" unicode="&#x1ee2;" horiz-adv-x="714" 
d="M357 -204c-59 0 -81 28 -81 63v26c0 35 22 63 81 63s81 -28 81 -63v-26c0 -35 -22 -63 -81 -63zM561 804h124v-94c0 -65 -20 -100 -98 -101c49 -60 77 -147 77 -260c0 -237 -122 -361 -307 -361s-307 124 -307 361s122 361 307 361c33 0 65 -4 93 -12h111v106zM357 123
c91 0 146 63 146 174v104c0 111 -55 174 -146 174s-146 -63 -146 -174v-104c0 -111 55 -174 146 -174z" />
    <glyph glyph-name="uni1EE3" unicode="&#x1ee3;" horiz-adv-x="564" 
d="M281 -204c-59 0 -81 28 -81 63v26c0 35 22 63 81 63s81 -28 81 -63v-26c0 -35 -22 -63 -81 -63zM427 631h124v-94c0 -62 -19 -91 -68 -98c32 -49 45 -103 45 -173c0 -169 -92 -278 -246 -278s-246 109 -246 278s92 271 246 271c31 0 59 -4 85 -12h60v106zM282 105
c58 0 92 38 92 104v107c0 66 -34 104 -92 104s-92 -38 -92 -104v-107c0 -66 34 -104 92 -104z" />
    <glyph glyph-name="uni1EE4" unicode="&#x1ee4;" horiz-adv-x="694" 
d="M347 -204c-59 0 -81 28 -81 63v26c0 35 22 63 81 63s81 -28 81 -63v-26c0 -35 -22 -63 -81 -63zM73 698h148v-428c0 -98 36 -147 126 -147s126 49 126 147v428h148v-412c0 -206 -74 -298 -274 -298s-274 92 -274 298v412z" />
    <glyph glyph-name="uni1EE5" unicode="&#x1ee5;" horiz-adv-x="596" 
d="M295 -204c-59 0 -81 28 -81 63v26c0 35 22 63 81 63s81 -28 81 -63v-26c0 -35 -22 -63 -81 -63zM379 0v88h-5c-18 -53 -61 -100 -147 -100c-107 0 -164 75 -164 207v330h148v-317c0 -64 21 -100 75 -100c46 0 93 26 93 76v341h148v-525h-148z" />
    <glyph glyph-name="uni1EE6" unicode="&#x1ee6;" horiz-adv-x="694" 
d="M227 857v106h143c75 0 98 -34 98 -73s-24 -86 -57 -126l-28 -34l-75 35l41 92h-122zM73 698h148v-428c0 -98 36 -147 126 -147s126 49 126 147v428h148v-412c0 -206 -74 -298 -274 -298s-274 92 -274 298v412z" />
    <glyph glyph-name="uni1EE7" unicode="&#x1ee7;" horiz-adv-x="596" 
d="M175 696v106h143c75 0 98 -34 98 -73s-24 -86 -57 -126l-28 -34l-75 35l41 92h-122zM379 0v88h-5c-18 -53 -61 -100 -147 -100c-107 0 -164 75 -164 207v330h148v-317c0 -64 21 -100 75 -100c46 0 93 26 93 76v341h148v-525h-148z" />
    <glyph glyph-name="uni1EE8" unicode="&#x1ee8;" horiz-adv-x="694" 
d="M497 916l-134 -176l-88 43l99 194zM73 698h148v-428c0 -98 36 -147 126 -147s126 49 126 147v428h77v106h124v-94c0 -51 -12 -82 -53 -94v-330c0 -206 -74 -298 -274 -298s-274 92 -274 298v412z" />
    <glyph glyph-name="uni1EE9" unicode="&#x1ee9;" horiz-adv-x="596" 
d="M444 755l-134 -176l-88 43l99 194zM590 631v-94c0 -57 -15 -90 -64 -98v-439h-147v88h-5c-18 -53 -61 -100 -147 -100c-107 0 -164 75 -164 207v330h148v-317c0 -64 21 -100 75 -100c46 0 93 26 93 76v341h87v106h124z" />
    <glyph glyph-name="uni1EEA" unicode="&#x1eea;" horiz-adv-x="694" 
d="M331 740l-134 176l123 61l99 -194zM73 698h148v-428c0 -98 36 -147 126 -147s126 49 126 147v428h77v106h124v-94c0 -51 -12 -82 -53 -94v-330c0 -206 -74 -298 -274 -298s-274 92 -274 298v412z" />
    <glyph glyph-name="uni1EEB" unicode="&#x1eeb;" horiz-adv-x="596" 
d="M278 579l-134 176l123 61l99 -194zM590 631v-94c0 -57 -15 -90 -64 -98v-439h-147v88h-5c-18 -53 -61 -100 -147 -100c-107 0 -164 75 -164 207v330h148v-317c0 -64 21 -100 75 -100c46 0 93 26 93 76v341h87v106h124z" />
    <glyph glyph-name="uni1EEC" unicode="&#x1eec;" horiz-adv-x="694" 
d="M227 857v106h143c75 0 98 -34 98 -73s-24 -86 -57 -126l-28 -34l-75 35l41 92h-122zM73 698h148v-428c0 -98 36 -147 126 -147s126 49 126 147v428h77v106h124v-94c0 -51 -12 -82 -53 -94v-330c0 -206 -74 -298 -274 -298s-274 92 -274 298v412z" />
    <glyph glyph-name="uni1EED" unicode="&#x1eed;" horiz-adv-x="596" 
d="M174 696v106h143c75 0 98 -34 98 -73s-24 -86 -57 -126l-28 -34l-75 35l41 92h-122zM590 631v-94c0 -57 -15 -90 -64 -98v-439h-147v88h-5c-18 -53 -61 -100 -147 -100c-107 0 -164 75 -164 207v330h148v-317c0 -64 21 -100 75 -100c46 0 93 26 93 76v341h87v106h124z
" />
    <glyph glyph-name="uni1EEE" unicode="&#x1eee;" horiz-adv-x="694" 
d="M395 762c-26 0 -45 9 -67 20c-25 12 -45 22 -67 22c-17 0 -32 -6 -49 -21l-51 62c22 37 54 66 102 66c26 0 45 -9 67 -20c25 -12 45 -22 67 -22c17 0 32 6 49 21l51 -62c-22 -37 -54 -66 -102 -66zM73 698h148v-428c0 -98 36 -147 126 -147s126 49 126 147v428h77v106
h124v-94c0 -51 -12 -82 -53 -94v-330c0 -206 -74 -298 -274 -298s-274 92 -274 298v412z" />
    <glyph glyph-name="uni1EEF" unicode="&#x1eef;" horiz-adv-x="596" 
d="M358 601c-26 0 -45 9 -67 20c-25 12 -45 22 -67 22c-17 0 -32 -6 -49 -21l-51 62c22 37 54 66 102 66c26 0 45 -9 67 -20c25 -12 45 -22 67 -22c17 0 32 6 49 21l51 -62c-22 -37 -54 -66 -102 -66zM590 631v-94c0 -57 -15 -90 -64 -98v-439h-147v88h-5
c-18 -53 -61 -100 -147 -100c-107 0 -164 75 -164 207v330h148v-317c0 -64 21 -100 75 -100c46 0 93 26 93 76v341h87v106h124z" />
    <glyph glyph-name="uni1EF0" unicode="&#x1ef0;" horiz-adv-x="694" 
d="M347 -204c-59 0 -81 28 -81 63v26c0 35 22 63 81 63s81 -28 81 -63v-26c0 -35 -22 -63 -81 -63zM73 698h148v-428c0 -98 36 -147 126 -147s126 49 126 147v428h77v106h124v-94c0 -51 -12 -82 -53 -94v-330c0 -206 -74 -298 -274 -298s-274 92 -274 298v412z" />
    <glyph glyph-name="uni1EF1" unicode="&#x1ef1;" horiz-adv-x="596" 
d="M294 -204c-59 0 -81 28 -81 63v26c0 35 22 63 81 63s81 -28 81 -63v-26c0 -35 -22 -63 -81 -63zM590 631v-94c0 -57 -15 -90 -64 -98v-439h-147v88h-5c-18 -53 -61 -100 -147 -100c-107 0 -164 75 -164 207v330h148v-317c0 -64 21 -100 75 -100c46 0 93 26 93 76v341h87
v106h124z" />
    <glyph glyph-name="Ygrave" unicode="&#x1ef2;" horiz-adv-x="649" 
d="M309 740l-134 176l123 61l99 -194zM401 0h-153v273l-239 425h170l150 -278h2l144 278h165l-239 -424v-274z" />
    <glyph glyph-name="ygrave" unicode="&#x1ef3;" horiz-adv-x="534" 
d="M255 579l-134 176l123 61l99 -194zM313 280l77 245h138l-202 -606c-27 -81 -71 -119 -161 -119h-92v115h99l18 58l-184 552h147l77 -245l38 -152h6z" />
    <glyph glyph-name="uni1EF4" unicode="&#x1ef4;" horiz-adv-x="649" 
d="M323 -204c-59 0 -81 28 -81 63v26c0 35 22 63 81 63s81 -28 81 -63v-26c0 -35 -22 -63 -81 -63zM401 0h-153v273l-239 425h170l150 -278h2l144 278h165l-239 -424v-274z" />
    <glyph glyph-name="uni1EF5" unicode="&#x1ef5;" horiz-adv-x="534" 
d="M432 -204c-59 0 -81 28 -81 63v26c0 35 22 63 81 63s81 -28 81 -63v-26c0 -35 -22 -63 -81 -63zM313 280l77 245h138l-202 -606c-27 -81 -71 -119 -161 -119h-92v115h99l18 58l-184 552h147l77 -245l38 -152h6z" />
    <glyph glyph-name="uni1EF6" unicode="&#x1ef6;" horiz-adv-x="649" 
d="M205 857v106h143c75 0 98 -34 98 -73s-24 -86 -57 -126l-28 -34l-75 35l41 92h-122zM401 0h-153v273l-239 425h170l150 -278h2l144 278h165l-239 -424v-274z" />
    <glyph glyph-name="uni1EF7" unicode="&#x1ef7;" horiz-adv-x="534" 
d="M151 696v106h143c75 0 98 -34 98 -73s-24 -86 -57 -126l-28 -34l-75 35l41 92h-122zM313 280l77 245h138l-202 -606c-27 -81 -71 -119 -161 -119h-92v115h99l18 58l-184 552h147l77 -245l38 -152h6z" />
    <glyph glyph-name="uni1EF8" unicode="&#x1ef8;" horiz-adv-x="649" 
d="M401 762c-30 0 -52 9 -77 20c-29 12 -52 22 -78 22c-23 0 -38 -8 -59 -25l-52 68c24 36 61 64 114 64c30 0 52 -9 77 -20c29 -12 52 -22 78 -22c23 0 38 8 59 25l52 -68c-24 -36 -61 -64 -114 -64zM401 0h-153v273l-239 425h170l150 -278h2l144 278h165l-239 -424v-274z
" />
    <glyph glyph-name="uni1EF9" unicode="&#x1ef9;" horiz-adv-x="534" 
d="M347 601c-30 0 -52 9 -77 20c-29 12 -52 22 -78 22c-23 0 -38 -8 -59 -25l-52 68c24 36 61 64 114 64c30 0 52 -9 77 -20c29 -12 52 -22 78 -22c23 0 38 8 59 25l52 -68c-24 -36 -61 -64 -114 -64zM313 280l77 245h138l-202 -606c-27 -81 -71 -119 -161 -119h-92v115h99
l18 58l-184 552h147l77 -245l38 -152h6z" />
    <glyph glyph-name="endash" unicode="&#x2013;" horiz-adv-x="588" 
d="M552 244h-516v120h516v-120z" />
    <glyph glyph-name="emdash" unicode="&#x2014;" horiz-adv-x="780" 
d="M744 244h-708v120h708v-120z" />
    <glyph glyph-name="quoteleft" unicode="&#x2018;" horiz-adv-x="300" 
d="M148 440c-60 0 -86 31 -86 72v21c0 78 48 160 109 207h93c-44 -40 -76 -80 -92 -130c43 -8 62 -38 62 -73v-25c0 -41 -26 -72 -86 -72z" />
    <glyph glyph-name="quoteright" unicode="&#x2019;" horiz-adv-x="300" 
d="M152 750c60 0 86 -31 86 -72v-21c0 -78 -48 -160 -109 -207h-93c44 40 76 80 92 130c-43 8 -62 38 -62 73v25c0 41 26 72 86 72z" />
    <glyph glyph-name="quotesinglbase" unicode="&#x201a;" horiz-adv-x="304" 
d="M155 183c61 0 85 -31 85 -74v-22c0 -78 -46 -156 -106 -204h-96c45 40 78 80 94 130c-44 8 -62 39 -62 74v22c0 43 24 74 85 74z" />
    <glyph glyph-name="quotedblleft" unicode="&#x201c;" horiz-adv-x="535" 
d="M383 440c-60 0 -86 31 -86 72v21c0 78 48 160 109 207h93c-44 -40 -76 -80 -92 -130c43 -8 62 -38 62 -73v-25c0 -41 -26 -72 -86 -72zM148 440c-60 0 -86 31 -86 72v21c0 78 48 160 109 207h93c-44 -40 -76 -80 -92 -130c43 -8 62 -38 62 -73v-25c0 -41 -26 -72 -86 -72
z" />
    <glyph glyph-name="quotedblright" unicode="&#x201d;" horiz-adv-x="535" 
d="M387 750c60 0 86 -31 86 -72v-21c0 -78 -48 -160 -109 -207h-93c44 40 76 80 92 130c-43 8 -62 38 -62 73v25c0 41 26 72 86 72zM152 750c60 0 86 -31 86 -72v-21c0 -78 -48 -160 -109 -207h-93c44 40 76 80 92 130c-43 8 -62 38 -62 73v25c0 41 26 72 86 72z" />
    <glyph glyph-name="quotedblbase" unicode="&#x201e;" horiz-adv-x="539" 
d="M390 183c61 0 85 -31 85 -74v-22c0 -78 -46 -156 -106 -204h-96c45 40 78 80 94 130c-44 8 -62 39 -62 74v22c0 43 24 74 85 74zM155 183c61 0 85 -31 85 -74v-22c0 -78 -46 -156 -106 -204h-96c45 40 78 80 94 130c-44 8 -62 39 -62 74v22c0 43 24 74 85 74z" />
    <glyph glyph-name="dagger" unicode="&#x2020;" horiz-adv-x="522" 
d="M324 -200h-126v608h-172v108h172v224h126v-224h172v-108h-172v-608z" />
    <glyph glyph-name="daggerdbl" unicode="&#x2021;" horiz-adv-x="542" 
d="M334 -200h-126v224h-172v108h172v276h-172v108h172v224h126v-224h172v-108h-172v-276h172v-108h-172v-224z" />
    <glyph glyph-name="bullet" unicode="&#x2022;" horiz-adv-x="430" 
d="M215 150c-111 0 -153 56 -153 131v36c0 75 42 131 153 131s153 -56 153 -131v-36c0 -75 -42 -131 -153 -131z" />
    </font>
</defs>
</svg>
