<?xml version="1.0" standalone="no"?>
<!DOCTYPE svg PUBLIC "-//W3C//DTD SVG 1.1//EN" "http://www.w3.org/Graphics/SVG/1.1/DTD/svg11.dtd" >
<svg xmlns="http://www.w3.org/2000/svg" xmlns:xlink="http://www.w3.org/1999/xlink" version="1.1">
<metadata>
Created by FontForge 20180714 at Tue Aug 14 15:55:35 2018
 By Gisle,,,,
Copyright 2018 IBM Corp. All rights reserved.
</metadata>
<defs>
<font id="Aneliza-BoldItalic" horiz-adv-x="0" >
  <font-face 
    font-family="Aneliza"
    font-weight="700"
    font-style="italic"
    font-stretch="normal"
    units-per-em="1000"
    panose-1="2 11 8 3 5 2 3 0 2 3"
    ascent="780"
    descent="-220"
    x-height="525"
    cap-height="698"
    bbox="-292 -275 1278 1148"
    underline-thickness="100"
    underline-position="-116"
    slope="-11.31"
    stemh="112"
    stemv="159"
    unicode-range="U+0020-FB02"
  />
<missing-glyph horiz-adv-x="472" 
d="M32 0v780h408v-780h-408zM132 100h208v580h-208v-580z" />
    <glyph glyph-name="fi" unicode="fi" horiz-adv-x="633" 
d="M64 413l22 112h69l13 65c21 98 78 150 176 150h84l-24 -112h-89l-20 -103h315l-81 -413h59l-22 -112h-97c-51 0 -86 32 -86 78c0 10 2 22 3 27l62 308h-175l-92 -463c-20 -101 -87 -150 -184 -150h-84l24 112h97l99 501h-69zM553 584c-49 0 -70 23 -70 55c0 6 1 13 6 38
c8 41 37 72 94 72c49 0 70 -23 70 -55c0 -6 -1 -14 -6 -38c-10 -41 -37 -72 -94 -72z" />
    <glyph glyph-name=".notdef" horiz-adv-x="472" 
d="M32 0v780h408v-780h-408zM132 100h208v580h-208v-580z" />
    <glyph glyph-name="space" unicode=" " horiz-adv-x="236" 
 />
    <glyph glyph-name="exclam" unicode="!" horiz-adv-x="314" 
d="M181 220h-62l11 284l38 194h152l-38 -194zM104 -12c-56 0 -77 25 -77 58c0 6 0 13 6 42c9 46 41 76 101 76c56 0 77 -25 77 -58c0 -6 0 -13 -6 -42c-9 -46 -41 -76 -101 -76z" />
    <glyph glyph-name="quotedbl" unicode="&#x22;" horiz-adv-x="488" 
d="M453 414h-132l65 326h132zM228 414h-132l65 326h132z" />
    <glyph glyph-name="numbersign" unicode="#" horiz-adv-x="640" 
d="M283 0l65 174h-157l-65 -174h-90l65 174h-108l18 88h123l65 174h-109l18 88h123l65 174h90l-65 -174h157l65 174h90l-65 -174h108l-18 -88h-123l-65 -174h109l-18 -88h-123l-65 -174h-90zM224 262h156l65 174h-156z" />
    <glyph glyph-name="dollar" unicode="$" horiz-adv-x="561" 
d="M155 -82l18 95c-79 14 -146 49 -178 98l93 85c24 -39 70 -65 119 -75l37 183c-116 27 -170 84 -170 175c0 117 88 202 235 211l18 90h110l-20 -96c68 -13 122 -43 151 -88l-93 -82c-18 28 -50 52 -92 62l-34 -168c107 -26 167 -79 167 -172c0 -106 -78 -211 -234 -227
l-17 -91h-110zM380 213c0 30 -12 58 -55 72l-31 -165c66 13 86 53 86 93zM210 496c0 -32 18 -55 58 -68l29 151c-63 -9 -87 -46 -87 -83z" />
    <glyph glyph-name="percent" unicode="%" horiz-adv-x="939" 
d="M268 0h-124l564 698h124zM247 314c-94 0 -155 53 -155 161c0 145 100 235 203 235c94 0 155 -53 155 -161c0 -145 -100 -235 -203 -235zM253 398c34 0 51 28 63 88l10 50c3 15 5 29 5 40c0 32 -16 50 -42 50c-34 0 -51 -28 -63 -88l-10 -50c-3 -15 -5 -29 -5 -40
c0 -32 16 -50 42 -50zM681 -12c-94 0 -155 53 -155 161c0 145 100 235 203 235c94 0 155 -53 155 -161c0 -144 -100 -235 -203 -235zM687 72c34 0 51 28 63 88l10 50c3 15 5 29 5 40c0 32 -16 50 -42 50c-34 0 -51 -28 -63 -88l-10 -50c-3 -15 -5 -29 -5 -40
c0 -32 16 -50 42 -50z" />
    <glyph glyph-name="ampersand" unicode="&#x26;" horiz-adv-x="704" 
d="M476 0l-41 57c-47 -38 -110 -69 -199 -69c-136 0 -205 72 -205 170c0 114 73 169 175 222c-25 37 -52 85 -52 136c0 117 97 194 229 194c106 0 181 -52 181 -149s-83 -152 -177 -200l83 -117c22 41 38 90 48 141h173l-24 -120h-79c-11 -41 -29 -81 -51 -115l106 -150
h-167zM363 602c-33 0 -59 -20 -66 -51c-2 -7 -3 -20 -3 -29c0 -24 11 -46 36 -81c62 33 93 59 93 107c0 33 -24 54 -60 54zM272 107c40 0 76 11 106 31l-116 163c-43 -23 -74 -48 -83 -92c-2 -8 -3 -18 -3 -27c0 -49 33 -75 96 -75z" />
    <glyph glyph-name="quotesingle" unicode="'" horiz-adv-x="263" 
d="M228 414h-132l65 326h132z" />
    <glyph glyph-name="parenleft" unicode="(" horiz-adv-x="353" 
d="M62 222c0 232 139 434 293 538h151c-140 -102 -263 -238 -294 -393l-20 -100c-4 -20 -4 -33 -4 -45c0 -148 57 -267 140 -359h-133c-71 79 -133 213 -133 359z" />
    <glyph glyph-name="parenright" unicode=")" horiz-adv-x="353" 
d="M316 401c0 -232 -139 -434 -293 -538h-151c140 102 263 238 294 393l20 100c4 20 4 33 4 45c0 148 -57 267 -140 359h133c71 -79 133 -213 133 -359z" />
    <glyph glyph-name="asterisk" unicode="*" horiz-adv-x="595" 
d="M326 399l-139 -160l-92 81l147 142l-157 54l51 115l158 -71l29 187h130l-43 -185l165 66l32 -112l-185 -60l88 -151l-108 -66z" />
    <glyph glyph-name="plus" unicode="+" horiz-adv-x="600" 
d="M322 63h-126l37 185h-169l23 116h169l36 185h126l-37 -185h169l-23 -116h-169z" />
    <glyph glyph-name="comma" unicode="," horiz-adv-x="307" 
d="M133 169c57 0 77 -32 77 -66c0 -11 -3 -29 -6 -44c-14 -70 -66 -153 -141 -206h-106c56 44 98 86 125 139c-37 8 -51 33 -51 57c0 11 4 31 7 46c9 45 41 74 95 74z" />
    <glyph glyph-name="hyphen" unicode="-" horiz-adv-x="395" 
d="M340 238h-295l27 134h295z" />
    <glyph glyph-name="period" unicode="." horiz-adv-x="307" 
d="M102 -11c-56 0 -76 31 -76 60c0 11 4 32 7 46c8 44 41 74 97 74s76 -31 76 -60c0 -11 -4 -32 -7 -46c-8 -44 -41 -74 -97 -74z" />
    <glyph glyph-name="slash" unicode="/" horiz-adv-x="479" 
d="M55 -151h-128l474 891h128z" />
    <glyph glyph-name="zero" unicode="0" horiz-adv-x="600" 
d="M262 -12c-176 0 -215 140 -215 256c0 237 113 466 317 466c176 0 215 -140 215 -256c0 -237 -113 -466 -317 -466zM275 106c78 0 109 74 130 181l25 124c5 27 8 49 8 72c0 68 -24 109 -87 109c-78 0 -109 -74 -130 -181l-25 -124c-5 -27 -8 -49 -8 -72
c0 -68 24 -109 87 -109z" />
    <glyph glyph-name="one" unicode="1" horiz-adv-x="600" 
d="M522 0h-465l23 118h180l93 471h-9l-175 -186l-85 75l207 220h226l-116 -580h144z" />
    <glyph glyph-name="two" unicode="2" horiz-adv-x="600" 
d="M512 121l-24 -121h-476l27 134l250 185c86 63 118 109 128 159c2 10 3 18 3 27c0 48 -34 80 -83 80c-60 0 -99 -47 -120 -100l-122 49c46 100 123 176 254 176c138 0 223 -78 223 -193c0 -120 -81 -191 -215 -287l-152 -109h307z" />
    <glyph glyph-name="three" unicode="3" horiz-adv-x="600" 
d="M231 421h65c73 0 112 31 120 71c2 10 4 20 4 28c0 44 -33 71 -86 71s-98 -23 -141 -82l-80 90c62 66 129 111 246 111c131 0 214 -66 214 -164c0 -93 -63 -156 -162 -179l-1 -5c70 -13 111 -66 111 -146c0 -131 -100 -228 -277 -228c-135 0 -198 63 -227 133l105 75
c20 -53 57 -90 131 -90c66 0 107 34 118 89c2 10 2 17 2 26c0 49 -35 79 -94 79h-72z" />
    <glyph glyph-name="four" unicode="4" horiz-adv-x="600" 
d="M424 0h-135l27 134h-305l25 127l356 437h172l-91 -452h86l-23 -112h-85zM385 534l-231 -288h184l58 288h-11z" />
    <glyph glyph-name="five" unicode="5" horiz-adv-x="600" 
d="M589 698l-25 -126h-308l-57 -226h9c39 70 80 109 163 109c105 0 174 -69 174 -193c0 -138 -103 -274 -290 -274c-144 0 -204 65 -233 135l116 74c16 -52 56 -90 124 -90c71 0 111 45 123 105c3 15 5 26 5 41c0 53 -34 84 -90 84c-52 0 -87 -25 -110 -50l-113 16l102 395
h410z" />
    <glyph glyph-name="six" unicode="6" horiz-adv-x="600" 
d="M264 -12c-140 0 -219 91 -219 235c0 206 162 381 325 475h207c-184 -115 -310 -204 -362 -351l8 -3c34 54 76 105 161 105c103 0 166 -77 166 -192c0 -142 -107 -269 -286 -269zM277 102c66 0 106 39 119 104c3 15 5 29 5 43c0 54 -29 88 -89 88
c-67 0 -106 -39 -119 -104c-3 -15 -5 -29 -5 -43c0 -54 29 -88 89 -88z" />
    <glyph glyph-name="seven" unicode="7" horiz-adv-x="600" 
d="M266 0h-154l347 579h-220l-25 -127h-121l49 246h484l-25 -126z" />
    <glyph glyph-name="eight" unicode="8" horiz-adv-x="600" 
d="M257 -12c-153 0 -226 73 -226 177c0 100 65 173 167 196l1 7c-54 23 -84 69 -84 137c0 102 84 205 260 205c139 0 206 -66 206 -160c0 -86 -59 -150 -144 -182l-1 -8c64 -20 101 -66 101 -150c0 -111 -102 -222 -280 -222zM267 100c65 0 106 35 117 90c3 15 4 23 4 36
c0 48 -31 77 -89 77c-65 0 -106 -35 -117 -90c-3 -15 -4 -23 -4 -36c0 -48 31 -77 89 -77zM328 411c64 0 99 36 108 81c3 15 6 30 6 39c0 40 -28 67 -85 67c-64 0 -99 -36 -108 -81c-3 -15 -6 -30 -6 -39c0 -40 28 -67 85 -67z" />
    <glyph glyph-name="nine" unicode="9" horiz-adv-x="600" 
d="M584 475c0 -206 -162 -381 -325 -475h-207c184 115 310 204 362 351l-8 3c-34 -54 -76 -105 -161 -105c-103 0 -166 77 -166 192c0 142 107 269 286 269c140 0 219 -91 219 -235zM317 361c67 0 106 39 119 104c3 15 5 29 5 43c0 54 -29 88 -89 88
c-66 0 -106 -39 -119 -104c-3 -15 -5 -29 -5 -43c0 -54 29 -88 89 -88z" />
    <glyph glyph-name="colon" unicode=":" horiz-adv-x="327" 
d="M187 356c-56 0 -76 31 -76 60c0 11 4 32 7 46c8 44 41 74 97 74s76 -31 76 -60c0 -11 -4 -32 -7 -46c-8 -44 -41 -74 -97 -74zM112 -11c-56 0 -76 31 -76 60c0 11 4 32 7 46c8 44 41 74 97 74s76 -31 76 -60c0 -11 -4 -32 -7 -46c-8 -44 -41 -74 -97 -74z" />
    <glyph glyph-name="semicolon" unicode=";" horiz-adv-x="327" 
d="M187 356c-56 0 -76 31 -76 60c0 11 4 32 7 46c8 44 41 74 97 74s76 -31 76 -60c0 -11 -4 -32 -7 -46c-8 -44 -41 -74 -97 -74zM143 169c57 0 77 -32 77 -66c0 -11 -3 -29 -6 -44c-14 -70 -66 -153 -141 -206h-106c56 44 98 86 125 139c-37 8 -51 33 -51 57
c0 11 4 31 7 46c9 45 41 74 95 74z" />
    <glyph glyph-name="less" unicode="&#x3c;" horiz-adv-x="600" 
d="M440 -1l-342 259l18 87l446 258l-32 -159l-268 -149l-2 -7l208 -150z" />
    <glyph glyph-name="equal" unicode="=" horiz-adv-x="600" 
d="M552 363h-463l23 116h463zM506 132h-463l23 116h463z" />
    <glyph glyph-name="greater" unicode="&#x3e;" horiz-adv-x="600" 
d="M55 -1l32 159l268 149l2 7l-208 150l28 139l342 -259l-18 -87z" />
    <glyph glyph-name="question" unicode="?" horiz-adv-x="490" 
d="M286 233h-137l32 153c107 10 163 44 177 102c2 9 5 23 5 36c0 44 -34 64 -74 64c-53 0 -90 -36 -111 -89l-114 51c44 95 119 160 245 160c127 0 203 -66 203 -168c0 -112 -91 -208 -209 -233zM175 -12c-56 0 -77 25 -77 58c0 6 0 13 6 42c9 46 41 76 101 76
c56 0 77 -25 77 -58c0 -6 0 -13 -6 -42c-9 -46 -41 -76 -101 -76z" />
    <glyph glyph-name="at" unicode="@" horiz-adv-x="891" 
d="M573 -121h-189c-201 0 -325 136 -325 332c0 35 3 69 11 109c46 230 220 389 453 389c182 0 328 -120 328 -316c0 -27 -3 -54 -8 -79c-26 -130 -119 -232 -225 -232c-71 0 -112 33 -112 82v11h-5c-16 -47 -59 -91 -118 -91c-82 0 -131 51 -131 149c0 20 2 42 7 66
c26 132 105 199 185 199c59 0 87 -29 97 -67h4l12 58h110l-52 -262c-2 -11 -3 -19 -3 -26c0 -22 12 -33 31 -33c43 0 83 43 104 148l6 30c4 20 6 43 6 62c0 137 -108 216 -250 216c-169 0 -302 -117 -337 -292l-8 -40c-6 -30 -10 -57 -10 -83c0 -151 96 -245 247 -245h189z
M424 174c42 0 78 41 84 71l20 100c7 36 -22 63 -64 63c-47 0 -73 -33 -83 -84l-14 -70c-2 -10 -2 -15 -2 -21c0 -38 18 -59 59 -59z" />
    <glyph glyph-name="A" unicode="A" horiz-adv-x="658" 
d="M588 0h-147l-16 170h-223l-82 -170h-155l359 698h185zM415 291l-21 276h-8l-127 -276h156z" />
    <glyph glyph-name="B" unicode="B" horiz-adv-x="651" 
d="M22 0l140 698h298c101 0 174 -46 174 -143c0 -92 -45 -168 -136 -193l-1 -5c73 -20 104 -70 104 -135c0 -132 -81 -222 -241 -222h-338zM193 124h167c46 0 74 20 83 65c7 35 9 48 9 57c0 27 -17 45 -55 45h-171zM250 410h141c46 0 74 17 83 62c7 35 9 46 9 55
c0 28 -17 47 -54 47h-146z" />
    <glyph glyph-name="C" unicode="C" horiz-adv-x="635" 
d="M306 -12c-148 0 -249 96 -249 284c0 246 155 438 358 438c124 0 203 -63 236 -170l-129 -54c-16 53 -44 95 -118 95c-93 0 -152 -70 -173 -175l-22 -110c-4 -20 -5 -37 -5 -50c0 -85 37 -129 115 -129s122 43 153 104l121 -55c-62 -121 -166 -178 -287 -178z" />
    <glyph glyph-name="D" unicode="D" horiz-adv-x="682" 
d="M22 0l140 698h224c166 0 268 -90 268 -261c0 -248 -130 -437 -366 -437h-266zM193 128h107c90 0 158 54 181 168l19 94c5 25 7 50 7 62c0 84 -44 118 -112 118h-113z" />
    <glyph glyph-name="E" unicode="E" horiz-adv-x="578" 
d="M481 0h-459l140 698h449l-26 -128h-303l-31 -153h268l-26 -128h-268l-32 -161h314z" />
    <glyph glyph-name="F" unicode="F" horiz-adv-x="557" 
d="M167 0h-145l140 698h437l-26 -128h-292l-31 -153h257l-26 -128h-257z" />
    <glyph glyph-name="G" unicode="G" horiz-adv-x="700" 
d="M460 0l22 111h-8c-35 -68 -96 -123 -191 -123c-133 0 -226 94 -226 280c0 252 148 442 368 442c123 0 221 -58 252 -165l-121 -64c-16 65 -68 100 -139 100c-107 0 -165 -67 -186 -174l-22 -110c-4 -20 -6 -39 -6 -56c0 -87 53 -124 115 -124c86 0 156 49 169 113l7 34
h-126l24 122h264l-77 -386h-119z" />
    <glyph glyph-name="H" unicode="H" horiz-adv-x="700" 
d="M427 0l58 289h-260l-58 -289h-145l140 698h145l-56 -281h260l56 281h145l-140 -698h-145z" />
    <glyph glyph-name="I" unicode="I" horiz-adv-x="415" 
d="M314 0h-318l24 118h86l93 462h-86l23 118h318l-24 -118h-86l-93 -462h86z" />
    <glyph glyph-name="J" unicode="J" horiz-adv-x="536" 
d="M201 698h348l-102 -508c-24 -121 -101 -201 -232 -201c-135 0 -200 85 -210 191l139 28c5 -56 21 -93 71 -93c41 0 77 26 90 90l75 375h-203z" />
    <glyph glyph-name="K" unicode="K" horiz-adv-x="657" 
d="M436 0l-117 299l-116 -120l-36 -179h-145l140 698h145l-67 -334h7l110 131l188 203h176l-288 -300l163 -398h-160z" />
    <glyph glyph-name="L" unicode="L" horiz-adv-x="510" 
d="M423 0h-401l140 698h145l-114 -570h256z" />
    <glyph glyph-name="M" unicode="M" horiz-adv-x="801" 
d="M535 0l93 461h-6l-96 -134l-155 -212l-74 227l-39 121h-5l-93 -463h-138l140 698h152l101 -332h4l233 332h161l-140 -698h-138z" />
    <glyph glyph-name="N" unicode="N" horiz-adv-x="700" 
d="M415 0l-113 336l-42 139h-6l-95 -475h-137l140 698h157l113 -336l42 -139h6l95 475h137l-140 -698h-157z" />
    <glyph glyph-name="O" unicode="O" horiz-adv-x="695" 
d="M308 -12c-134 0 -251 85 -251 283c0 241 151 439 360 439c134 0 251 -85 251 -283c0 -241 -151 -439 -360 -439zM318 117c93 0 154 66 177 179l21 105c4 21 5 38 5 52c0 84 -38 128 -114 128c-93 0 -154 -66 -177 -179l-21 -105c-4 -20 -5 -38 -5 -52
c0 -84 38 -128 114 -128z" />
    <glyph glyph-name="P" unicode="P" horiz-adv-x="637" 
d="M167 0h-145l140 698h263c139 0 220 -69 220 -187c0 -153 -113 -256 -271 -256h-156zM281 570l-37 -187h149c45 0 81 24 91 73c6 30 11 49 11 60c0 30 -20 54 -64 54h-150z" />
    <glyph glyph-name="Q" unicode="Q" horiz-adv-x="695" 
d="M460 -65l-22 -118h-110c-80 0 -108 33 -108 90c0 17 3 34 7 53l8 38c-100 26 -178 112 -178 273c0 241 151 439 360 439c134 0 251 -85 251 -283c0 -221 -126 -405 -308 -434l-11 -58h111zM318 117c93 0 154 66 177 179l21 105c4 21 5 38 5 52c0 84 -38 128 -114 128
c-93 0 -154 -66 -177 -179l-21 -105c-4 -21 -5 -38 -5 -52c0 -84 38 -128 114 -128z" />
    <glyph glyph-name="R" unicode="R" horiz-adv-x="655" 
d="M219 259l-52 -259h-145l140 698h272c133 0 211 -66 211 -180c0 -105 -60 -205 -171 -242l84 -276h-155l-69 259h-115zM244 383h149c45 0 81 24 91 73c6 30 11 49 11 60c0 30 -20 54 -64 54h-150z" />
    <glyph glyph-name="S" unicode="S" horiz-adv-x="586" 
d="M255 -12c-116 0 -209 33 -260 124l111 87c34 -55 77 -82 149 -82c84 0 133 42 133 100c0 42 -35 62 -80 72l-46 10c-102 22 -167 74 -167 186c0 127 108 225 269 225c104 0 191 -33 239 -97l-105 -94c-32 44 -69 62 -140 62c-72 0 -117 -34 -117 -83c0 -40 27 -57 75 -68
l44 -10c107 -24 178 -78 178 -187c0 -120 -106 -245 -283 -245z" />
    <glyph glyph-name="T" unicode="T" horiz-adv-x="569" 
d="M602 570h-184l-114 -570h-145l114 570h-184l26 128h513z" />
    <glyph glyph-name="U" unicode="U" horiz-adv-x="678" 
d="M160 698h143l-84 -418c-4 -18 -7 -44 -7 -63c0 -66 35 -100 102 -100c80 0 125 47 146 150l87 431h143l-85 -423c-39 -196 -124 -287 -297 -287c-152 0 -236 77 -236 226c0 26 2 55 9 89z" />
    <glyph glyph-name="V" unicode="V" horiz-adv-x="631" 
d="M344 0h-163l-82 698h146l25 -269l18 -275h7l113 251l143 293h154z" />
    <glyph glyph-name="W" unicode="W" horiz-adv-x="941" 
d="M302 0h-172l-14 698h143l-4 -279l-11 -275h10l97 257l126 297h159l7 -282l-7 -282h10l87 250l118 314h146l-291 -698h-168l-8 291v245h-9l-89 -224z" />
    <glyph glyph-name="X" unicode="X" horiz-adv-x="641" 
d="M419 347l152 -347h-157l-99 243h-8l-179 -243h-168l290 369l-146 329h156l95 -230h8l175 230h168z" />
    <glyph glyph-name="Y" unicode="Y" horiz-adv-x="624" 
d="M330 0h-145l54 271l-148 427h148l94 -294h7l201 294h160l-319 -440z" />
    <glyph glyph-name="Z" unicode="Z" horiz-adv-x="573" 
d="M512 128l-26 -128h-497l26 128l410 442h-306l26 128h478l-26 -128l-410 -442h325z" />
    <glyph glyph-name="bracketleft" unicode="[" horiz-adv-x="323" 
d="M213 -138h-218l180 898h217l-19 -97h-90l-142 -704h91z" />
    <glyph glyph-name="backslash" unicode="\" horiz-adv-x="479" 
d="M379 -151h-114l-117 891h114z" />
    <glyph glyph-name="bracketright" unicode="]" horiz-adv-x="323" 
d="M129 760h218l-180 -898h-217l19 97h90l142 704h-91z" />
    <glyph glyph-name="asciicircum" unicode="^" horiz-adv-x="600" 
d="M584 325l-118 -45l-102 271h-11l-199 -271l-105 63l264 355h131z" />
    <glyph glyph-name="underscore" unicode="_" horiz-adv-x="548" 
d="M431 -187h-493l23 119h493z" />
    <glyph glyph-name="grave" unicode="`" horiz-adv-x="585" 
d="M279 580l-105 176l126 59l68 -196z" />
    <glyph glyph-name="a" unicode="a" horiz-adv-x="591" 
d="M523 0h-93c-50 0 -88 28 -88 77c0 11 2 25 3 30l3 15h-6c-41 -85 -89 -134 -171 -134c-98 0 -140 77 -140 182c0 223 110 367 244 367c73 0 124 -46 131 -103h5l18 91h140l-83 -413h59zM240 103c36 0 66 22 87 48c22 27 40 65 48 104l16 80c10 49 -24 87 -82 87
c-62 0 -99 -38 -115 -117l-14 -70c-3 -14 -6 -41 -6 -57c0 -47 25 -75 66 -75z" />
    <glyph glyph-name="b" unicode="b" horiz-adv-x="583" 
d="M14 0l148 740h140l-67 -337h6c41 85 89 134 171 134c98 0 140 -77 140 -182c0 -223 -110 -367 -244 -367c-73 0 -124 46 -131 103h-5l-18 -91h-140zM274 103c62 0 99 38 115 117l14 70c3 14 6 41 6 57c0 47 -25 75 -66 75c-36 0 -66 -22 -87 -48
c-22 -27 -40 -65 -48 -104l-16 -80c-11 -53 24 -87 82 -87z" />
    <glyph glyph-name="c" unicode="c" horiz-adv-x="494" 
d="M237 -12c-114 0 -206 64 -206 227c0 187 120 322 279 322c100 0 175 -54 188 -136l-118 -45c-12 41 -27 68 -78 68c-59 0 -94 -36 -109 -110l-18 -89c-3 -14 -5 -28 -5 -42c0 -49 24 -82 79 -82c54 0 75 33 104 83l107 -50c-46 -97 -123 -146 -223 -146z" />
    <glyph glyph-name="d" unicode="d" horiz-adv-x="591" 
d="M523 0h-93c-50 0 -88 28 -88 77c0 11 2 25 3 30l3 15h-6c-41 -85 -89 -134 -171 -134c-98 0 -140 77 -140 182c0 223 110 367 244 367c73 0 124 -46 131 -103h5l61 306h140l-126 -628h59zM240 103c36 0 66 22 87 48c22 27 40 65 48 104l16 80c11 53 -24 87 -82 87
c-62 0 -99 -38 -115 -117l-14 -70c-3 -14 -6 -41 -6 -57c0 -47 25 -75 66 -75z" />
    <glyph glyph-name="e" unicode="e" horiz-adv-x="515" 
d="M253 -12c-149 0 -222 87 -222 226c0 168 111 323 285 323c79 0 188 -32 188 -146c0 -108 -97 -176 -332 -183c-2 -12 -2 -18 -2 -23c0 -50 24 -84 93 -84c46 0 81 14 128 73l86 -68c-65 -86 -134 -118 -224 -118zM308 430c-59 0 -105 -42 -117 -110l-4 -23
c150 9 181 38 181 80c0 45 -35 53 -60 53z" />
    <glyph glyph-name="f" unicode="f" horiz-adv-x="353" 
d="M273 413l-92 -463c-20 -99 -83 -150 -192 -150h-76l24 112h96l100 501h-69l22 112h69l13 65c20 99 83 150 192 150h76l-24 -112h-96l-20 -103h102l-22 -112h-103z" />
    <glyph glyph-name="g" unicode="g" horiz-adv-x="582" 
d="M173 2c-98 0 -140 77 -140 182c0 223 107 353 241 353c73 0 124 -46 131 -103h5l18 91h140l-101 -506c-29 -147 -99 -231 -260 -231c-88 0 -160 25 -211 94l89 81c25 -38 67 -63 118 -63c69 0 109 45 125 126l22 110h-6c-41 -85 -89 -134 -171 -134zM242 117
c36 0 66 22 87 48c22 27 40 65 48 104l13 66c8 42 -18 87 -82 87c-62 0 -99 -38 -115 -117l-11 -56c-3 -14 -6 -41 -6 -57c0 -47 25 -75 66 -75z" />
    <glyph glyph-name="h" unicode="h" horiz-adv-x="588" 
d="M14 0l148 740h140l-67 -337h6c40 84 92 134 174 134c81 0 126 -50 126 -136c0 -25 -4 -47 -9 -74l-43 -215h53l-22 -112h-91c-53 0 -84 29 -84 76c0 12 2 23 3 28l41 208c4 19 7 36 7 56c0 30 -15 52 -53 52c-34 0 -62 -21 -85 -48c-24 -28 -42 -62 -50 -102l-54 -270
h-140z" />
    <glyph glyph-name="i" unicode="i" horiz-adv-x="281" 
d="M202 583c-49 0 -72 20 -72 52c0 12 3 28 6 40c9 35 29 72 96 72c49 0 72 -20 72 -52c0 -12 -3 -28 -6 -40c-9 -35 -29 -72 -96 -72zM213 0h-91c-54 0 -90 32 -90 80c0 8 1 15 3 25l84 420h140l-83 -413h59z" />
    <glyph glyph-name="j" unicode="j" horiz-adv-x="276" 
d="M0 -88l123 613h140l-119 -586c-18 -91 -65 -139 -162 -139h-79l22 112h75zM206 583c-49 0 -72 20 -72 52c0 12 3 28 6 40c9 35 29 72 96 72c49 0 72 -20 72 -52c0 -12 -3 -28 -6 -40c-9 -35 -29 -72 -96 -72z" />
    <glyph glyph-name="k" unicode="k" horiz-adv-x="550" 
d="M14 0l148 740h140l-87 -435h7l72 90l126 130h163l-213 -213l72 -200h61l-24 -112h-75c-49 0 -82 26 -99 79l-44 137l-79 -74l-28 -142h-140z" />
    <glyph glyph-name="l" unicode="l" horiz-adv-x="281" 
d="M216 0h-94c-54 0 -90 32 -90 80c0 8 1 15 3 25l127 635h140l-126 -628h62z" />
    <glyph glyph-name="m" unicode="m" horiz-adv-x="877" 
d="M154 0h-140l105 525h140l-24 -122h6c39 82 89 134 169 134c78 0 121 -50 122 -134h5c39 78 90 134 174 134c77 0 119 -51 119 -133c0 -31 -6 -60 -12 -91l-40 -201h53l-22 -112h-91c-53 0 -84 29 -84 76c0 12 2 23 3 28l41 208c4 19 8 38 8 55c0 32 -13 53 -44 53
s-60 -20 -82 -47s-41 -67 -48 -103l-54 -270h-140l62 312c4 19 7 38 7 54c0 33 -13 54 -47 54s-61 -20 -84 -48s-40 -62 -48 -102z" />
    <glyph glyph-name="n" unicode="n" horiz-adv-x="588" 
d="M154 0h-140l105 525h140l-24 -122h6c40 84 92 134 174 134c81 0 126 -50 126 -136c0 -25 -4 -47 -9 -74l-43 -215h53l-22 -112h-91c-53 0 -84 29 -84 76c0 12 2 23 3 28l41 208c4 19 7 36 7 56c0 30 -15 52 -53 52c-34 0 -62 -21 -85 -48c-24 -28 -42 -62 -50 -102z" />
    <glyph glyph-name="o" unicode="o" horiz-adv-x="542" 
d="M240 -12c-128 0 -209 81 -209 219c0 190 115 330 271 330c128 0 209 -81 209 -219c0 -190 -115 -330 -271 -330zM245 101c53 0 90 40 105 115l19 94c1 6 3 18 3 31c0 50 -26 83 -75 83c-53 0 -90 -40 -105 -115l-19 -94c-1 -6 -3 -18 -3 -31c0 -50 26 -83 75 -83z" />
    <glyph glyph-name="p" unicode="p" horiz-adv-x="583" 
d="M-26 -200l145 725h140l-24 -122h6c41 85 89 134 171 134c98 0 140 -77 140 -182c0 -223 -110 -367 -244 -367c-73 0 -124 46 -131 103h-5l-58 -291h-140zM274 103c62 0 99 38 115 117l14 70c3 14 6 41 6 57c0 47 -25 75 -66 75c-36 0 -66 -22 -87 -48
c-22 -27 -40 -65 -48 -104l-16 -80c-11 -53 24 -87 82 -87z" />
    <glyph glyph-name="q" unicode="q" horiz-adv-x="583" 
d="M284 -200l64 322h-6c-41 -85 -89 -134 -171 -134c-98 0 -140 77 -140 182c0 223 110 367 244 367c73 0 124 -46 131 -103h5l18 91h140l-145 -725h-140zM240 103c36 0 66 22 87 48c22 27 40 65 48 104l16 80c11 53 -24 87 -82 87c-62 0 -99 -38 -115 -117l-14 -70
c-3 -14 -6 -41 -6 -57c0 -47 25 -75 66 -75z" />
    <glyph glyph-name="r" unicode="r" horiz-adv-x="394" 
d="M154 0h-140l105 525h140l-26 -131h7c22 57 76 131 157 131h25l-28 -136h-35c-89 0 -133 -28 -150 -113z" />
    <glyph glyph-name="s" unicode="s" horiz-adv-x="497" 
d="M213 -12c-88 0 -165 31 -211 92l88 82c29 -39 67 -62 126 -62c65 0 90 28 90 58c0 20 -12 38 -49 43l-53 7c-90 12 -140 57 -140 141c0 99 70 188 218 188c81 0 149 -27 195 -83l-88 -82c-25 32 -67 53 -113 53c-47 0 -76 -23 -76 -55c0 -20 12 -38 49 -43l53 -7
c90 -12 140 -58 140 -140c0 -102 -79 -192 -229 -192z" />
    <glyph glyph-name="t" unicode="t" horiz-adv-x="354" 
d="M270 0h-88c-81 0 -123 33 -123 99c0 10 1 28 4 43l54 271h-74l22 112h36c43 0 52 17 59 53l18 89h130l-28 -142h105l-23 -112h-105l-60 -301h95z" />
    <glyph glyph-name="u" unicode="u" horiz-adv-x="582" 
d="M114 525h140l-62 -312c-4 -19 -7 -38 -7 -53c0 -34 15 -55 49 -55s61 20 84 48s40 62 48 102l54 270h140l-83 -413h59l-22 -112h-93c-50 0 -88 28 -88 77c0 11 2 25 3 30l3 15h-6c-39 -82 -89 -134 -169 -134c-79 0 -124 50 -124 136c0 26 4 49 9 76z" />
    <glyph glyph-name="v" unicode="v" horiz-adv-x="512" 
d="M281 0h-170l-65 525h139l17 -198l15 -202h7l88 202l93 198h149z" />
    <glyph glyph-name="w" unicode="w" horiz-adv-x="791" 
d="M94 0l-40 525h139l7 -190l3 -178h6l65 152l98 216h130l14 -190l11 -185h6l62 159l90 216h138l-240 -525h-147l-15 175l-13 174h-6l-68 -151l-91 -198h-149z" />
    <glyph glyph-name="x" unicode="x" horiz-adv-x="518" 
d="M102 0h-153l228 274l-112 251h151l62 -175h6l130 175h153l-229 -273l115 -252h-151l-64 172h-6z" />
    <glyph glyph-name="y" unicode="y" horiz-adv-x="509" 
d="M314 327l94 198h149l-322 -610c-41 -77 -86 -115 -186 -115h-78l23 112h97l28 58l-74 555h139l20 -198l16 -196h6z" />
    <glyph glyph-name="z" unicode="z" horiz-adv-x="492" 
d="M414 0h-425l22 112l306 301h-241l22 112h409l-22 -112l-307 -301h258z" />
    <glyph glyph-name="braceleft" unicode="{" horiz-adv-x="361" 
d="M246 -138h-108c-48 0 -81 27 -81 75c0 8 1 19 2 24l38 190c2 10 3 20 3 30c0 49 -25 74 -77 74l23 113c60 0 100 28 112 88l41 205c13 65 55 99 110 99h117l-21 -104h-77l-44 -220c-12 -60 -49 -119 -128 -123v-4c45 -9 81 -45 81 -98c0 -9 -2 -20 -4 -30l-43 -215h77z
" />
    <glyph glyph-name="bar" unicode="|" horiz-adv-x="395" 
d="M180 -138h-126l180 898h126z" />
    <glyph glyph-name="braceright" unicode="}" horiz-adv-x="361" 
d="M-47 -138l21 104h77l44 220c12 60 49 119 128 123v4c-45 9 -81 45 -81 98c0 9 2 20 4 30l43 215h-77l21 104h108c48 0 81 -27 81 -75c0 -8 -1 -19 -2 -24l-38 -190c-2 -10 -3 -20 -3 -30c0 -49 25 -74 77 -74l-23 -113c-60 0 -100 -28 -112 -88l-41 -205
c-13 -65 -55 -99 -110 -99h-117z" />
    <glyph glyph-name="asciitilde" unicode="~" horiz-adv-x="600" 
d="M400 211c-55 0 -81 18 -119 39c-33 18 -62 34 -102 34c-30 0 -51 -9 -83 -29l-37 87c28 31 74 58 141 58c55 0 81 -18 119 -39c33 -18 62 -34 102 -34c30 0 51 9 83 29l37 -87c-28 -31 -74 -58 -141 -58z" />
    <glyph glyph-name="uni00A0" unicode="&#xa0;" horiz-adv-x="236" 
 />
    <glyph glyph-name="exclamdown" unicode="&#xa1;" horiz-adv-x="314" 
d="M147 -173h-156l39 194l102 284h63l-9 -284zM175 361c-56 0 -77 25 -77 58c0 6 0 13 6 42c9 46 41 76 101 76c56 0 77 -25 77 -58c0 -6 0 -13 -6 -42c-9 -46 -41 -76 -101 -76z" />
    <glyph glyph-name="cent" unicode="&#xa2;" horiz-adv-x="532" 
d="M160 -114l22 110c-90 24 -149 105 -149 226c0 150 96 281 254 303l21 105h110l-22 -109c68 -17 115 -64 131 -122l-108 -53c-7 29 -25 54 -54 66l-62 -309c36 12 66 39 88 70l92 -59c-44 -64 -105 -109 -192 -122l-21 -106h-110zM168 186c0 -38 15 -66 45 -80l61 304
c-44 -17 -75 -55 -85 -107l-18 -90c-2 -10 -3 -18 -3 -27z" />
    <glyph glyph-name="sterling" unicode="&#xa3;" horiz-adv-x="591" 
d="M503 0h-473l27 134c63 27 102 87 102 157h-103l24 117h64c-2 15 -3 30 -3 47c0 142 107 255 269 255c105 0 170 -40 217 -120l-115 -76c-26 49 -59 68 -113 68c-72 0 -114 -53 -114 -135c0 -14 1 -27 3 -39h191l-24 -117h-150c-4 -83 -57 -134 -100 -157l-2 -9h325z" />
    <glyph glyph-name="currency" unicode="&#xa4;" horiz-adv-x="624" 
d="M293 108c-52 0 -94 10 -127 29l-113 -94l-69 87l109 92c-8 22 -12 46 -12 73c0 23 3 47 7 67c8 41 25 89 51 123l-77 95l91 74l75 -93c39 20 84 29 134 29c52 0 94 -10 127 -29l113 94l69 -87l-109 -92c8 -22 12 -46 12 -73c0 -23 -3 -47 -7 -67c-8 -41 -25 -89 -51 -123
l77 -95l-91 -74l-75 93c-39 -20 -84 -29 -134 -29zM300 213c62 0 106 42 119 108l11 56c2 11 4 24 4 36c0 43 -28 72 -79 72c-62 0 -106 -42 -119 -108l-11 -56c-2 -11 -4 -24 -4 -36c0 -43 28 -72 79 -72z" />
    <glyph glyph-name="yen" unicode="&#xa5;" horiz-adv-x="626" 
d="M524 134h-164l-27 -134h-146l26 134h-161l18 88h161l14 71h-161l18 88h105l-99 317h155l79 -272h4l184 272h168l-229 -317h105l-18 -88h-164l-14 -71h164z" />
    <glyph glyph-name="brokenbar" unicode="&#xa6;" horiz-adv-x="395" 
d="M288 401h-126l72 359h126zM180 -138h-126l72 359h126z" />
    <glyph glyph-name="section" unicode="&#xa7;" horiz-adv-x="557" 
d="M435 38c0 -117 -93 -199 -227 -199c-76 0 -151 22 -195 75l82 82c27 -35 65 -55 126 -55c51 0 89 33 89 74c0 37 -24 53 -70 67l-69 21c-84 26 -118 78 -118 133c0 69 39 127 129 156l2 10c-38 30 -55 67 -55 112c0 116 93 196 227 196c76 0 150 -23 195 -77l-82 -80
c-27 35 -65 55 -126 55c-51 0 -89 -30 -89 -69c0 -35 24 -52 70 -66l69 -21c84 -26 118 -79 118 -134c0 -69 -38 -128 -129 -156l-2 -10c38 -30 55 -68 55 -114zM390 270c0 32 -17 60 -64 76l-69 20c-15 5 -25 8 -33 13c-38 -29 -50 -60 -50 -95c0 -32 17 -60 64 -76l69 -20
c15 -5 25 -8 33 -13c38 29 50 60 50 95z" />
    <glyph glyph-name="dieresis" unicode="&#xa8;" horiz-adv-x="585" 
d="M207 600c-47 0 -65 21 -65 48c0 7 2 17 6 40c6 34 30 63 85 63c47 0 65 -21 65 -48c0 -7 -2 -17 -6 -40c-6 -34 -30 -63 -85 -63zM407 600c-47 0 -65 21 -65 48c0 7 2 17 6 40c6 34 30 63 85 63c47 0 65 -21 65 -48c0 -7 -2 -17 -6 -40c-6 -34 -30 -63 -85 -63z" />
    <glyph glyph-name="copyright" unicode="&#xa9;" horiz-adv-x="771" 
d="M349 -12c-175 0 -291 125 -291 305c0 239 169 417 394 417c175 0 291 -125 291 -305c0 -239 -169 -417 -394 -417zM353 51c149 0 277 110 303 246c9 43 15 83 15 108c0 148 -93 242 -223 242c-149 0 -277 -110 -303 -246c-9 -43 -15 -83 -15 -108
c0 -148 93 -242 223 -242zM382 134c-107 0 -178 71 -178 179c0 131 97 251 225 251c100 0 145 -48 166 -114l-99 -44c-8 34 -27 57 -66 57c-45 0 -72 -29 -80 -69l-15 -77c-2 -10 -2 -17 -2 -25c0 -34 23 -58 65 -58c37 0 62 25 82 56l90 -46c-34 -58 -92 -110 -188 -110z
" />
    <glyph glyph-name="ordfeminine" unicode="&#xaa;" horiz-adv-x="444" 
d="M430 404l-15 -74h-59c-38 0 -60 19 -60 54v10h-4c-21 -45 -61 -70 -111 -70c-56 0 -103 34 -103 96c0 77 58 124 172 124h65l4 20c2 10 3 13 3 19c0 29 -18 46 -55 46c-41 0 -63 -20 -88 -46l-57 48c34 42 82 73 160 73c84 0 145 -36 145 -106c0 -10 -1 -19 -3 -29
l-33 -165h39zM304 489h-57c-37 0 -60 -13 -66 -44c-2 -10 -2 -18 -2 -21c0 -21 19 -33 46 -33c35 0 63 20 70 55z" />
    <glyph glyph-name="guillemotleft" unicode="&#xab;" horiz-adv-x="562" 
d="M497 132l-57 -83l-156 160l26 128l203 157l41 -93l-151 -138zM247 132l-57 -83l-156 160l26 128l203 157l41 -93l-151 -138z" />
    <glyph glyph-name="logicalnot" unicode="&#xac;" horiz-adv-x="600" 
d="M477 79h-119l34 169h-326l23 116h445z" />
    <glyph glyph-name="uni00AD" unicode="&#xad;" horiz-adv-x="395" 
d="M340 238h-295l27 134h295z" />
    <glyph glyph-name="registered" unicode="&#xae;" horiz-adv-x="453" 
d="M246 298c-108 0 -179 72 -179 173c0 141 106 239 231 239c108 0 179 -72 179 -173c0 -141 -106 -239 -231 -239zM252 342c76 0 149 51 166 136c8 40 9 54 9 64c0 80 -57 124 -135 124c-76 0 -149 -51 -166 -136c-8 -40 -9 -54 -9 -64c0 -80 57 -124 135 -124zM242 463
l-12 -63h-62l42 209h89c54 0 77 -27 77 -66c0 -28 -19 -60 -55 -70l28 -73h-64l-24 63h-19zM251 506h26c18 0 30 8 33 23c1 5 2 10 2 13c0 13 -9 21 -25 21h-25z" />
    <glyph glyph-name="macron" unicode="&#xaf;" horiz-adv-x="585" 
d="M171 625l20 102h278l-20 -102h-278z" />
    <glyph glyph-name="degree" unicode="&#xb0;" horiz-adv-x="459" 
d="M263 334c-99 0 -167 74 -167 171c0 118 92 205 205 205c99 0 167 -74 167 -171c0 -118 -92 -205 -205 -205zM273 426c55 0 94 50 94 112c0 45 -29 80 -76 80c-55 0 -94 -50 -94 -112c0 -45 29 -80 76 -80z" />
    <glyph glyph-name="plusminus" unicode="&#xb1;" horiz-adv-x="600" 
d="M346 184h-125l33 167h-169l23 116h169l33 167h125l-33 -167h169l-23 -116h-169zM479 0h-463l23 116h463z" />
    <glyph glyph-name="twosuperior" unicode="&#xb2;" horiz-adv-x="340" 
d="M334 408l-16 -79h-281l17 85l140 91c50 32 64 48 69 73c1 5 1 7 1 10c0 23 -18 35 -40 35c-33 0 -52 -25 -61 -47l-82 31c26 53 72 97 151 97c77 0 134 -40 134 -106c0 -64 -44 -102 -127 -150l-69 -40h164z" />
    <glyph glyph-name="threesuperior" unicode="&#xb3;" horiz-adv-x="332" 
d="M159 556h36c40 0 59 14 62 29c1 5 2 10 2 14c0 17 -17 29 -44 29s-51 -12 -77 -43l-52 60c37 37 78 59 143 59c84 0 131 -36 131 -90c0 -45 -30 -81 -90 -92v-2c41 -9 64 -35 64 -74c0 -71 -61 -123 -163 -123c-81 0 -120 34 -137 73l69 49c11 -27 32 -46 69 -46
c28 0 53 12 58 37c1 5 2 10 2 14c0 18 -16 29 -48 29h-40z" />
    <glyph glyph-name="acute" unicode="&#xb4;" horiz-adv-x="585" 
d="M468 755l-147 -176l-84 46l119 190z" />
    <glyph glyph-name="mu" unicode="&#xb5;" horiz-adv-x="587" 
d="M114 -200h-140l145 725h140l-62 -310c-4 -19 -7 -40 -7 -55c0 -34 15 -55 49 -55s61 20 84 48s40 62 48 102l54 270h140l-83 -413h59l-22 -112h-93c-50 0 -88 28 -88 77c0 11 2 25 3 30l3 15h-6c-48 -102 -87 -134 -141 -134c-34 0 -56 20 -64 56h-5l5 -147z" />
    <glyph glyph-name="paragraph" unicode="&#xb6;" horiz-adv-x="646" 
d="M142 -149l83 412c-91 0 -161 87 -161 190c0 130 104 245 263 245h346l-21 -104h-60l-149 -743h-103l149 743h-95l-149 -743h-103z" />
    <glyph glyph-name="periodcentered" unicode="&#xb7;" horiz-adv-x="350" 
d="M169 213c-56 0 -76 31 -76 60c0 11 4 32 7 46c8 44 41 74 97 74s76 -31 76 -60c0 -11 -4 -32 -7 -46c-8 -44 -41 -74 -97 -74z" />
    <glyph glyph-name="cedilla" unicode="&#xb8;" horiz-adv-x="585" 
d="M269 -212c-55 0 -94 21 -111 46l52 52c8 -12 29 -28 58 -28c28 0 50 9 50 31c0 16 -16 31 -66 36l-22 2l44 103h66l-34 -85l2 -4c16 5 30 7 43 7c35 0 62 -21 62 -56c0 -69 -64 -104 -144 -104z" />
    <glyph glyph-name="onesuperior" unicode="&#xb9;" horiz-adv-x="344" 
d="M317 329h-250l15 76h81l44 220h-6l-72 -83l-59 49l92 107h156l-59 -293h73z" />
    <glyph glyph-name="ordmasculine" unicode="&#xba;" horiz-adv-x="427" 
d="M235 324c-90 0 -151 60 -151 161c0 17 2 35 5 51c19 94 93 168 204 168c90 0 151 -60 151 -161c0 -17 -2 -35 -5 -51c-19 -94 -93 -168 -204 -168zM245 401c42 0 73 31 84 86l12 61c2 10 2 16 2 21c0 37 -25 58 -60 58c-42 0 -73 -31 -84 -86l-12 -61
c-2 -10 -2 -16 -2 -21c0 -37 25 -58 60 -58z" />
    <glyph glyph-name="guillemotright" unicode="&#xbb;" horiz-adv-x="562" 
d="M52 50l-41 93l151 138l-94 131l57 83l156 -160l-26 -128zM302 50l-41 93l151 138l-94 131l57 83l156 -160l-26 -128z" />
    <glyph glyph-name="onequarter" unicode="&#xbc;" horiz-adv-x="891" 
d="M722 0h-93l14 70h-170l18 81l194 218h112l-46 -228h45l-16 -71h-44zM658 141l24 117h-7l-106 -117h89zM191 0h-114l657 698h114zM317 329h-250l15 76h81l44 220h-6l-72 -83l-59 49l92 107h156l-59 -293h73z" />
    <glyph glyph-name="onehalf" unicode="&#xbd;" horiz-adv-x="888" 
d="M810 79l-16 -79h-281l17 85l140 91c50 32 64 48 69 73c1 5 1 7 1 10c0 23 -18 35 -40 35c-33 0 -52 -25 -61 -47l-82 31c26 53 72 97 151 97c77 0 134 -40 134 -106c0 -64 -44 -102 -127 -150l-69 -40h164zM191 0h-114l657 698h114zM317 329h-250l15 76h81l44 220h-6
l-72 -83l-59 49l92 107h156l-59 -293h73z" />
    <glyph glyph-name="threequarters" unicode="&#xbe;" horiz-adv-x="869" 
d="M700 0h-93l14 70h-170l18 81l194 218h112l-46 -228h45l-16 -71h-44zM636 141l24 117h-7l-106 -117h89zM169 0h-114l657 698h114zM159 556h36c40 0 59 14 62 29c1 5 2 10 2 14c0 17 -17 29 -44 29s-51 -12 -77 -43l-52 60c37 37 78 59 143 59c84 0 131 -36 131 -90
c0 -45 -30 -81 -90 -92v-2c41 -9 64 -35 64 -74c0 -71 -61 -123 -163 -123c-81 0 -120 34 -137 73l69 49c11 -27 32 -46 69 -46c28 0 53 12 58 37c1 5 2 10 2 14c0 18 -16 29 -48 29h-40z" />
    <glyph glyph-name="questiondown" unicode="&#xbf;" horiz-adv-x="490" 
d="M185 -185c-127 0 -203 66 -203 168c0 112 91 208 209 233l17 76h137l-32 -153c-107 -10 -163 -44 -177 -102c-2 -9 -5 -23 -5 -36c0 -44 34 -64 74 -64c53 0 90 36 111 89l114 -51c-44 -95 -119 -160 -245 -160zM288 361c-56 0 -77 25 -77 58c0 6 0 13 6 42
c9 46 41 76 101 76c56 0 77 -25 77 -58c0 -6 0 -13 -6 -42c-9 -46 -41 -76 -101 -76z" />
    <glyph glyph-name="Agrave" unicode="&#xc0;" horiz-adv-x="658" 
d="M397 740l-105 176l126 59l68 -196zM588 0h-147l-16 170h-223l-82 -170h-155l359 698h185zM415 291l-21 276h-8l-127 -276h156z" />
    <glyph glyph-name="Aacute" unicode="&#xc1;" horiz-adv-x="658" 
d="M586 915l-147 -176l-84 46l119 190zM588 0h-147l-16 170h-223l-82 -170h-155l359 698h185zM415 291l-21 276h-8l-127 -276h156z" />
    <glyph glyph-name="Acircumflex" unicode="&#xc2;" horiz-adv-x="658" 
d="M392 954h122l100 -158l-75 -57l-99 115l-134 -115l-70 57zM588 0h-147l-16 170h-223l-82 -170h-155l359 698h185zM415 291l-21 276h-8l-127 -276h156z" />
    <glyph glyph-name="Atilde" unicode="&#xc3;" horiz-adv-x="658" 
d="M505 761c-29 0 -50 9 -76 21c-25 12 -46 22 -72 22c-23 0 -36 -8 -58 -25l-43 69c30 38 68 62 115 62c29 0 50 -9 76 -21c25 -12 46 -22 72 -22c23 0 36 8 58 25l43 -69c-30 -38 -68 -62 -115 -62zM588 0h-147l-16 170h-223l-82 -170h-155l359 698h185zM415 291l-21 276
h-8l-127 -276h156z" />
    <glyph glyph-name="Adieresis" unicode="&#xc4;" horiz-adv-x="658" 
d="M325 760c-46 0 -65 22 -65 49c0 7 2 15 6 39c6 34 30 63 85 63c46 0 65 -22 65 -49c0 -7 -2 -15 -6 -39c-6 -34 -30 -63 -85 -63zM525 760c-46 0 -65 22 -65 49c0 7 2 15 6 39c6 34 30 63 85 63c46 0 65 -22 65 -49c0 -7 -2 -15 -6 -39c-6 -34 -30 -63 -85 -63zM588 0
h-147l-16 170h-223l-82 -170h-155l359 698h185zM415 291l-21 276h-8l-127 -276h156z" />
    <glyph glyph-name="Aring" unicode="&#xc5;" horiz-adv-x="658" 
d="M416 719c-74 0 -128 52 -128 122c0 100 76 164 165 164c74 0 128 -52 128 -122c0 -100 -76 -164 -165 -164zM422 793c31 0 52 20 58 52c5 25 8 35 8 47c0 25 -13 39 -41 39c-31 0 -52 -20 -58 -52c-5 -25 -8 -35 -8 -47c0 -25 13 -39 41 -39zM588 0h-147l-16 170h-223
l-82 -170h-155l359 698h185zM415 291l-21 276h-8l-127 -276h156z" />
    <glyph glyph-name="AE" unicode="&#xc6;" horiz-adv-x="920" 
d="M364 0l34 169h-197l-101 -169h-156l444 698h565l-26 -128h-303l-31 -153h268l-26 -128h-268l-32 -161h314l-26 -128h-459zM478 570h-29l-171 -279h144z" />
    <glyph glyph-name="Ccedilla" unicode="&#xc7;" horiz-adv-x="635" 
d="M404 581c-93 0 -152 -71 -173 -175l-22 -110c-4 -20 -5 -37 -5 -50c0 -85 38 -129 116 -129s121 43 152 104l121 -55c-60 -116 -157 -174 -272 -178l-17 -43l2 -4c16 5 30 7 43 7c35 0 62 -21 62 -56c0 -69 -64 -104 -144 -104c-55 0 -94 21 -111 46l52 52
c8 -12 29 -28 58 -28c28 0 50 9 50 31c0 16 -16 31 -66 36l-22 2l28 65c-120 20 -199 114 -199 280c0 246 156 438 359 438c124 0 202 -63 235 -170l-129 -54c-16 52 -44 95 -118 95z" />
    <glyph glyph-name="Egrave" unicode="&#xc8;" horiz-adv-x="578" 
d="M372 740l-105 176l126 59l68 -196zM481 0h-459l140 698h449l-26 -128h-303l-31 -153h268l-26 -128h-268l-32 -161h314z" />
    <glyph glyph-name="Eacute" unicode="&#xc9;" horiz-adv-x="578" 
d="M561 915l-147 -176l-84 46l119 190zM481 0h-459l140 698h449l-26 -128h-303l-31 -153h268l-26 -128h-268l-32 -161h314z" />
    <glyph glyph-name="Ecircumflex" unicode="&#xca;" horiz-adv-x="578" 
d="M367 954h122l100 -158l-75 -57l-99 115l-134 -115l-70 57zM481 0h-459l140 698h449l-26 -128h-303l-31 -153h268l-26 -128h-268l-32 -161h314z" />
    <glyph glyph-name="Edieresis" unicode="&#xcb;" horiz-adv-x="578" 
d="M300 760c-46 0 -65 22 -65 49c0 7 2 15 6 39c6 34 30 63 85 63c46 0 65 -22 65 -49c0 -7 -2 -15 -6 -39c-6 -34 -30 -63 -85 -63zM500 760c-46 0 -65 22 -65 49c0 7 2 15 6 39c6 34 30 63 85 63c46 0 65 -22 65 -49c0 -7 -2 -15 -6 -39c-6 -34 -30 -63 -85 -63zM481 0
h-459l140 698h449l-26 -128h-303l-31 -153h268l-26 -128h-268l-32 -161h314z" />
    <glyph glyph-name="Igrave" unicode="&#xcc;" horiz-adv-x="415" 
d="M281 740l-105 176l126 59l68 -196zM314 0h-318l24 118h86l93 462h-86l23 118h318l-24 -118h-86l-93 -462h86z" />
    <glyph glyph-name="Iacute" unicode="&#xcd;" horiz-adv-x="415" 
d="M470 915l-147 -176l-84 46l119 190zM314 0h-318l24 118h86l93 462h-86l23 118h318l-24 -118h-86l-93 -462h86z" />
    <glyph glyph-name="Icircumflex" unicode="&#xce;" horiz-adv-x="415" 
d="M276 954h122l100 -158l-75 -57l-99 115l-134 -115l-70 57zM314 0h-318l24 118h86l93 462h-86l23 118h318l-24 -118h-86l-93 -462h86z" />
    <glyph glyph-name="Idieresis" unicode="&#xcf;" horiz-adv-x="415" 
d="M209 760c-46 0 -65 22 -65 49c0 7 2 15 6 39c6 34 30 63 85 63c46 0 65 -22 65 -49c0 -7 -2 -15 -6 -39c-6 -34 -30 -63 -85 -63zM409 760c-46 0 -65 22 -65 49c0 7 2 15 6 39c6 34 30 63 85 63c46 0 65 -22 65 -49c0 -7 -2 -15 -6 -39c-6 -34 -30 -63 -85 -63zM314 0
h-318l24 118h86l93 462h-86l23 118h318l-24 -118h-86l-93 -462h86z" />
    <glyph glyph-name="Eth" unicode="&#xd0;" horiz-adv-x="687" 
d="M27 0l61 298h-78l23 112h76l58 288h224c166 0 268 -90 268 -261c0 -248 -130 -437 -366 -437h-266zM198 128h107c91 0 158 55 181 168l19 94c5 24 7 50 7 62c0 84 -44 118 -112 118h-114l-32 -160h113l-23 -112h-113z" />
    <glyph glyph-name="Ntilde" unicode="&#xd1;" horiz-adv-x="700" 
d="M530 761c-29 0 -50 9 -76 21c-25 12 -46 22 -72 22c-23 0 -36 -8 -58 -25l-43 69c30 38 68 62 115 62c29 0 50 -9 76 -21c25 -12 46 -22 72 -22c23 0 36 8 58 25l43 -69c-30 -38 -68 -62 -115 -62zM415 0l-113 336l-42 139h-6l-95 -475h-137l140 698h157l113 -336
l42 -139h6l95 475h137l-140 -698h-157z" />
    <glyph glyph-name="Ograve" unicode="&#xd2;" horiz-adv-x="695" 
d="M425 740l-105 176l126 59l68 -196zM308 -12c-134 0 -251 85 -251 283c0 241 151 439 360 439c134 0 251 -85 251 -283c0 -241 -151 -439 -360 -439zM318 117c93 0 154 66 177 179l21 105c4 21 5 38 5 52c0 84 -38 128 -114 128c-93 0 -154 -66 -177 -179l-21 -105
c-4 -20 -5 -38 -5 -52c0 -84 38 -128 114 -128z" />
    <glyph glyph-name="Oacute" unicode="&#xd3;" horiz-adv-x="695" 
d="M614 915l-147 -176l-84 46l119 190zM308 -12c-134 0 -251 85 -251 283c0 241 151 439 360 439c134 0 251 -85 251 -283c0 -241 -151 -439 -360 -439zM318 117c93 0 154 66 177 179l21 105c4 21 5 38 5 52c0 84 -38 128 -114 128c-93 0 -154 -66 -177 -179l-21 -105
c-4 -20 -5 -38 -5 -52c0 -84 38 -128 114 -128z" />
    <glyph glyph-name="Ocircumflex" unicode="&#xd4;" horiz-adv-x="695" 
d="M420 954h122l100 -158l-75 -57l-99 115l-134 -115l-70 57zM308 -12c-134 0 -251 85 -251 283c0 241 151 439 360 439c134 0 251 -85 251 -283c0 -241 -151 -439 -360 -439zM318 117c93 0 154 66 177 179l21 105c4 21 5 38 5 52c0 84 -38 128 -114 128
c-93 0 -154 -66 -177 -179l-21 -105c-4 -20 -5 -38 -5 -52c0 -84 38 -128 114 -128z" />
    <glyph glyph-name="Otilde" unicode="&#xd5;" horiz-adv-x="695" 
d="M533 761c-29 0 -50 9 -76 21c-25 12 -46 22 -72 22c-23 0 -36 -8 -58 -25l-43 69c30 38 68 62 115 62c29 0 50 -9 76 -21c25 -12 46 -22 72 -22c23 0 36 8 58 25l43 -69c-30 -38 -68 -62 -115 -62zM308 -12c-134 0 -251 85 -251 283c0 241 151 439 360 439
c134 0 251 -85 251 -283c0 -241 -151 -439 -360 -439zM318 117c93 0 154 66 177 179l21 105c4 21 5 38 5 52c0 84 -38 128 -114 128c-93 0 -154 -66 -177 -179l-21 -105c-4 -20 -5 -38 -5 -52c0 -84 38 -128 114 -128z" />
    <glyph glyph-name="Odieresis" unicode="&#xd6;" horiz-adv-x="695" 
d="M353 760c-46 0 -65 22 -65 49c0 7 2 15 6 39c6 34 30 63 85 63c46 0 65 -22 65 -49c0 -7 -2 -15 -6 -39c-6 -34 -30 -63 -85 -63zM553 760c-46 0 -65 22 -65 49c0 7 2 15 6 39c6 34 30 63 85 63c46 0 65 -22 65 -49c0 -7 -2 -15 -6 -39c-6 -34 -30 -63 -85 -63zM308 -12
c-134 0 -251 85 -251 283c0 241 151 439 360 439c134 0 251 -85 251 -283c0 -241 -151 -439 -360 -439zM318 117c93 0 154 66 177 179l21 105c4 21 5 38 5 52c0 84 -38 128 -114 128c-93 0 -154 -66 -177 -179l-21 -105c-4 -20 -5 -38 -5 -52c0 -84 38 -128 114 -128z" />
    <glyph glyph-name="multiply" unicode="&#xd7;" horiz-adv-x="600" 
d="M412 76l-110 144l-167 -144l-75 87l171 148l-112 143l96 80l110 -144l167 144l75 -87l-171 -148l112 -143z" />
    <glyph glyph-name="Oslash" unicode="&#xd8;" horiz-adv-x="695" 
d="M308 -12c-55 0 -107 14 -150 45l-79 -93l-77 67l89 104c-21 42 -34 95 -34 160c0 241 151 439 360 439c55 0 107 -14 150 -45l79 93l77 -67l-89 -104c21 -42 34 -95 34 -160c0 -241 -151 -439 -360 -439zM205 296c-4 -20 -7 -40 -7 -56c0 -5 0 -12 1 -19l289 337
c-21 19 -48 29 -80 29c-95 0 -158 -66 -181 -182zM317 111c95 0 158 66 181 182l22 109c4 20 7 40 7 56c0 5 0 12 -1 19l-289 -337c21 -19 48 -29 80 -29z" />
    <glyph glyph-name="Ugrave" unicode="&#xd9;" horiz-adv-x="678" 
d="M407 740l-105 176l126 59l68 -196zM160 698h143l-84 -418c-4 -18 -7 -44 -7 -63c0 -66 35 -100 102 -100c80 0 125 47 146 150l87 431h143l-85 -423c-39 -196 -124 -287 -297 -287c-152 0 -236 77 -236 226c0 26 2 55 9 89z" />
    <glyph glyph-name="Uacute" unicode="&#xda;" horiz-adv-x="678" 
d="M596 915l-147 -176l-84 46l119 190zM160 698h143l-84 -418c-4 -18 -7 -44 -7 -63c0 -66 35 -100 102 -100c80 0 125 47 146 150l87 431h143l-85 -423c-39 -196 -124 -287 -297 -287c-152 0 -236 77 -236 226c0 26 2 55 9 89z" />
    <glyph glyph-name="Ucircumflex" unicode="&#xdb;" horiz-adv-x="678" 
d="M402 954h122l100 -158l-75 -57l-99 115l-134 -115l-70 57zM160 698h143l-84 -418c-4 -18 -7 -44 -7 -63c0 -66 35 -100 102 -100c80 0 125 47 146 150l87 431h143l-85 -423c-39 -196 -124 -287 -297 -287c-152 0 -236 77 -236 226c0 26 2 55 9 89z" />
    <glyph glyph-name="Udieresis" unicode="&#xdc;" horiz-adv-x="678" 
d="M335 760c-46 0 -65 22 -65 49c0 7 2 15 6 39c6 34 30 63 85 63c46 0 65 -22 65 -49c0 -7 -2 -15 -6 -39c-6 -34 -30 -63 -85 -63zM535 760c-46 0 -65 22 -65 49c0 7 2 15 6 39c6 34 30 63 85 63c46 0 65 -22 65 -49c0 -7 -2 -15 -6 -39c-6 -34 -30 -63 -85 -63zM160 698
h143l-84 -418c-4 -18 -7 -44 -7 -63c0 -66 35 -100 102 -100c80 0 125 47 146 150l87 431h143l-85 -423c-39 -196 -124 -287 -297 -287c-152 0 -236 77 -236 226c0 26 2 55 9 89z" />
    <glyph glyph-name="Yacute" unicode="&#xdd;" horiz-adv-x="624" 
d="M557 915l-147 -176l-84 46l119 190zM330 0h-145l54 271l-148 427h148l94 -294h7l201 294h160l-319 -440z" />
    <glyph glyph-name="Thorn" unicode="&#xde;" horiz-adv-x="634" 
d="M168 0h-146l140 698h145l-24 -121h120c139 0 220 -69 220 -187c0 -153 -113 -256 -271 -256h-159zM256 449l-36 -187h150c45 0 80 23 91 70c9 37 12 52 12 63c0 30 -20 54 -65 54h-152z" />
    <glyph glyph-name="germandbls" unicode="&#xdf;" horiz-adv-x="669" 
d="M628 189c0 -102 -78 -201 -212 -201c-84 0 -146 27 -176 77l88 79c22 -34 53 -48 91 -48c48 0 77 30 77 69c0 30 -15 39 -54 59l-40 20c-44 22 -77 56 -77 117c0 90 61 154 176 169l1 6c2 12 3 20 3 31c0 50 -32 75 -92 75c-73 0 -116 -34 -132 -111l-106 -531h-140
l82 410h-74l23 115h74l1 5c28 140 135 222 279 222c138 0 221 -73 221 -172c0 -22 -2 -45 -8 -72l-15 -74h-76c-59 0 -86 -15 -86 -44c0 -25 20 -41 52 -57l39 -20c52 -27 81 -61 81 -124z" />
    <glyph glyph-name="agrave" unicode="&#xe0;" horiz-adv-x="591" 
d="M319 580l-105 176l126 59l68 -196zM523 0h-93c-50 0 -88 28 -88 77c0 11 2 25 3 30l3 15h-6c-41 -85 -89 -134 -171 -134c-98 0 -140 77 -140 182c0 223 110 367 244 367c73 0 124 -46 131 -103h5l18 91h140l-83 -413h59zM240 103c36 0 66 22 87 48c22 27 40 65 48 104
l16 80c10 49 -24 87 -82 87c-62 0 -99 -38 -115 -117l-14 -70c-3 -14 -6 -41 -6 -57c0 -47 25 -75 66 -75z" />
    <glyph glyph-name="aacute" unicode="&#xe1;" horiz-adv-x="591" 
d="M508 755l-147 -176l-84 46l119 190zM523 0h-93c-50 0 -88 28 -88 77c0 11 2 25 3 30l3 15h-6c-41 -85 -89 -134 -171 -134c-98 0 -140 77 -140 182c0 223 110 367 244 367c73 0 124 -46 131 -103h5l18 91h140l-83 -413h59zM240 103c36 0 66 22 87 48c22 27 40 65 48 104
l16 80c10 49 -24 87 -82 87c-62 0 -99 -38 -115 -117l-14 -70c-3 -14 -6 -41 -6 -57c0 -47 25 -75 66 -75z" />
    <glyph glyph-name="acircumflex" unicode="&#xe2;" horiz-adv-x="591" 
d="M314 794h122l100 -158l-75 -57l-99 115l-134 -115l-70 57zM523 0h-93c-50 0 -88 28 -88 77c0 11 2 25 3 30l3 15h-6c-41 -85 -89 -134 -171 -134c-98 0 -140 77 -140 182c0 223 110 367 244 367c73 0 124 -46 131 -103h5l18 91h140l-83 -413h59zM240 103
c36 0 66 22 87 48c22 27 40 65 48 104l16 80c10 49 -24 87 -82 87c-62 0 -99 -38 -115 -117l-14 -70c-3 -14 -6 -41 -6 -57c0 -47 25 -75 66 -75z" />
    <glyph glyph-name="atilde" unicode="&#xe3;" horiz-adv-x="591" 
d="M427 601c-29 0 -50 9 -76 21c-25 12 -46 22 -72 22c-23 0 -36 -8 -58 -25l-43 69c30 38 68 62 115 62c29 0 50 -9 76 -21c25 -12 46 -22 72 -22c23 0 36 8 58 25l43 -69c-30 -38 -68 -62 -115 -62zM523 0h-93c-50 0 -88 28 -88 77c0 11 2 25 3 30l3 15h-6
c-41 -85 -89 -134 -171 -134c-98 0 -140 77 -140 182c0 223 110 367 244 367c73 0 124 -46 131 -103h5l18 91h140l-83 -413h59zM240 103c36 0 66 22 87 48c22 27 40 65 48 104l16 80c10 49 -24 87 -82 87c-62 0 -99 -38 -115 -117l-14 -70c-3 -14 -6 -41 -6 -57
c0 -47 25 -75 66 -75z" />
    <glyph glyph-name="adieresis" unicode="&#xe4;" horiz-adv-x="591" 
d="M247 600c-47 0 -65 21 -65 48c0 7 2 17 6 40c6 34 30 63 85 63c47 0 65 -21 65 -48c0 -7 -2 -17 -6 -40c-6 -34 -30 -63 -85 -63zM447 600c-47 0 -65 21 -65 48c0 7 2 17 6 40c6 34 30 63 85 63c47 0 65 -21 65 -48c0 -7 -2 -17 -6 -40c-6 -34 -30 -63 -85 -63zM523 0
h-93c-50 0 -88 28 -88 77c0 11 2 25 3 30l3 15h-6c-41 -85 -89 -134 -171 -134c-98 0 -140 77 -140 182c0 223 110 367 244 367c73 0 124 -46 131 -103h5l18 91h140l-83 -413h59zM240 103c36 0 66 22 87 48c22 27 40 65 48 104l16 80c10 49 -24 87 -82 87
c-62 0 -99 -38 -115 -117l-14 -70c-3 -14 -6 -41 -6 -57c0 -47 25 -75 66 -75z" />
    <glyph glyph-name="aring" unicode="&#xe5;" horiz-adv-x="591" 
d="M338 558c-74 0 -128 52 -128 122c0 100 76 164 165 164c74 0 128 -52 128 -122c0 -100 -76 -164 -165 -164zM344 632c31 0 52 20 58 52c5 25 8 37 8 47c0 25 -13 39 -41 39c-31 0 -52 -20 -58 -52c-5 -25 -8 -37 -8 -47c0 -25 13 -39 41 -39zM523 0h-93
c-50 0 -88 28 -88 77c0 11 2 25 3 30l3 15h-6c-41 -85 -89 -134 -171 -134c-98 0 -140 77 -140 182c0 223 110 367 244 367c73 0 124 -46 131 -103h5l18 91h140l-83 -413h59zM240 103c36 0 66 22 87 48c22 27 40 65 48 104l16 80c10 49 -24 87 -82 87
c-62 0 -99 -38 -115 -117l-14 -70c-3 -14 -6 -41 -6 -57c0 -47 25 -75 66 -75z" />
    <glyph glyph-name="ae" unicode="&#xe6;" horiz-adv-x="827" 
d="M231 89c45 0 90 23 100 71l12 57l-81 -4c-41 -2 -77 -9 -87 -48c-4 -15 -4 -30 -4 -31c0 -30 24 -45 60 -45zM620 430c-59 0 -105 -42 -117 -110l-4 -19c150 9 181 36 181 76c0 45 -35 53 -60 53zM182 -12c-103 0 -157 53 -157 137c0 109 90 162 243 169l91 4l5 27
c2 12 3 21 3 30c0 46 -26 70 -81 70c-62 0 -95 -31 -122 -68l-82 79c49 63 124 101 215 101c77 0 129 -27 157 -76h7c42 47 97 76 169 76c77 0 186 -33 186 -145c0 -106 -98 -169 -332 -176c-2 -16 -2 -24 -2 -31c0 -50 24 -84 94 -84c45 0 80 14 127 73l86 -68
c-65 -86 -134 -118 -224 -118c-99 0 -164 38 -197 104h-7c-35 -74 -101 -104 -179 -104z" />
    <glyph glyph-name="ccedilla" unicode="&#xe7;" horiz-adv-x="494" 
d="M310 537c100 0 175 -54 188 -136l-118 -45c-12 41 -27 68 -78 68c-59 0 -94 -36 -109 -110l-18 -89c-3 -14 -5 -28 -5 -42c0 -49 24 -82 79 -82c54 0 75 33 104 83l107 -50c-42 -88 -109 -136 -195 -144l-18 -45l2 -4c16 5 30 7 43 7c35 0 62 -21 62 -56
c0 -69 -64 -104 -144 -104c-55 0 -94 21 -111 46l52 52c8 -12 29 -28 58 -28c28 0 50 9 50 31c0 16 -16 31 -66 36l-22 2l27 64c-95 13 -167 80 -167 224c0 187 120 322 279 322z" />
    <glyph glyph-name="egrave" unicode="&#xe8;" horiz-adv-x="515" 
d="M309 580l-105 176l126 59l68 -196zM253 -12c-149 0 -222 87 -222 226c0 168 111 323 285 323c79 0 188 -32 188 -146c0 -108 -97 -176 -332 -183c-2 -12 -2 -18 -2 -23c0 -50 24 -84 93 -84c46 0 81 14 128 73l86 -68c-65 -86 -134 -118 -224 -118zM308 430
c-59 0 -105 -42 -117 -110l-4 -23c150 9 181 38 181 80c0 45 -35 53 -60 53z" />
    <glyph glyph-name="eacute" unicode="&#xe9;" horiz-adv-x="515" 
d="M498 755l-147 -176l-84 46l119 190zM253 -12c-149 0 -222 87 -222 226c0 168 111 323 285 323c79 0 188 -32 188 -146c0 -108 -97 -176 -332 -183c-2 -12 -2 -18 -2 -23c0 -50 24 -84 93 -84c46 0 81 14 128 73l86 -68c-65 -86 -134 -118 -224 -118zM308 430
c-59 0 -105 -42 -117 -110l-4 -23c150 9 181 38 181 80c0 45 -35 53 -60 53z" />
    <glyph glyph-name="ecircumflex" unicode="&#xea;" horiz-adv-x="515" 
d="M304 794h122l100 -158l-75 -57l-99 115l-134 -115l-70 57zM253 -12c-149 0 -222 87 -222 226c0 168 111 323 285 323c79 0 188 -32 188 -146c0 -108 -97 -176 -332 -183c-2 -12 -2 -18 -2 -23c0 -50 24 -84 93 -84c46 0 81 14 128 73l86 -68c-65 -86 -134 -118 -224 -118
zM308 430c-59 0 -105 -42 -117 -110l-4 -23c150 9 181 38 181 80c0 45 -35 53 -60 53z" />
    <glyph glyph-name="edieresis" unicode="&#xeb;" horiz-adv-x="515" 
d="M237 600c-47 0 -65 21 -65 48c0 7 2 17 6 40c6 34 30 63 85 63c47 0 65 -21 65 -48c0 -7 -2 -17 -6 -40c-6 -34 -30 -63 -85 -63zM437 600c-47 0 -65 21 -65 48c0 7 2 17 6 40c6 34 30 63 85 63c47 0 65 -21 65 -48c0 -7 -2 -17 -6 -40c-6 -34 -30 -63 -85 -63zM253 -12
c-149 0 -222 87 -222 226c0 168 111 323 285 323c79 0 188 -32 188 -146c0 -108 -97 -176 -332 -183c-2 -12 -2 -18 -2 -23c0 -50 24 -84 93 -84c46 0 81 14 128 73l86 -68c-65 -86 -134 -118 -224 -118zM308 430c-59 0 -105 -42 -117 -110l-4 -23c150 9 181 38 181 80
c0 45 -35 53 -60 53z" />
    <glyph glyph-name="igrave" unicode="&#xec;" horiz-adv-x="281" 
d="M175 580l-105 176l126 59l68 -196zM213 0h-91c-54 0 -90 32 -90 80c0 8 1 15 3 25l84 420h140l-83 -413h59z" />
    <glyph glyph-name="iacute" unicode="&#xed;" horiz-adv-x="281" 
d="M364 755l-147 -176l-84 46l119 190zM213 0h-91c-54 0 -90 32 -90 80c0 8 1 15 3 25l84 420h140l-83 -413h59z" />
    <glyph glyph-name="icircumflex" unicode="&#xee;" horiz-adv-x="281" 
d="M170 794h122l100 -158l-75 -57l-99 115l-134 -115l-70 57zM213 0h-91c-54 0 -90 32 -90 80c0 8 1 15 3 25l84 420h140l-83 -413h59z" />
    <glyph glyph-name="idieresis" unicode="&#xef;" horiz-adv-x="281" 
d="M103 600c-47 0 -65 21 -65 48c0 7 2 17 6 40c6 34 30 63 85 63c47 0 65 -21 65 -48c0 -7 -2 -17 -6 -40c-6 -34 -30 -63 -85 -63zM303 600c-47 0 -65 21 -65 48c0 7 2 17 6 40c6 34 30 63 85 63c47 0 65 -21 65 -48c0 -7 -2 -17 -6 -40c-6 -34 -30 -63 -85 -63zM213 0
h-91c-54 0 -90 32 -90 80c0 8 1 15 3 25l84 420h140l-83 -413h59z" />
    <glyph glyph-name="eth" unicode="&#xf0;" horiz-adv-x="573" 
d="M530 688l-83 -43c58 -80 88 -186 88 -301c0 -252 -143 -356 -293 -356c-133 0 -211 81 -211 223c0 164 104 289 226 289c70 0 114 -42 134 -102h9c-11 69 -41 134 -75 183l-107 -55l-32 62l94 49c-44 47 -89 81 -122 103h195c17 -13 32 -27 46 -41l99 52zM250 96
c57 0 94 44 110 119l10 48c3 17 4 31 4 41c0 54 -29 86 -77 86c-57 0 -94 -44 -110 -119l-10 -48c-3 -17 -4 -31 -4 -41c0 -54 29 -86 77 -86z" />
    <glyph glyph-name="ntilde" unicode="&#xf1;" horiz-adv-x="588" 
d="M442 601c-29 0 -50 9 -76 21c-25 12 -46 22 -72 22c-23 0 -36 -8 -58 -25l-43 69c30 38 68 62 115 62c29 0 50 -9 76 -21c25 -12 46 -22 72 -22c23 0 36 8 58 25l43 -69c-30 -38 -68 -62 -115 -62zM154 0h-140l105 525h140l-24 -122h6c40 84 92 134 174 134
c81 0 126 -50 126 -136c0 -25 -4 -47 -9 -74l-43 -215h53l-22 -112h-91c-53 0 -84 29 -84 76c0 12 2 23 3 28l41 208c4 19 7 36 7 56c0 30 -15 52 -53 52c-34 0 -62 -21 -85 -48c-24 -28 -42 -62 -50 -102z" />
    <glyph glyph-name="ograve" unicode="&#xf2;" horiz-adv-x="542" 
d="M303 580l-105 176l126 59l68 -196zM240 -12c-128 0 -209 81 -209 219c0 190 115 330 271 330c128 0 209 -81 209 -219c0 -190 -115 -330 -271 -330zM245 101c53 0 90 40 105 115l19 94c1 6 3 18 3 31c0 50 -26 83 -75 83c-53 0 -90 -40 -105 -115l-19 -94
c-1 -6 -3 -18 -3 -31c0 -50 26 -83 75 -83z" />
    <glyph glyph-name="oacute" unicode="&#xf3;" horiz-adv-x="542" 
d="M492 755l-147 -176l-84 46l119 190zM240 -12c-128 0 -209 81 -209 219c0 190 115 330 271 330c128 0 209 -81 209 -219c0 -190 -115 -330 -271 -330zM245 101c53 0 90 40 105 115l19 94c1 6 3 18 3 31c0 50 -26 83 -75 83c-53 0 -90 -40 -105 -115l-19 -94
c-1 -6 -3 -18 -3 -31c0 -50 26 -83 75 -83z" />
    <glyph glyph-name="ocircumflex" unicode="&#xf4;" horiz-adv-x="542" 
d="M298 794h122l100 -158l-75 -57l-99 115l-134 -115l-70 57zM240 -12c-128 0 -209 81 -209 219c0 190 115 330 271 330c128 0 209 -81 209 -219c0 -190 -115 -330 -271 -330zM245 101c53 0 90 40 105 115l19 94c1 6 3 18 3 31c0 50 -26 83 -75 83c-53 0 -90 -40 -105 -115
l-19 -94c-1 -6 -3 -18 -3 -31c0 -50 26 -83 75 -83z" />
    <glyph glyph-name="otilde" unicode="&#xf5;" horiz-adv-x="542" 
d="M411 601c-29 0 -50 9 -76 21c-25 12 -46 22 -72 22c-23 0 -36 -8 -58 -25l-43 69c30 38 68 62 115 62c29 0 50 -9 76 -21c25 -12 46 -22 72 -22c23 0 36 8 58 25l43 -69c-30 -38 -68 -62 -115 -62zM240 -12c-128 0 -209 81 -209 219c0 190 115 330 271 330
c128 0 209 -81 209 -219c0 -190 -115 -330 -271 -330zM245 101c53 0 90 40 105 115l19 94c1 6 3 18 3 31c0 50 -26 83 -75 83c-53 0 -90 -40 -105 -115l-19 -94c-1 -6 -3 -18 -3 -31c0 -50 26 -83 75 -83z" />
    <glyph glyph-name="odieresis" unicode="&#xf6;" horiz-adv-x="542" 
d="M231 600c-47 0 -65 21 -65 48c0 7 2 17 6 40c6 34 30 63 85 63c47 0 65 -21 65 -48c0 -7 -2 -17 -6 -40c-6 -34 -30 -63 -85 -63zM431 600c-47 0 -65 21 -65 48c0 7 2 17 6 40c6 34 30 63 85 63c47 0 65 -21 65 -48c0 -7 -2 -17 -6 -40c-6 -34 -30 -63 -85 -63zM240 -12
c-128 0 -209 81 -209 219c0 190 115 330 271 330c128 0 209 -81 209 -219c0 -190 -115 -330 -271 -330zM245 101c53 0 90 40 105 115l19 94c1 6 3 18 3 31c0 50 -26 83 -75 83c-53 0 -90 -40 -105 -115l-19 -94c-1 -6 -3 -18 -3 -31c0 -50 26 -83 75 -83z" />
    <glyph glyph-name="divide" unicode="&#xf7;" horiz-adv-x="600" 
d="M529 248h-463l23 116h463zM258 30c-56 0 -76 24 -76 50c0 10 3 32 6 44c9 38 35 66 95 66c56 0 76 -24 76 -50c0 -10 -3 -32 -6 -44c-9 -38 -35 -66 -95 -66zM335 422c-56 0 -76 24 -76 50c0 10 3 32 6 44c9 38 35 66 95 66c56 0 76 -24 76 -50c0 -10 -3 -32 -6 -44
c-9 -38 -35 -66 -95 -66z" />
    <glyph glyph-name="oslash" unicode="&#xf8;" horiz-adv-x="543" 
d="M38 -43l-72 64l83 86c-12 29 -18 62 -18 100c0 190 116 330 272 330c54 0 99 -14 133 -40l69 71l72 -64l-83 -86c12 -29 18 -62 18 -100c0 -190 -116 -330 -272 -330c-54 0 -99 14 -133 40zM245 95c53 0 93 45 108 120l13 63l5 27l-184 -187c11 -13 34 -23 58 -23z
M298 430c-53 0 -93 -45 -108 -120l-13 -63l-6 -28l185 188c-11 13 -34 23 -58 23z" />
    <glyph glyph-name="ugrave" unicode="&#xf9;" horiz-adv-x="582" 
d="M322 580l-105 176l126 59l68 -196zM114 525h140l-62 -312c-4 -19 -7 -38 -7 -53c0 -34 15 -55 49 -55s61 20 84 48s40 62 48 102l54 270h140l-83 -413h59l-22 -112h-93c-50 0 -88 28 -88 77c0 11 2 25 3 30l3 15h-6c-39 -82 -89 -134 -169 -134c-79 0 -124 50 -124 136
c0 26 4 49 9 76z" />
    <glyph glyph-name="uacute" unicode="&#xfa;" horiz-adv-x="582" 
d="M511 755l-147 -176l-84 46l119 190zM114 525h140l-62 -312c-4 -19 -7 -38 -7 -53c0 -34 15 -55 49 -55s61 20 84 48s40 62 48 102l54 270h140l-83 -413h59l-22 -112h-93c-50 0 -88 28 -88 77c0 11 2 25 3 30l3 15h-6c-39 -82 -89 -134 -169 -134c-79 0 -124 50 -124 136
c0 26 4 49 9 76z" />
    <glyph glyph-name="ucircumflex" unicode="&#xfb;" horiz-adv-x="582" 
d="M317 794h122l100 -158l-75 -57l-99 115l-134 -115l-70 57zM114 525h140l-62 -312c-4 -19 -7 -38 -7 -53c0 -34 15 -55 49 -55s61 20 84 48s40 62 48 102l54 270h140l-83 -413h59l-22 -112h-93c-50 0 -88 28 -88 77c0 11 2 25 3 30l3 15h-6c-39 -82 -89 -134 -169 -134
c-79 0 -124 50 -124 136c0 26 4 49 9 76z" />
    <glyph glyph-name="udieresis" unicode="&#xfc;" horiz-adv-x="582" 
d="M250 600c-47 0 -65 21 -65 48c0 7 2 17 6 40c6 34 30 63 85 63c47 0 65 -21 65 -48c0 -7 -2 -17 -6 -40c-6 -34 -30 -63 -85 -63zM450 600c-47 0 -65 21 -65 48c0 7 2 17 6 40c6 34 30 63 85 63c47 0 65 -21 65 -48c0 -7 -2 -17 -6 -40c-6 -34 -30 -63 -85 -63zM114 525
h140l-62 -312c-4 -19 -7 -38 -7 -53c0 -34 15 -55 49 -55s61 20 84 48s40 62 48 102l54 270h140l-83 -413h59l-22 -112h-93c-50 0 -88 28 -88 77c0 11 2 25 3 30l3 15h-6c-39 -82 -89 -134 -169 -134c-79 0 -124 50 -124 136c0 26 4 49 9 76z" />
    <glyph glyph-name="yacute" unicode="&#xfd;" horiz-adv-x="509" 
d="M461 755l-147 -176l-84 46l119 190zM314 327l94 198h149l-322 -610c-41 -77 -86 -115 -186 -115h-78l23 112h97l28 58l-74 555h139l20 -198l16 -196h6z" />
    <glyph glyph-name="thorn" unicode="&#xfe;" horiz-adv-x="583" 
d="M-26 -200l188 940h140l-67 -337h6c41 85 89 134 171 134c98 0 140 -77 140 -182c0 -223 -110 -367 -244 -367c-73 0 -124 46 -131 103h-5l-58 -291h-140zM274 103c62 0 99 38 115 117l14 70c3 14 6 41 6 57c0 47 -25 75 -66 75c-36 0 -66 -22 -87 -48
c-22 -27 -40 -65 -48 -104l-16 -80c-11 -53 24 -87 82 -87z" />
    <glyph glyph-name="ydieresis" unicode="&#xff;" horiz-adv-x="509" 
d="M200 600c-47 0 -65 21 -65 48c0 7 2 17 6 40c6 34 30 63 85 63c47 0 65 -21 65 -48c0 -7 -2 -17 -6 -40c-6 -34 -30 -63 -85 -63zM400 600c-47 0 -65 21 -65 48c0 7 2 17 6 40c6 34 30 63 85 63c47 0 65 -21 65 -48c0 -7 -2 -17 -6 -40c-6 -34 -30 -63 -85 -63zM314 327
l94 198h149l-322 -610c-41 -77 -86 -115 -186 -115h-78l23 112h97l28 58l-74 555h139l20 -198l16 -196h6z" />
    <glyph glyph-name="Amacron" unicode="&#x100;" horiz-adv-x="658" 
d="M289 785l20 102h278l-20 -102h-278zM588 0h-147l-16 170h-223l-82 -170h-155l359 698h185zM415 291l-21 276h-8l-127 -276h156z" />
    <glyph glyph-name="amacron" unicode="&#x101;" horiz-adv-x="591" 
d="M211 625l20 102h278l-20 -102h-278zM523 0h-93c-50 0 -88 28 -88 77c0 11 2 25 3 30l3 15h-6c-41 -85 -89 -134 -171 -134c-98 0 -140 77 -140 182c0 223 110 367 244 367c73 0 124 -46 131 -103h5l18 91h140l-83 -413h59zM240 103c36 0 66 22 87 48c22 27 40 65 48 104
l16 80c10 49 -24 87 -82 87c-62 0 -99 -38 -115 -117l-14 -70c-3 -14 -6 -41 -6 -57c0 -47 25 -75 66 -75z" />
    <glyph glyph-name="Abreve" unicode="&#x102;" horiz-adv-x="658" 
d="M423 739c-113 0 -153 88 -170 170l80 42l18 -39c21 -45 38 -72 80 -72c36 0 61 25 98 74l28 37l83 -46c-48 -85 -108 -166 -217 -166zM588 0h-147l-16 170h-223l-82 -170h-155l359 698h185zM415 291l-21 276h-8l-127 -276h156z" />
    <glyph glyph-name="abreve" unicode="&#x103;" horiz-adv-x="591" 
d="M345 579c-113 0 -153 88 -170 170l80 42l18 -39c21 -45 38 -72 80 -72c36 0 61 25 98 74l28 37l83 -46c-48 -85 -108 -166 -217 -166zM523 0h-93c-50 0 -88 28 -88 77c0 11 2 25 3 30l3 15h-6c-41 -85 -89 -134 -171 -134c-98 0 -140 77 -140 182c0 223 110 367 244 367
c73 0 124 -46 131 -103h5l18 91h140l-83 -413h59zM240 103c36 0 66 22 87 48c22 27 40 65 48 104l16 80c10 49 -24 87 -82 87c-62 0 -99 -38 -115 -117l-14 -70c-3 -14 -6 -41 -6 -57c0 -47 25 -75 66 -75z" />
    <glyph glyph-name="Aogonek" unicode="&#x104;" horiz-adv-x="658" 
d="M-35 0l359 698h185l79 -698c-110 -66 -119 -91 -119 -111c0 -16 9 -29 35 -29c21 0 41 6 54 27l52 -49c-25 -30 -62 -50 -125 -50c-66 0 -119 29 -119 83c0 50 41 99 138 125l-1 4h-62l-16 170h-223l-82 -170h-155zM415 291l-21 276h-8l-127 -276h156z" />
    <glyph glyph-name="aogonek" unicode="&#x105;" horiz-adv-x="591" 
d="M545 112l-22 -112c-110 -66 -119 -91 -119 -111c0 -16 9 -29 35 -29c21 0 41 6 54 27l52 -49c-25 -30 -62 -50 -125 -50c-66 0 -119 29 -119 83c0 50 41 99 138 125l-1 4h-8c-50 0 -88 28 -88 77c0 11 2 25 3 30l3 15h-6c-41 -85 -89 -134 -171 -134
c-98 0 -140 77 -140 182c0 223 110 367 244 367c73 0 124 -46 131 -103h5l18 91h140l-83 -413h59zM240 103c36 0 66 22 87 48c22 27 40 65 48 104l16 80c10 49 -24 87 -82 87c-62 0 -99 -38 -115 -117l-14 -70c-3 -14 -6 -41 -6 -57c0 -47 25 -75 66 -75z" />
    <glyph glyph-name="Cacute" unicode="&#x106;" horiz-adv-x="635" 
d="M594 915l-147 -176l-84 46l119 190zM306 -12c-148 0 -249 96 -249 284c0 246 155 438 358 438c124 0 203 -63 236 -170l-129 -54c-16 53 -44 95 -118 95c-93 0 -152 -70 -173 -175l-22 -110c-4 -20 -5 -37 -5 -50c0 -85 37 -129 115 -129s122 43 153 104l121 -55
c-62 -121 -166 -178 -287 -178z" />
    <glyph glyph-name="cacute" unicode="&#x107;" horiz-adv-x="494" 
d="M488 755l-147 -176l-84 46l119 190zM237 -12c-114 0 -206 64 -206 227c0 187 120 322 279 322c100 0 175 -54 188 -136l-118 -45c-12 41 -27 68 -78 68c-59 0 -94 -36 -109 -110l-18 -89c-3 -14 -5 -28 -5 -42c0 -49 24 -82 79 -82c54 0 75 33 104 83l107 -50
c-46 -97 -123 -146 -223 -146z" />
    <glyph glyph-name="Ccircumflex" unicode="&#x108;" horiz-adv-x="635" 
d="M400 954h122l100 -158l-75 -57l-99 115l-134 -115l-70 57zM306 -12c-148 0 -249 96 -249 284c0 246 155 438 358 438c124 0 203 -63 236 -170l-129 -54c-16 53 -44 95 -118 95c-93 0 -152 -70 -173 -175l-22 -110c-4 -20 -5 -37 -5 -50c0 -85 37 -129 115 -129
s122 43 153 104l121 -55c-62 -121 -166 -178 -287 -178z" />
    <glyph glyph-name="ccircumflex" unicode="&#x109;" horiz-adv-x="494" 
d="M294 794h122l100 -158l-75 -57l-99 115l-134 -115l-70 57zM237 -12c-114 0 -206 64 -206 227c0 187 120 322 279 322c100 0 175 -54 188 -136l-118 -45c-12 41 -27 68 -78 68c-59 0 -94 -36 -109 -110l-18 -89c-3 -14 -5 -28 -5 -42c0 -49 24 -82 79 -82
c54 0 75 33 104 83l107 -50c-46 -97 -123 -146 -223 -146z" />
    <glyph glyph-name="Cdotaccent" unicode="&#x10a;" horiz-adv-x="635" 
d="M434 751c-57 0 -76 25 -76 59c0 8 2 14 7 42c7 39 30 67 94 67c57 0 76 -25 76 -59c0 -8 -2 -14 -7 -42c-7 -39 -30 -67 -94 -67zM306 -12c-148 0 -249 96 -249 284c0 246 155 438 358 438c124 0 203 -63 236 -170l-129 -54c-16 53 -44 95 -118 95
c-93 0 -152 -70 -173 -175l-22 -110c-4 -20 -5 -37 -5 -50c0 -85 37 -129 115 -129s122 43 153 104l121 -55c-62 -121 -166 -178 -287 -178z" />
    <glyph glyph-name="cdotaccent" unicode="&#x10b;" horiz-adv-x="494" 
d="M327 591c-57 0 -76 25 -76 59c0 8 2 14 7 42c7 39 30 67 94 67c57 0 76 -25 76 -59c0 -8 -2 -14 -7 -42c-7 -39 -30 -67 -94 -67zM237 -12c-114 0 -206 64 -206 227c0 187 120 322 279 322c100 0 175 -54 188 -136l-118 -45c-12 41 -27 68 -78 68
c-59 0 -94 -36 -109 -110l-18 -89c-3 -14 -5 -28 -5 -42c0 -49 24 -82 79 -82c54 0 75 33 104 83l107 -50c-46 -97 -123 -146 -223 -146z" />
    <glyph glyph-name="Ccaron" unicode="&#x10c;" horiz-adv-x="635" 
d="M490 748h-123l-101 158l74 57l96 -115l137 115l72 -57zM306 -12c-148 0 -249 96 -249 284c0 246 155 438 358 438c124 0 203 -63 236 -170l-129 -54c-16 53 -44 95 -118 95c-93 0 -152 -70 -173 -175l-22 -110c-4 -20 -5 -37 -5 -50c0 -85 37 -129 115 -129
s122 43 153 104l121 -55c-62 -121 -166 -178 -287 -178z" />
    <glyph glyph-name="ccaron" unicode="&#x10d;" horiz-adv-x="494" 
d="M384 588h-123l-101 158l74 57l96 -115l137 115l72 -57zM237 -12c-114 0 -206 64 -206 227c0 187 120 322 279 322c100 0 175 -54 188 -136l-118 -45c-12 41 -27 68 -78 68c-59 0 -94 -36 -109 -110l-18 -89c-3 -14 -5 -28 -5 -42c0 -49 24 -82 79 -82c54 0 75 33 104 83
l107 -50c-46 -97 -123 -146 -223 -146z" />
    <glyph glyph-name="Dcaron" unicode="&#x10e;" horiz-adv-x="682" 
d="M464 748h-123l-101 158l74 57l96 -115l137 115l72 -57zM22 0l140 698h224c166 0 268 -90 268 -261c0 -248 -130 -437 -366 -437h-266zM193 128h107c90 0 158 54 181 168l19 94c5 25 7 50 7 62c0 84 -44 118 -112 118h-113z" />
    <glyph glyph-name="dcaron" unicode="&#x10f;" horiz-adv-x="660" 
d="M832 740l-109 -215h-97l50 215h156zM523 0h-93c-50 0 -88 28 -88 77c0 11 2 25 3 30l3 15h-6c-41 -85 -89 -134 -171 -134c-98 0 -140 77 -140 182c0 223 110 367 244 367c73 0 124 -46 131 -103h5l61 306h140l-126 -628h59zM240 103c36 0 66 22 87 48
c22 27 40 65 48 104l16 80c11 53 -24 87 -82 87c-62 0 -99 -38 -115 -117l-14 -70c-3 -14 -6 -41 -6 -57c0 -47 25 -75 66 -75z" />
    <glyph glyph-name="Dcroat" unicode="&#x110;" horiz-adv-x="687" 
d="M27 0l61 298h-78l23 112h76l58 288h224c166 0 268 -90 268 -261c0 -248 -130 -437 -366 -437h-266zM198 128h107c91 0 158 55 181 168l19 94c5 24 7 50 7 62c0 84 -44 118 -112 118h-114l-32 -160h113l-23 -112h-113z" />
    <glyph glyph-name="dcroat" unicode="&#x111;" horiz-adv-x="594" 
d="M523 0h-93c-50 0 -88 28 -88 77c0 11 2 25 3 30l3 15h-6c-41 -85 -89 -134 -171 -134c-98 0 -140 77 -140 182c0 223 110 367 244 367c73 0 124 -46 131 -103h5l32 158h-151l19 96h151l10 52h140l-10 -52h58l-20 -96h-57l-97 -480h59zM240 103c36 0 66 22 87 48
c22 27 40 65 48 104l16 80c11 53 -24 87 -82 87c-62 0 -99 -38 -115 -117l-14 -70c-3 -14 -6 -41 -6 -57c0 -47 25 -75 66 -75z" />
    <glyph glyph-name="Emacron" unicode="&#x112;" horiz-adv-x="578" 
d="M264 785l20 102h278l-20 -102h-278zM481 0h-459l140 698h449l-26 -128h-303l-31 -153h268l-26 -128h-268l-32 -161h314z" />
    <glyph glyph-name="emacron" unicode="&#x113;" horiz-adv-x="515" 
d="M201 625l20 102h278l-20 -102h-278zM253 -12c-149 0 -222 87 -222 226c0 168 111 323 285 323c79 0 188 -32 188 -146c0 -108 -97 -176 -332 -183c-2 -12 -2 -18 -2 -23c0 -50 24 -84 93 -84c46 0 81 14 128 73l86 -68c-65 -86 -134 -118 -224 -118zM308 430
c-59 0 -105 -42 -117 -110l-4 -23c150 9 181 38 181 80c0 45 -35 53 -60 53z" />
    <glyph glyph-name="Ebreve" unicode="&#x114;" horiz-adv-x="578" 
d="M398 739c-113 0 -153 88 -170 170l80 42l18 -39c21 -45 38 -72 80 -72c36 0 61 25 98 74l28 37l83 -46c-48 -85 -108 -166 -217 -166zM481 0h-459l140 698h449l-26 -128h-303l-31 -153h268l-26 -128h-268l-32 -161h314z" />
    <glyph glyph-name="ebreve" unicode="&#x115;" horiz-adv-x="515" 
d="M335 579c-113 0 -153 88 -170 170l80 42l18 -39c21 -45 38 -72 80 -72c36 0 61 25 98 74l28 37l83 -46c-48 -85 -108 -166 -217 -166zM253 -12c-149 0 -222 87 -222 226c0 168 111 323 285 323c79 0 188 -32 188 -146c0 -108 -97 -176 -332 -183c-2 -12 -2 -18 -2 -23
c0 -50 24 -84 93 -84c46 0 81 14 128 73l86 -68c-65 -86 -134 -118 -224 -118zM308 430c-59 0 -105 -42 -117 -110l-4 -23c150 9 181 38 181 80c0 45 -35 53 -60 53z" />
    <glyph glyph-name="Edotaccent" unicode="&#x116;" horiz-adv-x="578" 
d="M401 751c-57 0 -76 25 -76 59c0 8 2 14 7 42c7 39 30 67 94 67c57 0 76 -25 76 -59c0 -8 -2 -14 -7 -42c-7 -39 -30 -67 -94 -67zM481 0h-459l140 698h449l-26 -128h-303l-31 -153h268l-26 -128h-268l-32 -161h314z" />
    <glyph glyph-name="edotaccent" unicode="&#x117;" horiz-adv-x="515" 
d="M337 591c-57 0 -76 25 -76 59c0 8 2 14 7 42c7 39 30 67 94 67c57 0 76 -25 76 -59c0 -8 -2 -14 -7 -42c-7 -39 -30 -67 -94 -67zM253 -12c-149 0 -222 87 -222 226c0 168 111 323 285 323c79 0 188 -32 188 -146c0 -108 -97 -176 -332 -183c-2 -12 -2 -18 -2 -23
c0 -50 24 -84 93 -84c46 0 81 14 128 73l86 -68c-65 -86 -134 -118 -224 -118zM308 430c-59 0 -105 -42 -117 -110l-4 -23c150 9 181 38 181 80c0 45 -35 53 -60 53z" />
    <glyph glyph-name="Eogonek" unicode="&#x118;" horiz-adv-x="578" 
d="M22 0l140 698h449l-26 -128h-303l-31 -153h268l-26 -128h-268l-32 -161h314l-26 -128c-110 -66 -119 -91 -119 -111c0 -16 9 -29 35 -29c21 0 41 6 54 27l52 -49c-25 -30 -62 -50 -125 -50c-66 0 -119 29 -119 83c0 50 41 99 138 125l-1 4h-374z" />
    <glyph glyph-name="eogonek" unicode="&#x119;" horiz-adv-x="515" 
d="M234 -212c-66 0 -119 29 -119 83c0 46 40 91 119 114l-1 4c-137 7 -202 94 -202 225c0 168 111 323 285 323c79 0 188 -32 188 -146c0 -108 -97 -176 -332 -183c-2 -12 -2 -18 -2 -23c0 -50 24 -84 93 -84c46 0 81 14 128 73l86 -68c-54 -72 -97 -86 -142 -110
c-108 -58 -117 -90 -117 -107c0 -16 9 -29 35 -29c21 0 41 6 54 27l52 -49c-25 -30 -62 -50 -125 -50zM308 430c-59 0 -105 -42 -117 -110l-4 -23c150 9 181 38 181 80c0 45 -35 53 -60 53z" />
    <glyph glyph-name="Ecaron" unicode="&#x11a;" horiz-adv-x="578" 
d="M457 748h-123l-101 158l74 57l96 -115l137 115l72 -57zM481 0h-459l140 698h449l-26 -128h-303l-31 -153h268l-26 -128h-268l-32 -161h314z" />
    <glyph glyph-name="ecaron" unicode="&#x11b;" horiz-adv-x="515" 
d="M394 588h-123l-101 158l74 57l96 -115l137 115l72 -57zM253 -12c-149 0 -222 87 -222 226c0 168 111 323 285 323c79 0 188 -32 188 -146c0 -108 -97 -176 -332 -183c-2 -12 -2 -18 -2 -23c0 -50 24 -84 93 -84c46 0 81 14 128 73l86 -68c-65 -86 -134 -118 -224 -118z
M308 430c-59 0 -105 -42 -117 -110l-4 -23c150 9 181 38 181 80c0 45 -35 53 -60 53z" />
    <glyph glyph-name="Gcircumflex" unicode="&#x11c;" horiz-adv-x="700" 
d="M411 954h122l100 -158l-75 -57l-99 115l-134 -115l-70 57zM460 0l22 111h-8c-35 -68 -96 -123 -191 -123c-133 0 -226 94 -226 280c0 252 148 442 368 442c123 0 221 -58 252 -165l-121 -64c-16 65 -68 100 -139 100c-107 0 -165 -67 -186 -174l-22 -110
c-4 -20 -6 -39 -6 -56c0 -87 53 -124 115 -124c86 0 156 49 169 113l7 34h-126l24 122h264l-77 -386h-119z" />
    <glyph glyph-name="gcircumflex" unicode="&#x11d;" horiz-adv-x="582" 
d="M264.601 812h122l100 -158l-75 -57l-99 115l-134 -115l-70 57zM173 2c-98 0 -140 77 -140 182c0 223 107 353 241 353c73 0 124 -46 131 -103h5l18 91h140l-101 -506c-29 -147 -99 -231 -260 -231c-88 0 -160 25 -211 94l89 81c25 -38 67 -63 118 -63
c69 0 109 45 125 126l22 110h-6c-41 -85 -89 -134 -171 -134zM242 117c36 0 66 22 87 48c22 27 40 65 48 104l13 66c8 42 -18 87 -82 87c-62 0 -99 -38 -115 -117l-11 -56c-3 -14 -6 -41 -6 -57c0 -47 25 -75 66 -75z" />
    <glyph glyph-name="Gbreve" unicode="&#x11e;" horiz-adv-x="700" 
d="M442 739c-113 0 -153 88 -170 170l80 42l18 -39c21 -45 38 -72 80 -72c36 0 61 25 98 74l28 37l83 -46c-48 -85 -108 -166 -217 -166zM460 0l22 111h-8c-35 -68 -96 -123 -191 -123c-133 0 -226 94 -226 280c0 252 148 442 368 442c123 0 221 -58 252 -165l-121 -64
c-16 65 -68 100 -139 100c-107 0 -165 -67 -186 -174l-22 -110c-4 -20 -6 -39 -6 -56c0 -87 53 -124 115 -124c86 0 156 49 169 113l7 34h-126l24 122h264l-77 -386h-119z" />
    <glyph glyph-name="gbreve" unicode="&#x11f;" horiz-adv-x="582" 
d="M296.3 597c-113 0 -153 88 -170 170l80 42l18 -39c21 -45 38 -72 80 -72c36 0 61 25 98 74l28 37l83 -46c-48 -85 -108 -166 -217 -166zM173 2c-98 0 -140 77 -140 182c0 223 107 353 241 353c73 0 124 -46 131 -103h5l18 91h140l-101 -506c-29 -147 -99 -231 -260 -231
c-88 0 -160 25 -211 94l89 81c25 -38 67 -63 118 -63c69 0 109 45 125 126l22 110h-6c-41 -85 -89 -134 -171 -134zM242 117c36 0 66 22 87 48c22 27 40 65 48 104l13 66c8 42 -18 87 -82 87c-62 0 -99 -38 -115 -117l-11 -56c-3 -14 -6 -41 -6 -57c0 -47 25 -75 66 -75z
" />
    <glyph glyph-name="Gdotaccent" unicode="&#x120;" horiz-adv-x="700" 
d="M445 751c-57 0 -76 25 -76 59c0 8 2 14 7 42c7 39 30 67 94 67c57 0 76 -25 76 -59c0 -8 -2 -14 -7 -42c-7 -39 -30 -67 -94 -67zM460 0l22 111h-8c-35 -68 -96 -123 -191 -123c-133 0 -226 94 -226 280c0 252 148 442 368 442c123 0 221 -58 252 -165l-121 -64
c-16 65 -68 100 -139 100c-107 0 -165 -67 -186 -174l-22 -110c-4 -20 -6 -39 -6 -56c0 -87 53 -124 115 -124c86 0 156 49 169 113l7 34h-126l24 122h264l-77 -386h-119z" />
    <glyph glyph-name="gdotaccent" unicode="&#x121;" horiz-adv-x="582" 
d="M290.5 597c-57 0 -76 25 -76 59c0 8 2 14 7 42c7 39 30 67 94 67c57 0 76 -25 76 -59c0 -8 -2 -14 -7 -42c-7 -39 -30 -67 -94 -67zM173 2c-98 0 -140 77 -140 182c0 223 107 353 241 353c73 0 124 -46 131 -103h5l18 91h140l-101 -506c-29 -147 -99 -231 -260 -231
c-88 0 -160 25 -211 94l89 81c25 -38 67 -63 118 -63c69 0 109 45 125 126l22 110h-6c-41 -85 -89 -134 -171 -134zM242 117c36 0 66 22 87 48c22 27 40 65 48 104l13 66c8 42 -18 87 -82 87c-62 0 -99 -38 -115 -117l-11 -56c-3 -14 -6 -41 -6 -57c0 -47 25 -75 66 -75z
" />
    <glyph glyph-name="Gcommaaccent" unicode="&#x122;" horiz-adv-x="700" 
d="M278 -42c42 0 63 -18 63 -51c0 -8 0 -12 -3 -27c-12 -60 -53 -123 -96 -155h-83c39 29 62 59 80 99c-30 2 -39 21 -39 45c0 5 1 12 4 27c8 40 35 62 74 62zM460 0l22 111h-8c-35 -68 -96 -123 -191 -123c-133 0 -226 94 -226 280c0 252 148 442 368 442
c123 0 221 -58 252 -165l-121 -64c-16 65 -68 100 -139 100c-107 0 -165 -67 -186 -174l-22 -110c-4 -20 -6 -39 -6 -56c0 -87 53 -124 115 -124c86 0 156 49 169 113l7 34h-126l24 122h264l-77 -386h-119z" />
    <glyph glyph-name="gcommaaccent" unicode="&#x123;" horiz-adv-x="582" 
d="M287.8 597c-42 0 -63 18 -63 51c0 8 0 12 3 27c12 60 53 123 96 155h83c-39 -29 -62 -59 -80 -99c30 -2 39 -21 39 -45c0 -5 -1 -12 -4 -27c-8 -40 -35 -62 -74 -62zM173 2c-98 0 -140 77 -140 182c0 223 107 353 241 353c73 0 124 -46 131 -103h5l18 91h140l-101 -506
c-29 -147 -99 -231 -260 -231c-88 0 -160 25 -211 94l89 81c25 -38 67 -63 118 -63c69 0 109 45 125 126l22 110h-6c-41 -85 -89 -134 -171 -134zM242 117c36 0 66 22 87 48c22 27 40 65 48 104l13 66c8 42 -18 87 -82 87c-62 0 -99 -38 -115 -117l-11 -56
c-3 -14 -6 -41 -6 -57c0 -47 25 -75 66 -75z" />
    <glyph glyph-name="Hcircumflex" unicode="&#x124;" horiz-adv-x="700" 
d="M406 954h122l100 -158l-75 -57l-99 115l-134 -115l-70 57zM427 0l58 289h-260l-58 -289h-145l140 698h145l-56 -281h260l56 281h145l-140 -698h-145z" />
    <glyph glyph-name="hcircumflex" unicode="&#x125;" horiz-adv-x="588" 
d="M204 952h122l100 -158l-75 -57l-99 115l-134 -115l-70 57zM14 0l148 740h140l-67 -337h6c40 84 92 134 174 134c81 0 126 -50 126 -136c0 -25 -4 -47 -9 -74l-43 -215h53l-22 -112h-91c-53 0 -84 29 -84 76c0 12 2 23 3 28l41 208c4 19 7 36 7 56c0 30 -15 52 -53 52
c-34 0 -62 -21 -85 -48c-24 -28 -42 -62 -50 -102l-54 -270h-140z" />
    <glyph glyph-name="Hbar" unicode="&#x126;" horiz-adv-x="710" 
d="M432 0l58 289h-260l-58 -289h-145l103 513h-72l21 107h72l16 78h145l-16 -78h260l16 78h145l-16 -78h72l-21 -107h-72l-103 -513h-145zM256 417h260l19 96h-260z" />
    <glyph glyph-name="hbar" unicode="&#x127;" horiz-adv-x="588" 
d="M14 0l118 592h-69l20 96h68l11 52h140l-11 -52h141l-20 -96h-140l-37 -189h6c40 84 92 134 174 134c81 0 126 -50 126 -136c0 -25 -4 -47 -9 -74l-43 -215h53l-22 -112h-91c-53 0 -84 29 -84 76c0 12 2 23 3 28l41 208c4 19 7 36 7 56c0 30 -15 52 -53 52
c-34 0 -62 -21 -85 -48c-24 -28 -42 -62 -50 -102l-54 -270h-140z" />
    <glyph glyph-name="Itilde" unicode="&#x128;" horiz-adv-x="415" 
d="M389 761c-29 0 -50 9 -76 21c-25 12 -46 22 -72 22c-23 0 -36 -8 -58 -25l-43 69c30 38 68 62 115 62c29 0 50 -9 76 -21c25 -12 46 -22 72 -22c23 0 36 8 58 25l43 -69c-30 -38 -68 -62 -115 -62zM314 0h-318l24 118h86l93 462h-86l23 118h318l-24 -118h-86l-93 -462h86
z" />
    <glyph glyph-name="itilde" unicode="&#x129;" horiz-adv-x="281" 
d="M283 601c-29 0 -50 9 -76 21c-25 12 -46 22 -72 22c-23 0 -36 -8 -58 -25l-43 69c30 38 68 62 115 62c29 0 50 -9 76 -21c25 -12 46 -22 72 -22c23 0 36 8 58 25l43 -69c-30 -38 -68 -62 -115 -62zM213 0h-91c-54 0 -90 32 -90 80c0 8 1 15 3 25l84 420h140l-83 -413h59z
" />
    <glyph glyph-name="Imacron" unicode="&#x12a;" horiz-adv-x="415" 
d="M173 785l20 102h278l-20 -102h-278zM314 0h-318l24 118h86l93 462h-86l23 118h318l-24 -118h-86l-93 -462h86z" />
    <glyph glyph-name="imacron" unicode="&#x12b;" horiz-adv-x="281" 
d="M67 625l20 102h278l-20 -102h-278zM213 0h-91c-54 0 -90 32 -90 80c0 8 1 15 3 25l84 420h140l-83 -413h59z" />
    <glyph glyph-name="Ibreve" unicode="&#x12c;" horiz-adv-x="415" 
d="M307 739c-113 0 -153 88 -170 170l80 42l18 -39c21 -45 38 -72 80 -72c36 0 61 25 98 74l28 37l83 -46c-48 -85 -108 -166 -217 -166zM314 0h-318l24 118h86l93 462h-86l23 118h318l-24 -118h-86l-93 -462h86z" />
    <glyph glyph-name="ibreve" unicode="&#x12d;" horiz-adv-x="281" 
d="M201 579c-113 0 -153 88 -170 170l80 42l18 -39c21 -45 38 -72 80 -72c36 0 61 25 98 74l28 37l83 -46c-48 -85 -108 -166 -217 -166zM213 0h-91c-54 0 -90 32 -90 80c0 8 1 15 3 25l84 420h140l-83 -413h59z" />
    <glyph glyph-name="Iogonek" unicode="&#x12e;" horiz-adv-x="415" 
d="M-4 0l24 118h86l93 462h-86l23 118h318l-24 -118h-86l-93 -462h86l-23 -118c-110 -66 -119 -91 -119 -111c0 -16 9 -29 35 -29c21 0 41 6 54 27l52 -49c-25 -30 -62 -50 -125 -50c-66 0 -119 29 -119 83c0 50 41 99 138 125l-1 4h-233z" />
    <glyph glyph-name="iogonek" unicode="&#x12f;" horiz-adv-x="281" 
d="M235 112l-22 -112c-110 -66 -119 -91 -119 -111c0 -16 9 -29 35 -29c21 0 41 6 54 27l52 -49c-25 -30 -62 -50 -125 -50c-66 0 -119 29 -119 83c0 50 43 99 140 125l-1 4h-8c-54 0 -90 32 -90 80c0 8 1 15 3 25l84 420h140l-83 -413h59zM202 583c-49 0 -72 20 -72 52
c0 12 3 28 6 40c9 35 29 72 96 72c49 0 72 -20 72 -52c0 -12 -3 -28 -6 -40c-9 -35 -29 -72 -96 -72z" />
    <glyph glyph-name="Idotaccent" unicode="&#x130;" horiz-adv-x="415" 
d="M310 751c-57 0 -76 25 -76 59c0 8 2 14 7 42c7 39 30 67 94 67c57 0 76 -25 76 -59c0 -8 -2 -14 -7 -42c-7 -39 -30 -67 -94 -67zM314 0h-318l24 118h86l93 462h-86l23 118h318l-24 -118h-86l-93 -462h86z" />
    <glyph glyph-name="dotlessi" unicode="&#x131;" horiz-adv-x="281" 
d="M213 0h-91c-54 0 -90 32 -90 80c0 8 1 15 3 25l84 420h140l-83 -413h59z" />
    <glyph glyph-name="IJ" unicode="&#x132;" horiz-adv-x="642" 
d="M421 698h233l-97 -486c-28 -138 -126 -223 -273 -223c-130 0 -217 76 -220 194l138 28c-1 -59 34 -92 91 -92c62 0 107 30 121 102l72 360h-89zM82 308l79 390h144l-78 -390h-145z" />
    <glyph glyph-name="ij" unicode="&#x133;" horiz-adv-x="560" 
d="M284 -88l123 613h140l-119 -586c-18 -91 -65 -139 -162 -139h-79l22 112h75zM490 583c-49 0 -72 20 -72 52c0 12 3 28 6 40c9 35 29 72 96 72c49 0 72 -20 72 -52c0 -12 -3 -28 -6 -40c-9 -35 -29 -72 -96 -72zM202 583c-49 0 -72 20 -72 52c0 12 3 28 6 40
c9 35 29 72 96 72c49 0 72 -20 72 -52c0 -12 -3 -28 -6 -40c-9 -35 -29 -72 -96 -72zM213 0h-91c-54 0 -90 32 -90 80c0 8 1 15 3 25l84 420h140l-83 -413h59z" />
    <glyph glyph-name="Jcircumflex" unicode="&#x134;" horiz-adv-x="536" 
d="M363 954h122l100 -158l-75 -57l-99 115l-134 -115l-70 57zM201 698h348l-102 -508c-24 -121 -101 -201 -232 -201c-135 0 -200 85 -210 191l139 28c5 -56 21 -93 71 -93c41 0 77 26 90 90l75 375h-203z" />
    <glyph glyph-name="jcircumflex" unicode="&#x135;" horiz-adv-x="276" 
d="M177 794h122l100 -158l-75 -57l-99 115l-134 -115l-70 57zM-97 -200l22 112h75l123 613h140l-119 -586c-18 -91 -65 -139 -162 -139h-79z" />
    <glyph glyph-name="Kcommaaccent" unicode="&#x136;" horiz-adv-x="657" 
d="M286 -42c42 0 63 -18 63 -51c0 -8 0 -12 -3 -27c-12 -60 -53 -123 -96 -155h-83c39 29 62 59 80 99c-30 2 -39 21 -39 45c0 5 1 12 4 27c8 40 35 62 74 62zM436 0l-117 299l-116 -120l-36 -179h-145l140 698h145l-67 -334h7l110 131l188 203h176l-288 -300l163 -398h-160
z" />
    <glyph glyph-name="kcommaaccent" unicode="&#x137;" horiz-adv-x="550" 
d="M241 -42c42 0 63 -18 63 -51c0 -8 0 -12 -3 -27c-12 -60 -53 -123 -96 -155h-83c39 29 62 59 80 99c-30 2 -39 21 -39 45c0 5 1 12 4 27c8 40 35 62 74 62zM14 0l148 740h140l-87 -435h7l72 90l126 130h163l-213 -213l72 -200h61l-24 -112h-75c-49 0 -82 26 -99 79
l-44 137l-79 -74l-28 -142h-140z" />
    <glyph glyph-name="kgreenlandic" unicode="&#x138;" horiz-adv-x="555" 
d="M14 0l105 525h140l-44 -220h7l78 89l130 131h163l-217 -214l66 -199h61l-24 -112h-75c-49 0 -81 27 -98 80l-43 136l-81 -74l-28 -142h-140z" />
    <glyph glyph-name="Lacute" unicode="&#x139;" horiz-adv-x="510" 
d="M409 915l-147 -176l-84 46l119 190zM423 0h-401l140 698h145l-114 -570h256z" />
    <glyph glyph-name="lacute" unicode="&#x13a;" horiz-adv-x="281" 
d="M409 955l-147 -176l-84 46l119 190zM216 0h-94c-54 0 -90 32 -90 80c0 8 1 15 3 25l127 635h140l-126 -628h62z" />
    <glyph glyph-name="Lcommaaccent" unicode="&#x13b;" horiz-adv-x="510" 
d="M211 -42c42 0 63 -18 63 -51c0 -8 0 -12 -3 -27c-12 -60 -53 -123 -96 -155h-83c39 29 62 59 80 99c-30 2 -39 21 -39 45c0 5 1 12 4 27c8 40 35 62 74 62zM423 0h-401l140 698h145l-114 -570h256z" />
    <glyph glyph-name="lcommaaccent" unicode="&#x13c;" horiz-adv-x="281" 
d="M118 -42c42 0 63 -18 63 -51c0 -8 0 -12 -3 -27c-12 -60 -53 -123 -96 -155h-83c39 29 62 59 80 99c-30 2 -39 21 -39 45c0 5 1 12 4 27c8 40 35 62 74 62zM216 0h-94c-54 0 -90 32 -90 80c0 8 1 15 3 25l127 635h140l-126 -628h62z" />
    <glyph glyph-name="Lcaron" unicode="&#x13d;" horiz-adv-x="510" 
d="M543 740l-109 -215h-97l50 215h156zM423 0h-401l140 698h145l-114 -570h256z" />
    <glyph glyph-name="lcaron" unicode="&#x13e;" horiz-adv-x="350" 
d="M524 740l-109 -215h-97l50 215h156zM216 0h-94c-54 0 -90 32 -90 80c0 8 1 15 3 25l127 635h140l-126 -628h62z" />
    <glyph glyph-name="Ldot" unicode="&#x13f;" horiz-adv-x="511" 
d="M418 309c-57 0 -76 25 -76 59c0 8 2 14 7 42c7 39 30 67 94 67c57 0 76 -25 76 -59c0 -8 -2 -14 -7 -42c-7 -39 -30 -67 -94 -67zM423 0h-401l140 698h145l-114 -570h256z" />
    <glyph glyph-name="ldot" unicode="&#x140;" horiz-adv-x="421" 
d="M353 272c-57 0 -76 25 -76 59c0 8 2 14 7 42c7 39 30 67 94 67c57 0 76 -25 76 -59c0 -8 -2 -14 -7 -42c-7 -39 -30 -67 -94 -67zM216 0h-94c-54 0 -90 32 -90 80c0 8 1 15 3 25l127 635h140l-126 -628h62z" />
    <glyph glyph-name="Lslash" unicode="&#x141;" horiz-adv-x="521" 
d="M455 128l-26 -128h-401l49 246l-80 -23l24 111l78 23l69 341h145l-59 -295l170 51l-22 -113l-171 -50l-32 -163h256z" />
    <glyph glyph-name="lslash" unicode="&#x142;" horiz-adv-x="294" 
d="M246 112l-22 -112h-97c-54 0 -89 32 -89 80c0 8 1 16 3 25l38 191l-78 -26l21 107l78 26l68 337h141l-58 -286l98 33l-20 -107l-99 -33l-46 -235h62z" />
    <glyph glyph-name="Nacute" unicode="&#x143;" horiz-adv-x="700" 
d="M611 915l-147 -176l-84 46l119 190zM415 0l-113 336l-42 139h-6l-95 -475h-137l140 698h157l113 -336l42 -139h6l95 475h137l-140 -698h-157z" />
    <glyph glyph-name="nacute" unicode="&#x144;" horiz-adv-x="588" 
d="M523 755l-147 -176l-84 46l119 190zM154 0h-140l105 525h140l-24 -122h6c40 84 92 134 174 134c81 0 126 -50 126 -136c0 -25 -4 -47 -9 -74l-43 -215h53l-22 -112h-91c-53 0 -84 29 -84 76c0 12 2 23 3 28l41 208c4 19 7 36 7 56c0 30 -15 52 -53 52
c-34 0 -62 -21 -85 -48c-24 -28 -42 -62 -50 -102z" />
    <glyph glyph-name="Ncommaaccent" unicode="&#x145;" horiz-adv-x="700" 
d="M286 -42c42 0 63 -18 63 -51c0 -8 0 -12 -3 -27c-12 -60 -53 -123 -96 -155h-83c39 29 62 59 80 99c-30 2 -39 21 -39 45c0 5 1 12 4 27c8 40 35 62 74 62zM415 0l-113 336l-42 139h-6l-95 -475h-137l140 698h157l113 -336l42 -139h6l95 475h137l-140 -698h-157z" />
    <glyph glyph-name="ncommaaccent" unicode="&#x146;" horiz-adv-x="588" 
d="M252 -42c42 0 63 -18 63 -51c0 -8 0 -12 -3 -27c-12 -60 -53 -123 -96 -155h-83c39 29 62 59 80 99c-30 2 -39 21 -39 45c0 5 1 12 4 27c8 40 35 62 74 62zM154 0h-140l105 525h140l-24 -122h6c40 84 92 134 174 134c81 0 126 -50 126 -136c0 -25 -4 -47 -9 -74l-43 -215
h53l-22 -112h-91c-53 0 -84 29 -84 76c0 12 2 23 3 28l41 208c4 19 7 36 7 56c0 30 -15 52 -53 52c-34 0 -62 -21 -85 -48c-24 -28 -42 -62 -50 -102z" />
    <glyph glyph-name="Ncaron" unicode="&#x147;" horiz-adv-x="700" 
d="M507 748h-123l-101 158l74 57l96 -115l137 115l72 -57zM415 0l-113 336l-42 139h-6l-95 -475h-137l140 698h157l113 -336l42 -139h6l95 475h137l-140 -698h-157z" />
    <glyph glyph-name="ncaron" unicode="&#x148;" horiz-adv-x="588" 
d="M419 588h-123l-101 158l74 57l96 -115l137 115l72 -57zM154 0h-140l105 525h140l-24 -122h6c40 84 92 134 174 134c81 0 126 -50 126 -136c0 -25 -4 -47 -9 -74l-43 -215h53l-22 -112h-91c-53 0 -84 29 -84 76c0 12 2 23 3 28l41 208c4 19 7 36 7 56c0 30 -15 52 -53 52
c-34 0 -62 -21 -85 -48c-24 -28 -42 -62 -50 -102z" />
    <glyph glyph-name="napostrophe" unicode="&#x149;" horiz-adv-x="874" 
d="M440 0h-140l105 525h140l-24 -122h6c40 84 92 134 174 134c81 0 126 -50 126 -136c0 -25 -4 -47 -9 -74l-43 -215h53l-22 -112h-91c-53 0 -84 29 -84 76c0 12 2 23 3 28l41 208c4 19 7 36 7 56c0 30 -15 52 -53 52c-34 0 -62 -21 -85 -48c-24 -28 -42 -62 -50 -102z
M237 750c56 0 75 -32 75 -61c0 -12 -3 -28 -6 -43c-12 -60 -68 -144 -141 -196h-99c55 42 91 80 119 130c-37 8 -51 32 -51 55c0 10 4 29 7 44c8 40 40 71 96 71z" />
    <glyph glyph-name="Eng" unicode="&#x14a;" horiz-adv-x="700" 
d="M159 0h-137l140 698h157l113 -336l42 -139h6l95 475h137l-151 -753c-20 -99 -75 -145 -167 -145h-76l22 111h81l18 89h-24l-113 336l-42 139h-6z" />
    <glyph glyph-name="eng" unicode="&#x14b;" horiz-adv-x="586" 
d="M234 -89h76l80 406c3 17 6 31 6 44c0 39 -16 59 -52 59c-34 0 -67 -23 -88 -50c-18 -21 -38 -52 -45 -87l-57 -283h-140l105 525h140l-24 -122h6c38 79 94 134 173 134c88 0 127 -51 127 -138c0 -22 -4 -46 -9 -72l-78 -388c-18 -91 -66 -139 -162 -139h-80z" />
    <glyph glyph-name="Omacron" unicode="&#x14c;" horiz-adv-x="695" 
d="M317 785l20 102h278l-20 -102h-278zM308 -12c-134 0 -251 85 -251 283c0 241 151 439 360 439c134 0 251 -85 251 -283c0 -241 -151 -439 -360 -439zM318 117c93 0 154 66 177 179l21 105c4 21 5 38 5 52c0 84 -38 128 -114 128c-93 0 -154 -66 -177 -179l-21 -105
c-4 -20 -5 -38 -5 -52c0 -84 38 -128 114 -128z" />
    <glyph glyph-name="omacron" unicode="&#x14d;" horiz-adv-x="542" 
d="M195 625l20 102h278l-20 -102h-278zM240 -12c-128 0 -209 81 -209 219c0 190 115 330 271 330c128 0 209 -81 209 -219c0 -190 -115 -330 -271 -330zM245 101c53 0 90 40 105 115l19 94c1 6 3 18 3 31c0 50 -26 83 -75 83c-53 0 -90 -40 -105 -115l-19 -94
c-1 -6 -3 -18 -3 -31c0 -50 26 -83 75 -83z" />
    <glyph glyph-name="Obreve" unicode="&#x14e;" horiz-adv-x="695" 
d="M451 739c-113 0 -153 88 -170 170l80 42l18 -39c21 -45 38 -72 80 -72c36 0 61 25 98 74l28 37l83 -46c-48 -85 -108 -166 -217 -166zM308 -12c-134 0 -251 85 -251 283c0 241 151 439 360 439c134 0 251 -85 251 -283c0 -241 -151 -439 -360 -439zM318 117
c93 0 154 66 177 179l21 105c4 21 5 38 5 52c0 84 -38 128 -114 128c-93 0 -154 -66 -177 -179l-21 -105c-4 -20 -5 -38 -5 -52c0 -84 38 -128 114 -128z" />
    <glyph glyph-name="obreve" unicode="&#x14f;" horiz-adv-x="542" 
d="M329 579c-113 0 -153 88 -170 170l80 42l18 -39c21 -45 38 -72 80 -72c36 0 61 25 98 74l28 37l83 -46c-48 -85 -108 -166 -217 -166zM240 -12c-128 0 -209 81 -209 219c0 190 115 330 271 330c128 0 209 -81 209 -219c0 -190 -115 -330 -271 -330zM245 101
c53 0 90 40 105 115l19 94c1 6 3 18 3 31c0 50 -26 83 -75 83c-53 0 -90 -40 -105 -115l-19 -94c-1 -6 -3 -18 -3 -31c0 -50 26 -83 75 -83z" />
    <glyph glyph-name="Ohungarumlaut" unicode="&#x150;" horiz-adv-x="695" 
d="M507 915l-141 -175l-77 38l113 193zM703 915l-142 -175l-76 38l113 193zM308 -12c-134 0 -251 85 -251 283c0 241 151 439 360 439c134 0 251 -85 251 -283c0 -241 -151 -439 -360 -439zM318 117c93 0 154 66 177 179l21 105c4 21 5 38 5 52c0 84 -38 128 -114 128
c-93 0 -154 -66 -177 -179l-21 -105c-4 -20 -5 -38 -5 -52c0 -84 38 -128 114 -128z" />
    <glyph glyph-name="ohungarumlaut" unicode="&#x151;" horiz-adv-x="542" 
d="M385 755l-141 -175l-77 38l113 193zM581 755l-142 -175l-76 38l113 193zM240 -12c-128 0 -209 81 -209 219c0 190 115 330 271 330c128 0 209 -81 209 -219c0 -190 -115 -330 -271 -330zM245 101c53 0 90 40 105 115l19 94c1 6 3 18 3 31c0 50 -26 83 -75 83
c-53 0 -90 -40 -105 -115l-19 -94c-1 -6 -3 -18 -3 -31c0 -50 26 -83 75 -83z" />
    <glyph glyph-name="OE" unicode="&#x152;" horiz-adv-x="957" 
d="M860 0h-455c-34 -8 -71 -12 -103 -12c-139 0 -245 91 -245 297c0 244 157 425 362 425c38 0 88 -4 128 -12h443l-26 -128h-303l-31 -153h268l-26 -128h-268l-32 -161h314zM334 117c25 0 62 4 93 13l88 437c-27 8 -70 14 -101 14c-107 0 -161 -69 -183 -179l-21 -105
c-3 -17 -5 -31 -5 -49c0 -80 40 -131 129 -131z" />
    <glyph glyph-name="oe" unicode="&#x153;" horiz-adv-x="840" 
d="M245 101c53 0 90 40 105 115l19 94c1 6 3 18 3 31c0 50 -26 83 -75 83c-53 0 -90 -40 -105 -115l-19 -94c-1 -6 -3 -18 -3 -31c0 -50 26 -83 75 -83zM633 430c-59 0 -105 -42 -117 -110l-4 -23c150 9 181 38 181 80c0 45 -35 53 -60 53zM581 -12c-80 0 -134 24 -168 84
h-6c-44 -58 -103 -84 -174 -84c-118 0 -202 81 -202 219c0 190 114 330 273 330c68 0 120 -22 153 -86h6c45 59 105 86 179 86c77 0 187 -32 187 -146c0 -108 -97 -176 -332 -183c-2 -12 -2 -18 -2 -23c0 -50 24 -84 94 -84c45 0 80 14 127 73l86 -68
c-65 -86 -135 -118 -221 -118z" />
    <glyph glyph-name="Racute" unicode="&#x154;" horiz-adv-x="655" 
d="M562 915l-147 -176l-84 46l119 190zM219 259l-52 -259h-145l140 698h272c133 0 211 -66 211 -180c0 -105 -60 -205 -171 -242l84 -276h-155l-69 259h-115zM244 383h149c45 0 81 24 91 73c6 30 11 49 11 60c0 30 -20 54 -64 54h-150z" />
    <glyph glyph-name="racute" unicode="&#x155;" horiz-adv-x="394" 
d="M429 755l-147 -176l-84 46l119 190zM154 0h-140l105 525h140l-26 -131h7c22 57 76 131 157 131h25l-28 -136h-35c-89 0 -133 -28 -150 -113z" />
    <glyph glyph-name="Rcommaaccent" unicode="&#x156;" horiz-adv-x="655" 
d="M273 -42c42 0 63 -18 63 -51c0 -8 0 -12 -3 -27c-12 -60 -53 -123 -96 -155h-83c39 29 62 59 80 99c-30 2 -39 21 -39 45c0 5 1 12 4 27c8 40 35 62 74 62zM219 259l-52 -259h-145l140 698h272c133 0 211 -66 211 -180c0 -105 -60 -205 -171 -242l84 -276h-155l-69 259
h-115zM244 383h149c45 0 81 24 91 73c6 30 11 49 11 60c0 30 -20 54 -64 54h-150z" />
    <glyph glyph-name="rcommaaccent" unicode="&#x157;" horiz-adv-x="394" 
d="M72 -42c42 0 63 -18 63 -51c0 -8 0 -12 -3 -27c-12 -60 -53 -123 -96 -155h-83c39 29 62 59 80 99c-30 2 -39 21 -39 45c0 5 1 12 4 27c8 40 35 62 74 62zM154 0h-140l105 525h140l-26 -131h7c22 57 76 131 157 131h25l-28 -136h-35c-89 0 -133 -28 -150 -113z" />
    <glyph glyph-name="Rcaron" unicode="&#x158;" horiz-adv-x="655" 
d="M458 748h-123l-101 158l74 57l96 -115l137 115l72 -57zM219 259l-52 -259h-145l140 698h272c133 0 211 -66 211 -180c0 -105 -60 -205 -171 -242l84 -276h-155l-69 259h-115zM244 383h149c45 0 81 24 91 73c6 30 11 49 11 60c0 30 -20 54 -64 54h-150z" />
    <glyph glyph-name="rcaron" unicode="&#x159;" horiz-adv-x="394" 
d="M325 588h-123l-101 158l74 57l96 -115l137 115l72 -57zM154 0h-140l105 525h140l-26 -131h7c22 57 76 131 157 131h25l-28 -136h-35c-89 0 -133 -28 -150 -113z" />
    <glyph glyph-name="Sacute" unicode="&#x15a;" horiz-adv-x="586" 
d="M530 915l-147 -176l-84 46l119 190zM255 -12c-116 0 -209 33 -260 124l111 87c34 -55 77 -82 149 -82c84 0 133 42 133 100c0 42 -35 62 -80 72l-46 10c-102 22 -167 74 -167 186c0 127 108 225 269 225c104 0 191 -33 239 -97l-105 -94c-32 44 -69 62 -140 62
c-72 0 -117 -34 -117 -83c0 -40 27 -57 75 -68l44 -10c107 -24 178 -78 178 -187c0 -120 -106 -245 -283 -245z" />
    <glyph glyph-name="sacute" unicode="&#x15b;" horiz-adv-x="497" 
d="M460 755l-147 -176l-84 46l119 190zM213 -12c-88 0 -165 31 -211 92l88 82c29 -39 67 -62 126 -62c65 0 90 28 90 58c0 20 -12 38 -49 43l-53 7c-90 12 -140 57 -140 141c0 99 70 188 218 188c81 0 149 -27 195 -83l-88 -82c-25 32 -67 53 -113 53c-47 0 -76 -23 -76 -55
c0 -20 12 -38 49 -43l53 -7c90 -12 140 -58 140 -140c0 -102 -79 -192 -229 -192z" />
    <glyph glyph-name="Scircumflex" unicode="&#x15c;" horiz-adv-x="586" 
d="M336 954h122l100 -158l-75 -57l-99 115l-134 -115l-70 57zM255 -12c-116 0 -209 33 -260 124l111 87c34 -55 77 -82 149 -82c84 0 133 42 133 100c0 42 -35 62 -80 72l-46 10c-102 22 -167 74 -167 186c0 127 108 225 269 225c104 0 191 -33 239 -97l-105 -94
c-32 44 -69 62 -140 62c-72 0 -117 -34 -117 -83c0 -40 27 -57 75 -68l44 -10c107 -24 178 -78 178 -187c0 -120 -106 -245 -283 -245z" />
    <glyph glyph-name="scircumflex" unicode="&#x15d;" horiz-adv-x="497" 
d="M266 794h122l100 -158l-75 -57l-99 115l-134 -115l-70 57zM213 -12c-88 0 -165 31 -211 92l88 82c29 -39 67 -62 126 -62c65 0 90 28 90 58c0 20 -12 38 -49 43l-53 7c-90 12 -140 57 -140 141c0 99 70 188 218 188c81 0 149 -27 195 -83l-88 -82c-25 32 -67 53 -113 53
c-47 0 -76 -23 -76 -55c0 -20 12 -38 49 -43l53 -7c90 -12 140 -58 140 -140c0 -102 -79 -192 -229 -192z" />
    <glyph glyph-name="Scedilla" unicode="&#x15e;" horiz-adv-x="586" 
d="M358 581c-72 0 -117 -34 -117 -83c0 -40 27 -57 75 -68l44 -10c107 -24 178 -78 178 -187c0 -115 -97 -234 -260 -244l-18 -44l2 -4c16 5 30 7 43 7c35 0 62 -21 62 -56c0 -69 -64 -104 -144 -104c-55 0 -94 21 -111 46l52 52c8 -12 29 -28 58 -28c28 0 50 9 50 31
c0 16 -16 31 -66 36l-22 2l27 63c-96 8 -172 43 -216 122l111 87c34 -55 77 -82 149 -82c84 0 133 42 133 100c0 42 -35 62 -80 72l-46 10c-102 22 -167 74 -167 186c0 127 108 225 269 225c104 0 191 -33 239 -97l-105 -94c-32 44 -69 62 -140 62z" />
    <glyph glyph-name="scedilla" unicode="&#x15f;" horiz-adv-x="497" 
d="M169 -212c-55 0 -94 21 -111 46l52 52c8 -12 29 -28 58 -28c28 0 50 9 50 31c0 16 -16 31 -66 36l-22 2l28 65c-65 11 -120 40 -156 88l88 82c29 -39 67 -62 126 -62c65 0 90 28 90 58c0 20 -12 38 -49 43l-53 7c-90 12 -140 57 -140 141c0 99 70 188 218 188
c81 0 149 -27 195 -83l-88 -82c-25 32 -67 53 -113 53c-47 0 -76 -23 -76 -55c0 -20 12 -38 49 -43l53 -7c90 -12 140 -58 140 -140c0 -100 -76 -188 -219 -192l-17 -43l2 -4c16 5 30 7 43 7c35 0 62 -21 62 -56c0 -69 -64 -104 -144 -104z" />
    <glyph glyph-name="Scaron" unicode="&#x160;" horiz-adv-x="586" 
d="M426 748h-123l-101 158l74 57l96 -115l137 115l72 -57zM255 -12c-116 0 -209 33 -260 124l111 87c34 -55 77 -82 149 -82c84 0 133 42 133 100c0 42 -35 62 -80 72l-46 10c-102 22 -167 74 -167 186c0 127 108 225 269 225c104 0 191 -33 239 -97l-105 -94
c-32 44 -69 62 -140 62c-72 0 -117 -34 -117 -83c0 -40 27 -57 75 -68l44 -10c107 -24 178 -78 178 -187c0 -120 -106 -245 -283 -245z" />
    <glyph glyph-name="scaron" unicode="&#x161;" horiz-adv-x="497" 
d="M356 588h-123l-101 158l74 57l96 -115l137 115l72 -57zM213 -12c-88 0 -165 31 -211 92l88 82c29 -39 67 -62 126 -62c65 0 90 28 90 58c0 20 -12 38 -49 43l-53 7c-90 12 -140 57 -140 141c0 99 70 188 218 188c81 0 149 -27 195 -83l-88 -82c-25 32 -67 53 -113 53
c-47 0 -76 -23 -76 -55c0 -20 12 -38 49 -43l53 -7c90 -12 140 -58 140 -140c0 -102 -79 -192 -229 -192z" />
    <glyph glyph-name="uni0162" unicode="&#x162;" horiz-adv-x="569" 
d="M220 -42c42 0 63 -18 63 -51c0 -8 0 -12 -3 -27c-12 -60 -53 -123 -96 -155h-83c39 29 62 59 80 99c-30 2 -39 21 -39 45c0 5 1 12 4 27c8 40 35 62 74 62zM602 570h-184l-114 -570h-145l114 570h-184l26 128h513z" />
    <glyph glyph-name="uni0163" unicode="&#x163;" horiz-adv-x="354" 
d="M139 -42c42 0 63 -18 63 -51c0 -8 0 -12 -3 -27c-12 -60 -53 -123 -96 -155h-83c39 29 62 59 80 99c-30 2 -39 21 -39 45c0 5 1 12 4 27c8 40 35 62 74 62zM270 0h-88c-81 0 -123 33 -123 99c0 10 1 28 4 43l54 271h-74l22 112h36c43 0 52 17 59 53l18 89h130l-28 -142
h105l-23 -112h-105l-60 -301h95z" />
    <glyph glyph-name="Tcaron" unicode="&#x164;" horiz-adv-x="569" 
d="M442 748h-123l-101 158l74 57l96 -115l137 115l72 -57zM602 570h-184l-114 -570h-145l114 570h-184l26 128h513z" />
    <glyph glyph-name="tcaron" unicode="&#x165;" horiz-adv-x="364" 
d="M542 791l-109 -215h-97l50 215h156zM270 0h-88c-81 0 -123 33 -123 99c0 10 1 28 4 43l54 271h-74l22 112h36c43 0 52 17 59 53l18 89h130l-28 -142h105l-23 -112h-105l-60 -301h95z" />
    <glyph glyph-name="Tbar" unicode="&#x166;" horiz-adv-x="569" 
d="M503 280h-142l-56 -280h-145l56 280h-141l22 106h141l36 184h-184l26 128h513l-26 -128h-184l-36 -184h142z" />
    <glyph glyph-name="tbar" unicode="&#x167;" horiz-adv-x="364" 
d="M296 112l-22 -112h-88c-81 0 -123 33 -123 99c0 10 1 28 4 43l16 82h-67l19 96h67l19 93h-74l22 112h36c43 0 52 17 59 53l18 89h130l-28 -142h105l-23 -112h-105l-19 -93h91l-19 -96h-91l-22 -112h95z" />
    <glyph glyph-name="Utilde" unicode="&#x168;" horiz-adv-x="678" 
d="M515 761c-29 0 -50 9 -76 21c-25 12 -46 22 -72 22c-23 0 -36 -8 -58 -25l-43 69c30 38 68 62 115 62c29 0 50 -9 76 -21c25 -12 46 -22 72 -22c23 0 36 8 58 25l43 -69c-30 -38 -68 -62 -115 -62zM160 698h143l-84 -418c-4 -18 -7 -44 -7 -63c0 -66 35 -100 102 -100
c80 0 125 47 146 150l87 431h143l-85 -423c-39 -196 -124 -287 -297 -287c-152 0 -236 77 -236 226c0 26 2 55 9 89z" />
    <glyph glyph-name="utilde" unicode="&#x169;" horiz-adv-x="582" 
d="M430 601c-29 0 -50 9 -76 21c-25 12 -46 22 -72 22c-23 0 -36 -8 -58 -25l-43 69c30 38 68 62 115 62c29 0 50 -9 76 -21c25 -12 46 -22 72 -22c23 0 36 8 58 25l43 -69c-30 -38 -68 -62 -115 -62zM114 525h140l-62 -312c-4 -19 -7 -38 -7 -53c0 -34 15 -55 49 -55
s61 20 84 48s40 62 48 102l54 270h140l-83 -413h59l-22 -112h-93c-50 0 -88 28 -88 77c0 11 2 25 3 30l3 15h-6c-39 -82 -89 -134 -169 -134c-79 0 -124 50 -124 136c0 26 4 49 9 76z" />
    <glyph glyph-name="Umacron" unicode="&#x16a;" horiz-adv-x="678" 
d="M299 785l20 102h278l-20 -102h-278zM160 698h143l-84 -418c-4 -18 -7 -44 -7 -63c0 -66 35 -100 102 -100c80 0 125 47 146 150l87 431h143l-85 -423c-39 -196 -124 -287 -297 -287c-152 0 -236 77 -236 226c0 26 2 55 9 89z" />
    <glyph glyph-name="umacron" unicode="&#x16b;" horiz-adv-x="582" 
d="M214 625l20 102h278l-20 -102h-278zM114 525h140l-62 -312c-4 -19 -7 -38 -7 -53c0 -34 15 -55 49 -55s61 20 84 48s40 62 48 102l54 270h140l-83 -413h59l-22 -112h-93c-50 0 -88 28 -88 77c0 11 2 25 3 30l3 15h-6c-39 -82 -89 -134 -169 -134c-79 0 -124 50 -124 136
c0 26 4 49 9 76z" />
    <glyph glyph-name="Ubreve" unicode="&#x16c;" horiz-adv-x="678" 
d="M433 739c-113 0 -153 88 -170 170l80 42l18 -39c21 -45 38 -72 80 -72c36 0 61 25 98 74l28 37l83 -46c-48 -85 -108 -166 -217 -166zM160 698h143l-84 -418c-4 -18 -7 -44 -7 -63c0 -66 35 -100 102 -100c80 0 125 47 146 150l87 431h143l-85 -423
c-39 -196 -124 -287 -297 -287c-152 0 -236 77 -236 226c0 26 2 55 9 89z" />
    <glyph glyph-name="ubreve" unicode="&#x16d;" horiz-adv-x="582" 
d="M348 579c-113 0 -153 88 -170 170l80 42l18 -39c21 -45 38 -72 80 -72c36 0 61 25 98 74l28 37l83 -46c-48 -85 -108 -166 -217 -166zM114 525h140l-62 -312c-4 -19 -7 -38 -7 -53c0 -34 15 -55 49 -55s61 20 84 48s40 62 48 102l54 270h140l-83 -413h59l-22 -112h-93
c-50 0 -88 28 -88 77c0 11 2 25 3 30l3 15h-6c-39 -82 -89 -134 -169 -134c-79 0 -124 50 -124 136c0 26 4 49 9 76z" />
    <glyph glyph-name="Uring" unicode="&#x16e;" horiz-adv-x="678" 
d="M426 719c-74 0 -128 52 -128 122c0 100 76 164 165 164c74 0 128 -52 128 -122c0 -100 -76 -164 -165 -164zM432 793c31 0 52 20 58 52c5 25 8 35 8 47c0 25 -13 39 -41 39c-31 0 -52 -20 -58 -52c-5 -25 -8 -35 -8 -47c0 -25 13 -39 41 -39zM160 698h143l-84 -418
c-4 -18 -7 -44 -7 -63c0 -66 35 -100 102 -100c80 0 125 47 146 150l87 431h143l-85 -423c-39 -196 -124 -287 -297 -287c-152 0 -236 77 -236 226c0 26 2 55 9 89z" />
    <glyph glyph-name="uring" unicode="&#x16f;" horiz-adv-x="582" 
d="M341 558c-74 0 -128 52 -128 122c0 100 76 164 165 164c74 0 128 -52 128 -122c0 -100 -76 -164 -165 -164zM347 632c31 0 52 20 58 52c5 25 8 37 8 47c0 25 -13 39 -41 39c-31 0 -52 -20 -58 -52c-5 -25 -8 -37 -8 -47c0 -25 13 -39 41 -39zM114 525h140l-62 -312
c-4 -19 -7 -38 -7 -53c0 -34 15 -55 49 -55s61 20 84 48s40 62 48 102l54 270h140l-83 -413h59l-22 -112h-93c-50 0 -88 28 -88 77c0 11 2 25 3 30l3 15h-6c-39 -82 -89 -134 -169 -134c-79 0 -124 50 -124 136c0 26 4 49 9 76z" />
    <glyph glyph-name="Uhungarumlaut" unicode="&#x170;" horiz-adv-x="678" 
d="M489 915l-141 -175l-77 38l113 193zM685 915l-142 -175l-76 38l113 193zM160 698h143l-84 -418c-4 -18 -7 -44 -7 -63c0 -66 35 -100 102 -100c80 0 125 47 146 150l87 431h143l-85 -423c-39 -196 -124 -287 -297 -287c-152 0 -236 77 -236 226c0 26 2 55 9 89z" />
    <glyph glyph-name="uhungarumlaut" unicode="&#x171;" horiz-adv-x="582" 
d="M404 755l-141 -175l-77 38l113 193zM600 755l-142 -175l-76 38l113 193zM114 525h140l-62 -312c-4 -19 -7 -38 -7 -53c0 -34 15 -55 49 -55s61 20 84 48s40 62 48 102l54 270h140l-83 -413h59l-22 -112h-93c-50 0 -88 28 -88 77c0 11 2 25 3 30l3 15h-6
c-39 -82 -89 -134 -169 -134c-79 0 -124 50 -124 136c0 26 4 49 9 76z" />
    <glyph glyph-name="Uogonek" unicode="&#x172;" horiz-adv-x="678" 
d="M160 698h143l-84 -418c-4 -18 -7 -44 -7 -63c0 -66 35 -100 102 -100c80 0 125 47 146 150l87 431h143l-85 -423c-39 -196 -100 -230 -212 -285c-90 -43 -110 -81 -110 -101c0 -16 9 -29 35 -29c21 0 41 6 54 27l52 -49c-25 -30 -62 -50 -125 -50c-66 0 -119 29 -119 83
c0 45 34 91 113 113l-1 4c-142 5 -220 82 -220 226c0 26 2 55 9 89z" />
    <glyph glyph-name="uogonek" unicode="&#x173;" horiz-adv-x="582" 
d="M114 525h140l-62 -312c-4 -19 -7 -38 -7 -53c0 -34 15 -55 49 -55s61 20 84 48s40 62 48 102l54 270h140l-83 -413h59l-22 -112c-110 -66 -119 -91 -119 -111c0 -16 9 -29 35 -29c21 0 41 6 54 27l52 -49c-25 -30 -62 -50 -125 -50c-66 0 -119 29 -119 83
c0 50 41 99 138 125l-1 4c-55 0 -96 27 -96 73c0 12 2 28 3 34l3 15h-6c-39 -82 -89 -134 -169 -134c-79 0 -124 50 -124 136c0 26 4 49 9 76z" />
    <glyph glyph-name="Wcircumflex" unicode="&#x174;" horiz-adv-x="941" 
d="M538 954h122l100 -158l-75 -57l-99 115l-134 -115l-70 57zM302 0h-172l-14 698h143l-4 -279l-11 -275h10l97 257l126 297h159l7 -282l-7 -282h10l87 250l118 314h146l-291 -698h-168l-8 291v245h-9l-89 -224z" />
    <glyph glyph-name="wcircumflex" unicode="&#x175;" horiz-adv-x="791" 
d="M421 794h122l100 -158l-75 -57l-99 115l-134 -115l-70 57zM94 0l-40 525h139l7 -190l3 -178h6l65 152l98 216h130l14 -190l11 -185h6l62 159l90 216h138l-240 -525h-147l-15 175l-13 174h-6l-68 -151l-91 -198h-149z" />
    <glyph glyph-name="Ycircumflex" unicode="&#x176;" horiz-adv-x="624" 
d="M363 954h122l100 -158l-75 -57l-99 115l-134 -115l-70 57zM330 0h-145l54 271l-148 427h148l94 -294h7l201 294h160l-319 -440z" />
    <glyph glyph-name="ycircumflex" unicode="&#x177;" horiz-adv-x="509" 
d="M267 794h122l100 -158l-75 -57l-99 115l-134 -115l-70 57zM314 327l94 198h149l-322 -610c-41 -77 -86 -115 -186 -115h-78l23 112h97l28 58l-74 555h139l20 -198l16 -196h6z" />
    <glyph glyph-name="Ydieresis" unicode="&#x178;" horiz-adv-x="624" 
d="M296 760c-46 0 -65 22 -65 49c0 7 2 15 6 39c6 34 30 63 85 63c46 0 65 -22 65 -49c0 -7 -2 -15 -6 -39c-6 -34 -30 -63 -85 -63zM496 760c-46 0 -65 22 -65 49c0 7 2 15 6 39c6 34 30 63 85 63c46 0 65 -22 65 -49c0 -7 -2 -15 -6 -39c-6 -34 -30 -63 -85 -63zM330 0
h-145l54 271l-148 427h148l94 -294h7l201 294h160l-319 -440z" />
    <glyph glyph-name="Zacute" unicode="&#x179;" horiz-adv-x="573" 
d="M556 915l-147 -176l-84 46l119 190zM512 128l-26 -128h-497l26 128l410 442h-306l26 128h478l-26 -128l-410 -442h325z" />
    <glyph glyph-name="zacute" unicode="&#x17a;" horiz-adv-x="492" 
d="M474 755l-147 -176l-84 46l119 190zM414 0h-425l22 112l306 301h-241l22 112h409l-22 -112l-307 -301h258z" />
    <glyph glyph-name="Zdotaccent" unicode="&#x17b;" horiz-adv-x="573" 
d="M396 751c-57 0 -76 25 -76 59c0 8 2 14 7 42c7 39 30 67 94 67c57 0 76 -25 76 -59c0 -8 -2 -14 -7 -42c-7 -39 -30 -67 -94 -67zM512 128l-26 -128h-497l26 128l410 442h-306l26 128h478l-26 -128l-410 -442h325z" />
    <glyph glyph-name="zdotaccent" unicode="&#x17c;" horiz-adv-x="492" 
d="M313 591c-57 0 -76 25 -76 59c0 8 2 14 7 42c7 39 30 67 94 67c57 0 76 -25 76 -59c0 -8 -2 -14 -7 -42c-7 -39 -30 -67 -94 -67zM414 0h-425l22 112l306 301h-241l22 112h409l-22 -112l-307 -301h258z" />
    <glyph glyph-name="Zcaron" unicode="&#x17d;" horiz-adv-x="573" 
d="M452 748h-123l-101 158l74 57l96 -115l137 115l72 -57zM512 128l-26 -128h-497l26 128l410 442h-306l26 128h478l-26 -128l-410 -442h325z" />
    <glyph glyph-name="zcaron" unicode="&#x17e;" horiz-adv-x="492" 
d="M370 588h-123l-101 158l74 57l96 -115l137 115l72 -57zM414 0h-425l22 112l306 301h-241l22 112h409l-22 -112l-307 -301h258z" />
    <glyph glyph-name="uni018F" unicode="&#x18f;" horiz-adv-x="696" 
d="M309 -12c-141 0 -252 86 -252 279c0 28 5 57 10 83l9 44h437c7 27 7 44 7 61c0 78 -45 125 -132 125c-76 0 -118 -43 -149 -114l-130 55c55 109 159 189 301 189c147 0 259 -93 259 -273c0 -253 -146 -449 -360 -449zM323 118c84 0 142 52 167 161h-285
c-2 -13 -2 -24 -2 -36c0 -82 40 -125 120 -125z" />
    <glyph glyph-name="florin" unicode="&#x192;" horiz-adv-x="472" 
d="M-55 -134l23 112h115l76 278h-98l23 114h106l50 184c24 87 87 144 192 144h102l-23 -112h-121l-58 -216h133l-23 -114h-140l-67 -247c-24 -87 -89 -143 -193 -143h-97z" />
    <glyph glyph-name="Ohorn" unicode="&#x1a0;" horiz-adv-x="695" 
d="M644 804h125l-19 -95c-15 -76 -43 -99 -122 -99h-11c31 -45 51 -104 51 -183c0 -241 -151 -439 -360 -439c-134 0 -251 85 -251 283c0 241 151 439 360 439c29 0 57 -4 83 -12h123zM318 117c93 0 154 66 177 179l21 105c4 21 5 38 5 52c0 84 -38 128 -114 128
c-93 0 -154 -66 -177 -179l-21 -105c-4 -21 -5 -38 -5 -52c0 -84 38 -128 114 -128z" />
    <glyph glyph-name="ohorn" unicode="&#x1a1;" horiz-adv-x="542" 
d="M240 -12c-128 0 -209 81 -209 219c0 190 115 330 271 330c28 0 56 -4 79 -12h77l21 106h125l-19 -94c-14 -65 -34 -99 -97 -99h-4c17 -33 27 -73 27 -120c0 -190 -115 -330 -271 -330zM245 101c53 0 90 40 105 115l19 94c1 6 3 18 3 31c0 50 -26 83 -75 83
c-53 0 -90 -40 -105 -115l-19 -94c-1 -6 -3 -18 -3 -31c0 -50 26 -83 75 -83z" />
    <glyph glyph-name="Uhorn" unicode="&#x1af;" horiz-adv-x="678" 
d="M160 698h143l-84 -418c-4 -18 -7 -44 -7 -63c0 -66 35 -100 102 -100c80 0 125 47 146 150l87 431h83l21 106h125l-19 -96c-12 -63 -43 -95 -84 -95l-68 -338c-39 -196 -124 -287 -297 -287c-152 0 -236 77 -236 226c0 26 2 55 9 89z" />
    <glyph glyph-name="uhorn" unicode="&#x1b0;" horiz-adv-x="585" 
d="M514 0h-93c-50 0 -88 28 -88 77c0 11 2 25 3 30l3 15h-6c-39 -82 -89 -134 -169 -134c-79 0 -124 50 -124 136c0 26 4 49 9 76l65 325h140l-62 -312c-4 -19 -7 -38 -7 -53c0 -34 15 -55 49 -55s61 20 84 48s40 62 48 102l54 270h99l21 106h125l-20 -99
c-13 -64 -36 -95 -100 -95h-3l-65 -325h59z" />
    <glyph glyph-name="Aringacute" unicode="&#x1fa;" horiz-adv-x="658" 
d="M626 1069l-160 -94l-46 56l145 117zM419 725c-73 0 -127 38 -127 102c0 87 77 138 169 138c73 0 127 -38 127 -103c0 -86 -77 -137 -169 -137zM430 794c33 0 53 14 59 44c2 10 4 20 4 24c0 22 -15 34 -43 34c-33 0 -53 -14 -59 -45c-2 -10 -4 -20 -4 -24
c0 -21 15 -33 43 -33zM588 0h-147l-16 170h-223l-82 -170h-155l359 698h185zM415 291l-21 276h-8l-127 -276h156z" />
    <glyph glyph-name="aringacute" unicode="&#x1fb;" horiz-adv-x="591" 
d="M548 909l-160 -94l-46 56l145 117zM341 564c-73 0 -127 38 -127 103c0 86 77 137 169 137c73 0 127 -38 127 -102c0 -87 -77 -138 -169 -138zM352 633c33 0 53 14 59 45c2 10 4 19 4 24c0 21 -15 33 -43 33c-33 0 -53 -14 -59 -44c-2 -10 -4 -19 -4 -24
c0 -22 15 -34 43 -34zM523 0h-93c-50 0 -88 28 -88 77c0 11 2 25 3 30l3 15h-6c-41 -85 -89 -134 -171 -134c-98 0 -140 77 -140 182c0 223 110 367 244 367c73 0 124 -46 131 -103h5l18 91h140l-83 -413h59zM240 103c36 0 66 22 87 48c22 27 40 65 48 104l16 80
c10 49 -24 87 -82 87c-62 0 -99 -38 -115 -117l-14 -70c-3 -14 -6 -41 -6 -57c0 -47 25 -75 66 -75z" />
    <glyph glyph-name="AEacute" unicode="&#x1fc;" horiz-adv-x="920" 
d="M865 915l-147 -176l-84 46l119 190zM364 0l34 169h-197l-101 -169h-156l444 698h565l-26 -128h-303l-31 -153h268l-26 -128h-268l-32 -161h314l-26 -128h-459zM478 570h-29l-171 -279h144z" />
    <glyph glyph-name="aeacute" unicode="&#x1fd;" horiz-adv-x="827" 
d="M658 755l-147 -176l-84 46l119 190zM231 89c45 0 90 23 100 71l12 57l-81 -4c-41 -2 -77 -9 -87 -48c-4 -15 -4 -30 -4 -31c0 -30 24 -45 60 -45zM620 430c-59 0 -105 -42 -117 -110l-4 -19c150 9 181 36 181 76c0 45 -35 53 -60 53zM182 -12c-103 0 -157 53 -157 137
c0 109 90 162 243 169l91 4l5 27c2 12 3 21 3 30c0 46 -26 70 -81 70c-62 0 -95 -31 -122 -68l-82 79c49 63 124 101 215 101c77 0 129 -27 157 -76h7c42 47 97 76 169 76c77 0 186 -33 186 -145c0 -106 -98 -169 -332 -176c-2 -16 -2 -24 -2 -31c0 -50 24 -84 94 -84
c45 0 80 14 127 73l86 -68c-65 -86 -134 -118 -224 -118c-99 0 -164 38 -197 104h-7c-35 -74 -101 -104 -179 -104z" />
    <glyph glyph-name="Oslashacute" unicode="&#x1fe;" horiz-adv-x="695" 
d="M612 915l-147 -176l-84 46l119 190zM308 -12c-55 0 -107 14 -150 45l-79 -93l-77 67l89 104c-21 42 -34 95 -34 160c0 241 151 439 360 439c55 0 107 -14 150 -45l79 93l77 -67l-89 -104c21 -42 34 -95 34 -160c0 -241 -151 -439 -360 -439zM205 296
c-4 -20 -7 -40 -7 -56c0 -5 0 -12 1 -19l289 337c-21 19 -48 29 -80 29c-95 0 -158 -66 -181 -182zM317 111c95 0 158 66 181 182l22 109c4 20 7 40 7 56c0 5 0 12 -1 19l-289 -337c21 -19 48 -29 80 -29z" />
    <glyph glyph-name="oslashacute" unicode="&#x1ff;" horiz-adv-x="543" 
d="M489 755l-147 -176l-84 46l119 190zM38 -43l-72 64l83 86c-12 29 -18 62 -18 100c0 190 116 330 272 330c54 0 99 -14 133 -40l69 71l72 -64l-83 -86c12 -29 18 -62 18 -100c0 -190 -116 -330 -272 -330c-54 0 -99 14 -133 40zM245 95c53 0 93 45 108 120l13 63l5 27
l-184 -187c11 -13 34 -23 58 -23zM298 430c-53 0 -93 -45 -108 -120l-13 -63l-6 -28l185 188c-11 13 -34 23 -58 23z" />
    <glyph glyph-name="Scommaaccent" unicode="&#x218;" horiz-adv-x="586" 
d="M236 -42c42 0 63 -18 63 -51c0 -8 0 -12 -3 -27c-12 -60 -53 -123 -96 -155h-83c39 29 62 59 80 99c-30 2 -39 21 -39 45c0 5 1 12 4 27c8 40 35 62 74 62zM255 -12c-116 0 -209 33 -260 124l111 87c34 -55 77 -82 149 -82c84 0 133 42 133 100c0 42 -35 62 -80 72
l-46 10c-102 22 -167 74 -167 186c0 127 108 225 269 225c104 0 191 -33 239 -97l-105 -94c-32 44 -69 62 -140 62c-72 0 -117 -34 -117 -83c0 -40 27 -57 75 -68l44 -10c107 -24 178 -78 178 -187c0 -120 -106 -245 -283 -245z" />
    <glyph glyph-name="scommaaccent" unicode="&#x219;" horiz-adv-x="497" 
d="M182 -42c42 0 63 -18 63 -51c0 -8 0 -12 -3 -27c-12 -60 -53 -123 -96 -155h-83c39 29 62 59 80 99c-30 2 -39 21 -39 45c0 5 1 12 4 27c8 40 35 62 74 62zM213 -12c-88 0 -165 31 -211 92l88 82c29 -39 67 -62 126 -62c65 0 90 28 90 58c0 20 -12 38 -49 43l-53 7
c-90 12 -140 57 -140 141c0 99 70 188 218 188c81 0 149 -27 195 -83l-88 -82c-25 32 -67 53 -113 53c-47 0 -76 -23 -76 -55c0 -20 12 -38 49 -43l53 -7c90 -12 140 -58 140 -140c0 -102 -79 -192 -229 -192z" />
    <glyph glyph-name="uni021A" unicode="&#x21a;" horiz-adv-x="569" 
d="M220 -42c42 0 63 -18 63 -51c0 -8 0 -12 -3 -27c-12 -60 -53 -123 -96 -155h-83c39 29 62 59 80 99c-30 2 -39 21 -39 45c0 5 1 12 4 27c8 40 35 62 74 62zM602 570h-184l-114 -570h-145l114 570h-184l26 128h513z" />
    <glyph glyph-name="uni021B" unicode="&#x21b;" horiz-adv-x="354" 
d="M139 -42c42 0 63 -18 63 -51c0 -8 0 -12 -3 -27c-12 -60 -53 -123 -96 -155h-83c39 29 62 59 80 99c-30 2 -39 21 -39 45c0 5 1 12 4 27c8 40 35 62 74 62zM270 0h-88c-81 0 -123 33 -123 99c0 10 1 28 4 43l54 271h-74l22 112h36c43 0 52 17 59 53l18 89h130l-28 -142
h105l-23 -112h-105l-60 -301h95z" />
    <glyph glyph-name="uni0237" unicode="&#x237;" horiz-adv-x="276" 
d="M-97 -200l22 112h75l123 613h140l-119 -586c-18 -91 -65 -139 -162 -139h-79z" />
    <glyph glyph-name="uni0259" unicode="&#x259;" horiz-adv-x="515" 
d="M199 -12c-79 0 -188 32 -188 146c0 108 97 176 332 183c2 12 2 18 2 23c0 50 -24 84 -93 84c-46 0 -81 -14 -128 -73l-86 68c65 86 134 118 224 118c149 0 222 -87 222 -226c0 -168 -111 -323 -285 -323zM207 95c59 0 105 42 117 110l4 23c-150 -9 -181 -38 -181 -80
c0 -45 35 -53 60 -53z" />
    <glyph glyph-name="uni02BB" unicode="&#x2bb;" horiz-adv-x="600" 
d="M308 576c-42 0 -63 18 -63 51c0 8 0 12 3 27c12 60 53 123 96 155h83c-39 -29 -62 -59 -80 -99c30 -2 39 -21 39 -45c0 -5 -1 -12 -4 -27c-8 -40 -35 -62 -74 -62z" />
    <glyph glyph-name="uni02BC" unicode="&#x2bc;" horiz-adv-x="585" 
d="M457 740l-109 -215h-97l50 215h156z" />
    <glyph glyph-name="circumflex" unicode="&#x2c6;" horiz-adv-x="585" 
d="M274 794h122l100 -158l-75 -57l-99 115l-134 -115l-70 57z" />
    <glyph glyph-name="caron" unicode="&#x2c7;" horiz-adv-x="585" 
d="M364 588h-123l-101 158l74 57l96 -115l137 115l72 -57z" />
    <glyph glyph-name="breve" unicode="&#x2d8;" horiz-adv-x="585" 
d="M305 579c-113 0 -153 88 -170 170l80 42l18 -39c21 -45 38 -72 80 -72c36 0 61 25 98 74l28 37l83 -46c-48 -85 -108 -166 -217 -166z" />
    <glyph glyph-name="dotaccent" unicode="&#x2d9;" horiz-adv-x="585" 
d="M307 591c-57 0 -76 25 -76 59c0 8 2 14 7 42c7 39 30 67 94 67c57 0 76 -25 76 -59c0 -8 -2 -14 -7 -42c-7 -39 -30 -67 -94 -67z" />
    <glyph glyph-name="ring" unicode="&#x2da;" horiz-adv-x="585" 
d="M298 558c-74 0 -128 52 -128 122c0 100 76 164 165 164c74 0 128 -52 128 -122c0 -100 -76 -164 -165 -164zM304 632c31 0 52 20 58 52c5 25 8 37 8 47c0 25 -13 39 -41 39c-31 0 -52 -20 -58 -52c-5 -25 -8 -37 -8 -47c0 -25 13 -39 41 -39z" />
    <glyph glyph-name="ogonek" unicode="&#x2db;" horiz-adv-x="585" 
d="M191 -212c-66 0 -119 29 -119 83c0 50 41 99 138 125l-3 17l68 6l19 -19c-110 -66 -119 -91 -119 -111c0 -16 9 -29 35 -29c21 0 41 6 54 27l52 -49c-25 -30 -62 -50 -125 -50z" />
    <glyph glyph-name="tilde" unicode="&#x2dc;" horiz-adv-x="585" 
d="M387 601c-29 0 -50 9 -76 21c-25 12 -46 22 -72 22c-23 0 -36 -8 -58 -25l-43 69c30 38 68 62 115 62c29 0 50 -9 76 -21c25 -12 46 -22 72 -22c23 0 36 8 58 25l43 -69c-30 -38 -68 -62 -115 -62z" />
    <glyph glyph-name="hungarumlaut" unicode="&#x2dd;" horiz-adv-x="585" 
d="M361 755l-141 -175l-77 38l113 193zM557 755l-142 -175l-76 38l113 193z" />
    <glyph glyph-name="uni0300" unicode="&#x300;" 
d="M-14 580l-105 176l126 59l68 -196z" />
    <glyph glyph-name="uni0301" unicode="&#x301;" 
d="M175 755l-147 -176l-84 46l119 190z" />
    <glyph glyph-name="uni0302" unicode="&#x302;" 
d="M-19 794h122l100 -158l-75 -57l-99 115l-134 -115l-70 57z" />
    <glyph glyph-name="uni0303" unicode="&#x303;" 
d="M94 601c-29 0 -50 9 -76 21c-25 12 -46 22 -72 22c-23 0 -36 -8 -58 -25l-43 69c30 38 68 62 115 62c29 0 50 -9 76 -21c25 -12 46 -22 72 -22c23 0 36 8 58 25l43 -69c-30 -38 -68 -62 -115 -62z" />
    <glyph glyph-name="uni0304" unicode="&#x304;" 
d="M-122 625l20 102h278l-20 -102h-278z" />
    <glyph glyph-name="uni0306" unicode="&#x306;" 
d="M12 579c-113 0 -153 88 -170 170l80 42l18 -39c21 -45 38 -72 80 -72c36 0 61 25 98 74l28 37l83 -46c-48 -85 -108 -166 -217 -166z" />
    <glyph glyph-name="uni0307" unicode="&#x307;" 
d="M14 591c-57 0 -76 25 -76 59c0 8 2 14 7 42c7 39 30 67 94 67c57 0 76 -25 76 -59c0 -8 -2 -14 -7 -42c-7 -39 -30 -67 -94 -67z" />
    <glyph glyph-name="uni0308" unicode="&#x308;" 
d="M-86 600c-47 0 -65 21 -65 48c0 7 2 17 6 40c6 34 30 63 85 63c47 0 65 -21 65 -48c0 -7 -2 -17 -6 -40c-6 -34 -30 -63 -85 -63zM114 600c-47 0 -65 21 -65 48c0 7 2 17 6 40c6 34 30 63 85 63c47 0 65 -21 65 -48c0 -7 -2 -17 -6 -40c-6 -34 -30 -63 -85 -63z" />
    <glyph glyph-name="uni0309" unicode="&#x309;" 
d="M-84 698l20 104h146c52 0 78 -25 78 -57c0 -42 -23 -72 -51 -108l-56 -66l-69 34l49 93h-117z" />
    <glyph glyph-name="uni030A" unicode="&#x30a;" 
d="M5 558c-74 0 -128 52 -128 122c0 100 76 164 165 164c74 0 128 -52 128 -122c0 -100 -76 -164 -165 -164zM11 632c31 0 52 20 58 52c5 25 8 37 8 47c0 25 -13 39 -41 39c-31 0 -52 -20 -58 -52c-5 -25 -8 -37 -8 -47c0 -25 13 -39 41 -39z" />
    <glyph glyph-name="uni030B" unicode="&#x30b;" 
d="M68 755l-141 -175l-77 38l113 193zM264 755l-142 -175l-76 38l113 193z" />
    <glyph glyph-name="uni030C" unicode="&#x30c;" 
d="M71 588h-123l-101 158l74 57l96 -115l137 115l72 -57z" />
    <glyph glyph-name="uni0312" unicode="&#x312;" 
d="M8 576c-42 0 -63 18 -63 51c0 8 0 12 3 27c12 60 53 123 96 155h83c-39 -29 -62 -59 -80 -99c30 -2 39 -21 39 -45c0 -5 -1 -12 -4 -27c-8 -40 -35 -62 -74 -62z" />
    <glyph glyph-name="uni0315" unicode="&#x315;" 
d="M164 740l-109 -215h-97l50 215h156z" />
    <glyph glyph-name="uni031B" unicode="&#x31b;" 
d="M153 631l-20 -100c-12 -62 -38 -94 -112 -94h-154l18 88h122l21 106h125z" />
    <glyph glyph-name="uni0323" unicode="&#x323;" 
d="M-35 -202c-51 0 -70 21 -70 52c0 7 2 14 6 38c6 34 29 58 84 58c49 0 69 -21 69 -52c0 -7 -2 -14 -6 -38c-6 -34 -29 -58 -83 -58z" />
    <glyph glyph-name="uni0326" unicode="&#x326;" 
d="M-11 -42c42 0 63 -18 63 -51c0 -8 0 -12 -3 -27c-12 -60 -53 -123 -96 -155h-83c39 29 62 59 80 99c-30 2 -39 21 -39 45c0 5 1 12 4 27c8 40 35 62 74 62z" />
    <glyph glyph-name="uni0327" unicode="&#x327;" 
d="M-24 -212c-55 0 -94 21 -111 46l52 52c8 -12 29 -28 58 -28c28 0 50 9 50 31c0 16 -16 31 -66 36l-22 2l44 103h66l-34 -85l2 -4c16 5 30 7 43 7c35 0 62 -21 62 -56c0 -69 -64 -104 -144 -104z" />
    <glyph glyph-name="uni0328" unicode="&#x328;" 
d="M-103 -212c-66 0 -119 29 -119 83c0 50 41 99 138 125l-3 17l68 6l19 -19c-110 -66 -119 -91 -119 -111c0 -16 9 -29 35 -29c21 0 41 6 54 27l52 -49c-25 -30 -62 -50 -125 -50z" />
    <glyph glyph-name="uni037E" unicode="&#x37e;" horiz-adv-x="327" 
d="M185 357c-56 0 -76 31 -76 60c0 11 4 32 7 46c8 44 41 74 97 74s76 -31 76 -60c0 -11 -4 -32 -7 -46c-8 -44 -41 -74 -97 -74zM143 169c57 0 77 -32 77 -66c0 -11 -3 -29 -6 -44c-14 -70 -66 -153 -141 -206h-106c56 44 98 86 125 139c-37 8 -51 33 -51 57
c0 11 4 31 7 46c9 45 41 74 95 74z" />
    <glyph glyph-name="tonos" unicode="&#x384;" horiz-adv-x="588" 
d="M526 784l-109 -205l-89 29l73 207z" />
    <glyph glyph-name="dieresistonos" unicode="&#x385;" horiz-adv-x="588" 
d="M507 789l-104 -210l-60 21l69 216zM260 605c-38 0 -54 20 -54 45c0 7 2 17 5 36c6 33 27 60 72 60c38 0 54 -20 54 -45c0 -7 -2 -17 -6 -36c-5 -33 -26 -60 -71 -60zM543 605c-38 0 -54 20 -54 45c0 7 2 17 5 36c6 33 27 60 72 60c38 0 54 -20 54 -45c0 -7 -2 -17 -6 -36
c-5 -33 -26 -60 -71 -60z" />
    <glyph glyph-name="Alphatonos" unicode="&#x386;" horiz-adv-x="658" 
d="M302 784l-109 -205l-89 29l73 207zM588 0h-147l-16 170h-223l-82 -170h-155l359 698h185zM415 291l-21 276h-8l-127 -276h156z" />
    <glyph glyph-name="anoteleia" unicode="&#x387;" horiz-adv-x="327" 
d="M185 357c-56 0 -76 31 -76 60c0 11 4 32 7 46c8 44 41 74 97 74s76 -31 76 -60c0 -11 -4 -32 -7 -46c-8 -44 -41 -74 -97 -74z" />
    <glyph glyph-name="Epsilontonos" unicode="&#x388;" horiz-adv-x="666" 
d="M246 784l-109 -205l-89 29l73 207zM569 0h-459l140 698h449l-26 -128h-303l-31 -153h268l-26 -128h-268l-32 -161h314z" />
    <glyph glyph-name="Etatonos" unicode="&#x389;" horiz-adv-x="789" 
d="M246 784l-109 -205l-89 29l73 207zM516 0l58 289h-260l-58 -289h-145l140 698h145l-56 -281h260l56 281h145l-140 -698h-145z" />
    <glyph glyph-name="Iotatonos" unicode="&#x38a;" horiz-adv-x="530" 
d="M246 784l-109 -205l-89 29l73 207zM429 0h-318l24 118h86l93 462h-86l23 118h318l-24 -118h-86l-93 -462h86z" />
    <glyph glyph-name="Omicrontonos" unicode="&#x38c;" horiz-adv-x="740" 
d="M246 784l-109 -205l-89 29l73 207zM353 -12c-134 0 -251 85 -251 283c0 241 151 439 360 439c134 0 251 -85 251 -283c0 -241 -151 -439 -360 -439zM363 117c93 0 154 66 177 179l21 105c4 21 5 38 5 52c0 84 -38 128 -114 128c-93 0 -154 -66 -177 -179l-21 -105
c-4 -20 -5 -38 -5 -52c0 -84 38 -128 114 -128z" />
    <glyph glyph-name="Upsilontonos" unicode="&#x38e;" horiz-adv-x="765" 
d="M246 784l-109 -205l-89 29l73 207zM471 0h-145l54 271l-148 427h148l94 -294h7l201 294h160l-319 -440z" />
    <glyph glyph-name="Omegatonos" unicode="&#x38f;" horiz-adv-x="753" 
d="M246 784l-109 -205l-89 29l73 207zM49 0l26 128h155l2 10c-67 39 -101 115 -101 223c0 190 137 349 345 349c163 0 258 -111 258 -257c0 -138 -67 -257 -207 -315l-2 -10h155l-26 -128h-260l40 190c73 20 118 87 131 155l16 87c2 10 3 24 3 34c0 60 -38 112 -123 112
c-99 0 -156 -73 -169 -146l-12 -67c-4 -21 -6 -39 -6 -56c0 -49 28 -102 75 -119l-40 -190h-260z" />
    <glyph glyph-name="iotadieresistonos" unicode="&#x390;" horiz-adv-x="311" 
d="M324 789l-104 -210l-60 21l69 216zM77 605c-38 0 -54 20 -54 45c0 7 2 17 5 36c6 33 27 60 72 60c38 0 54 -20 54 -45c0 -7 -2 -17 -6 -36c-5 -33 -26 -60 -71 -60zM360 605c-38 0 -54 20 -54 45c0 7 2 17 5 36c6 33 27 60 72 60c38 0 54 -20 54 -45c0 -7 -2 -17 -6 -36
c-5 -33 -26 -60 -71 -60zM272 112l-22 -112h-88c-81 0 -123 33 -123 99c0 10 1 28 4 43l77 383h140l-83 -413h95z" />
    <glyph glyph-name="Alpha" unicode="&#x391;" horiz-adv-x="658" 
d="M588 0h-147l-16 170h-223l-82 -170h-155l359 698h185zM415 291l-21 276h-8l-127 -276h156z" />
    <glyph glyph-name="Beta" unicode="&#x392;" horiz-adv-x="651" 
d="M22 0l140 698h298c101 0 174 -46 174 -143c0 -92 -45 -168 -136 -193l-1 -5c73 -20 104 -70 104 -135c0 -132 -81 -222 -241 -222h-338zM193 124h167c46 0 74 20 83 65c7 35 9 48 9 57c0 27 -17 45 -55 45h-171zM250 410h141c46 0 74 17 83 62c7 35 9 46 9 55
c0 28 -17 47 -54 47h-146z" />
    <glyph glyph-name="Gamma" unicode="&#x393;" horiz-adv-x="497" 
d="M22 0l140 698h397l-26 -128h-252l-114 -570h-145z" />
    <glyph glyph-name="uni0394" unicode="&#x394;" horiz-adv-x="674" 
d="M-6 0l23 119l314 579h185l82 -579l-24 -119h-580zM453 128l-52 439h-8l-221 -439h281z" />
    <glyph glyph-name="Epsilon" unicode="&#x395;" horiz-adv-x="578" 
d="M481 0h-459l140 698h449l-26 -128h-303l-31 -153h268l-26 -128h-268l-32 -161h314z" />
    <glyph glyph-name="Zeta" unicode="&#x396;" horiz-adv-x="573" 
d="M512 128l-26 -128h-497l26 128l410 442h-306l26 128h478l-26 -128l-410 -442h325z" />
    <glyph glyph-name="Eta" unicode="&#x397;" horiz-adv-x="700" 
d="M427 0l58 289h-260l-58 -289h-145l140 698h145l-56 -281h260l56 281h145l-140 -698h-145z" />
    <glyph glyph-name="Theta" unicode="&#x398;" horiz-adv-x="705" 
d="M313 -12c-139 0 -256 85 -256 283c0 241 151 439 365 439c139 0 256 -85 256 -283c0 -241 -151 -439 -365 -439zM323 117c98 0 159 66 182 179l21 105c4 21 5 38 5 52c0 84 -38 128 -119 128c-98 0 -159 -66 -182 -179l-21 -105c-4 -21 -5 -38 -5 -52
c0 -84 39 -128 119 -128zM449 289h-188l26 128h188z" />
    <glyph glyph-name="Iota" unicode="&#x399;" horiz-adv-x="415" 
d="M314 0h-318l24 118h86l93 462h-86l23 118h318l-24 -118h-86l-93 -462h86z" />
    <glyph glyph-name="Kappa" unicode="&#x39a;" horiz-adv-x="657" 
d="M436 0l-117 299l-116 -120l-36 -179h-145l140 698h145l-67 -334h7l110 131l188 203h176l-288 -300l163 -398h-160z" />
    <glyph glyph-name="Lambda" unicode="&#x39b;" horiz-adv-x="640" 
d="M325 698h163l82 -698h-146l-25 269l-18 275h-7l-113 -251l-143 -293h-154z" />
    <glyph glyph-name="Mu" unicode="&#x39c;" horiz-adv-x="801" 
d="M535 0l93 461h-6l-96 -134l-155 -212l-74 227l-39 121h-5l-93 -463h-138l140 698h152l101 -332h4l233 332h161l-140 -698h-138z" />
    <glyph glyph-name="Nu" unicode="&#x39d;" horiz-adv-x="700" 
d="M415 0l-113 336l-42 139h-6l-95 -475h-137l140 698h157l113 -336l42 -139h6l95 475h137l-140 -698h-157z" />
    <glyph glyph-name="Xi" unicode="&#x39e;" horiz-adv-x="588" 
d="M115 570l26 128h480l-26 -128h-480zM118 289l26 128h362l-26 -128h-362zM1 0l26 128h480l-26 -128h-480z" />
    <glyph glyph-name="Omicron" unicode="&#x39f;" horiz-adv-x="695" 
d="M308 -12c-134 0 -251 85 -251 283c0 241 151 439 360 439c134 0 251 -85 251 -283c0 -241 -151 -439 -360 -439zM318 117c93 0 154 66 177 179l21 105c4 21 5 38 5 52c0 84 -38 128 -114 128c-93 0 -154 -66 -177 -179l-21 -105c-4 -20 -5 -38 -5 -52
c0 -84 38 -128 114 -128z" />
    <glyph glyph-name="Pi" unicode="&#x3a0;" horiz-adv-x="685" 
d="M22 0l140 698h535l-140 -698h-145l114 569h-245l-114 -569h-145z" />
    <glyph glyph-name="Rho" unicode="&#x3a1;" horiz-adv-x="637" 
d="M167 0h-145l140 698h263c139 0 220 -69 220 -187c0 -153 -113 -256 -271 -256h-156zM281 570l-37 -187h149c45 0 81 24 91 73c6 30 11 49 11 60c0 30 -20 54 -64 54h-150z" />
    <glyph glyph-name="Sigma" unicode="&#x3a3;" horiz-adv-x="600" 
d="M496 0h-505l26 128l266 227l-168 215l26 128h495l-26 -128h-334l177 -226l-253 -216h322z" />
    <glyph glyph-name="Tau" unicode="&#x3a4;" horiz-adv-x="569" 
d="M602 570h-184l-114 -570h-145l114 570h-184l26 128h513z" />
    <glyph glyph-name="Upsilon" unicode="&#x3a5;" horiz-adv-x="624" 
d="M330 0h-145l54 271l-148 427h148l94 -294h7l201 294h160l-319 -440z" />
    <glyph glyph-name="Phi" unicode="&#x3a6;" horiz-adv-x="821" 
d="M275 -44l15 76h-1c-139 0 -242 91 -242 245c0 246 135 399 372 399h1l13 64h145l-13 -64h1c140 0 242 -91 242 -245c0 -246 -135 -399 -372 -399h-1l-15 -76h-145zM317 151l81 406h-1c-95 0 -162 -50 -188 -175l-9 -44c-4 -20 -6 -39 -6 -61c0 -90 43 -126 122 -126h1z
M457 151h1c95 0 162 49 188 175l9 44c4 20 6 39 6 61c0 90 -43 126 -122 126h-1z" />
    <glyph glyph-name="Chi" unicode="&#x3a7;" horiz-adv-x="641" 
d="M419 347l152 -347h-157l-99 243h-8l-179 -243h-168l290 369l-146 329h156l95 -230h8l175 230h168z" />
    <glyph glyph-name="Psi" unicode="&#x3a8;" horiz-adv-x="809" 
d="M279 0l35 176c-126 0 -214 87 -214 211c0 28 3 61 11 101l42 210h145l-44 -220c-10 -48 -11 -71 -11 -91c0 -60 34 -92 95 -92l81 403h145l-81 -403c80 0 127 35 155 171l47 232h145l-47 -233c-40 -198 -134 -289 -324 -289l-35 -176h-145z" />
    <glyph glyph-name="uni03A9" unicode="&#x3a9;" horiz-adv-x="696" 
d="M-8 0l26 128h155l2 10c-67 39 -101 115 -101 223c0 190 137 349 345 349c163 0 258 -111 258 -257c0 -138 -67 -257 -207 -315l-2 -10h155l-26 -128h-260l40 190c73 20 118 87 131 155l16 87c2 10 3 24 3 34c0 60 -38 112 -123 112c-99 0 -156 -73 -169 -146l-12 -67
c-4 -21 -6 -39 -6 -56c0 -49 28 -102 75 -119l-40 -190h-260z" />
    <glyph glyph-name="Iotadieresis" unicode="&#x3aa;" horiz-adv-x="415" 
d="M209 760c-46 0 -65 22 -65 49c0 7 2 15 6 39c6 34 30 63 85 63c46 0 65 -22 65 -49c0 -7 -2 -15 -6 -39c-6 -34 -30 -63 -85 -63zM409 760c-46 0 -65 22 -65 49c0 7 2 15 6 39c6 34 30 63 85 63c46 0 65 -22 65 -49c0 -7 -2 -15 -6 -39c-6 -34 -30 -63 -85 -63zM314 0
h-318l24 118h86l93 462h-86l23 118h318l-24 -118h-86l-93 -462h86z" />
    <glyph glyph-name="Upsilondieresis" unicode="&#x3ab;" horiz-adv-x="624" 
d="M296 760c-46 0 -65 22 -65 49c0 7 2 15 6 39c6 34 30 63 85 63c46 0 65 -22 65 -49c0 -7 -2 -15 -6 -39c-6 -34 -30 -63 -85 -63zM496 760c-46 0 -65 22 -65 49c0 7 2 15 6 39c6 34 30 63 85 63c46 0 65 -22 65 -49c0 -7 -2 -15 -6 -39c-6 -34 -30 -63 -85 -63zM330 0
h-145l54 271l-148 427h148l94 -294h7l201 294h160l-319 -440z" />
    <glyph glyph-name="alphatonos" unicode="&#x3ac;" horiz-adv-x="648" 
d="M489 784l-109 -205l-89 29l73 207zM594 112l-22 -112h-74c-58 0 -95 36 -95 99v49h-3c-64 -124 -125 -160 -207 -160c-101 0 -162 60 -162 182c0 227 106 367 247 367c101 0 148 -48 160 -160h4l32 70l40 78h155l-166 -259l32 -154h59zM223 103c26 0 54 20 94 94l36 66
l-9 64c-10 72 -30 95 -59 95c-37 0 -74 -34 -91 -117l-14 -70c-5 -26 -6 -41 -6 -65c0 -48 20 -67 49 -67z" />
    <glyph glyph-name="epsilontonos" unicode="&#x3ad;" horiz-adv-x="525" 
d="M488 784l-109 -205l-89 29l73 207zM397 169l86 -68c-62 -79 -135 -113 -251 -113c-139 0 -205 61 -205 139c0 76 49 129 141 141l1 5c-56 14 -83 52 -83 96c0 86 82 168 239 168c86 0 156 -28 202 -82l-88 -83c-30 34 -70 52 -120 52c-58 0 -85 -19 -93 -49
c-2 -8 -3 -14 -3 -22c0 -23 15 -37 50 -37h107l-20 -98h-119c-43 0 -68 -18 -75 -48c-1 -4 -2 -9 -2 -21c0 -28 22 -48 84 -48c66 0 105 16 149 68z" />
    <glyph glyph-name="etatonos" unicode="&#x3ae;" horiz-adv-x="596" 
d="M511 784l-109 -205l-89 29l73 207zM164 0h-140l83 413h-59l22 112h93c50 0 88 -28 88 -77c0 -11 -2 -25 -3 -30l-3 -15h6c40 84 92 134 174 134c81 0 126 -50 126 -136c0 -25 -4 -47 -9 -74l-105 -527h-140l102 512c4 19 7 36 7 56c0 30 -15 52 -53 52
c-34 0 -62 -21 -85 -48c-24 -28 -42 -62 -50 -102z" />
    <glyph glyph-name="iotatonos" unicode="&#x3af;" horiz-adv-x="311" 
d="M352 784l-109 -205l-89 29l73 207zM272 112l-22 -112h-88c-81 0 -123 33 -123 99c0 10 1 28 4 43l77 383h140l-83 -413h95z" />
    <glyph glyph-name="upsilondieresistonos" unicode="&#x3b0;" horiz-adv-x="560" 
d="M460 789l-104 -210l-60 21l69 216zM213 605c-38 0 -54 20 -54 45c0 7 2 17 5 36c6 33 27 60 72 60c38 0 54 -20 54 -45c0 -7 -2 -17 -6 -36c-5 -33 -26 -60 -71 -60zM496 605c-38 0 -54 20 -54 45c0 7 2 17 5 36c6 33 27 60 72 60c38 0 54 -20 54 -45c0 -7 -2 -17 -6 -36
c-5 -33 -26 -60 -71 -60zM249 525l-57 -286c-7 -35 -10 -49 -10 -65c0 -48 24 -73 68 -73c51 0 84 24 106 132l59 292h140l-61 -300c-32 -156 -116 -237 -249 -237c-124 0 -199 80 -199 178c0 28 2 51 8 83l55 276h140z" />
    <glyph glyph-name="alpha" unicode="&#x3b1;" horiz-adv-x="648" 
d="M594 112l-22 -112h-74c-58 0 -95 36 -95 99v49h-3c-64 -124 -125 -160 -207 -160c-101 0 -162 60 -162 182c0 227 106 367 247 367c101 0 148 -48 160 -160h4l32 70l40 78h155l-166 -259l32 -154h59zM223 103c26 0 54 20 94 94l36 66l-9 64c-10 72 -30 95 -59 95
c-37 0 -74 -34 -91 -117l-14 -70c-5 -26 -6 -41 -6 -65c0 -48 20 -67 49 -67z" />
    <glyph glyph-name="beta" unicode="&#x3b2;" horiz-adv-x="580" 
d="M-27 -200l142 706c34 170 138 246 266 246c124 0 190 -66 190 -178c0 -102 -60 -165 -146 -191l-1 -5c72 -16 114 -63 114 -147c0 -114 -86 -243 -222 -243c-84 0 -133 46 -140 103h-5l-58 -291h-140zM276 323l23 111h39c39 0 73 28 85 82c7 32 9 47 9 61
c0 38 -24 62 -62 62c-50 0 -94 -29 -114 -129l-62 -306c-14 -68 14 -103 84 -103c64 0 101 28 113 92c6 32 8 47 8 61c0 44 -24 69 -78 69h-45z" />
    <glyph glyph-name="gamma" unicode="&#x3b3;" horiz-adv-x="544" 
d="M117 -200l40 200l-58 413h-59l22 112h79c54 0 86 -29 90 -77l13 -142l9 -159h7c62 106 119 238 159 378h149c-50 -166 -143 -357 -271 -525l-40 -200h-140z" />
    <glyph glyph-name="delta" unicode="&#x3b4;" horiz-adv-x="542" 
d="M537 628h-155l-96 9l-1 -4l85 -63c109 -81 141 -152 141 -252c0 -190 -115 -330 -271 -330c-128 0 -209 81 -209 219c0 192 135 285 231 285l1 5l-110 98l29 145h377zM368 339c0 38 -10 65 -44 102c-75 -8 -117 -61 -133 -138c-14 -65 -21 -100 -21 -119
c0 -50 26 -83 75 -83c53 0 89 39 105 114c14 68 18 99 18 124z" />
    <glyph glyph-name="epsilon" unicode="&#x3b5;" horiz-adv-x="525" 
d="M397 169l86 -68c-62 -79 -135 -113 -251 -113c-139 0 -205 61 -205 139c0 76 49 129 141 141l1 5c-56 14 -83 52 -83 96c0 86 82 168 239 168c86 0 156 -28 202 -82l-88 -83c-30 34 -70 52 -120 52c-58 0 -85 -19 -93 -49c-2 -8 -3 -14 -3 -22c0 -23 15 -37 50 -37h107
l-20 -98h-119c-43 0 -68 -18 -75 -48c-1 -4 -2 -9 -2 -21c0 -28 22 -48 84 -48c66 0 105 16 149 68z" />
    <glyph glyph-name="zeta" unicode="&#x3b6;" horiz-adv-x="438" 
d="M132 628l22 112h366l-22 -112l-203 -197c-104 -100 -125 -153 -125 -211c0 -44 24 -73 100 -100l25 -9c53 -19 81 -47 81 -93c0 -22 -6 -42 -18 -66l-62 -127l-114 46l57 117l-25 9c-127 46 -183 108 -183 216c0 90 31 164 153 274l161 145l1 5l-81 -9h-133z" />
    <glyph glyph-name="eta" unicode="&#x3b7;" horiz-adv-x="596" 
d="M164 0h-140l83 413h-59l22 112h93c50 0 88 -28 88 -77c0 -11 -2 -25 -3 -30l-3 -15h6c40 84 92 134 174 134c81 0 126 -50 126 -136c0 -25 -4 -47 -9 -74l-105 -527h-140l102 512c4 19 7 36 7 56c0 30 -15 52 -53 52c-34 0 -62 -21 -85 -48c-24 -28 -42 -62 -50 -102z
" />
    <glyph glyph-name="theta" unicode="&#x3b8;" horiz-adv-x="629" 
d="M51 375h91c54 0 90 -32 90 -76c0 -12 -3 -26 -7 -45l-5 -25c-2 -12 -5 -33 -5 -45c0 -50 24 -83 74 -83c52 0 92 37 108 115l27 135h-54c-140 0 -215 75 -215 175c0 54 23 114 67 158c42 42 98 68 168 68c128 0 208 -81 208 -219c0 -118 -53 -385 -142 -474
c-45 -45 -102 -71 -172 -71c-128 0 -205 81 -205 203c0 20 3 42 7 62l2 10h-59zM294 526c0 -38 21 -63 83 -63h70l5 23c5 24 7 42 7 70c0 50 -24 83 -74 83c-52 0 -77 -37 -86 -78c-3 -14 -5 -23 -5 -35z" />
    <glyph glyph-name="iota" unicode="&#x3b9;" horiz-adv-x="311" 
d="M272 112l-22 -112h-88c-81 0 -123 33 -123 99c0 10 1 28 4 43l77 383h140l-83 -413h95z" />
    <glyph glyph-name="kappa" unicode="&#x3ba;" horiz-adv-x="555" 
d="M343 0l-82 214l-78 -69l-29 -145h-140l105 525h140l-46 -226h7l71 83l112 107c30 28 54 36 98 36h70l-23 -112h-59l-121 -109l136 -304h-161z" />
    <glyph glyph-name="lambda" unicode="&#x3bb;" horiz-adv-x="536" 
d="M250 525l-12 103h-86l22 112h101c58 0 87 -31 93 -81l66 -547h64l-22 -112h-79c-58 0 -87 31 -93 81l-16 137l-4 138h-11l-54 -138l-112 -218h-149z" />
    <glyph glyph-name="uni03BC" unicode="&#x3bc;" horiz-adv-x="587" 
d="M114 -200h-140l145 725h140l-62 -310c-4 -19 -7 -40 -7 -55c0 -34 15 -55 49 -55s61 20 84 48s40 62 48 102l54 270h140l-83 -413h59l-22 -112h-93c-50 0 -88 28 -88 77c0 11 2 25 3 30l3 15h-6c-48 -102 -87 -134 -141 -134c-34 0 -56 20 -64 56h-5l5 -147z" />
    <glyph glyph-name="nu" unicode="&#x3bd;" horiz-adv-x="551" 
d="M308 0h-170l-39 413h-59l22 112h79c54 0 87 -29 90 -77l7 -121l6 -202h7c82 142 135 260 175 400h149c-50 -166 -139 -347 -267 -525z" />
    <glyph glyph-name="xi" unicode="&#x3be;" horiz-adv-x="426" 
d="M502 628h-131c-56 0 -96 -28 -108 -87c-2 -10 -4 -25 -4 -39c0 -46 26 -70 76 -70h53l-23 -111h-75c-72 0 -110 -31 -120 -81c-2 -10 -3 -21 -3 -31c0 -40 25 -67 89 -91l19 -7c53 -19 81 -47 81 -93c0 -22 -6 -42 -18 -66l-62 -127l-114 46l57 117l-19 7
c-116 43 -172 103 -172 204c0 96 66 170 187 180l1 5c-66 20 -96 59 -96 118c0 56 36 100 94 118l2 8h-113l23 112h398z" />
    <glyph glyph-name="omicron" unicode="&#x3bf;" horiz-adv-x="542" 
d="M240 -12c-128 0 -209 81 -209 219c0 190 115 330 271 330c128 0 209 -81 209 -219c0 -190 -115 -330 -271 -330zM245 101c53 0 90 40 105 115l19 94c1 6 3 18 3 31c0 50 -26 83 -75 83c-53 0 -90 -40 -105 -115l-19 -94c-1 -6 -3 -18 -3 -31c0 -50 26 -83 75 -83z" />
    <glyph glyph-name="pi" unicode="&#x3c0;" horiz-adv-x="645" 
d="M528 0h-61c-81 0 -123 33 -123 99c0 10 1 28 4 43l54 271h-129l-83 -413h-140l83 413h-80l22 112h586l-22 -112h-96l-61 -301h68z" />
    <glyph glyph-name="rho" unicode="&#x3c1;" horiz-adv-x="550" 
d="M-42 -200l96 481c34 172 129 256 256 256c136 0 209 -73 209 -211c0 -194 -99 -338 -229 -338c-74 0 -122 46 -129 103h-5l-58 -291h-140zM252 101c62 0 90 37 106 115l19 94c1 6 3 18 3 31c0 50 -26 83 -75 83c-53 0 -90 -40 -105 -115l-21 -105c-11 -56 7 -103 73 -103
z" />
    <glyph glyph-name="sigma1" unicode="&#x3c2;" horiz-adv-x="486" 
d="M188 -129l57 117l-30 11c-132 48 -184 108 -184 216c0 193 120 322 279 322c100 0 175 -54 188 -136l-118 -45c-12 41 -27 68 -78 68c-60 0 -101 -34 -122 -131c-7 -32 -10 -47 -10 -71c0 -44 21 -71 101 -100l30 -11c53 -19 81 -47 81 -93c0 -22 -6 -42 -18 -66
l-62 -127z" />
    <glyph glyph-name="sigma" unicode="&#x3c3;" horiz-adv-x="568" 
d="M580 413h-114l-1 -8c32 -32 46 -68 46 -122c0 -150 -115 -295 -271 -295c-128 0 -209 81 -209 219c0 200 123 318 295 318h276zM353 413h-38c-71 0 -109 -35 -123 -103l-19 -95c-1 -6 -3 -18 -3 -31c0 -50 26 -83 75 -83c53 0 90 40 105 115l16 80c4 22 6 40 6 60
c0 22 -5 39 -19 57z" />
    <glyph glyph-name="tau" unicode="&#x3c4;" horiz-adv-x="485" 
d="M352 0h-98c-81 0 -123 33 -123 99c0 10 1 28 4 43l54 271h-136l22 112h432l-22 -112h-156l-60 -301h105z" />
    <glyph glyph-name="upsilon" unicode="&#x3c5;" horiz-adv-x="560" 
d="M249 525l-57 -286c-7 -35 -10 -49 -10 -65c0 -48 24 -73 68 -73c51 0 84 24 106 132l59 292h140l-61 -300c-32 -156 -116 -237 -249 -237c-124 0 -199 80 -199 178c0 28 2 51 8 83l55 276h140z" />
    <glyph glyph-name="phi" unicode="&#x3c6;" horiz-adv-x="738" 
d="M202 -200l38 188c-142 0 -209 92 -209 194c0 160 63 283 185 355l74 -89c-56 -38 -87 -89 -101 -159l-13 -63c-5 -26 -6 -40 -6 -52c0 -48 27 -75 92 -75l36 182c34 174 101 256 242 256c110 0 167 -72 167 -176c0 -236 -119 -373 -330 -373l-38 -188h-137zM447 336
l-48 -237c76 0 126 36 146 137l17 81c5 24 7 44 7 62c0 30 -18 47 -49 47c-35 0 -59 -20 -73 -90z" />
    <glyph glyph-name="chi" unicode="&#x3c7;" horiz-adv-x="544" 
d="M73 525h84c58 0 88 -27 96 -90l20 -166h4l146 256h153l-233 -363l45 -250h69l-22 -112h-84c-56 0 -89 27 -96 90l-21 181h-4l-154 -271h-153l243 379l-46 234h-69z" />
    <glyph glyph-name="psi" unicode="&#x3c8;" horiz-adv-x="729" 
d="M340 -200h-137l38 188c-112 0 -195 74 -195 178c0 28 2 51 8 83l55 276h140l-58 -286c-7 -34 -9 -49 -9 -65c0 -52 27 -75 81 -75l122 611h137l-122 -611c70 0 103 25 125 134l59 292h140l-61 -300c-34 -166 -119 -237 -285 -237z" />
    <glyph glyph-name="omega" unicode="&#x3c9;" horiz-adv-x="734" 
d="M462 369l-34 -169c-5 -26 -6 -40 -6 -52c0 -30 16 -47 46 -47c34 0 56 20 67 76l22 112c4 18 7 38 7 54c0 40 -12 79 -44 111l103 82c54 -50 80 -111 80 -187c0 -236 -101 -361 -227 -361c-84 0 -131 37 -131 137h-4c-30 -100 -84 -137 -156 -137c-94 0 -154 72 -154 176
c0 160 61 301 189 373l74 -89c-56 -38 -87 -89 -101 -159l-18 -89c-4 -22 -5 -40 -5 -52c0 -30 16 -47 46 -47c34 0 56 20 67 76l39 192h140z" />
    <glyph glyph-name="iotadieresis" unicode="&#x3ca;" horiz-adv-x="311" 
d="M113 600c-47 0 -65 21 -65 48c0 7 2 17 6 40c6 34 30 63 85 63c47 0 65 -21 65 -48c0 -7 -2 -17 -6 -40c-6 -34 -30 -63 -85 -63zM313 600c-47 0 -65 21 -65 48c0 7 2 17 6 40c6 34 30 63 85 63c47 0 65 -21 65 -48c0 -7 -2 -17 -6 -40c-6 -34 -30 -63 -85 -63zM272 112
l-22 -112h-88c-81 0 -123 33 -123 99c0 10 1 28 4 43l77 383h140l-83 -413h95z" />
    <glyph glyph-name="upsilondieresis" unicode="&#x3cb;" horiz-adv-x="560" 
d="M249 600c-47 0 -65 21 -65 48c0 7 2 17 6 40c6 34 30 63 85 63c47 0 65 -21 65 -48c0 -7 -2 -17 -6 -40c-6 -34 -30 -63 -85 -63zM449 600c-47 0 -65 21 -65 48c0 7 2 17 6 40c6 34 30 63 85 63c47 0 65 -21 65 -48c0 -7 -2 -17 -6 -40c-6 -34 -30 -63 -85 -63zM249 525
l-57 -286c-7 -35 -10 -49 -10 -65c0 -48 24 -73 68 -73c51 0 84 24 106 132l59 292h140l-61 -300c-32 -156 -116 -237 -249 -237c-124 0 -199 80 -199 178c0 28 2 51 8 83l55 276h140z" />
    <glyph glyph-name="omicrontonos" unicode="&#x3cc;" horiz-adv-x="542" 
d="M470 784l-109 -205l-89 29l73 207zM240 -12c-128 0 -209 81 -209 219c0 190 115 330 271 330c128 0 209 -81 209 -219c0 -190 -115 -330 -271 -330zM245 101c53 0 90 40 105 115l19 94c1 6 3 18 3 31c0 50 -26 83 -75 83c-53 0 -90 -40 -105 -115l-19 -94
c-1 -6 -3 -18 -3 -31c0 -50 26 -83 75 -83z" />
    <glyph glyph-name="upsilontonos" unicode="&#x3cd;" horiz-adv-x="560" 
d="M488 784l-109 -205l-89 29l73 207zM249 525l-57 -286c-7 -35 -10 -49 -10 -65c0 -48 24 -73 68 -73c51 0 84 24 106 132l59 292h140l-61 -300c-32 -156 -116 -237 -249 -237c-124 0 -199 80 -199 178c0 28 2 51 8 83l55 276h140z" />
    <glyph glyph-name="omegatonos" unicode="&#x3ce;" horiz-adv-x="734" 
d="M580 784l-109 -205l-89 29l73 207zM462 369l-34 -169c-5 -26 -6 -40 -6 -52c0 -30 16 -47 46 -47c34 0 56 20 67 76l22 112c4 18 7 38 7 54c0 40 -12 79 -44 111l103 82c54 -50 80 -111 80 -187c0 -236 -101 -361 -227 -361c-84 0 -131 37 -131 137h-4
c-30 -100 -84 -137 -156 -137c-94 0 -154 72 -154 176c0 160 61 301 189 373l74 -89c-56 -38 -87 -89 -101 -159l-18 -89c-4 -22 -5 -40 -5 -52c0 -30 16 -47 46 -47c34 0 56 20 67 76l39 192h140z" />
    <glyph glyph-name="uni0400" unicode="&#x400;" horiz-adv-x="578" 
d="M372 740l-105 176l126 59l68 -196zM481 0h-459l140 698h449l-26 -128h-303l-31 -153h268l-26 -128h-268l-32 -161h314z" />
    <glyph glyph-name="uni0401" unicode="&#x401;" horiz-adv-x="578" 
d="M300 760c-46 0 -65 22 -65 49c0 7 2 15 6 39c6 34 30 63 85 63c46 0 65 -22 65 -49c0 -7 -2 -15 -6 -39c-6 -34 -30 -63 -85 -63zM500 760c-46 0 -65 22 -65 49c0 7 2 15 6 39c6 34 30 63 85 63c46 0 65 -22 65 -49c0 -7 -2 -15 -6 -39c-6 -34 -30 -63 -85 -63zM481 0
h-459l140 698h449l-26 -128h-303l-31 -153h268l-26 -128h-268l-32 -161h314z" />
    <glyph glyph-name="uni0402" unicode="&#x402;" horiz-adv-x="786" 
d="M376 -184l27 135h96c18 24 38 74 48 124l22 104c4 20 8 42 8 59c0 54 -27 79 -94 79c-49 0 -85 -7 -119 -19l-60 -298h-145l114 570h-184l26 128h513l-26 -128h-184l-30 -152h5c30 16 79 28 134 28c124 0 195 -66 195 -182c0 -26 -3 -59 -9 -89l-22 -104
c-32 -150 -108 -255 -263 -255h-52z" />
    <glyph glyph-name="uni0403" unicode="&#x403;" horiz-adv-x="497" 
d="M537 915l-147 -176l-84 46l119 190zM22 0l140 698h397l-26 -128h-252l-114 -570h-145z" />
    <glyph glyph-name="uni0404" unicode="&#x404;" horiz-adv-x="655" 
d="M316 -12c-160 0 -259 96 -259 284c0 246 153 438 368 438c134 0 204 -56 244 -162l-125 -58c-18 51 -46 91 -130 91c-102 0 -158 -65 -181 -164h234l-25 -128h-234c-3 -15 -4 -32 -4 -43c0 -85 35 -129 125 -129c84 0 123 34 163 100l121 -59
c-76 -120 -166 -170 -297 -170z" />
    <glyph glyph-name="uni0405" unicode="&#x405;" horiz-adv-x="586" 
d="M255 -12c-116 0 -209 33 -260 124l111 87c34 -55 77 -82 149 -82c84 0 133 42 133 100c0 42 -35 62 -80 72l-46 10c-102 22 -167 74 -167 186c0 127 108 225 269 225c104 0 191 -33 239 -97l-105 -94c-32 44 -69 62 -140 62c-72 0 -117 -34 -117 -83c0 -40 27 -57 75 -68
l44 -10c107 -24 178 -78 178 -187c0 -120 -106 -245 -283 -245z" />
    <glyph glyph-name="uni0406" unicode="&#x406;" horiz-adv-x="415" 
d="M314 0h-318l24 118h86l93 462h-86l23 118h318l-24 -118h-86l-93 -462h86z" />
    <glyph glyph-name="uni0407" unicode="&#x407;" horiz-adv-x="415" 
d="M209 760c-46 0 -65 22 -65 49c0 7 2 15 6 39c6 34 30 63 85 63c46 0 65 -22 65 -49c0 -7 -2 -15 -6 -39c-6 -34 -30 -63 -85 -63zM409 760c-46 0 -65 22 -65 49c0 7 2 15 6 39c6 34 30 63 85 63c46 0 65 -22 65 -49c0 -7 -2 -15 -6 -39c-6 -34 -30 -63 -85 -63zM314 0
h-318l24 118h86l93 462h-86l23 118h318l-24 -118h-86l-93 -462h86z" />
    <glyph glyph-name="uni0408" unicode="&#x408;" horiz-adv-x="536" 
d="M201 698h348l-102 -508c-24 -121 -101 -201 -232 -201c-135 0 -200 85 -210 191l139 28c5 -56 21 -93 71 -93c41 0 77 26 90 90l75 375h-203z" />
    <glyph glyph-name="uni0409" unicode="&#x409;" horiz-adv-x="1033" 
d="M-30 -6l27 135h82c48 43 91 131 129 321l50 248h449l-51 -255h126c139 0 217 -68 217 -185c0 -156 -114 -258 -272 -258h-306l115 569h-163l-23 -116c-48 -240 -102 -339 -152 -389c-52 -52 -108 -70 -176 -70h-52zM592 128h154c44 0 81 21 92 73c6 28 11 51 11 64
c0 30 -19 50 -61 50h-159z" />
    <glyph glyph-name="uni040A" unicode="&#x40a;" horiz-adv-x="1019" 
d="M22 0l140 698h145l-56 -281h240l57 281h145l-51 -255h126c139 0 217 -68 217 -185c0 -156 -114 -258 -272 -258h-306l58 289h-240l-58 -289h-145zM578 128h154c44 0 81 21 92 73c6 28 11 51 11 64c0 30 -19 50 -61 50h-159z" />
    <glyph glyph-name="uni040B" unicode="&#x40b;" horiz-adv-x="796" 
d="M159 0l114 570h-184l26 128h513l-26 -128h-184l-30 -152h5c30 16 79 28 139 28c129 0 200 -66 200 -182c0 -26 -2 -55 -9 -89l-36 -175h-145l37 179c4 20 8 42 8 59c0 54 -27 79 -99 79c-54 0 -90 -7 -124 -19l-60 -298h-145z" />
    <glyph glyph-name="uni040C" unicode="&#x40c;" horiz-adv-x="660" 
d="M598 915l-147 -176l-84 46l119 190zM22 0l140 698h145l-57 -281h100l148 210c36 50 67 71 128 71h64l-26 -129h-53l-99 -141c-30 -42 -56 -59 -94 -65l-1 -6c26 -10 44 -29 56 -66l52 -162h59l-26 -129h-51c-68 0 -95 20 -116 85l-66 204h-100l-58 -289h-145z" />
    <glyph glyph-name="uni040D" unicode="&#x40d;" horiz-adv-x="700" 
d="M424 740l-105 176l126 59l68 -196zM22 0l140 698h141l-69 -345l-44 -143h3l92 133l296 355h131l-140 -698h-141l69 345l44 143h-3l-92 -133l-296 -355h-131z" />
    <glyph glyph-name="uni040E" unicode="&#x40e;" horiz-adv-x="611" 
d="M390 740c-69 0 -119 32 -146 112l-17 51l115 43l16 -101c10 -4 29 -7 45 -7c18 0 35 3 43 7l46 101l111 -43l-30 -51c-44 -75 -103 -112 -183 -112zM71 0l26 129h113l21 36l-131 533h146l51 -225l30 -158h7l70 152l127 231h154l-348 -600c-43 -73 -85 -98 -147 -98h-119z
" />
    <glyph glyph-name="uni040F" unicode="&#x40f;" horiz-adv-x="685" 
d="M192 -150l30 150h-200l140 698h145l-114 -569h245l114 569h145l-140 -698h-198l-31 -150h-136z" />
    <glyph glyph-name="uni0410" unicode="&#x410;" horiz-adv-x="658" 
d="M588 0h-147l-16 170h-223l-82 -170h-155l359 698h185zM415 291l-21 276h-8l-127 -276h156z" />
    <glyph glyph-name="uni0411" unicode="&#x411;" horiz-adv-x="625" 
d="M22 0l141 698h454l-26 -128h-309l-28 -141h117c139 0 217 -69 217 -180c0 -147 -110 -249 -268 -249h-298zM193 128h146c43 0 78 21 88 66c6 28 11 49 11 60c0 25 -19 47 -61 47h-149z" />
    <glyph glyph-name="uni0412" unicode="&#x412;" horiz-adv-x="651" 
d="M22 0l140 698h298c101 0 174 -46 174 -143c0 -92 -45 -168 -136 -193l-1 -5c73 -20 104 -70 104 -135c0 -132 -81 -222 -241 -222h-338zM193 124h167c46 0 74 20 83 65c7 35 9 48 9 57c0 27 -17 45 -55 45h-171zM250 410h141c46 0 74 17 83 62c7 35 9 46 9 55
c0 28 -17 47 -54 47h-146z" />
    <glyph glyph-name="uni0413" unicode="&#x413;" horiz-adv-x="497" 
d="M22 0l140 698h397l-26 -128h-252l-114 -570h-145z" />
    <glyph glyph-name="uni0414" unicode="&#x414;" horiz-adv-x="791" 
d="M-61 -150l56 279h83c52 45 95 131 133 321l50 248h485l-114 -569h112l-57 -279h-136l30 150h-475l-31 -150h-136zM236 129h251l88 440h-199l-23 -116c-40 -201 -72 -270 -116 -320z" />
    <glyph glyph-name="uni0415" unicode="&#x415;" horiz-adv-x="578" 
d="M481 0h-459l140 698h449l-26 -128h-303l-31 -153h268l-26 -128h-268l-32 -161h314z" />
    <glyph glyph-name="uni0416" unicode="&#x416;" horiz-adv-x="991" 
d="M-6 0l26 129h59l91 146c31 49 63 74 111 82l1 6c-25 10 -39 26 -51 57l-56 149h-59l26 129h37c64 0 93 -21 116 -84l74 -197h81l57 281h149l-57 -281h82l148 210c36 50 70 71 133 71h59l-26 -129h-53l-99 -141c-30 -42 -56 -59 -94 -65l-1 -6c26 -10 44 -29 56 -66
l52 -162h59l-26 -129h-51c-68 0 -95 20 -116 85l-66 204h-82l-58 -289h-149l58 289h-81l-134 -214c-34 -54 -74 -75 -132 -75h-84z" />
    <glyph glyph-name="uni0417" unicode="&#x417;" horiz-adv-x="607" 
d="M250 -12c-116 0 -191 38 -252 124l111 87c36 -54 77 -82 141 -82c76 0 117 23 131 75c3 11 6 26 6 35c0 41 -27 62 -94 62h-98l26 128h97c70 0 106 20 116 62c3 13 5 28 5 42c0 35 -30 60 -94 60c-68 0 -121 -25 -161 -65l-84 99c66 60 151 95 261 95
c148 0 229 -63 229 -167c0 -96 -57 -162 -151 -182l-1 -5c75 -15 99 -70 99 -130c0 -136 -116 -238 -287 -238z" />
    <glyph glyph-name="uni0418" unicode="&#x418;" horiz-adv-x="700" 
d="M22 0l140 698h141l-69 -345l-44 -143h3l92 133l296 355h131l-140 -698h-141l69 345l44 143h-3l-92 -133l-296 -355h-131z" />
    <glyph glyph-name="uni0419" unicode="&#x419;" horiz-adv-x="700" 
d="M448 740c-69 0 -119 32 -146 112l-17 51l115 43l16 -101c10 -4 29 -7 45 -7c18 0 35 3 43 7l46 101l111 -43l-30 -51c-44 -75 -103 -112 -183 -112zM22 0l140 698h141l-69 -345l-44 -143h3l92 133l296 355h131l-140 -698h-141l69 345l44 143h-3l-92 -133l-296 -355h-131z
" />
    <glyph glyph-name="uni041A" unicode="&#x41a;" horiz-adv-x="660" 
d="M22 0l140 698h145l-57 -281h100l148 210c36 50 67 71 128 71h64l-26 -129h-53l-99 -141c-30 -42 -56 -59 -94 -65l-1 -6c26 -10 44 -29 56 -66l52 -162h59l-26 -129h-51c-68 0 -95 20 -116 85l-66 204h-100l-58 -289h-145z" />
    <glyph glyph-name="uni041B" unicode="&#x41b;" horiz-adv-x="723" 
d="M-30 -6l27 135h82c48 43 91 131 129 321l50 248h477l-140 -698h-145l114 569h-191l-23 -116c-48 -240 -102 -339 -152 -389c-52 -52 -108 -70 -176 -70h-52z" />
    <glyph glyph-name="uni041C" unicode="&#x41c;" horiz-adv-x="801" 
d="M535 0l93 461h-6l-96 -134l-155 -212l-74 227l-39 121h-5l-93 -463h-138l140 698h152l101 -332h4l233 332h161l-140 -698h-138z" />
    <glyph glyph-name="uni041D" unicode="&#x41d;" horiz-adv-x="700" 
d="M427 0l58 289h-260l-58 -289h-145l140 698h145l-56 -281h260l56 281h145l-140 -698h-145z" />
    <glyph glyph-name="uni041E" unicode="&#x41e;" horiz-adv-x="695" 
d="M308 -12c-134 0 -251 85 -251 283c0 241 151 439 360 439c134 0 251 -85 251 -283c0 -241 -151 -439 -360 -439zM318 117c93 0 154 66 177 179l21 105c4 21 5 38 5 52c0 84 -38 128 -114 128c-93 0 -154 -66 -177 -179l-21 -105c-4 -20 -5 -38 -5 -52
c0 -84 38 -128 114 -128z" />
    <glyph glyph-name="uni041F" unicode="&#x41f;" horiz-adv-x="685" 
d="M22 0l140 698h535l-140 -698h-145l114 569h-245l-114 -569h-145z" />
    <glyph glyph-name="uni0420" unicode="&#x420;" horiz-adv-x="637" 
d="M167 0h-145l140 698h263c139 0 220 -69 220 -187c0 -153 -113 -256 -271 -256h-156zM281 570l-37 -187h149c45 0 81 24 91 73c6 30 11 49 11 60c0 30 -20 54 -64 54h-150z" />
    <glyph glyph-name="uni0421" unicode="&#x421;" horiz-adv-x="635" 
d="M306 -12c-148 0 -249 96 -249 284c0 246 155 438 358 438c124 0 203 -63 236 -170l-129 -54c-16 53 -44 95 -118 95c-93 0 -152 -70 -173 -175l-22 -110c-4 -20 -5 -37 -5 -50c0 -85 37 -129 115 -129s122 43 153 104l121 -55c-62 -121 -166 -178 -287 -178z" />
    <glyph glyph-name="uni0422" unicode="&#x422;" horiz-adv-x="569" 
d="M602 570h-184l-114 -570h-145l114 570h-184l26 128h513z" />
    <glyph glyph-name="uni0423" unicode="&#x423;" horiz-adv-x="611" 
d="M71 0l26 129h113l21 36l-131 533h146l51 -225l30 -158h7l70 152l127 231h154l-348 -600c-43 -73 -85 -98 -147 -98h-119z" />
    <glyph glyph-name="uni0424" unicode="&#x424;" horiz-adv-x="883" 
d="M307 -44l18 90h-35c-170 0 -244 119 -244 243c0 196 130 361 361 361h40l18 90h145l-18 -90h35c170 0 244 -119 244 -243c0 -196 -130 -361 -361 -361h-40l-18 -90h-145zM312 165h40l73 366h-41c-101 0 -158 -68 -175 -152l-11 -56c-4 -20 -5 -38 -5 -52
c0 -54 36 -106 119 -106zM492 165h41c101 0 158 68 175 152l11 56c4 20 5 38 5 52c0 54 -36 106 -119 106h-40z" />
    <glyph glyph-name="uni0425" unicode="&#x425;" horiz-adv-x="641" 
d="M419 347l152 -347h-157l-99 243h-8l-179 -243h-168l290 369l-146 329h156l95 -230h8l175 230h168z" />
    <glyph glyph-name="uni0426" unicode="&#x426;" horiz-adv-x="742" 
d="M502 -150l30 150h-510l140 698h145l-114 -569h245l114 569h145l-114 -569h112l-57 -279h-136z" />
    <glyph glyph-name="uni0427" unicode="&#x427;" horiz-adv-x="658" 
d="M385 0l51 252h-5c-30 -16 -79 -28 -139 -28c-129 0 -200 66 -200 182c0 26 2 55 9 89l41 203h145l-42 -207c-4 -20 -8 -42 -8 -59c0 -54 27 -79 99 -79c54 0 90 7 124 19l65 326h145l-140 -698h-145z" />
    <glyph glyph-name="uni0428" unicode="&#x428;" horiz-adv-x="999" 
d="M22 0l140 698h145l-114 -569h207l114 569h145l-114 -569h207l114 569h145l-140 -698h-849z" />
    <glyph glyph-name="uni0429" unicode="&#x429;" horiz-adv-x="1056" 
d="M816 -150l30 150h-824l140 698h145l-114 -569h207l114 569h145l-114 -569h207l114 569h145l-114 -569h112l-57 -279h-136z" />
    <glyph glyph-name="uni042A" unicode="&#x42a;" horiz-adv-x="721" 
d="M109 0l115 570h-148l26 128h293l-51 -255h126c139 0 217 -68 217 -185c0 -156 -114 -258 -272 -258h-306zM280 128h154c44 0 81 21 92 73c6 28 11 51 11 64c0 30 -19 50 -61 50h-159z" />
    <glyph glyph-name="uni042B" unicode="&#x42b;" horiz-adv-x="916" 
d="M22 0l141 698h145l-51 -255h126c139 0 217 -68 217 -185c0 -156 -114 -258 -272 -258h-306zM193 128h154c44 0 81 21 92 73c6 28 11 51 11 64c0 30 -19 50 -61 50h-159zM643 0l140 698h145l-140 -698h-145z" />
    <glyph glyph-name="uni042C" unicode="&#x42c;" horiz-adv-x="634" 
d="M22 0l141 698h145l-51 -255h126c139 0 217 -68 217 -185c0 -156 -114 -258 -272 -258h-306zM193 128h154c44 0 81 21 92 73c6 28 11 51 11 64c0 30 -19 50 -61 50h-159z" />
    <glyph glyph-name="uni042D" unicode="&#x42d;" horiz-adv-x="655" 
d="M219 289l25 128h234c2 13 3 25 3 35c0 85 -37 129 -129 129c-78 0 -122 -37 -154 -95l-122 57c64 108 155 167 285 167c156 0 267 -85 267 -283c0 -252 -153 -439 -367 -439c-137 0 -207 61 -249 165l122 62c25 -65 64 -98 137 -98c100 0 159 58 182 172h-234z" />
    <glyph glyph-name="uni042E" unicode="&#x42e;" horiz-adv-x="995" 
d="M608 -12c-134 0 -251 85 -251 283v18h-132l-58 -289h-145l140 698h145l-56 -281h126c46 172 177 293 340 293c134 0 251 -85 251 -283c0 -241 -151 -439 -360 -439zM618 117c93 0 154 66 177 179l21 105c4 21 5 38 5 52c0 84 -38 128 -114 128c-93 0 -154 -66 -177 -179
l-21 -105c-4 -20 -5 -38 -5 -52c0 -84 38 -128 114 -128z" />
    <glyph glyph-name="uni042F" unicode="&#x42f;" horiz-adv-x="660" 
d="M0 0l26 129h59l64 88c26 36 53 53 89 57l1 6c-88 18 -136 76 -136 160c0 156 114 258 272 258h297l-141 -698h-145l51 255h-93l-135 -187c-38 -52 -75 -68 -129 -68h-80zM501 570h-145c-44 0 -81 -21 -92 -73c-6 -28 -11 -51 -11 -66c0 -28 18 -52 60 -52h150z" />
    <glyph glyph-name="uni0430" unicode="&#x430;" horiz-adv-x="591" 
d="M523 0h-93c-50 0 -88 28 -88 77c0 11 2 25 3 30l3 15h-6c-41 -85 -89 -134 -171 -134c-98 0 -140 77 -140 182c0 223 110 367 244 367c73 0 124 -46 131 -103h5l18 91h140l-83 -413h59zM240 103c36 0 66 22 87 48c22 27 40 65 48 104l16 80c10 49 -24 87 -82 87
c-62 0 -99 -38 -115 -117l-14 -70c-3 -14 -6 -41 -6 -57c0 -47 25 -75 66 -75z" />
    <glyph glyph-name="uni0431" unicode="&#x431;" horiz-adv-x="542" 
d="M240 -12c-128 0 -207 85 -207 219c0 98 48 329 155 436c56 56 126 86 242 96l146 13l-28 -138l-155 -13c-98 -8 -152 -64 -182 -194h6c36 76 80 103 147 103c84 0 147 -71 147 -182c0 -200 -113 -340 -271 -340zM247 101c53 0 94 37 109 115l11 56c3 15 5 33 5 57
c0 43 -20 68 -73 68c-58 0 -99 -37 -114 -115l-9 -46c-4 -20 -6 -38 -6 -52c0 -55 28 -83 77 -83z" />
    <glyph glyph-name="uni0432" unicode="&#x432;" horiz-adv-x="553" 
d="M14 0l105 525h267c85 0 137 -46 137 -120c0 -66 -47 -121 -119 -132l-1 -5c68 -12 89 -52 89 -99c0 -101 -71 -169 -180 -169h-298zM171 102h111c37 0 61 14 67 42c3 13 6 31 6 39c0 28 -19 39 -50 39h-110zM212 306h101c37 0 61 15 68 46c2 9 5 24 5 32
c0 28 -19 39 -50 39h-101z" />
    <glyph glyph-name="uni0433" unicode="&#x433;" horiz-adv-x="432" 
d="M14 0l105 525h343l-22 -112h-203l-83 -413h-140z" />
    <glyph glyph-name="uni0434" unicode="&#x434;" horiz-adv-x="553" 
d="M233 -12c-121 0 -202 81 -202 219c0 190 108 318 227 318c64 0 100 -29 118 -89h6v26c0 56 -11 100 -39 128c-24 24 -60 38 -102 38c-36 0 -64 -4 -88 -12l26 128c22 6 45 8 81 8c84 0 142 -21 186 -65c48 -48 76 -129 76 -233c0 -332 -134 -466 -289 -466zM236 101
c62 0 90 41 111 140l12 58c2 11 5 25 5 41c0 45 -24 72 -72 72c-52 0 -87 -40 -103 -118l-16 -79c-1 -6 -3 -18 -3 -31c0 -50 26 -83 66 -83z" />
    <glyph glyph-name="uni0435" unicode="&#x435;" horiz-adv-x="515" 
d="M253 -12c-149 0 -222 87 -222 226c0 168 111 323 285 323c79 0 188 -32 188 -146c0 -108 -97 -176 -332 -183c-2 -12 -2 -18 -2 -23c0 -50 24 -84 93 -84c46 0 81 14 128 73l86 -68c-65 -86 -134 -118 -224 -118zM308 430c-59 0 -105 -42 -117 -110l-4 -23
c150 9 181 38 181 80c0 45 -35 53 -60 53z" />
    <glyph glyph-name="uni0436" unicode="&#x436;" horiz-adv-x="837" 
d="M-11 0l23 112h97c18 18 35 55 51 135c11 54 14 92 14 116c0 21 -2 38 -8 50h-81l23 112h51c91 0 132 -46 132 -158c0 -17 -1 -32 -2 -46h74l41 204h134l-41 -204h72c38 145 101 204 198 204h67l-23 -112h-83c-18 -18 -35 -55 -51 -135c-11 -54 -14 -92 -14 -116
c0 -21 2 -38 8 -50h93l-23 -112h-63c-91 0 -132 46 -132 158c0 19 0 38 2 55h-73l-43 -213h-134l43 213h-71c-38 -152 -102 -213 -200 -213h-81z" />
    <glyph glyph-name="uni0437" unicode="&#x437;" horiz-adv-x="505" 
d="M198 -12c-94 0 -162 31 -208 89l88 82c26 -36 67 -58 123 -58c59 0 94 18 103 54c2 8 3 18 3 26c0 22 -15 37 -53 37h-102l20 98h98c33 0 59 10 68 41c2 7 3 14 3 21c0 27 -24 47 -79 47c-53 0 -97 -20 -131 -62l-80 77c60 66 128 97 229 97c136 0 198 -58 198 -134
c0 -71 -43 -119 -119 -131l-1 -5c52 -10 86 -44 86 -99c0 -111 -111 -180 -246 -180z" />
    <glyph glyph-name="uni0438" unicode="&#x438;" horiz-adv-x="582" 
d="M114 525h140l-62 -312c-4 -19 -7 -38 -7 -53c0 -34 15 -55 49 -55s61 20 84 48s40 62 48 102l54 270h140l-83 -413h59l-22 -112h-93c-50 0 -88 28 -88 77c0 11 2 25 3 30l3 15h-6c-39 -82 -89 -134 -169 -134c-79 0 -124 50 -124 136c0 26 4 49 9 76z" />
    <glyph glyph-name="uni0439" unicode="&#x439;" horiz-adv-x="582" 
d="M345 579c-69 0 -119 32 -146 112l-17 51l115 43l16 -101c10 -4 29 -7 45 -7c18 0 35 3 43 7l46 101l111 -43l-30 -51c-44 -75 -103 -112 -183 -112zM114 525h140l-62 -312c-4 -19 -7 -38 -7 -53c0 -34 15 -55 49 -55s61 20 84 48s40 62 48 102l54 270h140l-83 -413h59
l-22 -112h-93c-50 0 -88 28 -88 77c0 11 2 25 3 30l3 15h-6c-39 -82 -89 -134 -169 -134c-79 0 -124 50 -124 136c0 26 4 49 9 76z" />
    <glyph glyph-name="uni043A" unicode="&#x43a;" horiz-adv-x="571" 
d="M14 0l105 525h140l-41 -202h75l102 144c31 43 57 58 114 58h65l-23 -112h-50l-70 -99c-20 -28 -39 -38 -65 -42l-1 -6c22 -6 38 -19 49 -49l39 -105h52l-23 -112h-59c-51 0 -84 27 -103 79l-49 132h-75l-42 -211h-140z" />
    <glyph glyph-name="uni043B" unicode="&#x43b;" horiz-adv-x="594" 
d="M-39 -6l24 118h67c34 40 62 108 90 248l33 165h405l-105 -525h-140l83 413h-132l-10 -51c-40 -200 -76 -270 -119 -313c-42 -42 -89 -55 -149 -55h-47z" />
    <glyph glyph-name="uni043C" unicode="&#x43c;" horiz-adv-x="705" 
d="M14 0l105 525h151l84 -225h2l174 225h161l-105 -525h-136l70 350h-5l-56 -75l-140 -181l-67 179l-27 77h-5l-70 -350h-136z" />
    <glyph glyph-name="uni043D" unicode="&#x43d;" horiz-adv-x="583" 
d="M14 0l105 525h140l-41 -202h170l41 202h140l-105 -525h-140l42 211h-170l-42 -211h-140z" />
    <glyph glyph-name="uni043E" unicode="&#x43e;" horiz-adv-x="542" 
d="M240 -12c-128 0 -209 81 -209 219c0 190 115 330 271 330c128 0 209 -81 209 -219c0 -190 -115 -330 -271 -330zM245 101c53 0 90 40 105 115l19 94c1 6 3 18 3 31c0 50 -26 83 -75 83c-53 0 -90 -40 -105 -115l-19 -94c-1 -6 -3 -18 -3 -31c0 -50 26 -83 75 -83z" />
    <glyph glyph-name="uni043F" unicode="&#x43f;" horiz-adv-x="588" 
d="M154 0h-140l105 525h140l-24 -122h6c40 84 92 134 174 134c81 0 126 -50 126 -136c0 -25 -4 -47 -9 -74l-43 -215h53l-22 -112h-91c-53 0 -84 29 -84 76c0 12 2 23 3 28l41 208c4 19 7 36 7 56c0 30 -15 52 -53 52c-34 0 -62 -21 -85 -48c-24 -28 -42 -62 -50 -102z" />
    <glyph glyph-name="uni0440" unicode="&#x440;" horiz-adv-x="583" 
d="M-26 -200l145 725h140l-24 -122h6c41 85 89 134 171 134c98 0 140 -77 140 -182c0 -223 -110 -367 -244 -367c-73 0 -124 46 -131 103h-5l-58 -291h-140zM274 103c62 0 99 38 115 117l14 70c3 14 6 41 6 57c0 47 -25 75 -66 75c-36 0 -66 -22 -87 -48
c-22 -27 -40 -65 -48 -104l-16 -80c-11 -53 24 -87 82 -87z" />
    <glyph glyph-name="uni0441" unicode="&#x441;" horiz-adv-x="494" 
d="M237 -12c-114 0 -206 64 -206 227c0 187 120 322 279 322c100 0 175 -54 188 -136l-118 -45c-12 41 -27 68 -78 68c-59 0 -94 -36 -109 -110l-18 -89c-3 -14 -5 -28 -5 -42c0 -49 24 -82 79 -82c54 0 75 33 104 83l107 -50c-46 -97 -123 -146 -223 -146z" />
    <glyph glyph-name="uni0442" unicode="&#x442;" horiz-adv-x="477" 
d="M116 0l82 413h-145l22 112h432l-22 -112h-147l-82 -413h-140z" />
    <glyph glyph-name="uni0443" unicode="&#x443;" horiz-adv-x="509" 
d="M314 327l94 198h149l-322 -610c-41 -77 -86 -115 -186 -115h-78l23 112h97l28 58l-74 555h139l20 -198l16 -196h6z" />
    <glyph glyph-name="uni0444" unicode="&#x444;" horiz-adv-x="789" 
d="M232 -200l57 287h-6c-39 -73 -76 -99 -134 -99c-74 0 -114 51 -114 153c0 234 95 396 223 396c56 0 91 -35 97 -99h5l54 272h140l-54 -272h6c39 73 76 99 134 99c74 0 114 -51 114 -153c0 -234 -95 -396 -223 -396c-56 0 -91 35 -97 99h-5l-57 -287h-140zM215 89
c18 0 33 6 49 22c26 26 43 62 51 104l24 120c13 62 2 101 -41 101c-51 0 -82 -39 -102 -137l-14 -69c-6 -28 -10 -58 -10 -80c0 -42 15 -61 43 -61zM491 89c51 0 82 39 102 137l14 69c6 28 10 58 10 80c0 42 -15 61 -43 61c-18 0 -33 -6 -49 -22c-26 -26 -43 -62 -51 -104
l-24 -120c-13 -62 -2 -101 41 -101z" />
    <glyph glyph-name="uni0445" unicode="&#x445;" horiz-adv-x="518" 
d="M102 0h-153l228 274l-112 251h151l62 -175h6l130 175h153l-229 -273l115 -252h-151l-64 172h-6z" />
    <glyph glyph-name="uni0446" unicode="&#x446;" horiz-adv-x="630" 
d="M392 -140l28 140h-2c-44 0 -85 26 -85 77c0 11 2 25 3 30l3 15h-6c-39 -82 -89 -134 -169 -134c-79 0 -124 50 -124 136c0 26 4 49 9 76l65 325h140l-62 -312c-4 -19 -7 -38 -7 -53c0 -34 15 -55 49 -55s61 20 84 48s40 62 48 102l54 270h140l-83 -413h90l-51 -252h-124z
" />
    <glyph glyph-name="uni0447" unicode="&#x447;" horiz-adv-x="561" 
d="M302 0l52 257h-6c-38 -72 -85 -103 -153 -103c-89 0 -135 52 -135 129c0 27 3 53 7 73l34 169h140l-32 -161c-2 -12 -4 -30 -4 -44c0 -32 20 -49 58 -49c64 0 99 30 113 100l31 154h140l-105 -525h-140z" />
    <glyph glyph-name="uni0448" unicode="&#x448;" horiz-adv-x="859" 
d="M155 -12c-73 0 -115 51 -115 129c0 35 6 64 12 95l62 313h140l-62 -312c-4 -19 -8 -38 -8 -59c0 -28 13 -49 42 -49c27 0 56 20 78 47s41 67 48 103l54 270h139l-62 -312c-4 -19 -8 -38 -8 -59c0 -28 13 -49 42 -49c27 0 56 20 78 47s41 67 48 103l54 270h140l-83 -413
h59l-22 -112h-93c-50 0 -88 28 -88 77c0 11 2 25 3 30l3 15h-6c-39 -80 -91 -134 -167 -134c-71 0 -112 51 -112 134h-5c-39 -78 -94 -134 -171 -134z" />
    <glyph glyph-name="uni0449" unicode="&#x449;" horiz-adv-x="907" 
d="M669 -140l28 140c-50 0 -87 28 -87 77c0 11 2 25 3 30l3 15h-6c-39 -80 -91 -134 -167 -134c-71 0 -112 51 -112 134h-5c-39 -78 -94 -134 -171 -134c-73 0 -115 51 -115 129c0 35 6 64 12 95l62 313h140l-62 -312c-4 -19 -8 -38 -8 -59c0 -28 13 -49 42 -49
c27 0 56 20 78 47s41 67 48 103l54 270h139l-62 -312c-4 -19 -8 -38 -8 -59c0 -28 13 -49 42 -49c27 0 56 20 78 47s41 67 48 103l54 270h140l-83 -413h90l-51 -252h-124z" />
    <glyph glyph-name="uni044A" unicode="&#x44a;" horiz-adv-x="627" 
d="M93 0l83 413h-123l22 112h263l-32 -156h128c93 0 146 -57 146 -148c0 -162 -114 -221 -219 -221h-268zM253 102h95c42 0 81 32 90 77c2 10 3 19 3 32c0 32 -22 56 -61 56h-94z" />
    <glyph glyph-name="uni044B" unicode="&#x44b;" horiz-adv-x="770" 
d="M14 0l105 525h140l-32 -156h117c93 0 146 -57 146 -148c0 -162 -114 -221 -219 -221h-257zM174 102h84c42 0 81 32 90 77c2 10 3 19 3 32c0 32 -22 56 -61 56h-83zM511 0l105 525h140l-105 -525h-140z" />
    <glyph glyph-name="uni044C" unicode="&#x44c;" horiz-adv-x="548" 
d="M14 0l105 525h140l-32 -156h128c93 0 146 -57 146 -148c0 -162 -114 -221 -219 -221h-268zM174 102h95c42 0 81 32 90 77c2 10 3 19 3 32c0 32 -22 56 -61 56h-94z" />
    <glyph glyph-name="uni044D" unicode="&#x44d;" horiz-adv-x="512" 
d="M159 218l20 98h161c1 9 2 18 2 30c0 47 -24 79 -88 79c-50 0 -82 -24 -108 -74l-107 60c58 86 118 126 227 126c123 0 215 -64 215 -227c0 -187 -117 -322 -286 -322c-112 0 -175 49 -201 131l113 52c20 -52 44 -70 96 -70c69 0 104 38 117 117h-161z" />
    <glyph glyph-name="uni044E" unicode="&#x44e;" horiz-adv-x="790" 
d="M495 -12c-128 0 -202 79 -202 219v4h-97l-42 -211h-140l105 525h140l-41 -202h89c35 128 128 214 250 214c128 0 202 -79 202 -219c0 -190 -108 -330 -264 -330zM500 101c53 0 83 40 98 115l19 94c2 10 3 22 3 39c0 44 -23 75 -68 75c-53 0 -83 -40 -98 -115l-19 -94
c-2 -10 -3 -22 -3 -39c0 -44 23 -75 68 -75z" />
    <glyph glyph-name="uni044F" unicode="&#x44f;" horiz-adv-x="566" 
d="M-10 0l22 112h54l34 52c16 24 39 37 63 39l1 6c-60 12 -98 52 -98 128c0 111 92 188 218 188h268l-105 -525h-140l37 183h-79l-71 -108c-37 -56 -70 -75 -123 -75h-81zM392 423h-95c-46 0 -81 -23 -90 -65c-1 -5 -2 -12 -2 -19c0 -29 22 -53 61 -53h99z" />
    <glyph glyph-name="uni0450" unicode="&#x450;" horiz-adv-x="515" 
d="M309 580l-105 176l126 59l68 -196zM253 -12c-149 0 -222 87 -222 226c0 168 111 323 285 323c79 0 188 -32 188 -146c0 -108 -97 -176 -332 -183c-2 -12 -2 -18 -2 -23c0 -50 24 -84 93 -84c46 0 81 14 128 73l86 -68c-65 -86 -134 -118 -224 -118zM308 430
c-59 0 -105 -42 -117 -110l-4 -23c150 9 181 38 181 80c0 45 -35 53 -60 53z" />
    <glyph glyph-name="uni0451" unicode="&#x451;" horiz-adv-x="515" 
d="M237 600c-47 0 -65 21 -65 48c0 7 2 17 6 40c6 34 30 63 85 63c47 0 65 -21 65 -48c0 -7 -2 -17 -6 -40c-6 -34 -30 -63 -85 -63zM437 600c-47 0 -65 21 -65 48c0 7 2 17 6 40c6 34 30 63 85 63c47 0 65 -21 65 -48c0 -7 -2 -17 -6 -40c-6 -34 -30 -63 -85 -63zM253 -12
c-149 0 -222 87 -222 226c0 168 111 323 285 323c79 0 188 -32 188 -146c0 -108 -97 -176 -332 -183c-2 -12 -2 -18 -2 -23c0 -50 24 -84 93 -84c46 0 81 14 128 73l86 -68c-65 -86 -134 -118 -224 -118zM308 430c-59 0 -105 -42 -117 -110l-4 -23c150 9 181 38 181 80
c0 45 -35 53 -60 53z" />
    <glyph glyph-name="uni0452" unicode="&#x452;" horiz-adv-x="585" 
d="M212 -200l22 112h75l80 400c4 19 7 36 7 56c0 30 -15 52 -53 52c-34 0 -62 -21 -85 -48c-24 -28 -42 -62 -50 -102l-54 -270h-140l118 592h-69l20 96h68l11 52h140l-11 -52h141l-20 -96h-140l-37 -189h6c40 84 92 134 174 134c81 0 126 -50 126 -136c0 -25 -4 -47 -9 -74
l-79 -388c-18 -91 -65 -139 -162 -139h-79z" />
    <glyph glyph-name="uni0453" unicode="&#x453;" horiz-adv-x="432" 
d="M469 755l-147 -176l-84 46l119 190zM14 0l105 525h343l-22 -112h-203l-83 -413h-140z" />
    <glyph glyph-name="uni0454" unicode="&#x454;" horiz-adv-x="512" 
d="M247 -12c-126 0 -216 64 -216 227c0 187 116 322 289 322c112 0 174 -49 196 -123l-116 -54c-14 42 -31 64 -88 64c-73 0 -104 -36 -119 -108h161l-20 -98h-161c-2 -12 -3 -24 -3 -35c0 -49 22 -82 89 -82c52 0 80 19 114 79l105 -59c-56 -90 -121 -133 -231 -133z" />
    <glyph glyph-name="uni0455" unicode="&#x455;" horiz-adv-x="497" 
d="M213 -12c-88 0 -165 31 -211 92l88 82c29 -39 67 -62 126 -62c65 0 90 28 90 58c0 20 -12 38 -49 43l-53 7c-90 12 -140 57 -140 141c0 99 70 188 218 188c81 0 149 -27 195 -83l-88 -82c-25 32 -67 53 -113 53c-47 0 -76 -23 -76 -55c0 -20 12 -38 49 -43l53 -7
c90 -12 140 -58 140 -140c0 -102 -79 -192 -229 -192z" />
    <glyph glyph-name="uni0456" unicode="&#x456;" horiz-adv-x="281" 
d="M202 583c-49 0 -72 20 -72 52c0 12 3 28 6 40c9 35 29 72 96 72c49 0 72 -20 72 -52c0 -12 -3 -28 -6 -40c-9 -35 -29 -72 -96 -72zM213 0h-91c-54 0 -90 32 -90 80c0 8 1 15 3 25l84 420h140l-83 -413h59z" />
    <glyph glyph-name="uni0457" unicode="&#x457;" horiz-adv-x="281" 
d="M103 600c-47 0 -65 21 -65 48c0 7 2 17 6 40c6 34 30 63 85 63c47 0 65 -21 65 -48c0 -7 -2 -17 -6 -40c-6 -34 -30 -63 -85 -63zM303 600c-47 0 -65 21 -65 48c0 7 2 17 6 40c6 34 30 63 85 63c47 0 65 -21 65 -48c0 -7 -2 -17 -6 -40c-6 -34 -30 -63 -85 -63zM213 0
h-91c-54 0 -90 32 -90 80c0 8 1 15 3 25l84 420h140l-83 -413h59z" />
    <glyph glyph-name="uni0458" unicode="&#x458;" horiz-adv-x="276" 
d="M0 -88l123 613h140l-119 -586c-18 -91 -65 -139 -162 -139h-79l22 112h75zM206 583c-49 0 -72 20 -72 52c0 12 3 28 6 40c9 35 29 72 96 72c49 0 72 -20 72 -52c0 -12 -3 -28 -6 -40c-9 -35 -29 -72 -96 -72z" />
    <glyph glyph-name="uni0459" unicode="&#x459;" horiz-adv-x="847" 
d="M-39 -6l24 118h67c34 40 62 108 90 248l33 165h394l-32 -156h117c93 0 146 -57 146 -148c0 -162 -114 -221 -219 -221h-257l82 413h-120l-10 -51c-40 -200 -76 -270 -119 -313c-42 -42 -89 -55 -149 -55h-47zM484 102h84c42 0 81 32 90 77c2 10 3 19 3 32
c0 32 -22 56 -61 56h-83z" />
    <glyph glyph-name="uni045A" unicode="&#x45a;" horiz-adv-x="839" 
d="M14 0l105 525h140l-41 -202h162l41 202h140l-32 -156h117c93 0 146 -57 146 -148c0 -162 -114 -221 -219 -221h-257l42 211h-162l-42 -211h-140zM476 102h84c42 0 81 32 90 77c2 10 3 19 3 32c0 32 -22 56 -61 56h-83z" />
    <glyph glyph-name="uni045B" unicode="&#x45b;" horiz-adv-x="588" 
d="M14 0l118 592h-69l20 96h68l11 52h140l-11 -52h141l-20 -96h-140l-37 -189h6c40 84 92 134 174 134c81 0 126 -50 126 -136c0 -25 -4 -47 -9 -74l-43 -215h53l-22 -112h-91c-53 0 -84 29 -84 76c0 12 2 23 3 28l41 208c4 19 7 36 7 56c0 30 -15 52 -53 52
c-34 0 -62 -21 -85 -48c-24 -28 -42 -62 -50 -102l-54 -270h-140z" />
    <glyph glyph-name="uni045C" unicode="&#x45c;" horiz-adv-x="571" 
d="M525 755l-147 -176l-84 46l119 190zM14 0l105 525h140l-41 -202h75l102 144c31 43 57 58 114 58h65l-23 -112h-50l-70 -99c-20 -28 -39 -38 -65 -42l-1 -6c22 -6 38 -19 49 -49l39 -105h52l-23 -112h-59c-51 0 -84 27 -103 79l-49 132h-75l-42 -211h-140z" />
    <glyph glyph-name="uni045D" unicode="&#x45d;" horiz-adv-x="582" 
d="M322 580l-105 176l126 59l68 -196zM114 525h140l-62 -312c-4 -19 -7 -38 -7 -53c0 -34 15 -55 49 -55s61 20 84 48s40 62 48 102l54 270h140l-83 -413h59l-22 -112h-93c-50 0 -88 28 -88 77c0 11 2 25 3 30l3 15h-6c-39 -82 -89 -134 -169 -134c-79 0 -124 50 -124 136
c0 26 4 49 9 76z" />
    <glyph glyph-name="uni045E" unicode="&#x45e;" horiz-adv-x="509" 
d="M295 579c-69 0 -119 32 -146 112l-17 51l115 43l16 -101c10 -4 29 -7 45 -7c18 0 35 3 43 7l46 101l111 -43l-30 -51c-44 -75 -103 -112 -183 -112zM314 327l94 198h149l-322 -610c-41 -77 -86 -115 -186 -115h-78l23 112h97l28 58l-74 555h139l20 -198l16 -196h6z" />
    <glyph glyph-name="uni045F" unicode="&#x45f;" horiz-adv-x="582" 
d="M164 -12c-79 0 -124 50 -124 136c0 26 4 49 9 76l65 325h140l-62 -312c-4 -19 -7 -38 -7 -53c0 -34 15 -55 49 -55s61 20 84 48s40 62 48 102l54 270h140l-83 -413h59l-22 -112h-93c-50 0 -88 28 -88 77c0 11 2 25 3 30l3 15h-6c-39 -82 -89 -134 -169 -134zM129 -200
l30 150h124l-30 -150h-124z" />
    <glyph glyph-name="uni0472" unicode="&#x472;" horiz-adv-x="695" 
d="M308 -12c-134 0 -251 85 -251 283c0 241 151 439 360 439c134 0 251 -85 251 -283c0 -241 -151 -439 -360 -439zM316 107c98 0 161 66 187 179h-305c-3 -17 -4 -34 -4 -46c0 -86 40 -133 122 -133zM409 591c-97 0 -162 -65 -187 -177h306c2 17 3 31 3 44
c0 86 -40 133 -122 133z" />
    <glyph glyph-name="uni0473" unicode="&#x473;" horiz-adv-x="542" 
d="M240 -12c-128 0 -209 81 -209 219c0 190 115 330 271 330c128 0 209 -81 209 -219c0 -190 -115 -330 -271 -330zM244 91c59 0 100 43 116 125h-196c-2 -10 -4 -23 -4 -37c0 -52 27 -88 84 -88zM298 434c-59 0 -99 -43 -115 -122h196c1 8 3 20 3 34c0 52 -27 88 -84 88z
" />
    <glyph glyph-name="uni0490" unicode="&#x490;" horiz-adv-x="497" 
d="M22 0l140 698h260l32 151h136l-57 -279h-252l-114 -570h-145z" />
    <glyph glyph-name="uni0491" unicode="&#x491;" horiz-adv-x="432" 
d="M14 0l105 525h219l28 140h124l-50 -252h-203l-83 -413h-140z" />
    <glyph glyph-name="uni0492" unicode="&#x492;" horiz-adv-x="532" 
d="M57 0l57 286h-84l22 106h84l61 306h397l-26 -128h-252l-36 -178h169l-22 -106h-168l-57 -286h-145z" />
    <glyph glyph-name="uni0493" unicode="&#x493;" horiz-adv-x="449" 
d="M31 0l41 206h-63l19 96h63l45 223h343l-22 -112h-203l-22 -111h123l-19 -96h-124l-41 -206h-140z" />
    <glyph glyph-name="uni0494" unicode="&#x494;" horiz-adv-x="649" 
d="M223 -184l27 135h96c30 26 54 70 65 124l11 54c4 20 8 42 8 59c0 54 -27 79 -94 79c-49 0 -85 -7 -119 -19l-50 -248h-145l140 698h397l-26 -128h-252l-40 -202h5c30 16 79 28 134 28c124 0 195 -66 195 -182c0 -26 -3 -59 -9 -89l-11 -54c-36 -174 -146 -255 -280 -255
h-52z" />
    <glyph glyph-name="uni0495" unicode="&#x495;" horiz-adv-x="554" 
d="M169 -200l23 115h84c19 15 36 44 44 84l22 105c2 12 3 28 3 42c0 32 -20 49 -58 49c-64 0 -100 -29 -112 -91l-21 -104h-140l105 525h343l-22 -112h-203l-39 -194h6c38 62 83 93 151 93c89 0 135 -52 135 -129c0 -27 -3 -53 -7 -73l-25 -121
c-26 -127 -108 -189 -226 -189h-63z" />
    <glyph glyph-name="uni0496" unicode="&#x496;" horiz-adv-x="1014" 
d="M775 -150l30 152c-45 6 -66 30 -83 83l-66 204h-82l-58 -289h-149l58 289h-81l-134 -214c-34 -54 -74 -75 -132 -75h-84l26 129h59l91 146c31 49 63 74 111 82l1 6c-25 10 -39 26 -51 57l-56 149h-59l26 129h37c64 0 93 -21 116 -84l74 -197h81l57 281h149l-57 -281h82
l148 210c36 50 70 71 133 71h59l-26 -129h-53l-99 -141c-30 -42 -56 -59 -94 -65l-1 -6c26 -10 44 -29 56 -66l52 -162h112l-57 -279h-136z" />
    <glyph glyph-name="uni0497" unicode="&#x497;" horiz-adv-x="845" 
d="M624 -140l28 141c-73 9 -106 56 -106 157c0 19 0 38 2 55h-73l-43 -213h-134l43 213h-71c-38 -152 -102 -213 -200 -213h-81l23 112h97c18 18 35 55 51 135c11 54 14 92 14 116c0 21 -2 38 -8 50h-81l23 112h51c91 0 132 -46 132 -158c0 -17 -1 -32 -2 -46h74l41 204h134
l-41 -204h72c38 145 101 204 198 204h67l-23 -112h-83c-18 -18 -35 -55 -51 -135c-11 -54 -14 -92 -14 -116c0 -21 2 -38 8 -50h128l-51 -252h-124z" />
    <glyph glyph-name="uni0498" unicode="&#x498;" horiz-adv-x="607" 
d="M137 -150l29 146c-71 16 -123 52 -168 116l111 87c36 -54 77 -82 141 -82c76 0 117 23 131 75c3 11 6 26 6 35c0 41 -27 62 -94 62h-98l26 128h97c70 0 106 20 116 62c3 13 5 28 5 42c0 35 -30 60 -94 60c-68 0 -121 -25 -161 -65l-84 99c66 60 151 95 261 95
c148 0 229 -63 229 -167c0 -96 -57 -162 -151 -182l-1 -5c75 -15 99 -70 99 -130c0 -123 -94 -216 -235 -235l-29 -141h-136z" />
    <glyph glyph-name="uni0499" unicode="&#x499;" horiz-adv-x="505" 
d="M104 -140l27 134c-60 11 -107 40 -141 83l88 82c26 -36 67 -58 123 -58c59 0 94 18 103 54c2 8 3 18 3 26c0 22 -15 37 -53 37h-102l20 98h98c33 0 59 10 68 41c2 7 3 14 3 21c0 27 -24 47 -79 47c-53 0 -97 -20 -131 -62l-80 77c60 66 128 97 229 97
c136 0 198 -58 198 -134c0 -71 -43 -119 -119 -131l-1 -5c52 -10 86 -44 86 -99c0 -96 -81 -160 -190 -176l-26 -132h-124z" />
    <glyph glyph-name="uni049A" unicode="&#x49a;" horiz-adv-x="683" 
d="M444 -150l30 152c-45 6 -66 30 -83 83l-66 204h-100l-58 -289h-145l140 698h145l-57 -281h100l148 210c36 50 67 71 128 71h64l-26 -129h-53l-99 -141c-30 -42 -56 -59 -94 -65l-1 -6c26 -10 44 -29 56 -66l52 -162h112l-57 -279h-136z" />
    <glyph glyph-name="uni049B" unicode="&#x49b;" horiz-adv-x="581" 
d="M368 -140l28 142c-36 8 -61 34 -76 77l-49 132h-75l-42 -211h-140l105 525h140l-41 -202h75l102 144c31 43 57 58 114 58h65l-23 -112h-50l-70 -99c-20 -28 -39 -38 -65 -42l-1 -6c22 -6 38 -19 49 -49l39 -105h90l-51 -252h-124z" />
    <glyph glyph-name="uni049C" unicode="&#x49c;" horiz-adv-x="740" 
d="M22 0l140 698h145l-56 -281h47l27 137h107l-27 -137h35l140 211c32 48 65 70 126 70h64l-26 -129h-53l-92 -138c-28 -43 -51 -62 -91 -68l-1 -6c28 -11 45 -30 56 -71l42 -157h59l-26 -129h-51c-68 0 -100 23 -117 85l-55 204h-36l-27 -135h-107l27 135h-46l-59 -289
h-145z" />
    <glyph glyph-name="uni049D" unicode="&#x49d;" horiz-adv-x="651" 
d="M14 0l105 525h140l-41 -202h46l23 115h87l-23 -115h32l96 146c29 44 53 56 110 56h65l-23 -112h-50l-61 -92c-22 -34 -38 -45 -64 -49l-1 -6c23 -6 36 -21 47 -56l31 -98h52l-23 -112h-59c-53 0 -85 30 -101 80l-41 131h-33l-23 -116h-87l23 116h-45l-42 -211h-140z" />
    <glyph glyph-name="uni04A0" unicode="&#x4a0;" horiz-adv-x="748" 
d="M110 0l114 570h-148l26 128h293l-57 -281h100l148 210c36 50 67 71 128 71h64l-26 -129h-53l-99 -141c-30 -42 -56 -59 -94 -65l-1 -6c26 -10 44 -29 56 -66l52 -162h59l-26 -129h-51c-68 0 -95 20 -116 85l-66 204h-100l-58 -289h-145z" />
    <glyph glyph-name="uni04A1" unicode="&#x4a1;" horiz-adv-x="650" 
d="M93 0l83 413h-123l22 112h263l-41 -202h75l102 144c31 43 57 58 114 58h65l-23 -112h-50l-70 -99c-20 -28 -39 -38 -65 -42l-1 -6c22 -6 38 -19 49 -49l39 -105h52l-23 -112h-59c-51 0 -84 27 -103 79l-49 132h-75l-42 -211h-140z" />
    <glyph glyph-name="uni04A2" unicode="&#x4a2;" horiz-adv-x="757" 
d="M517 -150l30 150h-120l58 289h-260l-58 -289h-145l140 698h145l-56 -281h260l56 281h145l-114 -569h112l-57 -279h-136z" />
    <glyph glyph-name="uni04A3" unicode="&#x4a3;" horiz-adv-x="640" 
d="M402 -140l28 140h-106l42 211h-170l-42 -211h-140l105 525h140l-41 -202h170l41 202h140l-82 -413h90l-51 -252h-124z" />
    <glyph glyph-name="uni04A4" unicode="&#x4a4;" horiz-adv-x="883" 
d="M22 0l140 698h145l-56 -281h240l57 281h397l-26 -128h-252l-114 -570h-145l58 289h-241l-58 -289h-145z" />
    <glyph glyph-name="uni04A5" unicode="&#x4a5;" horiz-adv-x="734" 
d="M14 0l105 525h140l-41 -202h162l41 202h343l-22 -112h-203l-83 -413h-140l42 211h-162l-42 -211h-140z" />
    <glyph glyph-name="uni04AA" unicode="&#x4aa;" horiz-adv-x="635" 
d="M204 -150l29 147c-107 27 -176 119 -176 275c0 246 155 438 358 438c124 0 203 -63 236 -170l-129 -54c-16 53 -44 95 -118 95c-93 0 -152 -70 -173 -175l-22 -110c-4 -20 -5 -37 -5 -50c0 -85 37 -129 115 -129s122 43 153 104l121 -55c-51 -100 -130 -156 -224 -172
l-29 -144h-136z" />
    <glyph glyph-name="uni04AB" unicode="&#x4ab;" horiz-adv-x="494" 
d="M136 -140l28 138c-78 23 -133 90 -133 217c0 187 120 322 279 322c100 0 175 -54 188 -136l-118 -45c-12 41 -27 68 -78 68c-59 0 -94 -36 -109 -110l-18 -89c-3 -14 -5 -28 -5 -42c0 -49 24 -82 79 -82c54 0 75 33 104 83l107 -50c-38 -80 -97 -128 -173 -141l-27 -133
h-124z" />
    <glyph glyph-name="uni04AE" unicode="&#x4ae;" horiz-adv-x="624" 
d="M330 0h-145l54 271l-148 427h148l94 -294h7l201 294h160l-319 -440z" />
    <glyph glyph-name="uni04AF" unicode="&#x4af;" horiz-adv-x="512" 
d="M86 -200l40 200l-80 525h139l22 -198l14 -180h7l79 180l98 198h149l-288 -525l-40 -200h-140z" />
    <glyph glyph-name="uni04B0" unicode="&#x4b0;" horiz-adv-x="624" 
d="M185 0l32 163h-138l21 106h138l-147 429h148l93 -290h7l202 290h160l-317 -429h138l-22 -106h-137l-33 -163h-145z" />
    <glyph glyph-name="uni04B1" unicode="&#x4b1;" horiz-adv-x="512" 
d="M-10 -96l20 96h116l-80 525h139l22 -198l14 -180h7l79 180l98 198h149l-288 -525h116l-19 -96h-116l-21 -104h-140l21 104h-117z" />
    <glyph glyph-name="uni04B2" unicode="&#x4b2;" horiz-adv-x="663" 
d="M434 -150l30 150h-50l-99 243h-8l-179 -243h-168l290 369l-146 329h156l95 -230h8l175 230h168l-287 -351l96 -218h112l-57 -279h-136z" />
    <glyph glyph-name="uni04B3" unicode="&#x4b3;" horiz-adv-x="531" 
d="M327 -140l28 140h-53l-64 172h-6l-130 -172h-153l228 274l-112 251h151l62 -175h6l130 175h153l-229 -273l64 -140h100l-51 -252h-124z" />
    <glyph glyph-name="uni04B6" unicode="&#x4b6;" horiz-adv-x="715" 
d="M475 -150l30 150h-120l50 252h-5c-30 -16 -78 -28 -138 -28c-129 0 -200 66 -200 182c0 26 2 55 9 89l41 203h145l-42 -207c-4 -20 -8 -42 -8 -59c0 -54 27 -79 99 -79c54 0 89 7 123 19l66 326h145l-114 -569h112l-57 -279h-136z" />
    <glyph glyph-name="uni04B7" unicode="&#x4b7;" horiz-adv-x="617" 
d="M379 -140l28 140h-105l52 257h-6c-38 -72 -85 -103 -153 -103c-89 0 -135 52 -135 129c0 27 3 53 7 73l34 169h140l-32 -161c-2 -12 -4 -30 -4 -44c0 -32 20 -49 58 -49c64 0 99 30 113 100l31 154h140l-83 -413h90l-51 -252h-124z" />
    <glyph glyph-name="uni04B8" unicode="&#x4b8;" horiz-adv-x="678" 
d="M405 0l51 252h-5c-18 -10 -43 -18 -72 -23l-24 -125h-107l23 121c-120 9 -179 73 -179 181c0 26 2 55 9 89l41 203h145l-42 -207c-4 -20 -8 -42 -8 -59c0 -42 15 -66 60 -75l28 147h107l-29 -149c30 3 54 9 77 17l65 326h145l-140 -698h-145z" />
    <glyph glyph-name="uni04B9" unicode="&#x4b9;" horiz-adv-x="581" 
d="M322 0l49 240h-6c-16 -30 -36 -53 -59 -68l-20 -99h-87l16 81c-113 0 -155 52 -155 129c0 27 3 53 7 73l34 169h140l-32 -161c-2 -12 -4 -30 -4 -44c0 -24 10 -38 34 -45l29 141h87l-29 -142c36 10 58 37 69 91l32 160h140l-105 -525h-140z" />
    <glyph glyph-name="uni04BA" unicode="&#x4ba;" horiz-adv-x="658" 
d="M22 0l140 698h145l-51 -252h5c30 16 79 28 139 28c129 0 200 -66 200 -182c0 -26 -2 -55 -9 -89l-41 -203h-145l42 207c4 20 8 42 8 59c0 54 -27 79 -99 79c-54 0 -90 -7 -124 -19l-65 -326h-145z" />
    <glyph glyph-name="uni04BB" unicode="&#x4bb;" horiz-adv-x="588" 
d="M14 0l148 740h140l-67 -337h6c40 84 92 134 174 134c81 0 126 -50 126 -136c0 -25 -4 -47 -9 -74l-43 -215h53l-22 -112h-91c-53 0 -84 29 -84 76c0 12 2 23 3 28l41 208c4 19 7 36 7 56c0 30 -15 52 -53 52c-34 0 -62 -21 -85 -48c-24 -28 -42 -62 -50 -102l-54 -270
h-140z" />
    <glyph glyph-name="uni04C0" unicode="&#x4c0;" horiz-adv-x="415" 
d="M314 0h-318l24 118h86l93 462h-86l23 118h318l-24 -118h-86l-93 -462h86z" />
    <glyph glyph-name="uni04C1" unicode="&#x4c1;" horiz-adv-x="991" 
d="M592 740c-69 0 -119 32 -146 112l-17 51l115 43l16 -101c10 -4 29 -7 45 -7c18 0 35 3 43 7l46 101l111 -43l-30 -51c-44 -75 -103 -112 -183 -112zM-6 0l26 129h59l91 146c31 49 63 74 111 82l1 6c-25 10 -39 26 -51 57l-56 149h-59l26 129h37c64 0 93 -21 116 -84
l74 -197h81l57 281h149l-57 -281h82l148 210c36 50 70 71 133 71h59l-26 -129h-53l-99 -141c-30 -42 -56 -59 -94 -65l-1 -6c26 -10 44 -29 56 -66l52 -162h59l-26 -129h-51c-68 0 -95 20 -116 85l-66 204h-82l-58 -289h-149l58 289h-81l-134 -214c-34 -54 -74 -75 -132 -75
h-84z" />
    <glyph glyph-name="uni04C2" unicode="&#x4c2;" horiz-adv-x="837" 
d="M483 579c-69 0 -119 32 -146 112l-17 51l115 43l16 -101c10 -4 29 -7 45 -7c18 0 35 3 43 7l46 101l111 -43l-30 -51c-44 -75 -103 -112 -183 -112zM-11 0l23 112h97c18 18 35 55 51 135c11 54 14 92 14 116c0 21 -2 38 -8 50h-81l23 112h51c91 0 132 -46 132 -158
c0 -17 -1 -32 -2 -46h74l41 204h134l-41 -204h72c38 145 101 204 198 204h67l-23 -112h-83c-18 -18 -35 -55 -51 -135c-11 -54 -14 -92 -14 -116c0 -21 2 -38 8 -50h93l-23 -112h-63c-91 0 -132 46 -132 158c0 19 0 38 2 55h-73l-43 -213h-134l43 213h-71
c-38 -152 -102 -213 -200 -213h-81z" />
    <glyph glyph-name="uni04CF" unicode="&#x4cf;" horiz-adv-x="273" 
d="M14 0l148 740h140l-148 -740h-140z" />
    <glyph glyph-name="uni04D0" unicode="&#x4d0;" horiz-adv-x="658" 
d="M421 740c-69 0 -119 32 -146 112l-17 51l115 43l16 -101c10 -4 29 -7 45 -7c18 0 35 3 43 7l46 101l111 -43l-30 -51c-44 -75 -103 -112 -183 -112zM588 0h-147l-16 170h-223l-82 -170h-155l359 698h185zM415 291l-21 276h-8l-127 -276h156z" />
    <glyph glyph-name="uni04D1" unicode="&#x4d1;" horiz-adv-x="591" 
d="M342 579c-69 0 -119 32 -146 112l-17 51l115 43l16 -101c10 -4 29 -7 45 -7c18 0 35 3 43 7l46 101l111 -43l-30 -51c-44 -75 -103 -112 -183 -112zM523 0h-93c-50 0 -88 28 -88 77c0 11 2 25 3 30l3 15h-6c-41 -85 -89 -134 -171 -134c-98 0 -140 77 -140 182
c0 223 110 367 244 367c73 0 124 -46 131 -103h5l18 91h140l-83 -413h59zM240 103c36 0 66 22 87 48c22 27 40 65 48 104l16 80c10 49 -24 87 -82 87c-62 0 -99 -38 -115 -117l-14 -70c-3 -14 -6 -41 -6 -57c0 -47 25 -75 66 -75z" />
    <glyph glyph-name="uni04D2" unicode="&#x4d2;" horiz-adv-x="658" 
d="M325 760c-46 0 -65 22 -65 49c0 7 2 15 6 39c6 34 30 63 85 63c46 0 65 -22 65 -49c0 -7 -2 -15 -6 -39c-6 -34 -30 -63 -85 -63zM525 760c-46 0 -65 22 -65 49c0 7 2 15 6 39c6 34 30 63 85 63c46 0 65 -22 65 -49c0 -7 -2 -15 -6 -39c-6 -34 -30 -63 -85 -63zM588 0
h-147l-16 170h-223l-82 -170h-155l359 698h185zM415 291l-21 276h-8l-127 -276h156z" />
    <glyph glyph-name="uni04D3" unicode="&#x4d3;" horiz-adv-x="591" 
d="M247 600c-47 0 -65 21 -65 48c0 7 2 17 6 40c6 34 30 63 85 63c47 0 65 -21 65 -48c0 -7 -2 -17 -6 -40c-6 -34 -30 -63 -85 -63zM447 600c-47 0 -65 21 -65 48c0 7 2 17 6 40c6 34 30 63 85 63c47 0 65 -21 65 -48c0 -7 -2 -17 -6 -40c-6 -34 -30 -63 -85 -63zM523 0
h-93c-50 0 -88 28 -88 77c0 11 2 25 3 30l3 15h-6c-41 -85 -89 -134 -171 -134c-98 0 -140 77 -140 182c0 223 110 367 244 367c73 0 124 -46 131 -103h5l18 91h140l-83 -413h59zM240 103c36 0 66 22 87 48c22 27 40 65 48 104l16 80c10 49 -24 87 -82 87
c-62 0 -99 -38 -115 -117l-14 -70c-3 -14 -6 -41 -6 -57c0 -47 25 -75 66 -75z" />
    <glyph glyph-name="uni04D4" unicode="&#x4d4;" horiz-adv-x="920" 
d="M364 0l34 169h-197l-101 -169h-156l444 698h565l-26 -128h-303l-31 -153h268l-26 -128h-268l-32 -161h314l-26 -128h-459zM478 570h-29l-171 -279h144z" />
    <glyph glyph-name="uni04D5" unicode="&#x4d5;" horiz-adv-x="827" 
d="M231 89c45 0 90 23 100 71l12 57l-81 -4c-41 -2 -77 -9 -87 -48c-4 -15 -4 -30 -4 -31c0 -30 24 -45 60 -45zM620 430c-59 0 -105 -42 -117 -110l-4 -19c150 9 181 36 181 76c0 45 -35 53 -60 53zM182 -12c-103 0 -157 53 -157 137c0 109 90 162 243 169l91 4l5 27
c2 12 3 21 3 30c0 46 -26 70 -81 70c-62 0 -95 -31 -122 -68l-82 79c49 63 124 101 215 101c77 0 129 -27 157 -76h7c42 47 97 76 169 76c77 0 186 -33 186 -145c0 -106 -98 -169 -332 -176c-2 -16 -2 -24 -2 -31c0 -50 24 -84 94 -84c45 0 80 14 127 73l86 -68
c-65 -86 -134 -118 -224 -118c-99 0 -164 38 -197 104h-7c-35 -74 -101 -104 -179 -104z" />
    <glyph glyph-name="uni04D6" unicode="&#x4d6;" horiz-adv-x="578" 
d="M396 740c-69 0 -119 32 -146 112l-17 51l115 43l16 -101c10 -4 29 -7 45 -7c18 0 35 3 43 7l46 101l111 -43l-30 -51c-44 -75 -103 -112 -183 -112zM481 0h-459l140 698h449l-26 -128h-303l-31 -153h268l-26 -128h-268l-32 -161h314z" />
    <glyph glyph-name="uni04D7" unicode="&#x4d7;" horiz-adv-x="515" 
d="M332 579c-69 0 -119 32 -146 112l-17 51l115 43l16 -101c10 -4 29 -7 45 -7c18 0 35 3 43 7l46 101l111 -43l-30 -51c-44 -75 -103 -112 -183 -112zM253 -12c-149 0 -222 87 -222 226c0 168 111 323 285 323c79 0 188 -32 188 -146c0 -108 -97 -176 -332 -183
c-2 -12 -2 -18 -2 -23c0 -50 24 -84 93 -84c46 0 81 14 128 73l86 -68c-65 -86 -134 -118 -224 -118zM308 430c-59 0 -105 -42 -117 -110l-4 -23c150 9 181 38 181 80c0 45 -35 53 -60 53z" />
    <glyph glyph-name="uni04D8" unicode="&#x4d8;" horiz-adv-x="696" 
d="M309 -12c-141 0 -252 86 -252 279c0 28 5 57 10 83l9 44h437c7 27 7 44 7 61c0 78 -45 125 -132 125c-76 0 -118 -43 -149 -114l-130 55c55 109 159 189 301 189c147 0 259 -93 259 -273c0 -253 -146 -449 -360 -449zM323 118c84 0 142 52 167 161h-285
c-2 -13 -2 -24 -2 -36c0 -82 40 -125 120 -125z" />
    <glyph glyph-name="uni04D9" unicode="&#x4d9;" horiz-adv-x="515" 
d="M199 -12c-79 0 -188 32 -188 146c0 108 97 176 332 183c2 12 2 18 2 23c0 50 -24 84 -93 84c-46 0 -81 -14 -128 -73l-86 68c65 86 134 118 224 118c149 0 222 -87 222 -226c0 -168 -111 -323 -285 -323zM207 95c59 0 105 42 117 110l4 23c-150 -9 -181 -38 -181 -80
c0 -45 35 -53 60 -53z" />
    <glyph glyph-name="uni04DC" unicode="&#x4dc;" horiz-adv-x="991" 
d="M496 760c-46 0 -65 22 -65 49c0 7 2 15 6 39c6 34 30 63 85 63c46 0 65 -22 65 -49c0 -7 -2 -15 -6 -39c-6 -34 -30 -63 -85 -63zM696 760c-46 0 -65 22 -65 49c0 7 2 15 6 39c6 34 30 63 85 63c46 0 65 -22 65 -49c0 -7 -2 -15 -6 -39c-6 -34 -30 -63 -85 -63zM-6 0
l26 129h59l91 146c31 49 63 74 111 82l1 6c-25 10 -39 26 -51 57l-56 149h-59l26 129h37c64 0 93 -21 116 -84l74 -197h81l57 281h149l-57 -281h82l148 210c36 50 70 71 133 71h59l-26 -129h-53l-99 -141c-30 -42 -56 -59 -94 -65l-1 -6c26 -10 44 -29 56 -66l52 -162h59
l-26 -129h-51c-68 0 -95 20 -116 85l-66 204h-82l-58 -289h-149l58 289h-81l-134 -214c-34 -54 -74 -75 -132 -75h-84z" />
    <glyph glyph-name="uni04DD" unicode="&#x4dd;" horiz-adv-x="837" 
d="M388 600c-47 0 -65 21 -65 48c0 7 2 17 6 40c6 34 30 63 85 63c47 0 65 -21 65 -48c0 -7 -2 -17 -6 -40c-6 -34 -30 -63 -85 -63zM588 600c-47 0 -65 21 -65 48c0 7 2 17 6 40c6 34 30 63 85 63c47 0 65 -21 65 -48c0 -7 -2 -17 -6 -40c-6 -34 -30 -63 -85 -63zM-11 0
l23 112h97c18 18 35 55 51 135c11 54 14 92 14 116c0 21 -2 38 -8 50h-81l23 112h51c91 0 132 -46 132 -158c0 -17 -1 -32 -2 -46h74l41 204h134l-41 -204h72c38 145 101 204 198 204h67l-23 -112h-83c-18 -18 -35 -55 -51 -135c-11 -54 -14 -92 -14 -116c0 -21 2 -38 8 -50
h93l-23 -112h-63c-91 0 -132 46 -132 158c0 19 0 38 2 55h-73l-43 -213h-134l43 213h-71c-38 -152 -102 -213 -200 -213h-81z" />
    <glyph glyph-name="uni04DE" unicode="&#x4de;" horiz-adv-x="607" 
d="M279 760c-46 0 -65 22 -65 49c0 7 2 15 6 39c6 34 30 63 85 63c46 0 65 -22 65 -49c0 -7 -2 -15 -6 -39c-6 -34 -30 -63 -85 -63zM479 760c-46 0 -65 22 -65 49c0 7 2 15 6 39c6 34 30 63 85 63c46 0 65 -22 65 -49c0 -7 -2 -15 -6 -39c-6 -34 -30 -63 -85 -63zM250 -12
c-116 0 -191 38 -252 124l111 87c36 -54 77 -82 141 -82c76 0 117 23 131 75c3 11 6 26 6 35c0 41 -27 62 -94 62h-98l26 128h97c70 0 106 20 116 62c3 13 5 28 5 42c0 35 -30 60 -94 60c-68 0 -121 -25 -161 -65l-84 99c66 60 151 95 261 95c148 0 229 -63 229 -167
c0 -96 -57 -162 -151 -182l-1 -5c75 -15 99 -70 99 -130c0 -136 -116 -238 -287 -238z" />
    <glyph glyph-name="uni04DF" unicode="&#x4df;" horiz-adv-x="505" 
d="M194 600c-47 0 -65 21 -65 48c0 7 2 17 6 40c6 34 30 63 85 63c47 0 65 -21 65 -48c0 -7 -2 -17 -6 -40c-6 -34 -30 -63 -85 -63zM394 600c-47 0 -65 21 -65 48c0 7 2 17 6 40c6 34 30 63 85 63c47 0 65 -21 65 -48c0 -7 -2 -17 -6 -40c-6 -34 -30 -63 -85 -63zM198 -12
c-94 0 -162 31 -208 89l88 82c26 -36 67 -58 123 -58c59 0 94 18 103 54c2 8 3 18 3 26c0 22 -15 37 -53 37h-102l20 98h98c33 0 59 10 68 41c2 7 3 14 3 21c0 27 -24 47 -79 47c-53 0 -97 -20 -131 -62l-80 77c60 66 128 97 229 97c136 0 198 -58 198 -134
c0 -71 -43 -119 -119 -131l-1 -5c52 -10 86 -44 86 -99c0 -111 -111 -180 -246 -180z" />
    <glyph glyph-name="uni04E2" unicode="&#x4e2;" horiz-adv-x="700" 
d="M316 785l20 102h278l-20 -102h-278zM22 0l140 698h141l-69 -345l-44 -143h3l92 133l296 355h131l-140 -698h-141l69 345l44 143h-3l-92 -133l-296 -355h-131z" />
    <glyph glyph-name="uni04E3" unicode="&#x4e3;" horiz-adv-x="582" 
d="M214 625l20 102h278l-20 -102h-278zM114 525h140l-62 -312c-4 -19 -7 -38 -7 -53c0 -34 15 -55 49 -55s61 20 84 48s40 62 48 102l54 270h140l-83 -413h59l-22 -112h-93c-50 0 -88 28 -88 77c0 11 2 25 3 30l3 15h-6c-39 -82 -89 -134 -169 -134c-79 0 -124 50 -124 136
c0 26 4 49 9 76z" />
    <glyph glyph-name="uni04E4" unicode="&#x4e4;" horiz-adv-x="700" 
d="M352 760c-46 0 -65 22 -65 49c0 7 2 15 6 39c6 34 30 63 85 63c46 0 65 -22 65 -49c0 -7 -2 -15 -6 -39c-6 -34 -30 -63 -85 -63zM552 760c-46 0 -65 22 -65 49c0 7 2 15 6 39c6 34 30 63 85 63c46 0 65 -22 65 -49c0 -7 -2 -15 -6 -39c-6 -34 -30 -63 -85 -63zM22 0
l140 698h141l-69 -345l-44 -143h3l92 133l296 355h131l-140 -698h-141l69 345l44 143h-3l-92 -133l-296 -355h-131z" />
    <glyph glyph-name="uni04E5" unicode="&#x4e5;" horiz-adv-x="582" 
d="M250 600c-47 0 -65 21 -65 48c0 7 2 17 6 40c6 34 30 63 85 63c47 0 65 -21 65 -48c0 -7 -2 -17 -6 -40c-6 -34 -30 -63 -85 -63zM450 600c-47 0 -65 21 -65 48c0 7 2 17 6 40c6 34 30 63 85 63c47 0 65 -21 65 -48c0 -7 -2 -17 -6 -40c-6 -34 -30 -63 -85 -63zM114 525
h140l-62 -312c-4 -19 -7 -38 -7 -53c0 -34 15 -55 49 -55s61 20 84 48s40 62 48 102l54 270h140l-83 -413h59l-22 -112h-93c-50 0 -88 28 -88 77c0 11 2 25 3 30l3 15h-6c-39 -82 -89 -134 -169 -134c-79 0 -124 50 -124 136c0 26 4 49 9 76z" />
    <glyph glyph-name="uni04E6" unicode="&#x4e6;" horiz-adv-x="695" 
d="M353 760c-46 0 -65 22 -65 49c0 7 2 15 6 39c6 34 30 63 85 63c46 0 65 -22 65 -49c0 -7 -2 -15 -6 -39c-6 -34 -30 -63 -85 -63zM553 760c-46 0 -65 22 -65 49c0 7 2 15 6 39c6 34 30 63 85 63c46 0 65 -22 65 -49c0 -7 -2 -15 -6 -39c-6 -34 -30 -63 -85 -63zM308 -12
c-134 0 -251 85 -251 283c0 241 151 439 360 439c134 0 251 -85 251 -283c0 -241 -151 -439 -360 -439zM318 117c93 0 154 66 177 179l21 105c4 21 5 38 5 52c0 84 -38 128 -114 128c-93 0 -154 -66 -177 -179l-21 -105c-4 -20 -5 -38 -5 -52c0 -84 38 -128 114 -128z" />
    <glyph glyph-name="uni04E7" unicode="&#x4e7;" horiz-adv-x="542" 
d="M231 600c-47 0 -65 21 -65 48c0 7 2 17 6 40c6 34 30 63 85 63c47 0 65 -21 65 -48c0 -7 -2 -17 -6 -40c-6 -34 -30 -63 -85 -63zM431 600c-47 0 -65 21 -65 48c0 7 2 17 6 40c6 34 30 63 85 63c47 0 65 -21 65 -48c0 -7 -2 -17 -6 -40c-6 -34 -30 -63 -85 -63zM240 -12
c-128 0 -209 81 -209 219c0 190 115 330 271 330c128 0 209 -81 209 -219c0 -190 -115 -330 -271 -330zM245 101c53 0 90 40 105 115l19 94c1 6 3 18 3 31c0 50 -26 83 -75 83c-53 0 -90 -40 -105 -115l-19 -94c-1 -6 -3 -18 -3 -31c0 -50 26 -83 75 -83z" />
    <glyph glyph-name="uni04E8" unicode="&#x4e8;" horiz-adv-x="695" 
d="M308 -12c-134 0 -251 85 -251 283c0 241 151 439 360 439c134 0 251 -85 251 -283c0 -241 -151 -439 -360 -439zM316 107c98 0 161 66 187 179h-305c-3 -17 -4 -34 -4 -46c0 -86 40 -133 122 -133zM409 591c-97 0 -162 -65 -187 -177h306c2 17 3 31 3 44
c0 86 -40 133 -122 133z" />
    <glyph glyph-name="uni04E9" unicode="&#x4e9;" horiz-adv-x="542" 
d="M240 -12c-128 0 -209 81 -209 219c0 190 115 330 271 330c128 0 209 -81 209 -219c0 -190 -115 -330 -271 -330zM244 91c59 0 100 43 116 125h-196c-2 -10 -4 -23 -4 -37c0 -52 27 -88 84 -88zM298 434c-59 0 -99 -43 -115 -122h196c1 8 3 20 3 34c0 52 -27 88 -84 88z
" />
    <glyph glyph-name="uni04EE" unicode="&#x4ee;" horiz-adv-x="611" 
d="M258 785l20 102h278l-20 -102h-278zM71 0l26 129h113l21 36l-131 533h146l51 -225l30 -158h7l70 152l127 231h154l-348 -600c-43 -73 -85 -98 -147 -98h-119z" />
    <glyph glyph-name="uni04EF" unicode="&#x4ef;" horiz-adv-x="509" 
d="M164 625l20 102h278l-20 -102h-278zM314 327l94 198h149l-322 -610c-41 -77 -86 -115 -186 -115h-78l23 112h97l28 58l-74 555h139l20 -198l16 -196h6z" />
    <glyph glyph-name="uni04F0" unicode="&#x4f0;" horiz-adv-x="611" 
d="M294 760c-46 0 -65 22 -65 49c0 7 2 15 6 39c6 34 30 63 85 63c46 0 65 -22 65 -49c0 -7 -2 -15 -6 -39c-6 -34 -30 -63 -85 -63zM494 760c-46 0 -65 22 -65 49c0 7 2 15 6 39c6 34 30 63 85 63c46 0 65 -22 65 -49c0 -7 -2 -15 -6 -39c-6 -34 -30 -63 -85 -63zM71 0
l26 129h113l21 36l-131 533h146l51 -225l30 -158h7l70 152l127 231h154l-348 -600c-43 -73 -85 -98 -147 -98h-119z" />
    <glyph glyph-name="uni04F1" unicode="&#x4f1;" horiz-adv-x="509" 
d="M200 600c-47 0 -65 21 -65 48c0 7 2 17 6 40c6 34 30 63 85 63c47 0 65 -21 65 -48c0 -7 -2 -17 -6 -40c-6 -34 -30 -63 -85 -63zM400 600c-47 0 -65 21 -65 48c0 7 2 17 6 40c6 34 30 63 85 63c47 0 65 -21 65 -48c0 -7 -2 -17 -6 -40c-6 -34 -30 -63 -85 -63zM314 327
l94 198h149l-322 -610c-41 -77 -86 -115 -186 -115h-78l23 112h97l28 58l-74 555h139l20 -198l16 -196h6z" />
    <glyph glyph-name="uni04F2" unicode="&#x4f2;" horiz-adv-x="611" 
d="M448 915l-141 -175l-77 38l113 193zM644 915l-142 -175l-76 38l113 193zM71 0l26 129h113l21 36l-131 533h146l51 -225l30 -158h7l70 152l127 231h154l-348 -600c-43 -73 -85 -98 -147 -98h-119z" />
    <glyph glyph-name="uni04F3" unicode="&#x4f3;" horiz-adv-x="509" 
d="M354 755l-141 -175l-77 38l113 193zM550 755l-142 -175l-76 38l113 193zM314 327l94 198h149l-322 -610c-41 -77 -86 -115 -186 -115h-78l23 112h97l28 58l-74 555h139l20 -198l16 -196h6z" />
    <glyph glyph-name="uni04F4" unicode="&#x4f4;" horiz-adv-x="658" 
d="M320 760c-46 0 -65 22 -65 49c0 7 2 15 6 39c6 34 30 63 85 63c46 0 65 -22 65 -49c0 -7 -2 -15 -6 -39c-6 -34 -30 -63 -85 -63zM520 760c-46 0 -65 22 -65 49c0 7 2 15 6 39c6 34 30 63 85 63c46 0 65 -22 65 -49c0 -7 -2 -15 -6 -39c-6 -34 -30 -63 -85 -63zM385 0
l51 252h-5c-30 -16 -79 -28 -139 -28c-129 0 -200 66 -200 182c0 26 2 55 9 89l41 203h145l-42 -207c-4 -20 -8 -42 -8 -59c0 -54 27 -79 99 -79c54 0 90 7 124 19l65 326h145l-140 -698h-145z" />
    <glyph glyph-name="uni04F5" unicode="&#x4f5;" horiz-adv-x="561" 
d="M241 600c-47 0 -65 21 -65 48c0 7 2 17 6 40c6 34 30 63 85 63c47 0 65 -21 65 -48c0 -7 -2 -17 -6 -40c-6 -34 -30 -63 -85 -63zM441 600c-47 0 -65 21 -65 48c0 7 2 17 6 40c6 34 30 63 85 63c47 0 65 -21 65 -48c0 -7 -2 -17 -6 -40c-6 -34 -30 -63 -85 -63zM302 0
l52 257h-6c-38 -72 -85 -103 -153 -103c-89 0 -135 52 -135 129c0 27 3 53 7 73l34 169h140l-32 -161c-2 -12 -4 -30 -4 -44c0 -32 20 -49 58 -49c64 0 99 30 113 100l31 154h140l-105 -525h-140z" />
    <glyph glyph-name="uni04F8" unicode="&#x4f8;" horiz-adv-x="916" 
d="M459 760c-46 0 -65 22 -65 49c0 7 2 15 6 39c6 34 30 63 85 63c46 0 65 -22 65 -49c0 -7 -2 -15 -6 -39c-6 -34 -30 -63 -85 -63zM659 760c-46 0 -65 22 -65 49c0 7 2 15 6 39c6 34 30 63 85 63c46 0 65 -22 65 -49c0 -7 -2 -15 -6 -39c-6 -34 -30 -63 -85 -63zM22 0
l141 698h145l-51 -255h126c139 0 217 -68 217 -185c0 -156 -114 -258 -272 -258h-306zM193 128h154c44 0 81 21 92 73c6 28 11 51 11 64c0 30 -19 50 -61 50h-159zM643 0l140 698h145l-140 -698h-145z" />
    <glyph glyph-name="uni04F9" unicode="&#x4f9;" horiz-adv-x="770" 
d="M354 600c-47 0 -65 21 -65 48c0 7 2 17 6 40c6 34 30 63 85 63c47 0 65 -21 65 -48c0 -7 -2 -17 -6 -40c-6 -34 -30 -63 -85 -63zM554 600c-47 0 -65 21 -65 48c0 7 2 17 6 40c6 34 30 63 85 63c47 0 65 -21 65 -48c0 -7 -2 -17 -6 -40c-6 -34 -30 -63 -85 -63zM14 0
l105 525h140l-32 -156h117c93 0 146 -57 146 -148c0 -162 -114 -221 -219 -221h-257zM174 102h84c42 0 81 32 90 77c2 10 3 19 3 32c0 32 -22 56 -61 56h-83zM511 0l105 525h140l-105 -525h-140z" />
    <glyph glyph-name="uni0E3F" unicode="&#xe3f;" horiz-adv-x="644" 
d="M329 20l-22 -110h-109l21 110h-193l132 658h193l21 102h109l-21 -102c112 -4 173 -67 173 -149c0 -83 -59 -140 -141 -159l-1 -5c65 -13 106 -68 106 -134c0 -112 -97 -211 -244 -211h-24zM241 407h65l30 153h-65zM427 560l-31 -153h10c40 0 67 23 75 63c6 30 7 37 7 44
c0 31 -21 46 -54 46h-7zM187 138h65l31 156h-65zM374 294l-31 -156h33c39 0 67 22 75 62c7 35 7 42 7 47c0 30 -20 47 -54 47h-30z" />
    <glyph glyph-name="Wgrave" unicode="&#x1e80;" horiz-adv-x="941" 
d="M543 740l-105 176l126 59l68 -196zM302 0h-172l-14 698h143l-4 -279l-11 -275h10l97 257l126 297h159l7 -282l-7 -282h10l87 250l118 314h146l-291 -698h-168l-8 291v245h-9l-89 -224z" />
    <glyph glyph-name="wgrave" unicode="&#x1e81;" horiz-adv-x="791" 
d="M426 580l-105 176l126 59l68 -196zM94 0l-40 525h139l7 -190l3 -178h6l65 152l98 216h130l14 -190l11 -185h6l62 159l90 216h138l-240 -525h-147l-15 175l-13 174h-6l-68 -151l-91 -198h-149z" />
    <glyph glyph-name="Wacute" unicode="&#x1e82;" horiz-adv-x="941" 
d="M732 915l-147 -176l-84 46l119 190zM302 0h-172l-14 698h143l-4 -279l-11 -275h10l97 257l126 297h159l7 -282l-7 -282h10l87 250l118 314h146l-291 -698h-168l-8 291v245h-9l-89 -224z" />
    <glyph glyph-name="wacute" unicode="&#x1e83;" horiz-adv-x="791" 
d="M615 755l-147 -176l-84 46l119 190zM94 0l-40 525h139l7 -190l3 -178h6l65 152l98 216h130l14 -190l11 -185h6l62 159l90 216h138l-240 -525h-147l-15 175l-13 174h-6l-68 -151l-91 -198h-149z" />
    <glyph glyph-name="Wdieresis" unicode="&#x1e84;" horiz-adv-x="941" 
d="M471 760c-46 0 -65 22 -65 49c0 7 2 15 6 39c6 34 30 63 85 63c46 0 65 -22 65 -49c0 -7 -2 -15 -6 -39c-6 -34 -30 -63 -85 -63zM671 760c-46 0 -65 22 -65 49c0 7 2 15 6 39c6 34 30 63 85 63c46 0 65 -22 65 -49c0 -7 -2 -15 -6 -39c-6 -34 -30 -63 -85 -63zM302 0
h-172l-14 698h143l-4 -279l-11 -275h10l97 257l126 297h159l7 -282l-7 -282h10l87 250l118 314h146l-291 -698h-168l-8 291v245h-9l-89 -224z" />
    <glyph glyph-name="wdieresis" unicode="&#x1e85;" horiz-adv-x="791" 
d="M354 600c-47 0 -65 21 -65 48c0 7 2 17 6 40c6 34 30 63 85 63c47 0 65 -21 65 -48c0 -7 -2 -17 -6 -40c-6 -34 -30 -63 -85 -63zM554 600c-47 0 -65 21 -65 48c0 7 2 17 6 40c6 34 30 63 85 63c47 0 65 -21 65 -48c0 -7 -2 -17 -6 -40c-6 -34 -30 -63 -85 -63zM94 0
l-40 525h139l7 -190l3 -178h6l65 152l98 216h130l14 -190l11 -185h6l62 159l90 216h138l-240 -525h-147l-15 175l-13 174h-6l-68 -151l-91 -198h-149z" />
    <glyph glyph-name="uni1E9E" unicode="&#x1e9e;" horiz-adv-x="724" 
d="M429 110c53 0 85 34 96 79c7 28 9 43 9 52c0 35 -17 61 -73 61h-106l23 117l161 151h-258l-114 -570h-145l140 698h553l-28 -139l-153 -144l-1 -5c76 -6 147 -62 147 -166c0 -122 -89 -256 -257 -256c-106 0 -160 38 -191 92l108 84c21 -33 45 -54 89 -54z" />
    <glyph glyph-name="uni1EA0" unicode="&#x1ea0;" horiz-adv-x="658" 
d="M248 -202c-51 0 -70 21 -70 52c0 7 2 14 6 38c6 34 29 58 84 58c49 0 69 -21 69 -52c0 -7 -2 -14 -6 -38c-6 -34 -29 -58 -83 -58zM588 0h-147l-16 170h-223l-82 -170h-155l359 698h185zM415 291l-21 276h-8l-127 -276h156z" />
    <glyph glyph-name="uni1EA1" unicode="&#x1ea1;" horiz-adv-x="591" 
d="M219 -202c-51 0 -70 21 -70 52c0 7 2 14 6 38c6 34 29 58 84 58c49 0 69 -21 69 -52c0 -7 -2 -14 -6 -38c-6 -34 -29 -58 -83 -58zM523 0h-93c-50 0 -88 28 -88 77c0 11 2 25 3 30l3 15h-6c-41 -85 -89 -134 -171 -134c-98 0 -140 77 -140 182c0 223 110 367 244 367
c73 0 124 -46 131 -103h5l18 91h140l-83 -413h59zM240 103c36 0 66 22 87 48c22 27 40 65 48 104l16 80c10 49 -24 87 -82 87c-62 0 -99 -38 -115 -117l-14 -70c-3 -14 -6 -41 -6 -57c0 -47 25 -75 66 -75z" />
    <glyph glyph-name="uni1EA2" unicode="&#x1ea2;" horiz-adv-x="658" 
d="M332 858l20 104h146c52 0 78 -25 78 -57c0 -42 -23 -72 -51 -108l-56 -66l-69 34l49 93h-117zM588 0h-147l-16 170h-223l-82 -170h-155l359 698h185zM415 291l-21 276h-8l-127 -276h156z" />
    <glyph glyph-name="uni1EA3" unicode="&#x1ea3;" horiz-adv-x="591" 
d="M249 698l20 104h146c52 0 78 -25 78 -57c0 -42 -23 -72 -51 -108l-56 -66l-69 34l49 93h-117zM523 0h-93c-50 0 -88 28 -88 77c0 11 2 25 3 30l3 15h-6c-41 -85 -89 -134 -171 -134c-98 0 -140 77 -140 182c0 223 110 367 244 367c73 0 124 -46 131 -103h5l18 91h140
l-83 -413h59zM240 103c36 0 66 22 87 48c22 27 40 65 48 104l16 80c10 49 -24 87 -82 87c-62 0 -99 -38 -115 -117l-14 -70c-3 -14 -6 -41 -6 -57c0 -47 25 -75 66 -75z" />
    <glyph glyph-name="uni1EA4" unicode="&#x1ea4;" horiz-adv-x="658" 
d="M754 1070l-136 -175l-76 40l104 190zM408 940h90l113 -146l-71 -63l-103 104l-135 -104l-65 63zM588 0h-147l-16 170h-223l-82 -170h-155l359 698h185zM415 291l-21 276h-8l-127 -276h156z" />
    <glyph glyph-name="uni1EA5" unicode="&#x1ea5;" horiz-adv-x="591" 
d="M682 910l-136 -175l-76 40l104 190zM336 780h90l113 -148l-71 -63l-98 105l-142 -105l-63 63zM523 0h-93c-50 0 -88 28 -88 77c0 11 2 25 3 30l3 15h-6c-41 -85 -89 -134 -171 -134c-98 0 -140 77 -140 182c0 223 110 367 244 367c73 0 124 -46 131 -103h5l18 91h140
l-83 -413h59zM240 103c36 0 66 22 87 48c22 27 40 65 48 104l16 80c10 49 -24 87 -82 87c-62 0 -99 -38 -115 -117l-14 -70c-3 -14 -6 -41 -6 -57c0 -47 25 -75 66 -75z" />
    <glyph glyph-name="uni1EA6" unicode="&#x1ea6;" horiz-adv-x="658" 
d="M277 894l-112 176l112 55l73 -193zM407 940h90l113 -146l-71 -63l-103 104l-135 -104l-65 63zM588 0h-147l-16 170h-223l-82 -170h-155l359 698h185zM415 291l-21 276h-8l-127 -276h156z" />
    <glyph glyph-name="uni1EA7" unicode="&#x1ea7;" horiz-adv-x="591" 
d="M206 734l-112 176l112 55l73 -193zM336 780h90l113 -148l-71 -63l-98 105l-142 -105l-63 63zM523 0h-93c-50 0 -88 28 -88 77c0 11 2 25 3 30l3 15h-6c-41 -85 -89 -134 -171 -134c-98 0 -140 77 -140 182c0 223 110 367 244 367c73 0 124 -46 131 -103h5l18 91h140
l-83 -413h59zM240 103c36 0 66 22 87 48c22 27 40 65 48 104l16 80c10 49 -24 87 -82 87c-62 0 -99 -38 -115 -117l-14 -70c-3 -14 -6 -41 -6 -57c0 -47 25 -75 66 -75z" />
    <glyph glyph-name="uni1EA8" unicode="&#x1ea8;" horiz-adv-x="658" 
d="M495 1011l20 101h135c52 0 76 -25 76 -57c0 -42 -21 -72 -50 -108l-57 -66l-68 34l52 96h-108zM407 940h90l113 -146l-71 -63l-103 104l-135 -104l-65 63zM588 0h-147l-16 170h-223l-82 -170h-155l359 698h185zM415 291l-21 276h-8l-127 -276h156z" />
    <glyph glyph-name="uni1EA9" unicode="&#x1ea9;" horiz-adv-x="591" 
d="M424 851l20 101h135c52 0 76 -25 76 -57c0 -42 -21 -72 -50 -108l-57 -66l-68 34l52 96h-108zM336 780h90l113 -148l-71 -63l-98 105l-142 -105l-63 63zM523 0h-93c-50 0 -88 28 -88 77c0 11 2 25 3 30l3 15h-6c-41 -85 -89 -134 -171 -134c-98 0 -140 77 -140 182
c0 223 110 367 244 367c73 0 124 -46 131 -103h5l18 91h140l-83 -413h59zM240 103c36 0 66 22 87 48c22 27 40 65 48 104l16 80c10 49 -24 87 -82 87c-62 0 -99 -38 -115 -117l-14 -70c-3 -14 -6 -41 -6 -57c0 -47 25 -75 66 -75z" />
    <glyph glyph-name="uni1EAA" unicode="&#x1eaa;" horiz-adv-x="658" 
d="M419 1101c25 0 41 -9 64 -20c26 -13 44 -22 67 -22c19 0 34 8 57 25l35 -65c-30 -35 -71 -62 -119 -62c-25 0 -41 9 -64 20c-26 13 -44 22 -67 22c-19 0 -34 -8 -57 -25l-35 65c30 35 71 62 119 62zM404 928h91l115 -134l-72 -63l-103 104l-135 -104l-64 63zM588 0h-147
l-16 170h-223l-82 -170h-155l359 698h185zM415 291l-21 276h-8l-127 -276h156z" />
    <glyph glyph-name="uni1EAB" unicode="&#x1eab;" horiz-adv-x="591" 
d="M340 941c25 0 41 -9 64 -20c26 -13 44 -22 67 -22c19 0 34 8 57 25l35 -65c-30 -35 -71 -62 -119 -62c-25 0 -41 9 -64 20c-26 13 -44 22 -67 22c-19 0 -34 -8 -57 -25l-35 65c30 35 71 62 119 62zM330 768h91l115 -134l-72 -63l-103 104l-135 -104l-64 63zM523 0h-93
c-50 0 -88 28 -88 77c0 11 2 25 3 30l3 15h-6c-41 -85 -89 -134 -171 -134c-98 0 -140 77 -140 182c0 223 110 367 244 367c73 0 124 -46 131 -103h5l18 91h140l-83 -413h59zM240 103c36 0 66 22 87 48c22 27 40 65 48 104l16 80c10 49 -24 87 -82 87
c-62 0 -99 -38 -115 -117l-14 -70c-3 -14 -6 -41 -6 -57c0 -47 25 -75 66 -75z" />
    <glyph glyph-name="uni1EAC" unicode="&#x1eac;" horiz-adv-x="658" 
d="M248 -202c-51 0 -70 21 -70 52c0 7 2 14 6 38c6 34 29 58 84 58c49 0 69 -21 69 -52c0 -7 -2 -14 -6 -38c-6 -34 -29 -58 -83 -58zM392 954h122l100 -158l-75 -57l-99 115l-134 -115l-70 57zM588 0h-147l-16 170h-223l-82 -170h-155l359 698h185zM415 291l-21 276h-8
l-127 -276h156z" />
    <glyph glyph-name="uni1EAD" unicode="&#x1ead;" horiz-adv-x="591" 
d="M219 -202c-51 0 -70 21 -70 52c0 7 2 14 6 38c6 34 29 58 84 58c49 0 69 -21 69 -52c0 -7 -2 -14 -6 -38c-6 -34 -29 -58 -83 -58zM314 794h122l100 -158l-75 -57l-99 115l-134 -115l-70 57zM523 0h-93c-50 0 -88 28 -88 77c0 11 2 25 3 30l3 15h-6
c-41 -85 -89 -134 -171 -134c-98 0 -140 77 -140 182c0 223 110 367 244 367c73 0 124 -46 131 -103h5l18 91h140l-83 -413h59zM240 103c36 0 66 22 87 48c22 27 40 65 48 104l16 80c10 49 -24 87 -82 87c-62 0 -99 -38 -115 -117l-14 -70c-3 -14 -6 -41 -6 -57
c0 -47 25 -75 66 -75z" />
    <glyph glyph-name="uni1EAE" unicode="&#x1eae;" horiz-adv-x="658" 
d="M426 732c-120 0 -167 73 -183 149l77 47l16 -29c30 -51 47 -68 96 -68c40 0 67 16 116 68l27 29l71 -47c-52 -84 -110 -149 -220 -149zM600 1069l-138 -176l-75 40l106 194zM588 0h-147l-16 170h-223l-82 -170h-155l359 698h185zM415 291l-21 276h-8l-127 -276h156z" />
    <glyph glyph-name="uni1EAF" unicode="&#x1eaf;" horiz-adv-x="591" 
d="M348 572c-120 0 -167 75 -183 151l75 45l16 -29c30 -51 47 -68 96 -68c40 0 67 16 116 68l27 29l73 -49c-52 -84 -110 -147 -220 -147zM522 909l-138 -176l-76 40l107 194zM523 0h-93c-50 0 -88 28 -88 77c0 11 2 25 3 30l3 15h-6c-41 -85 -89 -134 -171 -134
c-98 0 -140 77 -140 182c0 223 110 367 244 367c73 0 124 -46 131 -103h5l18 91h140l-83 -413h59zM240 103c36 0 66 22 87 48c22 27 40 65 48 104l16 80c10 49 -24 87 -82 87c-62 0 -99 -38 -115 -117l-14 -70c-3 -14 -6 -41 -6 -57c0 -47 25 -75 66 -75z" />
    <glyph glyph-name="uni1EB0" unicode="&#x1eb0;" horiz-adv-x="658" 
d="M426 732c-120 0 -167 73 -183 149l77 47l16 -29c30 -51 47 -68 96 -68c40 0 67 16 116 68l27 29l71 -47c-52 -84 -110 -149 -220 -149zM423 894l-97 176l120 55l60 -193zM588 0h-147l-16 170h-223l-82 -170h-155l359 698h185zM415 291l-21 276h-8l-127 -276h156z" />
    <glyph glyph-name="uni1EB1" unicode="&#x1eb1;" horiz-adv-x="591" 
d="M348 572c-120 0 -167 75 -183 151l75 45l16 -29c30 -51 47 -68 96 -68c40 0 67 16 116 68l27 29l73 -49c-52 -84 -110 -147 -220 -147zM345 734l-97 176l120 55l60 -193zM523 0h-93c-50 0 -88 28 -88 77c0 11 2 25 3 30l3 15h-6c-41 -85 -89 -134 -171 -134
c-98 0 -140 77 -140 182c0 223 110 367 244 367c73 0 124 -46 131 -103h5l18 91h140l-83 -413h59zM240 103c36 0 66 22 87 48c22 27 40 65 48 104l16 80c10 49 -24 87 -82 87c-62 0 -99 -38 -115 -117l-14 -70c-3 -14 -6 -41 -6 -57c0 -47 25 -75 66 -75z" />
    <glyph glyph-name="uni1EB2" unicode="&#x1eb2;" horiz-adv-x="658" 
d="M336 1011l20 101h134c52 0 77 -25 77 -57c0 -42 -22 -72 -50 -108l-57 -66l-68 34l51 96h-107zM426 732c-120 0 -167 73 -183 149l77 47l16 -29c30 -51 47 -68 96 -68c40 0 67 16 116 68l27 29l71 -47c-52 -84 -110 -149 -220 -149zM588 0h-147l-16 170h-223l-82 -170
h-155l359 698h185zM415 291l-21 276h-8l-127 -276h156z" />
    <glyph glyph-name="uni1EB3" unicode="&#x1eb3;" horiz-adv-x="591" 
d="M348 572c-120 0 -167 75 -183 151l75 45l16 -29c30 -51 47 -68 96 -68c40 0 67 16 116 68l27 29l73 -49c-52 -84 -110 -147 -220 -147zM258 851l20 101h134c52 0 77 -25 77 -57c0 -42 -22 -72 -50 -108l-57 -66l-68 34l51 96h-107zM523 0h-93c-50 0 -88 28 -88 77
c0 11 2 25 3 30l3 15h-6c-41 -85 -89 -134 -171 -134c-98 0 -140 77 -140 182c0 223 110 367 244 367c73 0 124 -46 131 -103h5l18 91h140l-83 -413h59zM240 103c36 0 66 22 87 48c22 27 40 65 48 104l16 80c10 49 -24 87 -82 87c-62 0 -99 -38 -115 -117l-14 -70
c-3 -14 -6 -41 -6 -57c0 -47 25 -75 66 -75z" />
    <glyph glyph-name="uni1EB4" unicode="&#x1eb4;" horiz-adv-x="658" 
d="M512 947c-27 0 -45 9 -68 20c-25 13 -43 22 -68 22c-21 0 -38 -8 -62 -25l-34 65c28 35 70 62 121 62c27 0 45 -9 68 -20c25 -13 43 -22 68 -22c21 0 38 8 62 25l34 -65c-28 -35 -70 -62 -121 -62zM426 732c-120 0 -167 73 -183 149l77 47l16 -29c30 -51 47 -68 96 -68
c40 0 67 16 116 68l27 29l71 -47c-52 -84 -110 -149 -220 -149zM588 0h-147l-16 170h-223l-82 -170h-155l359 698h185zM415 291l-21 276h-8l-127 -276h156z" />
    <glyph glyph-name="uni1EB5" unicode="&#x1eb5;" horiz-adv-x="591" 
d="M348 572c-120 0 -167 75 -183 151l75 45l16 -29c30 -51 47 -68 96 -68c40 0 67 16 116 68l27 29l73 -49c-52 -84 -110 -147 -220 -147zM434 787c-27 0 -45 9 -68 20c-25 13 -43 22 -68 22c-21 0 -38 -8 -62 -25l-34 65c28 35 70 62 121 62c27 0 45 -9 68 -20
c25 -13 43 -22 68 -22c21 0 38 8 62 25l34 -65c-28 -35 -70 -62 -121 -62zM523 0h-93c-50 0 -88 28 -88 77c0 11 2 25 3 30l3 15h-6c-41 -85 -89 -134 -171 -134c-98 0 -140 77 -140 182c0 223 110 367 244 367c73 0 124 -46 131 -103h5l18 91h140l-83 -413h59zM240 103
c36 0 66 22 87 48c22 27 40 65 48 104l16 80c10 49 -24 87 -82 87c-62 0 -99 -38 -115 -117l-14 -70c-3 -14 -6 -41 -6 -57c0 -47 25 -75 66 -75z" />
    </font>
</defs>
</svg>
