<?xml version="1.0" standalone="no"?>
<!DOCTYPE svg PUBLIC "-//W3C//DTD SVG 1.1//EN" "http://www.w3.org/Graphics/SVG/1.1/DTD/svg11.dtd" >
<svg xmlns="http://www.w3.org/2000/svg" xmlns:xlink="http://www.w3.org/1999/xlink" version="1.1">
<metadata>
Created by FontForge 20180714 at Tue Aug 14 16:09:28 2018
 By Gisle,,,,
Copyright 2018 IBM Corp. All rights reserved.
</metadata>
<defs>
<font id="Aneliza-Italic" horiz-adv-x="0" >
  <font-face 
    font-family="Aneliza"
    font-weight="400"
    font-style="italic"
    font-stretch="normal"
    units-per-em="1000"
    panose-1="2 11 5 3 5 2 3 0 2 3"
    ascent="780"
    descent="-220"
    x-height="516"
    cap-height="698"
    bbox="-245 -245 1180 1120"
    underline-thickness="60"
    underline-position="-125"
    slope="-11.31"
    stemh="68"
    stemv="68"
    unicode-range="U+0020-FB02"
  />
<missing-glyph horiz-adv-x="472" 
d="M32 0v780h408v-780h-408zM92 60h288v660h-288v-660z" />
    <glyph glyph-name="fi" unicode="fi" horiz-adv-x="555" 
d="M64 448l13 68h85l22 110c14 70 46 114 126 114h79l-13 -68h-105l-32 -156h268l-89 -448h73l-13 -68h-67c-46 0 -69 26 -69 64c0 7 1 15 2 20l73 364h-191l-108 -534c-14 -70 -46 -114 -126 -114h-67l13 68h93l118 580h-85zM497 637c-31 0 -42 16 -42 35c0 4 0 9 4 28
c5 25 21 40 54 40c31 0 42 -16 42 -35c0 -4 0 -9 -4 -28c-5 -25 -21 -40 -54 -40z" />
    <glyph glyph-name=".notdef" horiz-adv-x="472" 
d="M32 0v780h408v-780h-408zM92 60h288v660h-288v-660z" />
    <glyph glyph-name="space" unicode=" " horiz-adv-x="236" 
 />
    <glyph glyph-name="exclam" unicode="!" horiz-adv-x="271" 
d="M140 185h-38l39 309l41 204h83l-41 -204zM88 -12c-32 0 -51 14 -51 40c0 9 2 24 4 34c6 27 20 55 65 55c32 0 51 -14 51 -40c0 -9 -2 -24 -4 -34c-6 -27 -20 -55 -65 -55z" />
    <glyph glyph-name="quotedbl" unicode="&#x22;" horiz-adv-x="409" 
d="M368 460h-71l56 280h71zM192 460h-71l56 280h71z" />
    <glyph glyph-name="numbersign" unicode="#" horiz-adv-x="681" 
d="M298 0l76 205h-133l-76 -205h-67l76 205h-127l11 58h137l62 172h-126l11 58h137l75 205h67l-75 -205h133l75 205h67l-75 -205h126l-11 -58h-137l-62 -172h126l-11 -58h-136l-76 -205h-67zM262 263h133l62 172h-133z" />
    <glyph glyph-name="dollar" unicode="$" horiz-adv-x="579" 
d="M182 -82l16 82c-83 11 -150 51 -187 120l59 49c32 -58 80 -90 144 -99l52 262c-110 20 -163 77 -163 167c0 106 80 195 237 201l16 80h60l-17 -85c76 -11 133 -48 164 -108l-63 -48c-20 40 -60 74 -117 86l-47 -237c121 -22 174 -78 174 -169c0 -119 -89 -213 -252 -220
l-16 -81h-60zM429 211c0 56 -31 95 -107 109l-50 -251c104 7 157 70 157 142zM184 506c0 -54 30 -90 96 -104l45 227c-86 -5 -141 -50 -141 -123z" />
    <glyph glyph-name="percent" unicode="%" horiz-adv-x="900" 
d="M198 0h-80l604 698h80zM227 314c-79 0 -125 53 -125 143c0 132 68 253 188 253c78 0 125 -53 125 -143c0 -132 -68 -253 -188 -253zM233 364c51 0 83 44 98 116l14 68c2 10 4 26 4 37c0 48 -23 75 -65 75c-51 0 -83 -44 -98 -116l-14 -68c-2 -10 -4 -26 -4 -37
c0 -48 23 -75 65 -75zM630 -12c-79 0 -125 53 -125 143c0 132 68 253 188 253c78 0 125 -53 125 -143c0 -132 -68 -253 -188 -253zM636 38c51 0 83 44 98 116l14 68c2 10 4 26 4 37c0 48 -23 75 -65 75c-51 0 -83 -44 -98 -116l-14 -68c-2 -10 -4 -26 -4 -37
c0 -48 23 -75 65 -75z" />
    <glyph glyph-name="ampersand" unicode="&#x26;" horiz-adv-x="670" 
d="M494 0l-61 85c-60 -62 -135 -97 -219 -97c-116 0 -177 67 -177 163c0 120 94 183 184 228c-25 35 -48 79 -48 133c0 100 74 198 194 198c74 0 147 -42 147 -131c0 -109 -101 -173 -192 -218l114 -160c29 51 49 109 63 167h133l-14 -68h-69c-19 -57 -43 -111 -72 -156
l103 -144h-86zM360 645c-57 0 -99 -43 -110 -99c-2 -10 -3 -19 -3 -29c0 -33 9 -64 40 -107c78 37 151 81 151 156c0 51 -33 79 -78 79zM229 56c68 0 123 33 165 83l-138 191c-70 -34 -126 -69 -139 -136c-2 -10 -3 -20 -3 -31c0 -68 41 -107 115 -107z" />
    <glyph glyph-name="quotesingle" unicode="'" horiz-adv-x="233" 
d="M192 460h-71l56 280h71z" />
    <glyph glyph-name="parenleft" unicode="(" horiz-adv-x="328" 
d="M76 198c0 249 132 450 274 562h76c-128 -103 -229 -256 -256 -391l-17 -85c-6 -30 -9 -62 -9 -94c0 -122 36 -241 101 -327h-67c-57 74 -102 190 -102 335z" />
    <glyph glyph-name="parenright" unicode=")" horiz-adv-x="328" 
d="M274 425c0 -249 -132 -450 -274 -562h-76c128 103 229 256 256 391l17 85c6 30 9 62 9 94c0 122 -36 241 -101 327h67c57 -74 102 -190 102 -335z" />
    <glyph glyph-name="asterisk" unicode="*" horiz-adv-x="452" 
d="M277 512l-105 -132l-52 45l117 120l-134 38l31 65l127 -53l25 152h68l-35 -152l143 52l12 -64l-148 -41l68 -118l-58 -39z" />
    <glyph glyph-name="plus" unicode="+" horiz-adv-x="600" 
d="M298 62h-73l42 210h-189l13 66h190l42 210h73l-42 -210h187l-13 -66h-188z" />
    <glyph glyph-name="comma" unicode="," horiz-adv-x="273" 
d="M102 117c32 0 51 -14 51 -40c0 -9 -2 -21 -4 -31c-11 -51 -48 -130 -116 -179h-65c49 43 77 82 98 127c-21 5 -33 16 -33 37c0 9 2 21 4 31c6 27 20 55 65 55z" />
    <glyph glyph-name="hyphen" unicode="-" horiz-adv-x="387" 
d="M320 263h-251l16 82h251z" />
    <glyph glyph-name="period" unicode="." horiz-adv-x="273" 
d="M86 -12c-32 0 -51 14 -51 40c0 9 2 24 4 34c6 27 20 55 65 55c32 0 51 -14 51 -40c0 -9 -2 -24 -4 -34c-6 -27 -20 -55 -65 -55z" />
    <glyph glyph-name="slash" unicode="/" horiz-adv-x="378" 
d="M3 -151h-71l429 891h71z" />
    <glyph glyph-name="zero" unicode="0" horiz-adv-x="600" 
d="M255 -12c-126 0 -187 97 -187 240c0 214 96 482 306 482c126 0 187 -97 187 -240c0 -214 -96 -482 -306 -482zM265 59c97 0 158 94 185 230l21 105c6 30 9 62 9 90c0 95 -39 155 -116 155c-97 0 -158 -94 -185 -230l-21 -105c-6 -30 -9 -62 -9 -90
c0 -95 39 -155 116 -155z" />
    <glyph glyph-name="one" unicode="1" horiz-adv-x="600" 
d="M509 0h-467l14 72h200l113 564h-8l-207 -164l-41 53l217 173h132l-125 -626h186z" />
    <glyph glyph-name="two" unicode="2" horiz-adv-x="600" 
d="M485 72l-15 -72h-436l18 90l258 208c86 69 132 139 142 189c2 10 6 33 6 48c0 41 -22 102 -103 102c-77 0 -122 -44 -155 -122l-72 31c46 100 117 164 235 164c114 0 185 -77 185 -174c0 -118 -78 -202 -196 -295l-216 -169h349z" />
    <glyph glyph-name="three" unicode="3" horiz-adv-x="600" 
d="M231 401h71c77 0 127 33 144 120c2 10 3 18 3 26c0 59 -37 90 -102 90c-66 0 -113 -25 -152 -87l-56 49c45 63 113 111 218 111c106 0 181 -64 181 -156c0 -100 -72 -168 -158 -186l-1 -5c66 -11 116 -63 116 -144c0 -134 -95 -231 -248 -231c-114 0 -183 59 -210 123
l66 45c23 -57 61 -95 151 -95c95 0 136 45 153 130c2 10 5 25 5 37c0 60 -41 102 -122 102h-74z" />
    <glyph glyph-name="four" unicode="4" horiz-adv-x="600" 
d="M399 0h-79l28 137h-316l15 79l375 482h117l-98 -493h95l-13 -68h-96zM439 612l-319 -407h242l81 407h-4z" />
    <glyph glyph-name="five" unicode="5" horiz-adv-x="600" 
d="M572 698l-15 -72h-292l-68 -275h7c35 58 72 85 145 85c99 0 173 -68 173 -179c0 -151 -98 -269 -259 -269c-114 0 -181 59 -207 123l66 45c23 -57 61 -95 151 -95c86 0 139 48 159 147c3 15 6 29 6 48c0 66 -35 109 -116 109c-57 0 -100 -29 -137 -69l-68 11l96 391h359z
" />
    <glyph glyph-name="six" unicode="6" horiz-adv-x="600" 
d="M268 -12c-127 0 -198 78 -198 214c0 197 158 403 328 496h114c-168 -103 -298 -228 -338 -361l4 -2c43 71 93 99 157 99c109 0 183 -72 183 -189c0 -148 -105 -257 -250 -257zM271 60c87 0 143 57 160 142c2 10 4 24 4 36c0 79 -45 125 -123 125
c-87 0 -143 -57 -160 -142c-2 -10 -4 -24 -4 -36c0 -79 45 -125 123 -125z" />
    <glyph glyph-name="seven" unicode="7" horiz-adv-x="600" 
d="M214 0h-86l379 627h-281l-27 -134h-74l41 205h437l-16 -79z" />
    <glyph glyph-name="eight" unicode="8" horiz-adv-x="600" 
d="M264 -12c-134 0 -210 76 -210 182c0 92 61 182 175 196l2 8c-62 22 -91 69 -91 131c0 118 95 205 232 205c117 0 187 -64 187 -159c0 -78 -52 -159 -148 -183l-2 -8c68 -15 108 -72 108 -138c0 -140 -94 -234 -253 -234zM269 59c86 0 145 45 161 125c3 15 5 26 5 42
c0 64 -47 106 -132 106c-86 0 -145 -46 -161 -126c-3 -15 -5 -26 -5 -42c0 -64 47 -105 132 -105zM332 400c76 0 127 42 141 112c2 10 3 19 3 30c0 59 -42 97 -114 97c-76 0 -127 -42 -141 -112c-2 -10 -3 -19 -3 -30c0 -59 42 -97 114 -97z" />
    <glyph glyph-name="nine" unicode="9" horiz-adv-x="600" 
d="M565 496c0 -197 -158 -403 -328 -496h-114c168 103 299 228 338 361l-4 2c-43 -71 -93 -99 -157 -99c-109 0 -183 72 -183 189c0 148 105 257 250 257c127 0 198 -78 198 -214zM323 335c87 0 143 58 160 142c2 10 4 24 4 36c0 78 -45 125 -123 125
c-87 0 -143 -58 -160 -142c-2 -10 -4 -24 -4 -36c0 -78 45 -125 123 -125z" />
    <glyph glyph-name="colon" unicode=":" horiz-adv-x="293" 
d="M179 399c-32 0 -51 14 -51 40c0 9 2 24 4 34c6 27 20 55 65 55c32 0 51 -14 51 -40c0 -9 -2 -24 -4 -34c-6 -27 -20 -55 -65 -55zM96 -12c-32 0 -51 14 -51 40c0 9 2 24 4 34c6 27 20 55 65 55c32 0 51 -14 51 -40c0 -9 -2 -24 -4 -34c-6 -27 -20 -55 -65 -55z" />
    <glyph glyph-name="semicolon" unicode=";" horiz-adv-x="293" 
d="M179 399c-32 0 -51 14 -51 40c0 9 2 24 4 34c6 27 20 55 65 55c32 0 51 -14 51 -40c0 -9 -2 -24 -4 -34c-6 -27 -20 -55 -65 -55zM112 117c32 0 51 -14 51 -40c0 -9 -2 -21 -4 -31c-11 -51 -48 -130 -116 -179h-65c49 43 77 82 98 127c-21 5 -33 16 -33 37c0 9 2 21 4 31
c6 27 20 55 65 55z" />
    <glyph glyph-name="less" unicode="&#x3c;" horiz-adv-x="600" 
d="M450 -12l-356 254l15 76l456 249l-17 -87l-373 -199l-2 -8l293 -205z" />
    <glyph glyph-name="equal" unicode="=" horiz-adv-x="600" 
d="M548 374h-450l13 66h450zM508 172h-450l13 66h450z" />
    <glyph glyph-name="greater" unicode="&#x3e;" horiz-adv-x="600" 
d="M45 -12l17 87l373 204l2 8l-293 199l16 80l356 -248l-15 -76z" />
    <glyph glyph-name="question" unicode="?" horiz-adv-x="470" 
d="M244 208h-75l33 165c107 4 185 60 198 133c2 9 3 28 3 38c0 57 -36 94 -103 94c-77 0 -120 -48 -148 -119l-67 27c41 99 108 164 222 164c109 0 180 -60 180 -161c0 -109 -84 -210 -221 -233zM170 -12c-32 0 -51 14 -51 40c0 9 2 24 4 34c6 27 20 55 65 55
c32 0 51 -14 51 -40c0 -9 -2 -24 -4 -34c-6 -27 -20 -55 -65 -55z" />
    <glyph glyph-name="at" unicode="@" horiz-adv-x="863" 
d="M581 -121h-221c-190 0 -295 117 -295 315c0 26 2 66 11 111c46 232 213 403 439 403c186 0 303 -116 303 -300c0 -17 -1 -48 -9 -88c-26 -136 -86 -251 -206 -251c-60 0 -89 29 -89 90v12h-4c-22 -57 -74 -102 -137 -102c-70 0 -130 53 -130 158c0 19 2 43 9 76
c27 128 94 206 192 206c60 0 96 -29 110 -89h4l16 79h69l-60 -300c-2 -10 -6 -25 -6 -38c0 -20 9 -33 36 -33c62 0 107 73 128 177l10 50c4 20 4 41 4 59c0 139 -88 235 -244 235c-182 0 -324 -130 -364 -327l-12 -59c-5 -25 -6 -51 -6 -68c0 -159 79 -256 234 -256h230z
M398 133c65 0 113 53 125 113l23 114c8 40 -28 85 -90 85c-63 0 -108 -44 -120 -105l-19 -95c-2 -10 -3 -19 -3 -28c0 -52 32 -84 84 -84z" />
    <glyph glyph-name="A" unicode="A" horiz-adv-x="623" 
d="M547 0h-83l-26 206h-271l-108 -206h-86l373 698h107zM430 278l-43 343h-5l-178 -343h226z" />
    <glyph glyph-name="B" unicode="B" horiz-adv-x="627" 
d="M39 0l140 698h257c107 0 167 -58 167 -149c0 -85 -51 -161 -142 -182l-1 -5c63 -15 101 -52 101 -124c0 -130 -98 -238 -228 -238h-294zM134 72h198c69 0 120 37 135 112c7 35 9 49 9 58c0 52 -36 82 -102 82h-190zM198 394h169c74 0 126 30 140 100c6 30 7 46 7 55
c0 48 -30 77 -89 77h-181z" />
    <glyph glyph-name="C" unicode="C" horiz-adv-x="602" 
d="M290 -12c-136 0 -235 98 -235 278c0 242 134 444 336 444c113 0 190 -51 224 -159l-73 -33c-25 78 -72 119 -159 119c-107 0 -193 -83 -218 -210l-23 -115c-5 -25 -6 -46 -6 -66c0 -110 59 -185 159 -185c97 0 147 49 192 130l68 -34c-61 -116 -141 -169 -265 -169z" />
    <glyph glyph-name="D" unicode="D" horiz-adv-x="652" 
d="M39 0l140 698h205c149 0 239 -92 239 -271c0 -216 -126 -427 -348 -427h-236zM135 72h142c119 0 207 77 235 217l21 105c4 20 6 42 6 61c0 111 -62 171 -159 171h-135z" />
    <glyph glyph-name="E" unicode="E" horiz-adv-x="565" 
d="M467 0h-428l140 698h411l-15 -72h-329l-47 -236h296l-14 -72h-297l-49 -246h346z" />
    <glyph glyph-name="F" unicode="F" horiz-adv-x="542" 
d="M120 0h-81l140 698h400l-15 -72h-318l-47 -236h292l-14 -72h-293z" />
    <glyph glyph-name="G" unicode="G" horiz-adv-x="661" 
d="M462 0l21 102h-4c-29 -62 -97 -114 -199 -114c-132 0 -225 96 -225 278c0 234 126 444 349 444c121 0 207 -61 236 -159l-73 -33c-27 75 -80 119 -173 119c-118 0 -203 -83 -231 -220l-21 -104c-4 -20 -6 -40 -6 -60c0 -120 60 -192 168 -192c95 0 180 58 202 170l11 55
h-149l16 74h227l-72 -360h-77z" />
    <glyph glyph-name="H" unicode="H" horiz-adv-x="684" 
d="M460 0l63 318h-339l-64 -318h-81l140 698h81l-61 -308h339l62 308h81l-140 -698h-81z" />
    <glyph glyph-name="I" unicode="I" horiz-adv-x="387" 
d="M276 0h-267l14 69h93l111 560h-93l14 69h267l-14 -69h-93l-111 -560h93z" />
    <glyph glyph-name="J" unicode="J" horiz-adv-x="498" 
d="M179 698h316l-103 -512c-25 -125 -103 -198 -221 -198c-96 0 -165 59 -168 165l74 15c3 -61 34 -107 98 -107c77 0 120 47 138 137l86 428h-234z" />
    <glyph glyph-name="K" unicode="K" horiz-adv-x="615" 
d="M461 0l-171 343l-125 -117l-45 -226h-81l140 698h81l-71 -356h5l119 115l249 241h103l-313 -303l197 -395h-88z" />
    <glyph glyph-name="L" unicode="L" horiz-adv-x="489" 
d="M408 0h-369l140 698h81l-125 -626h287z" />
    <glyph glyph-name="M" unicode="M" horiz-adv-x="784" 
d="M561 0l119 586h-5l-81 -117l-217 -303l-99 303l-37 116h-5l-117 -585h-80l140 698h105l118 -379h3l263 379h113l-140 -698h-80z" />
    <glyph glyph-name="N" unicode="N" horiz-adv-x="684" 
d="M447 0l-152 420l-55 167h-5l-117 -587h-79l140 698h94l152 -420l55 -167h5l117 587h79l-140 -698h-94z" />
    <glyph glyph-name="O" unicode="O" horiz-adv-x="679" 
d="M298 -12c-139 0 -243 96 -243 272c0 231 133 450 354 450c139 0 243 -96 243 -272c0 -231 -133 -450 -354 -450zM306 61c123 0 210 87 239 232l20 100c5 25 7 49 7 69c0 106 -63 175 -171 175c-123 0 -210 -87 -239 -232l-20 -100c-5 -25 -7 -49 -7 -69
c0 -106 63 -175 171 -175z" />
    <glyph glyph-name="P" unicode="P" horiz-adv-x="588" 
d="M120 0h-81l140 698h249c123 0 173 -71 173 -167c0 -130 -90 -233 -234 -233h-187zM245 626l-50 -256h184c66 0 113 35 126 101c9 45 12 58 12 74c0 49 -25 81 -95 81h-177z" />
    <glyph glyph-name="Q" unicode="Q" horiz-adv-x="679" 
d="M413 -92l-16 -74h-88c-54 0 -75 26 -75 62c0 9 1 17 3 26l15 70c-116 19 -197 112 -197 268c0 231 133 450 354 450c139 0 243 -96 243 -272c0 -220 -120 -430 -323 -448l-18 -82h102zM306 61c123 0 210 88 239 232l20 100c5 25 7 49 7 69c0 105 -63 175 -171 175
c-123 0 -210 -88 -239 -232l-20 -100c-5 -25 -7 -49 -7 -69c0 -105 63 -175 171 -175z" />
    <glyph glyph-name="R" unicode="R" horiz-adv-x="625" 
d="M180 300l-60 -300h-81l140 698h249c123 0 173 -71 173 -167c0 -107 -71 -201 -183 -223l102 -308h-87l-95 300h-158zM195 371h184c66 0 113 35 126 100c9 45 12 58 12 74c0 48 -25 81 -95 81h-177z" />
    <glyph glyph-name="S" unicode="S" horiz-adv-x="577" 
d="M249 -12c-103 0 -194 38 -238 125l62 45c41 -70 103 -97 178 -97c118 0 180 66 180 149c0 59 -32 96 -106 110l-67 13c-98 19 -153 81 -153 171c0 113 87 206 241 206c107 0 179 -45 225 -108l-59 -49c-38 52 -92 84 -171 84c-94 0 -155 -46 -155 -127
c0 -60 34 -95 106 -109l67 -13c98 -19 153 -79 153 -174c0 -125 -94 -226 -263 -226z" />
    <glyph glyph-name="T" unicode="T" horiz-adv-x="557" 
d="M605 626h-213l-125 -626h-81l125 626h-213l14 72h507z" />
    <glyph glyph-name="U" unicode="U" horiz-adv-x="656" 
d="M174 698h81l-86 -429c-6 -30 -8 -50 -8 -72c0 -85 49 -136 128 -136c112 0 172 61 204 223l83 414h81l-84 -420c-43 -214 -127 -290 -293 -290c-124 0 -198 74 -198 201c0 31 3 65 11 105z" />
    <glyph glyph-name="V" unicode="V" horiz-adv-x="593" 
d="M295 0h-101l-83 698h81l38 -350l27 -264h3l133 264l182 350h86z" />
    <glyph glyph-name="W" unicode="W" horiz-adv-x="862" 
d="M226 0h-94l-29 698h81l9 -354l6 -243h4l137 315l126 282h96l15 -295l14 -301h4l106 247l150 349h84l-313 -698h-93l-18 367l-10 239h-5l-109 -244z" />
    <glyph glyph-name="X" unicode="X" horiz-adv-x="596" 
d="M360 343l148 -343h-85l-120 286h-4l-230 -286h-94l288 358l-143 340h85l119 -287h4l231 287h94z" />
    <glyph glyph-name="Y" unicode="Y" horiz-adv-x="577" 
d="M277 0h-81l55 273l-146 425h82l116 -341h5l250 341h93l-319 -425z" />
    <glyph glyph-name="Z" unicode="Z" horiz-adv-x="563" 
d="M487 72l-15 -72h-487l16 78l492 548h-374l15 72h469l-16 -78l-492 -548h392z" />
    <glyph glyph-name="bracketleft" unicode="[" horiz-adv-x="317" 
d="M170 -138h-158l180 898h159l-13 -61h-89l-156 -776h89z" />
    <glyph glyph-name="backslash" unicode="\" horiz-adv-x="378" 
d="M280 -151h-67l-71 891h67z" />
    <glyph glyph-name="bracketright" unicode="]" horiz-adv-x="316" 
d="M169 760h158l-180 -898h-159l13 61h89l156 776h-89z" />
    <glyph glyph-name="asciicircum" unicode="^" horiz-adv-x="600" 
d="M555 325l-62 -29l-115 325h-4l-244 -325l-56 35l270 367h85z" />
    <glyph glyph-name="underscore" unicode="_" horiz-adv-x="548" 
d="M433 -163h-486l14 66h486z" />
    <glyph glyph-name="grave" unicode="`" horiz-adv-x="593" 
d="M289 585l-84 159l68 32l61 -170z" />
    <glyph glyph-name="a" unicode="a" horiz-adv-x="583" 
d="M506 0h-69c-45 0 -67 25 -67 62c0 8 1 17 3 27l5 23h-3c-42 -86 -91 -124 -167 -124c-94 0 -157 75 -157 197c0 152 81 343 252 343c62 0 120 -31 135 -96h4l17 84h77l-90 -448h73zM229 58c45 0 78 21 108 51c33 33 55 72 65 124l21 105c13 64 -21 120 -113 120
c-84 0 -140 -57 -160 -157l-15 -75c-3 -17 -5 -34 -5 -51c0 -67 30 -117 99 -117z" />
    <glyph glyph-name="b" unicode="b" horiz-adv-x="572" 
d="M36 0l149 740h77l-68 -336h3c42 86 91 124 167 124c94 0 157 -75 157 -197c0 -152 -81 -343 -252 -343c-62 0 -120 31 -135 96h-4l-17 -84h-77zM262 58c84 0 140 57 160 157l15 75c3 17 5 34 5 51c0 67 -30 117 -99 117c-45 0 -78 -21 -108 -51c-33 -33 -55 -72 -65 -124
l-21 -105c-13 -64 21 -120 113 -120z" />
    <glyph glyph-name="c" unicode="c" horiz-adv-x="488" 
d="M236 -12c-117 0 -187 84 -187 211c0 179 97 329 253 329c91 0 151 -51 171 -121l-64 -29c-17 54 -52 81 -109 81c-82 0 -135 -56 -153 -147l-17 -84c-3 -15 -4 -33 -4 -45c0 -74 39 -126 118 -126c50 0 91 24 132 101l61 -30c-43 -89 -112 -140 -201 -140z" />
    <glyph glyph-name="d" unicode="d" horiz-adv-x="583" 
d="M506 0h-69c-45 0 -67 25 -67 62c0 8 1 17 3 27l5 23h-3c-42 -86 -91 -124 -167 -124c-94 0 -157 75 -157 197c0 152 81 343 252 343c62 0 120 -31 135 -96h4l62 308h77l-135 -672h73zM229 58c45 0 78 21 108 51c33 33 55 72 65 124l21 105c13 64 -21 120 -113 120
c-84 0 -140 -57 -160 -157l-15 -75c-3 -17 -5 -34 -5 -51c0 -67 30 -117 99 -117z" />
    <glyph glyph-name="e" unicode="e" horiz-adv-x="511" 
d="M244 -12c-123 0 -195 76 -195 216c0 171 108 324 270 324c88 0 166 -45 166 -138c0 -113 -116 -167 -356 -169c-2 -14 -3 -31 -3 -42c0 -73 43 -122 123 -122c65 0 118 33 158 82l50 -45c-64 -78 -139 -106 -213 -106zM311 462c-81 0 -147 -60 -166 -152l-6 -29
c221 8 267 39 267 110c0 55 -46 71 -95 71z" />
    <glyph glyph-name="f" unicode="f" horiz-adv-x="307" 
d="M226 448l-108 -534c-14 -70 -46 -114 -126 -114h-67l13 68h93l118 580h-85l13 68h85l22 110c14 70 46 114 126 114h79l-13 -68h-105l-32 -156h101l-13 -68h-101z" />
    <glyph glyph-name="g" unicode="g" horiz-adv-x="572" 
d="M208 -12c-94 0 -157 75 -157 197c0 152 81 343 252 343c62 0 120 -31 135 -96h4l17 84h77l-105 -524c-26 -130 -103 -204 -233 -204c-93 0 -154 37 -190 89l55 48c28 -44 73 -69 135 -69c84 0 138 46 158 146l22 110h-3c-42 -86 -91 -124 -167 -124zM227 58
c48 0 80 21 110 51c35 35 55 74 65 124l25 124c9 45 -36 101 -115 101c-87 0 -142 -57 -162 -157l-15 -75c-3 -17 -5 -35 -5 -51c0 -66 30 -117 97 -117z" />
    <glyph glyph-name="h" unicode="h" horiz-adv-x="565" 
d="M36 0l149 740h77l-66 -326h5c36 77 84 114 158 114c89 0 133 -54 133 -143c0 -19 -2 -42 -7 -67l-50 -250h73l-13 -68h-73c-38 0 -64 18 -64 58c0 6 0 11 2 21l48 239c4 20 5 41 5 53c0 58 -24 87 -79 87c-37 0 -67 -13 -95 -41c-34 -34 -60 -88 -68 -129l-58 -288h-77z
" />
    <glyph glyph-name="i" unicode="i" horiz-adv-x="264" 
d="M206 637c-31 0 -42 16 -42 35c0 4 0 9 4 28c5 25 21 40 54 40c31 0 42 -16 42 -35c0 -4 0 -9 -4 -28c-5 -25 -21 -40 -54 -40zM187 0h-66c-47 0 -70 26 -70 63c0 7 1 14 3 24l86 429h77l-90 -448h73z" />
    <glyph glyph-name="j" unicode="j" horiz-adv-x="253" 
d="M10 -132l130 648h77l-123 -614c-14 -70 -44 -102 -114 -102h-67l14 68h83zM206 637c-31 0 -42 16 -42 35c0 4 0 9 4 28c5 25 21 40 54 40c31 0 42 -16 42 -35c0 -4 0 -9 -4 -28c-5 -25 -21 -40 -54 -40z" />
    <glyph glyph-name="k" unicode="k" horiz-adv-x="519" 
d="M36 0l149 740h77l-94 -465h5l92 88l174 153h93l-230 -208l105 -240h66l-13 -68h-44c-46 0 -68 15 -85 54l-91 209l-91 -82l-36 -181h-77z" />
    <glyph glyph-name="l" unicode="l" horiz-adv-x="264" 
d="M192 0h-71c-47 0 -70 26 -70 63c0 7 1 14 3 24l131 653h77l-135 -672h78z" />
    <glyph glyph-name="m" unicode="m" horiz-adv-x="848" 
d="M113 0h-77l104 516h77l-21 -102h5c36 77 82 114 157 114c72 0 112 -43 120 -114h6c35 77 85 114 161 114c86 0 130 -52 130 -142c0 -20 -2 -42 -7 -67l-50 -251h73l-13 -68h-72c-40 0 -66 18 -66 57c0 7 1 13 3 23l48 239c4 20 6 39 6 55c0 55 -24 84 -79 84
c-32 0 -60 -13 -87 -41c-33 -33 -56 -87 -64 -129l-58 -288h-77l64 318c4 20 6 41 6 58c0 53 -23 82 -72 82c-35 0 -66 -16 -89 -40c-37 -37 -62 -90 -70 -130z" />
    <glyph glyph-name="n" unicode="n" horiz-adv-x="565" 
d="M113 0h-77l104 516h77l-21 -102h5c36 77 84 114 158 114c89 0 133 -54 133 -143c0 -19 -2 -42 -7 -67l-50 -250h73l-13 -68h-73c-38 0 -64 18 -64 58c0 6 0 11 2 21l48 239c4 20 5 41 5 53c0 58 -24 87 -79 87c-37 0 -67 -13 -95 -41c-34 -34 -60 -88 -68 -129z" />
    <glyph glyph-name="o" unicode="o" horiz-adv-x="550" 
d="M235 -12c-108 0 -186 72 -186 212c0 173 108 328 266 328c108 0 186 -72 186 -212c0 -173 -108 -328 -266 -328zM245 57c74 0 139 56 160 161l15 75c3 15 5 30 5 45c0 72 -42 121 -120 121c-74 0 -139 -56 -160 -161l-15 -75c-3 -15 -5 -30 -5 -45
c0 -72 42 -121 120 -121z" />
    <glyph glyph-name="p" unicode="p" horiz-adv-x="572" 
d="M-4 -200l144 716h77l-23 -112h3c42 86 91 124 167 124c94 0 157 -75 157 -197c0 -152 -81 -343 -252 -343c-62 0 -120 31 -135 96h-4l-57 -284h-77zM262 58c84 0 140 57 160 157l15 75c3 17 5 34 5 51c0 67 -30 117 -99 117c-45 0 -78 -21 -108 -51
c-33 -33 -55 -72 -65 -124l-21 -105c-13 -64 21 -120 113 -120z" />
    <glyph glyph-name="q" unicode="q" horiz-adv-x="572" 
d="M315 -200l63 312h-3c-42 -86 -91 -124 -167 -124c-94 0 -157 75 -157 197c0 152 81 343 252 343c62 0 120 -31 135 -96h4l17 84h77l-144 -716h-77zM229 58c45 0 78 21 108 51c33 33 55 72 65 124l21 105c13 64 -21 120 -113 120c-84 0 -140 -57 -160 -157l-15 -75
c-3 -17 -5 -34 -5 -51c0 -67 30 -117 99 -117z" />
    <glyph glyph-name="r" unicode="r" horiz-adv-x="364" 
d="M113 0h-77l104 516h77l-22 -103h5c28 51 71 103 155 103h32l-15 -79h-36c-95 0 -147 -60 -161 -130z" />
    <glyph glyph-name="s" unicode="s" horiz-adv-x="471" 
d="M209 -12c-79 0 -154 34 -195 94l53 47c36 -48 82 -74 142 -74c68 0 117 34 117 97c0 35 -16 60 -76 72l-39 8c-78 16 -138 48 -138 133c0 86 62 163 191 163c76 0 129 -27 168 -76l-53 -47c-23 32 -60 56 -121 56c-75 0 -110 -37 -110 -89c0 -36 17 -59 75 -71l39 -8
c83 -17 138 -50 138 -136c0 -104 -81 -169 -191 -169z" />
    <glyph glyph-name="t" unicode="t" horiz-adv-x="320" 
d="M230 0h-94c-47 0 -70 26 -70 63c0 7 1 14 3 24l73 361h-76l13 68h39c37 0 45 13 52 49l19 94h71l-28 -143h109l-13 -68h-109l-77 -380h101z" />
    <glyph glyph-name="u" unicode="u" horiz-adv-x="562" 
d="M134 516h77l-64 -318c-4 -20 -5 -41 -5 -53c0 -57 22 -87 77 -87c36 0 66 13 93 41c37 38 60 90 68 129l58 288h77l-90 -448h73l-13 -68h-70c-44 0 -66 26 -66 63c0 7 1 15 4 29l2 10h-5c-36 -78 -84 -114 -155 -114c-88 0 -132 54 -132 143c0 19 2 42 7 67z" />
    <glyph glyph-name="v" unicode="v" horiz-adv-x="484" 
d="M237 0h-91l-79 516h75l38 -255l21 -188h5l93 188l138 255h82z" />
    <glyph glyph-name="w" unicode="w" horiz-adv-x="740" 
d="M105 0l-28 516h74l9 -251l6 -191h5l79 169l128 273h75l22 -260l12 -178h5l76 174l117 264h75l-235 -516h-93l-25 279l-7 132h-5l-59 -132l-133 -279h-98z" />
    <glyph glyph-name="x" unicode="x" horiz-adv-x="494" 
d="M60 0h-88l234 267l-126 249h84l93 -198h5l168 198h88l-224 -256l136 -260h-84l-103 210h-5z" />
    <glyph glyph-name="y" unicode="y" horiz-adv-x="484" 
d="M300 261l138 255h82l-349 -633c-33 -60 -59 -83 -111 -83h-80l13 66h93l64 118l-82 532h75l38 -255l21 -188h5z" />
    <glyph glyph-name="z" unicode="z" horiz-adv-x="448" 
d="M368 0h-373l13 66l343 382h-266l13 68h359l-13 -66l-343 -382h280z" />
    <glyph glyph-name="braceleft" unicode="{" horiz-adv-x="329" 
d="M193 -138h-78c-44 0 -66 26 -66 62c0 7 0 14 3 29l46 228c2 10 3 17 3 26c0 44 -29 65 -74 65l16 78c67 0 96 36 107 91l47 235c11 55 40 84 86 84h88l-11 -63h-90l-50 -251c-12 -60 -38 -122 -118 -130l-3 -16c46 -9 72 -41 72 -89c0 -11 -3 -24 -5 -34l-50 -252h91z
" />
    <glyph glyph-name="bar" unicode="|" horiz-adv-x="306" 
d="M107 -138h-66l181 898h66z" />
    <glyph glyph-name="braceright" unicode="}" horiz-adv-x="329" 
d="M-21 -138l11 63h90l50 251c12 60 38 120 118 128l3 16c-46 9 -72 43 -72 91c0 11 3 24 5 34l50 252h-91l14 63h78c44 0 66 -26 66 -62c0 -7 0 -14 -3 -29l-46 -228c-2 -10 -3 -17 -3 -26c0 -44 29 -65 74 -65l-16 -78c-67 0 -96 -36 -107 -91l-47 -235
c-11 -55 -40 -84 -86 -84h-88z" />
    <glyph glyph-name="asciitilde" unicode="~" horiz-adv-x="600" 
d="M410 236c-45 0 -75 16 -115 38c-32 18 -61 34 -101 34c-31 0 -55 -12 -88 -34l-24 46c32 32 67 54 127 54c45 0 75 -16 115 -38c32 -18 61 -34 101 -34c31 0 55 12 88 34l24 -46c-32 -32 -67 -54 -127 -54z" />
    <glyph glyph-name="uni00A0" unicode="&#xa0;" horiz-adv-x="236" 
 />
    <glyph glyph-name="exclamdown" unicode="&#xa1;" horiz-adv-x="271" 
d="M89 -181h-83l41 203l84 309h38l-39 -309zM165 399c-32 0 -51 14 -51 40c0 9 2 24 4 34c6 27 20 55 65 55c32 0 51 -14 51 -40c0 -9 -2 -24 -4 -34c-6 -27 -20 -55 -65 -55z" />
    <glyph glyph-name="cent" unicode="&#xa2;" horiz-adv-x="505" 
d="M155 -114l23 110c-81 22 -129 97 -129 204c0 168 88 315 235 326l21 104h68l-22 -108c64 -15 104 -56 124 -114l-67 -31c-13 42 -35 67 -73 78l-79 -400c48 5 82 33 119 103l61 -30c-43 -88 -104 -135 -193 -140l-20 -102h-68zM125 181c0 -55 22 -100 67 -118l79 393
c-68 -13 -109 -65 -125 -144l-17 -83c-3 -15 -4 -33 -4 -48z" />
    <glyph glyph-name="sterling" unicode="&#xa3;" horiz-adv-x="577" 
d="M452 0h-426l21 102c91 38 101 132 101 186h-87l14 68h69c-4 31 -7 63 -7 93c0 151 102 261 256 261c100 0 160 -46 196 -116l-68 -45c-26 54 -66 89 -134 89c-102 0 -167 -67 -167 -197c0 -28 3 -58 5 -85h209l-14 -68h-192c-2 -98 -59 -179 -111 -211l-2 -5h352z" />
    <glyph glyph-name="currency" unicode="&#xa4;" horiz-adv-x="612" 
d="M282 119c-56 0 -98 16 -128 45l-116 -95l-43 52l122 100c-8 21 -12 45 -12 72c0 19 2 40 6 61c10 52 30 100 57 133l-85 106l54 44l82 -101c40 28 89 43 144 43c56 0 96 -16 126 -45l116 95l43 -52l-122 -100c8 -21 12 -45 12 -72c0 -19 -2 -40 -6 -61
c-10 -52 -30 -100 -57 -133l85 -106l-54 -44l-82 101c-40 -28 -87 -43 -142 -43zM289 186c77 0 137 43 155 131l13 64c3 13 4 28 4 38c0 63 -42 93 -107 93c-77 0 -137 -43 -155 -131l-13 -64c-3 -13 -4 -28 -4 -38c0 -63 42 -93 107 -93z" />
    <glyph glyph-name="yen" unicode="&#xa5;" horiz-adv-x="594" 
d="M485 145h-170l-30 -145h-80l30 145h-168l13 66h167l20 97h-167l12 66h130l-115 324h85l104 -312h4l231 312h94l-249 -324h134l-12 -66h-171l-20 -97h171z" />
    <glyph glyph-name="brokenbar" unicode="&#xa6;" horiz-adv-x="306" 
d="M216 406h-66l72 354h66zM107 -138h-66l72 354h66z" />
    <glyph glyph-name="section" unicode="&#xa7;" horiz-adv-x="557" 
d="M404 24c0 -110 -94 -179 -207 -179c-70 0 -131 19 -171 59l54 54c28 -28 73 -45 124 -45c63 0 121 39 121 102c0 40 -20 70 -77 89l-59 20c-88 30 -122 71 -122 130c0 84 57 143 137 157l1 9c-37 29 -52 68 -52 111c0 110 95 179 207 179c70 0 131 -19 171 -59l-54 -54
c-28 28 -73 45 -124 45c-63 0 -121 -39 -121 -102c0 -40 20 -70 77 -89l59 -20c88 -30 122 -71 122 -130c0 -84 -57 -143 -137 -157l-1 -9c37 -29 52 -68 52 -111zM410 273c0 56 -28 80 -93 101l-59 19c-7 2 -14 5 -20 8c-58 -23 -91 -72 -91 -119c0 -56 28 -80 93 -101
l59 -19c7 -2 14 -5 20 -8c58 23 91 72 91 119z" />
    <glyph glyph-name="dieresis" unicode="&#xa8;" horiz-adv-x="593" 
d="M217 618c-26 0 -42 12 -42 35c0 5 1 10 3 21c6 30 23 47 56 47c26 0 42 -12 42 -35c0 -5 -1 -10 -3 -21c-6 -30 -23 -47 -56 -47zM399 618c-26 0 -42 12 -42 35c0 5 1 10 3 21c6 30 23 47 56 47c26 0 42 -12 42 -35c0 -5 -1 -10 -3 -21c-6 -30 -23 -47 -56 -47z" />
    <glyph glyph-name="copyright" unicode="&#xa9;" horiz-adv-x="784" 
d="M358 -12c-175 0 -291 124 -291 304c0 239 169 416 394 416c175 0 291 -124 291 -304c0 -239 -169 -416 -394 -416zM362 46c154 0 284 112 311 250c8 43 15 83 15 108c0 150 -96 246 -231 246c-154 0 -284 -112 -311 -250c-8 -43 -15 -83 -15 -108
c0 -150 96 -246 231 -246zM380 155c-81 0 -130 55 -130 146c0 133 77 242 189 242c72 0 115 -46 129 -96l-58 -24c-9 38 -35 60 -74 60c-56 0 -88 -44 -100 -104l-12 -59c-2 -10 -3 -19 -3 -28c0 -45 24 -76 67 -76c35 0 67 21 99 66l48 -38c-34 -51 -88 -89 -155 -89z" />
    <glyph glyph-name="ordfeminine" unicode="&#xaa;" horiz-adv-x="390" 
d="M380 405l-11 -55h-33c-36 0 -50 15 -50 40c0 2 0 7 1 14h-4c-20 -31 -60 -60 -116 -60c-55 0 -90 32 -90 79c0 81 59 123 164 123h70l5 24c2 10 2 19 2 28c0 37 -22 55 -62 55c-41 0 -77 -22 -98 -52l-36 34c28 36 78 69 142 69c70 0 115 -35 115 -105
c0 -11 -1 -24 -4 -39l-31 -155h36zM302 502h-71c-52 0 -83 -18 -89 -48c-3 -15 -4 -20 -4 -24c0 -24 18 -36 50 -36c50 0 98 28 106 67z" />
    <glyph glyph-name="guillemotleft" unicode="&#xab;" horiz-adv-x="499" 
d="M419 130l-32 -52l-154 172l15 73l217 165l14 -59l-164 -149zM218 130l-32 -52l-154 172l15 73l217 165l14 -59l-164 -149z" />
    <glyph glyph-name="logicalnot" unicode="&#xac;" horiz-adv-x="600" 
d="M490 77h-67l39 195h-394l14 66h460z" />
    <glyph glyph-name="uni00AD" unicode="&#xad;" horiz-adv-x="387" 
d="M320 263h-251l16 82h251z" />
    <glyph glyph-name="registered" unicode="&#xae;" horiz-adv-x="469" 
d="M263 298c-97 0 -173 77 -173 175c0 136 90 237 216 237c97 0 173 -77 173 -175c0 -136 -90 -237 -216 -237zM267 337c86 0 148 60 165 144c3 15 5 44 5 51c0 82 -57 139 -135 139c-86 0 -148 -60 -165 -144c-3 -15 -5 -44 -5 -51c0 -82 57 -139 135 -139zM248 481
l-16 -81h-39l42 209h82c37 0 55 -25 55 -53c0 -35 -20 -64 -52 -71l30 -85h-41l-26 81h-35zM254 511h44c14 0 25 6 28 21c4 20 5 25 5 28c0 9 -7 16 -19 16h-45z" />
    <glyph glyph-name="macron" unicode="&#xaf;" horiz-adv-x="593" 
d="M174 639l14 66h272l-14 -66h-272z" />
    <glyph glyph-name="degree" unicode="&#xb0;" horiz-adv-x="454" 
d="M263 366c-80 0 -144 61 -144 151c0 110 76 193 184 193c80 0 144 -61 144 -150c0 -111 -76 -194 -184 -194zM272 430c66 0 107 57 107 127c0 49 -33 89 -85 89c-66 0 -107 -57 -107 -127c0 -49 33 -89 85 -89z" />
    <glyph glyph-name="plusminus" unicode="&#xb1;" horiz-adv-x="600" 
d="M317 153h-73l40 200h-190l13 66h190l40 200h73l-40 -200h187l-13 -66h-187zM474 0h-450l13 66h450z" />
    <glyph glyph-name="twosuperior" unicode="&#xb2;" horiz-adv-x="339" 
d="M316 378l-10 -49h-261l12 59l133 96c47 34 82 56 91 101c1 5 3 13 3 19c0 30 -25 49 -59 49c-40 0 -66 -29 -80 -62l-51 23c22 49 63 90 137 90c65 0 119 -32 119 -98c0 -79 -77 -124 -130 -161l-96 -67h192z" />
    <glyph glyph-name="threesuperior" unicode="&#xb3;" horiz-adv-x="339" 
d="M161 545h46c58 0 72 29 77 54c1 5 2 11 2 15c0 21 -18 41 -53 41c-36 0 -69 -16 -92 -48l-36 34c29 37 70 63 133 63c70 0 110 -40 110 -90c0 -53 -42 -87 -88 -96v-2c37 -6 62 -31 62 -75c0 -66 -57 -118 -146 -118c-75 0 -116 33 -132 69l45 31c14 -31 40 -51 88 -51
c54 0 75 23 83 63c1 5 1 8 1 11c0 30 -25 50 -67 50h-43z" />
    <glyph glyph-name="acute" unicode="&#xb4;" horiz-adv-x="593" 
d="M441 744l-124 -159l-48 25l104 170z" />
    <glyph glyph-name="mu" unicode="&#xb5;" horiz-adv-x="568" 
d="M73 -200h-77l144 716h77l-64 -318c-4 -20 -5 -41 -5 -53c0 -57 22 -87 77 -87c36 0 66 13 93 41c37 38 60 90 68 129l58 288h77l-90 -448h73l-13 -68h-69c-45 0 -67 26 -67 63c0 7 1 15 4 29l2 10h-5c-36 -78 -76 -114 -138 -114c-69 0 -97 44 -103 114h-5l-7 -154z" />
    <glyph glyph-name="paragraph" unicode="&#xb6;" horiz-adv-x="629" 
d="M156 -149l91 450c-81 0 -151 81 -151 174c0 132 106 223 230 223h311l-12 -66h-64l-157 -781h-71l157 781h-106l-157 -781h-71z" />
    <glyph glyph-name="periodcentered" unicode="&#xb7;" horiz-adv-x="316" 
d="M149 240c-32 0 -51 14 -51 40c0 9 2 24 4 34c6 27 20 55 65 55c32 0 51 -14 51 -40c0 -9 -2 -24 -4 -34c-6 -27 -20 -55 -65 -55z" />
    <glyph glyph-name="cedilla" unicode="&#xb8;" horiz-adv-x="593" 
d="M279 -207c-50 0 -86 17 -101 37l40 41c9 -13 30 -25 59 -25s46 15 46 36s-13 34 -55 39l-26 3l29 96h50l-26 -82l2 -2c7 1 16 4 31 4c33 0 59 -14 59 -56c0 -55 -44 -91 -108 -91z" />
    <glyph glyph-name="onesuperior" unicode="&#xb9;" horiz-adv-x="339" 
d="M324 329h-260l10 49h105l55 273h-6l-96 -74l-30 37l109 84h92l-64 -320h95z" />
    <glyph glyph-name="ordmasculine" unicode="&#xba;" horiz-adv-x="389" 
d="M220 344c-77 0 -127 56 -127 132c0 23 2 46 7 68c19 88 76 160 175 160c77 0 127 -56 127 -132c0 -23 -2 -46 -7 -68c-19 -88 -76 -160 -175 -160zM228 395c52 0 85 42 97 98l12 58c2 10 4 20 4 29c0 44 -26 73 -74 73c-52 0 -85 -42 -97 -98l-12 -58
c-2 -10 -4 -20 -4 -29c0 -44 26 -73 74 -73z" />
    <glyph glyph-name="guillemotright" unicode="&#xbb;" horiz-adv-x="499" 
d="M39 78l-14 59l164 149l-104 150l32 52l154 -172l-15 -73zM240 78l-14 59l164 149l-104 150l32 52l154 -172l-15 -73z" />
    <glyph glyph-name="onequarter" unicode="&#xbc;" horiz-adv-x="854" 
d="M703 0h-58l15 73h-182l10 52l214 244h75l-50 -250h51l-9 -46h-51zM669 119l36 181h-3l-159 -181h126zM192 0h-73l609 698h73zM324 329h-260l10 49h105l55 273h-6l-96 -74l-30 37l109 84h92l-64 -320h95z" />
    <glyph glyph-name="onehalf" unicode="&#xbd;" horiz-adv-x="856" 
d="M775 49l-10 -49h-261l12 59l133 96c47 34 82 56 91 101c1 5 3 13 3 19c0 30 -25 49 -59 49c-40 0 -66 -29 -80 -62l-51 23c22 49 63 90 137 90c65 0 119 -32 119 -98c0 -79 -77 -124 -130 -161l-96 -67h192zM192 0h-73l609 698h73zM324 329h-260l10 49h105l55 273h-6
l-96 -74l-30 37l109 84h92l-64 -320h95z" />
    <glyph glyph-name="threequarters" unicode="&#xbe;" horiz-adv-x="834" 
d="M683 0h-58l15 73h-182l10 52l214 244h75l-50 -250h51l-9 -46h-51zM649 119l36 181h-3l-159 -181h126zM172 0h-73l609 698h73zM161 545h46c58 0 72 29 77 54c1 5 2 11 2 15c0 21 -18 41 -53 41c-36 0 -69 -16 -92 -48l-36 34c29 37 70 63 133 63c70 0 110 -40 110 -90
c0 -53 -42 -87 -88 -96v-2c37 -6 62 -31 62 -75c0 -66 -57 -118 -146 -118c-75 0 -116 33 -132 69l45 31c14 -31 40 -51 88 -51c54 0 75 23 83 63c1 5 1 8 1 11c0 30 -25 50 -67 50h-43z" />
    <glyph glyph-name="questiondown" unicode="&#xbf;" horiz-adv-x="470" 
d="M163 -194c-109 0 -180 60 -180 161c0 109 84 210 221 233l22 108h75l-33 -165c-107 -4 -185 -60 -198 -133c-2 -9 -3 -28 -3 -38c0 -57 36 -94 103 -94c77 0 120 48 148 119l67 -27c-41 -99 -108 -164 -222 -164zM282 399c-32 0 -51 14 -51 40c0 9 2 24 4 34
c6 27 20 55 65 55c32 0 51 -14 51 -40c0 -9 -2 -24 -4 -34c-6 -27 -20 -55 -65 -55z" />
    <glyph glyph-name="Agrave" unicode="&#xc0;" horiz-adv-x="623" 
d="M403 755l-84 161l68 32l62 -172zM547 0h-83l-26 206h-271l-108 -206h-86l373 698h107zM430 278l-43 343h-5l-178 -343h226z" />
    <glyph glyph-name="Aacute" unicode="&#xc1;" horiz-adv-x="623" 
d="M544 914l-123 -158l-49 25l104 169zM547 0h-83l-26 206h-271l-108 -206h-86l373 698h107zM430 278l-43 343h-5l-178 -343h226z" />
    <glyph glyph-name="Acircumflex" unicode="&#xc2;" horiz-adv-x="623" 
d="M392 935h94l82 -143l-43 -30l-93 115l-139 -116l-40 32zM547 0h-83l-26 206h-271l-108 -206h-86l373 698h107zM430 278l-43 343h-5l-178 -343h226z" />
    <glyph glyph-name="Atilde" unicode="&#xc3;" horiz-adv-x="623" 
d="M487 782c-34 0 -57 15 -75 26c-29 19 -48 24 -65 24c-21 0 -37 -10 -60 -27l-27 38c21 28 54 54 99 54c34 0 57 -15 75 -26c29 -19 48 -24 65 -24c21 0 37 10 60 27l27 -38c-21 -28 -54 -54 -99 -54zM547 0h-83l-26 206h-271l-108 -206h-86l373 698h107zM430 278l-43 343
h-5l-178 -343h226z" />
    <glyph glyph-name="Adieresis" unicode="&#xc4;" horiz-adv-x="623" 
d="M322 787c-26 0 -42 12 -42 35c0 5 1 11 3 23c6 30 23 47 56 47c26 0 42 -12 42 -35c0 -5 -1 -11 -3 -23c-6 -30 -23 -47 -56 -47zM504 787c-26 0 -42 12 -42 35c0 5 1 11 3 23c6 30 23 47 56 47c26 0 42 -12 42 -35c0 -5 -1 -11 -3 -23c-6 -30 -23 -47 -56 -47zM547 0
h-83l-26 206h-271l-108 -206h-86l373 698h107zM430 278l-43 343h-5l-178 -343h226z" />
    <glyph glyph-name="Aring" unicode="&#xc5;" horiz-adv-x="623" 
d="M413 746c-60 0 -100 43 -100 100c0 79 51 130 129 130c60 0 100 -43 100 -100c0 -79 -51 -130 -129 -130zM419 794c35 0 56 20 63 56c3 14 4 24 4 31c0 30 -18 47 -50 47c-35 0 -56 -20 -63 -56c-3 -14 -4 -24 -4 -31c0 -30 18 -47 50 -47zM547 0h-83l-26 206h-271
l-108 -206h-86l373 698h107zM430 278l-43 343h-5l-178 -343h226z" />
    <glyph glyph-name="AE" unicode="&#xc6;" horiz-adv-x="886" 
d="M360 0l41 205h-212l-139 -205h-92l482 698h471l-15 -72h-329l-47 -236h296l-14 -72h-297l-49 -246h346l-14 -72h-428zM487 631h-10l-238 -355h177z" />
    <glyph glyph-name="Ccedilla" unicode="&#xc7;" horiz-adv-x="602" 
d="M383 637c-107 0 -193 -83 -218 -210l-23 -115c-5 -25 -6 -46 -6 -66c0 -110 59 -185 159 -185c97 0 147 49 192 130l68 -34c-59 -112 -136 -165 -253 -169l-16 -50l2 -2c7 1 16 4 31 4c33 0 59 -14 59 -56c0 -55 -44 -91 -108 -91c-50 0 -86 17 -101 37l40 41
c9 -13 30 -25 59 -25s46 15 46 36s-13 34 -55 39l-26 3l20 66c-117 18 -198 113 -198 276c0 242 134 444 336 444c113 0 190 -51 224 -159l-73 -33c-25 78 -72 119 -159 119z" />
    <glyph glyph-name="Egrave" unicode="&#xc8;" horiz-adv-x="565" 
d="M384 755l-84 161l68 32l62 -172zM467 0h-428l140 698h411l-15 -72h-329l-47 -236h296l-14 -72h-297l-49 -246h346z" />
    <glyph glyph-name="Eacute" unicode="&#xc9;" horiz-adv-x="565" 
d="M525 914l-123 -158l-49 25l104 169zM467 0h-428l140 698h411l-15 -72h-329l-47 -236h296l-14 -72h-297l-49 -246h346z" />
    <glyph glyph-name="Ecircumflex" unicode="&#xca;" horiz-adv-x="565" 
d="M373 935h94l82 -143l-43 -30l-93 115l-139 -116l-40 32zM467 0h-428l140 698h411l-15 -72h-329l-47 -236h296l-14 -72h-297l-49 -246h346z" />
    <glyph glyph-name="Edieresis" unicode="&#xcb;" horiz-adv-x="565" 
d="M303 787c-26 0 -42 12 -42 35c0 5 1 11 3 23c6 30 23 47 56 47c26 0 42 -12 42 -35c0 -5 -1 -11 -3 -23c-6 -30 -23 -47 -56 -47zM485 787c-26 0 -42 12 -42 35c0 5 1 11 3 23c6 30 23 47 56 47c26 0 42 -12 42 -35c0 -5 -1 -11 -3 -23c-6 -30 -23 -47 -56 -47zM467 0
h-428l140 698h411l-15 -72h-329l-47 -236h296l-14 -72h-297l-49 -246h346z" />
    <glyph glyph-name="Igrave" unicode="&#xcc;" horiz-adv-x="387" 
d="M284 755l-84 161l68 32l62 -172zM276 0h-267l14 69h93l111 560h-93l14 69h267l-14 -69h-93l-111 -560h93z" />
    <glyph glyph-name="Iacute" unicode="&#xcd;" horiz-adv-x="387" 
d="M425 914l-123 -158l-49 25l104 169zM276 0h-267l14 69h93l111 560h-93l14 69h267l-14 -69h-93l-111 -560h93z" />
    <glyph glyph-name="Icircumflex" unicode="&#xce;" horiz-adv-x="387" 
d="M273 935h94l82 -143l-43 -30l-93 115l-139 -116l-40 32zM276 0h-267l14 69h93l111 560h-93l14 69h267l-14 -69h-93l-111 -560h93z" />
    <glyph glyph-name="Idieresis" unicode="&#xcf;" horiz-adv-x="387" 
d="M203 787c-26 0 -42 12 -42 35c0 5 1 11 3 23c6 30 23 47 56 47c26 0 42 -12 42 -35c0 -5 -1 -11 -3 -23c-6 -30 -23 -47 -56 -47zM385 787c-26 0 -42 12 -42 35c0 5 1 11 3 23c6 30 23 47 56 47c26 0 42 -12 42 -35c0 -5 -1 -11 -3 -23c-6 -30 -23 -47 -56 -47zM276 0
h-267l14 69h93l111 560h-93l14 69h267l-14 -69h-93l-111 -560h93z" />
    <glyph glyph-name="Eth" unicode="&#xd0;" horiz-adv-x="655" 
d="M42 0l68 338h-74l13 62h74l59 298h205c149 0 239 -92 239 -271c0 -216 -126 -427 -348 -427h-236zM138 72h142c119 0 207 78 235 217l21 105c4 20 6 42 6 61c0 110 -62 171 -159 171h-135l-45 -226h133l-13 -62h-132z" />
    <glyph glyph-name="Ntilde" unicode="&#xd1;" horiz-adv-x="684" 
d="M522 782c-34 0 -57 15 -75 26c-29 19 -48 24 -65 24c-21 0 -37 -10 -60 -27l-27 38c21 28 54 54 99 54c34 0 57 -15 75 -26c29 -19 48 -24 65 -24c21 0 37 10 60 27l27 -38c-21 -28 -54 -54 -99 -54zM447 0l-152 420l-55 167h-5l-117 -587h-79l140 698h94l152 -420
l55 -167h5l117 587h79l-140 -698h-94z" />
    <glyph glyph-name="Ograve" unicode="&#xd2;" horiz-adv-x="679" 
d="M413 755l-84 161l68 32l62 -172zM298 -12c-139 0 -243 96 -243 272c0 231 133 450 354 450c139 0 243 -96 243 -272c0 -231 -133 -450 -354 -450zM306 61c123 0 210 87 239 232l20 100c5 25 7 49 7 69c0 106 -63 175 -171 175c-123 0 -210 -87 -239 -232l-20 -100
c-5 -25 -7 -49 -7 -69c0 -106 63 -175 171 -175z" />
    <glyph glyph-name="Oacute" unicode="&#xd3;" horiz-adv-x="679" 
d="M554 914l-123 -158l-49 25l104 169zM298 -12c-139 0 -243 96 -243 272c0 231 133 450 354 450c139 0 243 -96 243 -272c0 -231 -133 -450 -354 -450zM306 61c123 0 210 87 239 232l20 100c5 25 7 49 7 69c0 106 -63 175 -171 175c-123 0 -210 -87 -239 -232l-20 -100
c-5 -25 -7 -49 -7 -69c0 -106 63 -175 171 -175z" />
    <glyph glyph-name="Ocircumflex" unicode="&#xd4;" horiz-adv-x="679" 
d="M402 935h94l82 -143l-43 -30l-93 115l-139 -116l-40 32zM298 -12c-139 0 -243 96 -243 272c0 231 133 450 354 450c139 0 243 -96 243 -272c0 -231 -133 -450 -354 -450zM306 61c123 0 210 87 239 232l20 100c5 25 7 49 7 69c0 106 -63 175 -171 175
c-123 0 -210 -87 -239 -232l-20 -100c-5 -25 -7 -49 -7 -69c0 -106 63 -175 171 -175z" />
    <glyph glyph-name="Otilde" unicode="&#xd5;" horiz-adv-x="679" 
d="M497 782c-34 0 -57 15 -75 26c-29 19 -48 24 -65 24c-21 0 -37 -10 -60 -27l-27 38c21 28 54 54 99 54c34 0 57 -15 75 -26c29 -19 48 -24 65 -24c21 0 37 10 60 27l27 -38c-21 -28 -54 -54 -99 -54zM298 -12c-139 0 -243 96 -243 272c0 231 133 450 354 450
c139 0 243 -96 243 -272c0 -231 -133 -450 -354 -450zM306 61c123 0 210 87 239 232l20 100c5 25 7 49 7 69c0 106 -63 175 -171 175c-123 0 -210 -87 -239 -232l-20 -100c-5 -25 -7 -49 -7 -69c0 -106 63 -175 171 -175z" />
    <glyph glyph-name="Odieresis" unicode="&#xd6;" horiz-adv-x="679" 
d="M332 787c-26 0 -42 12 -42 35c0 5 1 11 3 23c6 30 23 47 56 47c26 0 42 -12 42 -35c0 -5 -1 -11 -3 -23c-6 -30 -23 -47 -56 -47zM514 787c-26 0 -42 12 -42 35c0 5 1 11 3 23c6 30 23 47 56 47c26 0 42 -12 42 -35c0 -5 -1 -11 -3 -23c-6 -30 -23 -47 -56 -47zM298 -12
c-139 0 -243 96 -243 272c0 231 133 450 354 450c139 0 243 -96 243 -272c0 -231 -133 -450 -354 -450zM306 61c123 0 210 87 239 232l20 100c5 25 7 49 7 69c0 106 -63 175 -171 175c-123 0 -210 -87 -239 -232l-20 -100c-5 -25 -7 -49 -7 -69c0 -106 63 -175 171 -175z
" />
    <glyph glyph-name="multiply" unicode="&#xd7;" horiz-adv-x="600" 
d="M422 93l-120 162l-185 -163l-41 54l186 163l-121 162l54 47l121 -162l185 162l41 -54l-186 -162l120 -162z" />
    <glyph glyph-name="Oslash" unicode="&#xd8;" horiz-adv-x="679" 
d="M298 -12c-64 0 -120 20 -163 59l-81 -93l-51 45l90 103c-24 42 -38 94 -38 158c0 231 133 450 354 450c64 0 120 -20 163 -59l81 93l51 -45l-90 -103c24 -42 38 -94 38 -158c0 -231 -133 -450 -354 -450zM142 305c-5 -25 -7 -49 -7 -69c0 -27 4 -52 12 -74l376 430
c-30 28 -71 45 -122 45c-123 0 -210 -87 -239 -232zM306 61c123 0 210 87 239 232l20 100c5 25 7 49 7 69c0 27 -4 52 -12 74l-376 -430c30 -28 71 -45 122 -45z" />
    <glyph glyph-name="Ugrave" unicode="&#xd9;" horiz-adv-x="656" 
d="M416 755l-84 161l68 32l62 -172zM174 698h81l-86 -429c-6 -30 -8 -50 -8 -72c0 -85 49 -136 128 -136c112 0 172 61 204 223l83 414h81l-84 -420c-43 -214 -127 -290 -293 -290c-124 0 -198 74 -198 201c0 31 3 65 11 105z" />
    <glyph glyph-name="Uacute" unicode="&#xda;" horiz-adv-x="656" 
d="M557 914l-123 -158l-49 25l104 169zM174 698h81l-86 -429c-6 -30 -8 -50 -8 -72c0 -85 49 -136 128 -136c112 0 172 61 204 223l83 414h81l-84 -420c-43 -214 -127 -290 -293 -290c-124 0 -198 74 -198 201c0 31 3 65 11 105z" />
    <glyph glyph-name="Ucircumflex" unicode="&#xdb;" horiz-adv-x="656" 
d="M405 935h94l82 -143l-43 -30l-93 115l-139 -116l-40 32zM174 698h81l-86 -429c-6 -30 -8 -50 -8 -72c0 -85 49 -136 128 -136c112 0 172 61 204 223l83 414h81l-84 -420c-43 -214 -127 -290 -293 -290c-124 0 -198 74 -198 201c0 31 3 65 11 105z" />
    <glyph glyph-name="Udieresis" unicode="&#xdc;" horiz-adv-x="656" 
d="M335 787c-26 0 -42 12 -42 35c0 5 1 11 3 23c6 30 23 47 56 47c26 0 42 -12 42 -35c0 -5 -1 -11 -3 -23c-6 -30 -23 -47 -56 -47zM517 787c-26 0 -42 12 -42 35c0 5 1 11 3 23c6 30 23 47 56 47c26 0 42 -12 42 -35c0 -5 -1 -11 -3 -23c-6 -30 -23 -47 -56 -47zM174 698
h81l-86 -429c-6 -30 -8 -50 -8 -72c0 -85 49 -136 128 -136c112 0 172 61 204 223l83 414h81l-84 -420c-43 -214 -127 -290 -293 -290c-124 0 -198 74 -198 201c0 31 3 65 11 105z" />
    <glyph glyph-name="Yacute" unicode="&#xdd;" horiz-adv-x="577" 
d="M510 914l-123 -158l-49 25l104 169zM277 0h-81l55 273l-146 425h82l116 -341h5l250 341h93l-319 -425z" />
    <glyph glyph-name="Thorn" unicode="&#xde;" horiz-adv-x="587" 
d="M119 0h-81l141 698h81l-29 -144h168c123 0 173 -70 173 -166c0 -130 -90 -234 -234 -234h-188zM216 482l-51 -256h185c66 0 113 37 126 102c9 45 12 58 12 74c0 48 -25 80 -95 80h-177z" />
    <glyph glyph-name="germandbls" unicode="&#xdf;" horiz-adv-x="641" 
d="M586 154c0 -101 -76 -166 -180 -166c-79 0 -154 34 -195 94l53 47c36 -48 82 -74 142 -74c62 0 106 33 106 95c0 34 -12 54 -54 68l-39 13c-66 22 -119 47 -119 135c0 84 82 156 210 156l1 5c4 21 6 40 6 57c0 68 -41 102 -112 102c-92 0 -146 -38 -170 -159l-105 -527
h-78l89 446h-84l14 70h84l2 11c30 150 122 225 258 225c105 0 177 -64 177 -168c0 -20 -2 -42 -6 -63l-12 -61h-45c-102 0 -154 -34 -154 -90c0 -35 13 -56 56 -70l39 -13c64 -21 116 -47 116 -133z" />
    <glyph glyph-name="agrave" unicode="&#xe0;" horiz-adv-x="583" 
d="M330 585l-84 159l68 32l61 -170zM506 0h-69c-45 0 -67 25 -67 62c0 8 1 17 3 27l5 23h-3c-42 -86 -91 -124 -167 -124c-94 0 -157 75 -157 197c0 152 81 343 252 343c62 0 120 -31 135 -96h4l17 84h77l-90 -448h73zM229 58c45 0 78 21 108 51c33 33 55 72 65 124l21 105
c13 64 -21 120 -113 120c-84 0 -140 -57 -160 -157l-15 -75c-3 -17 -5 -34 -5 -51c0 -67 30 -117 99 -117z" />
    <glyph glyph-name="aacute" unicode="&#xe1;" horiz-adv-x="583" 
d="M482 744l-124 -159l-48 25l104 170zM506 0h-69c-45 0 -67 25 -67 62c0 8 1 17 3 27l5 23h-3c-42 -86 -91 -124 -167 -124c-94 0 -157 75 -157 197c0 152 81 343 252 343c62 0 120 -31 135 -96h4l17 84h77l-90 -448h73zM229 58c45 0 78 21 108 51c33 33 55 72 65 124
l21 105c13 64 -21 120 -113 120c-84 0 -140 -57 -160 -157l-15 -75c-3 -17 -5 -34 -5 -51c0 -67 30 -117 99 -117z" />
    <glyph glyph-name="acircumflex" unicode="&#xe2;" horiz-adv-x="583" 
d="M325 765h94l82 -143l-43 -31l-93 115l-139 -116l-39 32zM506 0h-69c-45 0 -67 25 -67 62c0 8 1 17 3 27l5 23h-3c-42 -86 -91 -124 -167 -124c-94 0 -157 75 -157 197c0 152 81 343 252 343c62 0 120 -31 135 -96h4l17 84h77l-90 -448h73zM229 58c45 0 78 21 108 51
c33 33 55 72 65 124l21 105c13 64 -21 120 -113 120c-84 0 -140 -57 -160 -157l-15 -75c-3 -17 -5 -34 -5 -51c0 -67 30 -117 99 -117z" />
    <glyph glyph-name="atilde" unicode="&#xe3;" horiz-adv-x="583" 
d="M421 612c-34 0 -55 13 -74 25c-29 19 -48 24 -65 24c-22 0 -38 -10 -60 -27l-28 39c22 27 54 53 99 53c34 0 55 -13 74 -25c29 -19 48 -24 65 -24c22 0 38 10 60 27l28 -39c-22 -27 -54 -53 -99 -53zM506 0h-69c-45 0 -67 25 -67 62c0 8 1 17 3 27l5 23h-3
c-42 -86 -91 -124 -167 -124c-94 0 -157 75 -157 197c0 152 81 343 252 343c62 0 120 -31 135 -96h4l17 84h77l-90 -448h73zM229 58c45 0 78 21 108 51c33 33 55 72 65 124l21 105c13 64 -21 120 -113 120c-84 0 -140 -57 -160 -157l-15 -75c-3 -17 -5 -34 -5 -51
c0 -67 30 -117 99 -117z" />
    <glyph glyph-name="adieresis" unicode="&#xe4;" horiz-adv-x="583" 
d="M258 618c-26 0 -42 12 -42 35c0 5 1 10 3 21c6 30 23 47 56 47c26 0 42 -12 42 -35c0 -5 -1 -10 -3 -21c-6 -30 -23 -47 -56 -47zM440 618c-26 0 -42 12 -42 35c0 5 1 10 3 21c6 30 23 47 56 47c26 0 42 -12 42 -35c0 -5 -1 -10 -3 -21c-6 -30 -23 -47 -56 -47zM506 0
h-69c-45 0 -67 25 -67 62c0 8 1 17 3 27l5 23h-3c-42 -86 -91 -124 -167 -124c-94 0 -157 75 -157 197c0 152 81 343 252 343c62 0 120 -31 135 -96h4l17 84h77l-90 -448h73zM229 58c45 0 78 21 108 51c33 33 55 72 65 124l21 105c13 64 -21 120 -113 120
c-84 0 -140 -57 -160 -157l-15 -75c-3 -17 -5 -34 -5 -51c0 -67 30 -117 99 -117z" />
    <glyph glyph-name="aring" unicode="&#xe5;" horiz-adv-x="583" 
d="M347 576c-60 0 -100 43 -100 100c0 79 51 130 129 130c60 0 100 -43 100 -100c0 -79 -51 -130 -129 -130zM353 624c35 0 56 20 63 56c3 14 4 24 4 31c0 30 -18 47 -50 47c-35 0 -56 -20 -63 -56c-3 -14 -4 -24 -4 -31c0 -30 18 -47 50 -47zM506 0h-69
c-45 0 -67 25 -67 62c0 8 1 17 3 27l5 23h-3c-42 -86 -91 -124 -167 -124c-94 0 -157 75 -157 197c0 152 81 343 252 343c62 0 120 -31 135 -96h4l17 84h77l-90 -448h73zM229 58c45 0 78 21 108 51c33 33 55 72 65 124l21 105c13 64 -21 120 -113 120
c-84 0 -140 -57 -160 -157l-15 -75c-3 -17 -5 -34 -5 -51c0 -67 30 -117 99 -117z" />
    <glyph glyph-name="ae" unicode="&#xe6;" horiz-adv-x="806" 
d="M185 56c71 0 137 40 148 94l16 79l-99 -4c-77 -3 -134 -15 -144 -67c-5 -25 -6 -32 -6 -39c0 -40 31 -63 85 -63zM611 462c-89 0 -152 -60 -171 -152l-5 -24c218 7 266 37 266 98c0 64 -46 78 -90 78zM168 -12c-92 0 -146 48 -146 134c0 99 72 154 232 160l107 4l11 59
c2 10 3 18 3 27c0 55 -37 86 -105 86c-61 0 -99 -25 -135 -73l-48 46c36 55 107 97 194 97c82 0 128 -38 146 -95h7c44 60 106 95 181 95c83 0 165 -43 165 -138c0 -116 -121 -160 -354 -162c-2 -14 -5 -36 -5 -54c0 -66 43 -117 123 -117c65 0 118 33 158 82l50 -45
c-64 -78 -139 -106 -214 -106c-89 0 -148 39 -175 106h-7c-38 -70 -109 -106 -188 -106z" />
    <glyph glyph-name="ccedilla" unicode="&#xe7;" horiz-adv-x="488" 
d="M302 528c91 0 151 -51 171 -121l-64 -29c-17 54 -52 81 -109 81c-82 0 -135 -56 -153 -147l-17 -84c-3 -15 -4 -33 -4 -45c0 -74 39 -126 118 -126c50 0 91 24 132 101l61 -30c-40 -83 -103 -132 -183 -139l-16 -51l2 -2c7 1 16 4 31 4c33 0 59 -14 59 -56
c0 -55 -44 -91 -108 -91c-50 0 -86 17 -101 37l40 41c9 -13 30 -25 59 -25s46 15 46 36s-13 34 -55 39l-26 3l20 66c-98 13 -156 93 -156 209c0 179 97 329 253 329z" />
    <glyph glyph-name="egrave" unicode="&#xe8;" horiz-adv-x="511" 
d="M320 585l-84 159l68 32l61 -170zM244 -12c-123 0 -195 76 -195 216c0 171 108 324 270 324c88 0 166 -45 166 -138c0 -113 -116 -167 -356 -169c-2 -14 -3 -31 -3 -42c0 -73 43 -122 123 -122c65 0 118 33 158 82l50 -45c-64 -78 -139 -106 -213 -106zM311 462
c-81 0 -147 -60 -166 -152l-6 -29c221 8 267 39 267 110c0 55 -46 71 -95 71z" />
    <glyph glyph-name="eacute" unicode="&#xe9;" horiz-adv-x="511" 
d="M472 744l-124 -159l-48 25l104 170zM244 -12c-123 0 -195 76 -195 216c0 171 108 324 270 324c88 0 166 -45 166 -138c0 -113 -116 -167 -356 -169c-2 -14 -3 -31 -3 -42c0 -73 43 -122 123 -122c65 0 118 33 158 82l50 -45c-64 -78 -139 -106 -213 -106zM311 462
c-81 0 -147 -60 -166 -152l-6 -29c221 8 267 39 267 110c0 55 -46 71 -95 71z" />
    <glyph glyph-name="ecircumflex" unicode="&#xea;" horiz-adv-x="511" 
d="M315 765h94l82 -143l-43 -31l-93 115l-139 -116l-39 32zM244 -12c-123 0 -195 76 -195 216c0 171 108 324 270 324c88 0 166 -45 166 -138c0 -113 -116 -167 -356 -169c-2 -14 -3 -31 -3 -42c0 -73 43 -122 123 -122c65 0 118 33 158 82l50 -45
c-64 -78 -139 -106 -213 -106zM311 462c-81 0 -147 -60 -166 -152l-6 -29c221 8 267 39 267 110c0 55 -46 71 -95 71z" />
    <glyph glyph-name="edieresis" unicode="&#xeb;" horiz-adv-x="511" 
d="M248 618c-26 0 -42 12 -42 35c0 5 1 10 3 21c6 30 23 47 56 47c26 0 42 -12 42 -35c0 -5 -1 -10 -3 -21c-6 -30 -23 -47 -56 -47zM430 618c-26 0 -42 12 -42 35c0 5 1 10 3 21c6 30 23 47 56 47c26 0 42 -12 42 -35c0 -5 -1 -10 -3 -21c-6 -30 -23 -47 -56 -47zM244 -12
c-123 0 -195 76 -195 216c0 171 108 324 270 324c88 0 166 -45 166 -138c0 -113 -116 -167 -356 -169c-2 -14 -3 -31 -3 -42c0 -73 43 -122 123 -122c65 0 118 33 158 82l50 -45c-64 -78 -139 -106 -213 -106zM311 462c-81 0 -147 -60 -166 -152l-6 -29
c221 8 267 39 267 110c0 55 -46 71 -95 71z" />
    <glyph glyph-name="igrave" unicode="&#xec;" horiz-adv-x="264" 
d="M183 585l-84 159l68 32l61 -170zM187 0h-67c-46 0 -69 26 -69 63c0 6 1 13 3 23l86 430h77l-90 -448h73z" />
    <glyph glyph-name="iacute" unicode="&#xed;" horiz-adv-x="264" 
d="M335 744l-124 -159l-48 25l104 170zM187 0h-67c-46 0 -69 26 -69 63c0 6 1 13 3 23l86 430h77l-90 -448h73z" />
    <glyph glyph-name="icircumflex" unicode="&#xee;" horiz-adv-x="264" 
d="M178 765h94l82 -143l-43 -31l-93 115l-139 -116l-39 32zM187 0h-67c-46 0 -69 26 -69 63c0 6 1 13 3 23l86 430h77l-90 -448h73z" />
    <glyph glyph-name="idieresis" unicode="&#xef;" horiz-adv-x="264" 
d="M111 618c-26 0 -42 12 -42 35c0 5 1 10 3 21c6 30 23 47 56 47c26 0 42 -12 42 -35c0 -5 -1 -10 -3 -21c-6 -30 -23 -47 -56 -47zM293 618c-26 0 -42 12 -42 35c0 5 1 10 3 21c6 30 23 47 56 47c26 0 42 -12 42 -35c0 -5 -1 -10 -3 -21c-6 -30 -23 -47 -56 -47zM187 0
h-67c-46 0 -69 26 -69 63c0 6 1 13 3 23l86 430h77l-90 -448h73z" />
    <glyph glyph-name="eth" unicode="&#xf0;" horiz-adv-x="563" 
d="M502 707l-86 -55c50 -66 95 -161 95 -295c0 -223 -110 -369 -275 -369c-117 0 -187 86 -187 210c0 163 103 306 244 306c70 0 118 -34 137 -91l5 2c-7 71 -32 141 -76 201l-89 -57l-26 44l81 53c-30 32 -67 60 -109 84h114c15 -13 33 -29 51 -48l93 61zM249 58
c79 0 140 63 158 153l13 65c3 15 6 29 6 43c0 73 -48 115 -125 115c-78 0 -140 -62 -158 -152l-13 -65c-3 -15 -6 -29 -6 -43c0 -73 48 -116 125 -116z" />
    <glyph glyph-name="ntilde" unicode="&#xf1;" horiz-adv-x="565" 
d="M425 612c-34 0 -55 13 -74 25c-29 19 -48 24 -65 24c-22 0 -38 -10 -60 -27l-28 39c22 27 54 53 99 53c34 0 55 -13 74 -25c29 -19 48 -24 65 -24c22 0 38 10 60 27l28 -39c-22 -27 -54 -53 -99 -53zM113 0h-77l104 516h77l-21 -102h5c36 77 84 114 158 114
c89 0 133 -54 133 -143c0 -19 -2 -42 -7 -67l-50 -250h73l-13 -68h-73c-38 0 -64 18 -64 58c0 6 0 11 2 21l48 239c4 20 5 41 5 53c0 58 -24 87 -79 87c-37 0 -67 -13 -95 -41c-34 -34 -60 -88 -68 -129z" />
    <glyph glyph-name="ograve" unicode="&#xf2;" horiz-adv-x="550" 
d="M317 585l-84 159l68 32l61 -170zM235 -12c-108 0 -186 72 -186 212c0 173 108 328 266 328c108 0 186 -72 186 -212c0 -173 -108 -328 -266 -328zM245 57c74 0 139 56 160 161l15 75c3 15 5 30 5 45c0 72 -42 121 -120 121c-74 0 -139 -56 -160 -161l-15 -75
c-3 -15 -5 -30 -5 -45c0 -72 42 -121 120 -121z" />
    <glyph glyph-name="oacute" unicode="&#xf3;" horiz-adv-x="550" 
d="M469 744l-124 -159l-48 25l104 170zM235 -12c-108 0 -186 72 -186 212c0 173 108 328 266 328c108 0 186 -72 186 -212c0 -173 -108 -328 -266 -328zM245 57c74 0 139 56 160 161l15 75c3 15 5 30 5 45c0 72 -42 121 -120 121c-74 0 -139 -56 -160 -161l-15 -75
c-3 -15 -5 -30 -5 -45c0 -72 42 -121 120 -121z" />
    <glyph glyph-name="ocircumflex" unicode="&#xf4;" horiz-adv-x="550" 
d="M312 765h94l82 -143l-43 -31l-93 115l-139 -116l-39 32zM235 -12c-108 0 -186 72 -186 212c0 173 108 328 266 328c108 0 186 -72 186 -212c0 -173 -108 -328 -266 -328zM245 57c74 0 139 56 160 161l15 75c3 15 5 30 5 45c0 72 -42 121 -120 121
c-74 0 -139 -56 -160 -161l-15 -75c-3 -15 -5 -30 -5 -45c0 -72 42 -121 120 -121z" />
    <glyph glyph-name="otilde" unicode="&#xf5;" horiz-adv-x="550" 
d="M408 612c-34 0 -55 13 -74 25c-29 19 -48 24 -65 24c-22 0 -38 -10 -60 -27l-28 39c22 27 54 53 99 53c34 0 55 -13 74 -25c29 -19 48 -24 65 -24c22 0 38 10 60 27l28 -39c-22 -27 -54 -53 -99 -53zM235 -12c-108 0 -186 72 -186 212c0 173 108 328 266 328
c108 0 186 -72 186 -212c0 -173 -108 -328 -266 -328zM245 57c74 0 139 56 160 161l15 75c3 15 5 30 5 45c0 72 -42 121 -120 121c-74 0 -139 -56 -160 -161l-15 -75c-3 -15 -5 -30 -5 -45c0 -72 42 -121 120 -121z" />
    <glyph glyph-name="odieresis" unicode="&#xf6;" horiz-adv-x="550" 
d="M245 618c-26 0 -42 12 -42 35c0 5 1 10 3 21c6 30 23 47 56 47c26 0 42 -12 42 -35c0 -5 -1 -10 -3 -21c-6 -30 -23 -47 -56 -47zM427 618c-26 0 -42 12 -42 35c0 5 1 10 3 21c6 30 23 47 56 47c26 0 42 -12 42 -35c0 -5 -1 -10 -3 -21c-6 -30 -23 -47 -56 -47zM235 -12
c-108 0 -186 72 -186 212c0 173 108 328 266 328c108 0 186 -72 186 -212c0 -173 -108 -328 -266 -328zM245 57c74 0 139 56 160 161l15 75c3 15 5 30 5 45c0 72 -42 121 -120 121c-74 0 -139 -56 -160 -161l-15 -75c-3 -15 -5 -30 -5 -45c0 -72 42 -121 120 -121z" />
    <glyph glyph-name="divide" unicode="&#xf7;" horiz-adv-x="600" 
d="M527 273h-450l14 66h450zM263 54c-36 0 -50 14 -50 38c0 8 2 18 4 28c7 35 26 52 65 52c36 0 50 -14 50 -38c0 -8 -2 -18 -4 -28c-7 -35 -26 -52 -65 -52zM338 440c-36 0 -50 14 -50 38c0 8 2 18 4 28c7 35 26 52 65 52c36 0 50 -14 50 -38c0 -8 -2 -18 -4 -28
c-7 -35 -26 -52 -65 -52z" />
    <glyph glyph-name="oslash" unicode="&#xf8;" horiz-adv-x="550" 
d="M22 -41l-39 38l88 91c-14 31 -22 67 -22 112c0 173 108 328 266 328c54 0 100 -19 133 -54l80 83l39 -38l-88 -91c14 -31 22 -67 22 -112c0 -173 -108 -328 -266 -328c-54 0 -100 19 -133 54zM245 57c74 0 139 56 160 161c18 90 20 105 20 120c0 12 -1 24 -3 33
l-270 -277c20 -23 52 -37 93 -37zM305 459c-74 0 -139 -56 -160 -161c-18 -90 -20 -105 -20 -120c0 -12 1 -24 3 -33l270 277c-20 23 -52 37 -93 37z" />
    <glyph glyph-name="ugrave" unicode="&#xf9;" horiz-adv-x="562" 
d="M326 585l-84 159l68 32l61 -170zM134 516h77l-64 -318c-4 -20 -5 -41 -5 -53c0 -57 22 -87 77 -87c36 0 66 13 93 41c37 38 60 90 68 129l58 288h77l-90 -448h73l-13 -68h-70c-44 0 -66 26 -66 63c0 7 1 15 4 29l2 10h-5c-36 -78 -84 -114 -155 -114
c-88 0 -132 54 -132 143c0 19 2 42 7 67z" />
    <glyph glyph-name="uacute" unicode="&#xfa;" horiz-adv-x="562" 
d="M478 744l-124 -159l-48 25l104 170zM134 516h77l-64 -318c-4 -20 -5 -41 -5 -53c0 -57 22 -87 77 -87c36 0 66 13 93 41c37 38 60 90 68 129l58 288h77l-90 -448h73l-13 -68h-70c-44 0 -66 26 -66 63c0 7 1 15 4 29l2 10h-5c-36 -78 -84 -114 -155 -114
c-88 0 -132 54 -132 143c0 19 2 42 7 67z" />
    <glyph glyph-name="ucircumflex" unicode="&#xfb;" horiz-adv-x="562" 
d="M321 765h94l82 -143l-43 -31l-93 115l-139 -116l-39 32zM134 516h77l-64 -318c-4 -20 -5 -41 -5 -53c0 -57 22 -87 77 -87c36 0 66 13 93 41c37 38 60 90 68 129l58 288h77l-90 -448h73l-13 -68h-70c-44 0 -66 26 -66 63c0 7 1 15 4 29l2 10h-5
c-36 -78 -84 -114 -155 -114c-88 0 -132 54 -132 143c0 19 2 42 7 67z" />
    <glyph glyph-name="udieresis" unicode="&#xfc;" horiz-adv-x="562" 
d="M254 618c-26 0 -42 12 -42 35c0 5 1 10 3 21c6 30 23 47 56 47c26 0 42 -12 42 -35c0 -5 -1 -10 -3 -21c-6 -30 -23 -47 -56 -47zM436 618c-26 0 -42 12 -42 35c0 5 1 10 3 21c6 30 23 47 56 47c26 0 42 -12 42 -35c0 -5 -1 -10 -3 -21c-6 -30 -23 -47 -56 -47zM134 516
h77l-64 -318c-4 -20 -5 -41 -5 -53c0 -57 22 -87 77 -87c36 0 66 13 93 41c37 38 60 90 68 129l58 288h77l-90 -448h73l-13 -68h-70c-44 0 -66 26 -66 63c0 7 1 15 4 29l2 10h-5c-36 -78 -84 -114 -155 -114c-88 0 -132 54 -132 143c0 19 2 42 7 67z" />
    <glyph glyph-name="yacute" unicode="&#xfd;" horiz-adv-x="484" 
d="M445 744l-124 -159l-48 25l104 170zM300 261l138 255h82l-349 -633c-33 -60 -59 -83 -111 -83h-80l13 66h93l64 118l-82 532h75l38 -255l21 -188h5z" />
    <glyph glyph-name="thorn" unicode="&#xfe;" horiz-adv-x="572" 
d="M-4 -200l189 940h77l-68 -336h3c42 86 91 124 167 124c94 0 157 -75 157 -197c0 -152 -81 -343 -252 -343c-62 0 -120 31 -135 96h-4l-57 -284h-77zM262 58c84 0 140 57 160 157l15 75c3 17 5 34 5 51c0 66 -30 117 -97 117c-48 0 -80 -21 -110 -51
c-33 -33 -55 -72 -65 -124l-21 -105c-13 -64 21 -120 113 -120z" />
    <glyph glyph-name="ydieresis" unicode="&#xff;" horiz-adv-x="484" 
d="M221 618c-26 0 -42 12 -42 35c0 5 1 10 3 21c6 30 23 47 56 47c26 0 42 -12 42 -35c0 -5 -1 -10 -3 -21c-6 -30 -23 -47 -56 -47zM403 618c-26 0 -42 12 -42 35c0 5 1 10 3 21c6 30 23 47 56 47c26 0 42 -12 42 -35c0 -5 -1 -10 -3 -21c-6 -30 -23 -47 -56 -47zM300 261
l138 255h82l-349 -633c-33 -60 -59 -83 -111 -83h-80l13 66h93l64 118l-82 532h75l38 -255l21 -188h5z" />
    <glyph glyph-name="Amacron" unicode="&#x100;" horiz-adv-x="623" 
d="M280 809l14 66h272l-14 -66h-272zM547 0h-83l-26 206h-271l-108 -206h-86l373 698h107zM430 278l-43 343h-5l-178 -343h226z" />
    <glyph glyph-name="amacron" unicode="&#x101;" horiz-adv-x="583" 
d="M215 639l14 66h272l-14 -66h-272zM506 0h-69c-45 0 -67 25 -67 62c0 8 1 17 3 27l5 23h-3c-42 -86 -91 -124 -167 -124c-94 0 -157 75 -157 197c0 152 81 343 252 343c62 0 120 -31 135 -96h4l17 84h77l-90 -448h73zM229 58c45 0 78 21 108 51c33 33 55 72 65 124l21 105
c13 64 -21 120 -113 120c-84 0 -140 -57 -160 -157l-15 -75c-3 -17 -5 -34 -5 -51c0 -67 30 -117 99 -117z" />
    <glyph glyph-name="Abreve" unicode="&#x102;" horiz-adv-x="623" 
d="M415 766c-98 0 -123 80 -131 134l46 20l10 -22c21 -46 38 -71 77 -71c36 0 61 20 100 71l17 22l48 -20c-26 -55 -70 -134 -167 -134zM547 0h-83l-26 206h-271l-108 -206h-86l373 698h107zM430 278l-43 343h-5l-178 -343h226z" />
    <glyph glyph-name="abreve" unicode="&#x103;" horiz-adv-x="583" 
d="M347 596c-98 0 -123 80 -131 134l46 20l10 -22c21 -46 38 -71 77 -71c36 0 61 20 100 71l17 22l48 -20c-26 -55 -70 -134 -167 -134zM506 0h-69c-45 0 -67 25 -67 62c0 8 1 17 3 27l5 23h-3c-42 -86 -91 -124 -167 -124c-94 0 -157 75 -157 197c0 152 81 343 252 343
c62 0 120 -31 135 -96h4l17 84h77l-90 -448h73zM229 58c45 0 78 21 108 51c33 33 55 72 65 124l21 105c13 64 -21 120 -113 120c-84 0 -140 -57 -160 -157l-15 -75c-3 -17 -5 -34 -5 -51c0 -67 30 -117 99 -117z" />
    <glyph glyph-name="Aogonek" unicode="&#x104;" horiz-adv-x="623" 
d="M-27 0l373 698h107l94 -698c-105 -70 -118 -101 -118 -122s15 -31 33 -31c16 0 36 9 54 27l37 -44c-17 -19 -50 -37 -96 -37c-50 0 -96 21 -96 75c0 55 49 93 125 127l-1 5h-21l-26 206h-271l-108 -206h-86zM430 278l-43 343h-5l-178 -343h226z" />
    <glyph glyph-name="aogonek" unicode="&#x105;" horiz-adv-x="583" 
d="M519 68l-13 -68c-105 -70 -118 -101 -118 -122s15 -31 33 -31c16 0 36 9 54 27l37 -44c-17 -19 -50 -37 -96 -37c-50 0 -96 21 -96 75c0 55 49 93 125 127l-1 5h-7c-45 0 -67 25 -67 62c0 8 1 17 3 27l5 23h-3c-42 -86 -91 -124 -167 -124c-94 0 -157 75 -157 197
c0 152 81 343 252 343c62 0 120 -31 135 -96h4l17 84h77l-90 -448h73zM227 58c48 0 80 21 110 51c35 35 55 74 65 124l25 124c9 45 -36 101 -115 101c-87 0 -142 -57 -162 -157l-15 -75c-3 -17 -5 -35 -5 -51c0 -66 30 -117 97 -117z" />
    <glyph glyph-name="Cacute" unicode="&#x106;" horiz-adv-x="602" 
d="M541 914l-123 -158l-49 25l104 169zM290 -12c-136 0 -235 98 -235 278c0 242 134 444 336 444c113 0 190 -51 224 -159l-73 -33c-25 78 -72 119 -159 119c-107 0 -193 -83 -218 -210l-23 -115c-5 -25 -6 -46 -6 -66c0 -110 59 -185 159 -185c97 0 147 49 192 130l68 -34
c-61 -116 -141 -169 -265 -169z" />
    <glyph glyph-name="cacute" unicode="&#x107;" horiz-adv-x="488" 
d="M457 744l-124 -159l-48 25l104 170zM236 -12c-117 0 -187 84 -187 211c0 179 97 329 253 329c91 0 151 -51 171 -121l-64 -29c-17 54 -52 81 -109 81c-82 0 -135 -56 -153 -147l-17 -84c-3 -15 -4 -33 -4 -45c0 -74 39 -126 118 -126c50 0 91 24 132 101l61 -30
c-43 -89 -112 -140 -201 -140z" />
    <glyph glyph-name="Ccircumflex" unicode="&#x108;" horiz-adv-x="602" 
d="M389 935h94l82 -143l-43 -30l-93 115l-139 -116l-40 32zM290 -12c-136 0 -235 98 -235 278c0 242 134 444 336 444c113 0 190 -51 224 -159l-73 -33c-25 78 -72 119 -159 119c-107 0 -193 -83 -218 -210l-23 -115c-5 -25 -6 -46 -6 -66c0 -110 59 -185 159 -185
c97 0 147 49 192 130l68 -34c-61 -116 -141 -169 -265 -169z" />
    <glyph glyph-name="ccircumflex" unicode="&#x109;" horiz-adv-x="488" 
d="M300 765h94l82 -143l-43 -31l-93 115l-139 -116l-39 32zM236 -12c-117 0 -187 84 -187 211c0 179 97 329 253 329c91 0 151 -51 171 -121l-64 -29c-17 54 -52 81 -109 81c-82 0 -135 -56 -153 -147l-17 -84c-3 -15 -4 -33 -4 -45c0 -74 39 -126 118 -126
c50 0 91 24 132 101l61 -30c-43 -89 -112 -140 -201 -140z" />
    <glyph glyph-name="Cdotaccent" unicode="&#x10a;" horiz-adv-x="602" 
d="M412 787c-26 0 -42 12 -42 35c0 5 1 10 3 21c6 30 23 47 56 47c26 0 42 -12 42 -35c0 -5 -1 -10 -3 -21c-6 -30 -23 -47 -56 -47zM290 -12c-136 0 -235 98 -235 278c0 242 134 444 336 444c113 0 190 -51 224 -159l-73 -33c-25 78 -72 119 -159 119
c-107 0 -193 -83 -218 -210l-23 -115c-5 -25 -6 -46 -6 -66c0 -110 59 -185 159 -185c97 0 147 49 192 130l68 -34c-61 -116 -141 -169 -265 -169z" />
    <glyph glyph-name="cdotaccent" unicode="&#x10b;" horiz-adv-x="488" 
d="M326 616c-26 0 -42 12 -42 35c0 5 1 10 3 21c6 30 23 47 56 47c26 0 42 -12 42 -35c0 -5 -1 -10 -3 -21c-6 -30 -23 -47 -56 -47zM236 -12c-117 0 -187 84 -187 211c0 179 97 329 253 329c91 0 151 -51 171 -121l-64 -29c-17 54 -52 81 -109 81c-82 0 -135 -56 -153 -147
l-17 -84c-3 -15 -4 -33 -4 -45c0 -74 39 -126 118 -126c50 0 91 24 132 101l61 -30c-43 -89 -112 -140 -201 -140z" />
    <glyph glyph-name="Ccaron" unicode="&#x10c;" horiz-adv-x="602" 
d="M456 769h-94l-82 143l44 31l90 -116l140 117l41 -32zM290 -12c-136 0 -235 98 -235 278c0 242 134 444 336 444c113 0 190 -51 224 -159l-73 -33c-25 78 -72 119 -159 119c-107 0 -193 -83 -218 -210l-23 -115c-5 -25 -6 -46 -6 -66c0 -110 59 -185 159 -185
c97 0 147 49 192 130l68 -34c-61 -116 -141 -169 -265 -169z" />
    <glyph glyph-name="ccaron" unicode="&#x10d;" horiz-adv-x="488" 
d="M370 599h-95l-82 143l44 31l90 -116l140 117l41 -32zM236 -12c-117 0 -187 84 -187 211c0 179 97 329 253 329c91 0 151 -51 171 -121l-64 -29c-17 54 -52 81 -109 81c-82 0 -135 -56 -153 -147l-17 -84c-3 -15 -4 -33 -4 -45c0 -74 39 -126 118 -126c50 0 91 24 132 101
l61 -30c-43 -89 -112 -140 -201 -140z" />
    <glyph glyph-name="Dcaron" unicode="&#x10e;" horiz-adv-x="652" 
d="M441 769h-94l-82 143l44 31l90 -116l140 117l41 -32zM39 0l140 698h205c149 0 239 -92 239 -271c0 -216 -126 -427 -348 -427h-236zM135 72h142c119 0 207 77 235 217l21 105c4 20 6 42 6 61c0 111 -62 171 -159 171h-135z" />
    <glyph glyph-name="dcaron" unicode="&#x10f;" horiz-adv-x="587" 
d="M739 740l-75 -185h-53l35 185h93zM506 0h-69c-45 0 -67 25 -67 62c0 8 1 17 3 27l5 23h-3c-42 -86 -91 -124 -167 -124c-94 0 -157 75 -157 197c0 152 81 343 252 343c62 0 120 -31 135 -96h4l62 308h77l-135 -672h73zM229 58c45 0 78 21 108 51c33 33 55 72 65 124
l21 105c13 64 -21 120 -113 120c-84 0 -140 -57 -160 -157l-15 -75c-3 -17 -5 -34 -5 -51c0 -67 30 -117 99 -117z" />
    <glyph glyph-name="Dcroat" unicode="&#x110;" horiz-adv-x="655" 
d="M42 0l68 338h-74l13 62h74l59 298h205c149 0 239 -92 239 -271c0 -216 -126 -427 -348 -427h-236zM138 72h142c119 0 207 78 235 217l21 105c4 20 6 42 6 61c0 110 -62 171 -159 171h-135l-45 -226h133l-13 -62h-132z" />
    <glyph glyph-name="dcroat" unicode="&#x111;" horiz-adv-x="586" 
d="M506 0h-69c-45 0 -67 25 -67 62c0 8 1 17 3 27l5 23h-3c-42 -86 -91 -124 -167 -124c-94 0 -157 75 -157 197c0 152 81 343 252 343c62 0 120 -31 135 -96h4l35 177h-146l12 60h146l15 71h77l-15 -71h60l-12 -60h-60l-108 -541h73zM229 58c45 0 78 21 108 51
c33 33 55 72 65 124l21 105c13 64 -21 120 -113 120c-84 0 -140 -57 -160 -157l-15 -75c-3 -17 -5 -34 -5 -51c0 -67 30 -117 99 -117z" />
    <glyph glyph-name="Emacron" unicode="&#x112;" horiz-adv-x="565" 
d="M261 809l14 66h272l-14 -66h-272zM467 0h-428l140 698h411l-15 -72h-329l-47 -236h296l-14 -72h-297l-49 -246h346z" />
    <glyph glyph-name="emacron" unicode="&#x113;" horiz-adv-x="511" 
d="M205 639l14 66h272l-14 -66h-272zM244 -12c-123 0 -195 76 -195 216c0 171 108 324 270 324c88 0 166 -45 166 -138c0 -113 -116 -167 -356 -169c-2 -14 -3 -31 -3 -42c0 -73 43 -122 123 -122c65 0 118 33 158 82l50 -45c-64 -78 -139 -106 -213 -106zM311 462
c-81 0 -147 -60 -166 -152l-6 -29c221 8 267 39 267 110c0 55 -46 71 -95 71z" />
    <glyph glyph-name="Ebreve" unicode="&#x114;" horiz-adv-x="565" 
d="M396 766c-98 0 -123 80 -131 134l46 20l10 -22c21 -46 38 -71 77 -71c36 0 61 20 100 71l17 22l48 -20c-26 -55 -70 -134 -167 -134zM467 0h-428l140 698h411l-15 -72h-329l-47 -236h296l-14 -72h-297l-49 -246h346z" />
    <glyph glyph-name="ebreve" unicode="&#x115;" horiz-adv-x="511" 
d="M337 596c-98 0 -123 80 -131 134l46 20l10 -22c21 -46 38 -71 77 -71c36 0 61 20 100 71l17 22l48 -20c-26 -55 -70 -134 -167 -134zM244 -12c-123 0 -195 76 -195 216c0 171 108 324 270 324c88 0 166 -45 166 -138c0 -113 -116 -167 -356 -169c-2 -14 -3 -31 -3 -42
c0 -73 43 -122 123 -122c65 0 118 33 158 82l50 -45c-64 -78 -139 -106 -213 -106zM311 462c-81 0 -147 -60 -166 -152l-6 -29c221 8 267 39 267 110c0 55 -46 71 -95 71z" />
    <glyph glyph-name="Edotaccent" unicode="&#x116;" horiz-adv-x="565" 
d="M396 787c-26 0 -42 12 -42 35c0 5 1 10 3 21c6 30 23 47 56 47c26 0 42 -12 42 -35c0 -5 -1 -10 -3 -21c-6 -30 -23 -47 -56 -47zM467 0h-428l140 698h411l-15 -72h-329l-47 -236h296l-14 -72h-297l-49 -246h346z" />
    <glyph glyph-name="edotaccent" unicode="&#x117;" horiz-adv-x="511" 
d="M341 616c-26 0 -42 12 -42 35c0 5 1 10 3 21c6 30 23 47 56 47c26 0 42 -12 42 -35c0 -5 -1 -10 -3 -21c-6 -30 -23 -47 -56 -47zM244 -12c-123 0 -195 76 -195 216c0 171 108 324 270 324c88 0 166 -45 166 -138c0 -113 -116 -167 -356 -169c-2 -14 -3 -31 -3 -42
c0 -73 43 -122 123 -122c65 0 118 33 158 82l50 -45c-64 -78 -139 -106 -213 -106zM311 462c-81 0 -147 -60 -166 -152l-6 -29c221 8 267 39 267 110c0 55 -46 71 -95 71z" />
    <glyph glyph-name="Eogonek" unicode="&#x118;" horiz-adv-x="565" 
d="M39 0l140 698h411l-15 -72h-329l-47 -236h296l-14 -72h-297l-49 -246h346l-14 -72c-105 -70 -118 -101 -118 -122s15 -31 33 -31c16 0 36 9 54 27l37 -44c-17 -19 -50 -37 -96 -37c-50 0 -96 21 -96 75c0 55 49 93 125 127l-1 5h-366z" />
    <glyph glyph-name="eogonek" unicode="&#x119;" horiz-adv-x="511" 
d="M232 -207c-50 0 -96 21 -96 75c0 51 42 87 109 117l-1 3c-123 0 -195 76 -195 216c0 171 108 324 270 324c88 0 166 -45 166 -138c0 -113 -116 -167 -356 -169c-2 -14 -3 -31 -3 -42c0 -73 43 -122 123 -122c65 0 118 33 158 82l50 -45c-41 -54 -92 -71 -141 -101
c-58 -35 -112 -71 -112 -115c0 -21 15 -31 33 -31c16 0 36 9 54 27l37 -44c-17 -19 -50 -37 -96 -37zM311 462c-81 0 -147 -60 -166 -152l-6 -29c221 8 267 39 267 110c0 55 -46 71 -95 71z" />
    <glyph glyph-name="Ecaron" unicode="&#x11a;" horiz-adv-x="565" 
d="M440 769h-94l-82 143l44 31l90 -116l140 117l41 -32zM467 0h-428l140 698h411l-15 -72h-329l-47 -236h296l-14 -72h-297l-49 -246h346z" />
    <glyph glyph-name="ecaron" unicode="&#x11b;" horiz-adv-x="511" 
d="M385 599h-95l-82 143l44 31l90 -116l140 117l41 -32zM244 -12c-123 0 -195 76 -195 216c0 171 108 324 270 324c88 0 166 -45 166 -138c0 -113 -116 -167 -356 -169c-2 -14 -3 -31 -3 -42c0 -73 43 -122 123 -122c65 0 118 33 158 82l50 -45c-64 -78 -139 -106 -213 -106
zM311 462c-81 0 -147 -60 -166 -152l-6 -29c221 8 267 39 267 110c0 55 -46 71 -95 71z" />
    <glyph glyph-name="Gcircumflex" unicode="&#x11c;" horiz-adv-x="661" 
d="M406 935h94l82 -143l-43 -30l-93 115l-139 -116l-40 32zM462 0l21 102h-4c-29 -62 -97 -114 -199 -114c-132 0 -225 96 -225 278c0 234 126 444 349 444c121 0 207 -61 236 -159l-73 -33c-27 75 -80 119 -173 119c-118 0 -203 -83 -231 -220l-21 -104
c-4 -20 -6 -40 -6 -60c0 -120 60 -192 168 -192c95 0 180 58 202 170l11 55h-149l16 74h227l-72 -360h-77z" />
    <glyph glyph-name="gcircumflex" unicode="&#x11d;" horiz-adv-x="572" 
d="M302.601 763h94l82 -143l-43 -31l-93 115l-139 -116l-39 32zM208 -12c-94 0 -157 75 -157 197c0 152 81 343 252 343c62 0 120 -31 135 -96h4l17 84h77l-105 -524c-26 -130 -103 -204 -233 -204c-93 0 -154 37 -190 89l55 48c28 -44 73 -69 135 -69c84 0 138 46 158 146
l22 110h-3c-42 -86 -91 -124 -167 -124zM227 58c48 0 80 21 110 51c35 35 55 74 65 124l25 124c9 45 -36 101 -115 101c-87 0 -142 -57 -162 -157l-15 -75c-3 -17 -5 -35 -5 -51c0 -66 30 -117 97 -117z" />
    <glyph glyph-name="Gbreve" unicode="&#x11e;" horiz-adv-x="661" 
d="M429 766c-98 0 -123 80 -131 134l46 20l10 -22c21 -46 38 -71 77 -71c36 0 61 20 100 71l17 22l48 -20c-26 -55 -70 -134 -167 -134zM462 0l21 102h-4c-29 -62 -97 -114 -199 -114c-132 0 -225 96 -225 278c0 234 126 444 349 444c121 0 207 -61 236 -159l-73 -33
c-27 75 -80 119 -173 119c-118 0 -203 -83 -231 -220l-21 -104c-4 -20 -6 -40 -6 -60c0 -120 60 -192 168 -192c95 0 180 58 202 170l11 55h-149l16 74h227l-72 -360h-77z" />
    <glyph glyph-name="gbreve" unicode="&#x11f;" horiz-adv-x="572" 
d="M324 588c-98 0 -123 80 -131 134l46 20l10 -22c21 -46 38 -71 77 -71c36 0 61 20 100 71l17 22l48 -20c-26 -55 -70 -134 -167 -134zM208 -12c-94 0 -157 75 -157 197c0 152 81 343 252 343c62 0 120 -31 135 -96h4l17 84h77l-105 -524c-26 -130 -103 -204 -233 -204
c-93 0 -154 37 -190 89l55 48c28 -44 73 -69 135 -69c84 0 138 46 158 146l22 110h-3c-42 -86 -91 -124 -167 -124zM227 58c48 0 80 21 110 51c35 35 55 74 65 124l25 124c9 45 -36 101 -115 101c-87 0 -142 -57 -162 -157l-15 -75c-3 -17 -5 -35 -5 -51
c0 -66 30 -117 97 -117z" />
    <glyph glyph-name="Gdotaccent" unicode="&#x120;" horiz-adv-x="661" 
d="M429 787c-26 0 -42 12 -42 35c0 5 1 10 3 21c6 30 23 47 56 47c26 0 42 -12 42 -35c0 -5 -1 -10 -3 -21c-6 -30 -23 -47 -56 -47zM462 0l21 102h-4c-29 -62 -97 -114 -199 -114c-132 0 -225 96 -225 278c0 234 126 444 349 444c121 0 207 -61 236 -159l-73 -33
c-27 75 -80 119 -173 119c-118 0 -203 -83 -231 -220l-21 -104c-4 -20 -6 -40 -6 -60c0 -120 60 -192 168 -192c95 0 180 58 202 170l11 55h-149l16 74h227l-72 -360h-77z" />
    <glyph glyph-name="gdotaccent" unicode="&#x121;" horiz-adv-x="572" 
d="M317 588c-26 0 -42 12 -42 35c0 5 1 10 3 21c6 30 23 47 56 47c26 0 42 -12 42 -35c0 -5 -1 -10 -3 -21c-6 -30 -23 -47 -56 -47zM208 -12c-94 0 -157 75 -157 197c0 152 81 343 252 343c62 0 120 -31 135 -96h4l17 84h77l-105 -524c-26 -130 -103 -204 -233 -204
c-93 0 -154 37 -190 89l55 48c28 -44 73 -69 135 -69c84 0 138 46 158 146l22 110h-3c-42 -86 -91 -124 -167 -124zM227 58c48 0 80 21 110 51c35 35 55 74 65 124l25 124c9 45 -36 101 -115 101c-87 0 -142 -57 -162 -157l-15 -75c-3 -17 -5 -35 -5 -51
c0 -66 30 -117 97 -117z" />
    <glyph glyph-name="Gcommaaccent" unicode="&#x122;" horiz-adv-x="661" 
d="M263 -66c29 0 42 -14 42 -36c0 -5 0 -9 -3 -24c-9 -45 -37 -90 -70 -119h-56c31 31 43 48 56 76c-17 3 -28 14 -28 33c0 4 0 9 3 24c6 30 23 46 56 46zM462 0l21 102h-4c-29 -62 -97 -114 -199 -114c-132 0 -225 96 -225 278c0 234 126 444 349 444
c121 0 207 -61 236 -159l-73 -33c-27 75 -80 119 -173 119c-118 0 -203 -83 -231 -220l-21 -104c-4 -20 -6 -40 -6 -60c0 -120 60 -192 168 -192c95 0 180 58 202 170l11 55h-149l16 74h227l-72 -360h-77z" />
    <glyph glyph-name="gcommaaccent" unicode="&#x123;" horiz-adv-x="572" 
d="M315.101 588c-29 0 -42 14 -42 36c0 5 0 9 3 24c9 45 37 90 70 119h56c-31 -31 -43 -48 -56 -76c17 -3 28 -14 28 -33c0 -4 0 -9 -3 -24c-6 -30 -23 -46 -56 -46zM208 -12c-94 0 -157 75 -157 197c0 152 81 343 252 343c62 0 120 -31 135 -96h4l17 84h77l-105 -524
c-26 -130 -103 -204 -233 -204c-93 0 -154 37 -190 89l55 48c28 -44 73 -69 135 -69c84 0 138 46 158 146l22 110h-3c-42 -86 -91 -124 -167 -124zM227 58c48 0 80 21 110 51c35 35 55 74 65 124l25 124c9 45 -36 101 -115 101c-87 0 -142 -57 -162 -157l-15 -75
c-3 -17 -5 -35 -5 -51c0 -66 30 -117 97 -117z" />
    <glyph glyph-name="Hcircumflex" unicode="&#x124;" horiz-adv-x="684" 
d="M427 935h94l82 -143l-43 -30l-93 115l-139 -116l-40 32zM460 0l63 318h-339l-64 -318h-81l140 698h81l-61 -308h339l62 308h81l-140 -698h-81z" />
    <glyph glyph-name="hcircumflex" unicode="&#x125;" horiz-adv-x="565" 
d="M209 923h94l82 -143l-43 -31l-93 115l-139 -116l-39 32zM36 0l149 740h77l-66 -326h5c36 77 84 114 158 114c89 0 133 -54 133 -143c0 -19 -2 -42 -7 -67l-50 -250h73l-13 -68h-73c-38 0 -64 18 -64 58c0 6 0 11 2 21l48 239c4 20 5 41 5 53c0 58 -24 87 -79 87
c-37 0 -67 -13 -95 -41c-34 -34 -60 -88 -68 -129l-58 -288h-77z" />
    <glyph glyph-name="Hbar" unicode="&#x126;" horiz-adv-x="690" 
d="M463 0l63 318h-339l-64 -318h-81l104 520h-66l13 62h66l23 116h81l-23 -116h340l23 116h81l-23 -116h66l-13 -62h-66l-104 -520h-81zM201 390h340l26 130h-340z" />
    <glyph glyph-name="hbar" unicode="&#x127;" horiz-adv-x="565" 
d="M36 0l123 610h-62l12 60h62l14 70h77l-14 -70h144l-12 -60h-144l-40 -196h5c36 77 84 114 158 114c89 0 133 -54 133 -143c0 -19 -2 -42 -7 -67l-50 -250h73l-13 -68h-73c-38 0 -64 18 -64 58c0 6 0 11 2 21l48 239c4 20 5 41 5 53c0 58 -24 87 -79 87
c-37 0 -67 -13 -95 -41c-34 -34 -60 -88 -68 -129l-58 -288h-77z" />
    <glyph glyph-name="Itilde" unicode="&#x128;" horiz-adv-x="387" 
d="M368 782c-34 0 -57 15 -75 26c-29 19 -48 24 -65 24c-21 0 -37 -10 -60 -27l-27 38c21 28 54 54 99 54c34 0 57 -15 75 -26c29 -19 48 -24 65 -24c21 0 37 10 60 27l27 -38c-21 -28 -54 -54 -99 -54zM276 0h-267l14 69h93l111 560h-93l14 69h267l-14 -69h-93l-111 -560
h93z" />
    <glyph glyph-name="itilde" unicode="&#x129;" horiz-adv-x="264" 
d="M274 612c-34 0 -55 13 -74 25c-29 19 -48 24 -65 24c-22 0 -38 -10 -60 -27l-28 39c22 27 54 53 99 53c34 0 55 -13 74 -25c29 -19 48 -24 65 -24c22 0 38 10 60 27l28 -39c-22 -27 -54 -53 -99 -53zM187 0h-67c-46 0 -69 26 -69 63c0 6 1 13 3 23l86 430h77l-90 -448h73
z" />
    <glyph glyph-name="Imacron" unicode="&#x12a;" horiz-adv-x="387" 
d="M161 809l14 66h272l-14 -66h-272zM276 0h-267l14 69h93l111 560h-93l14 69h267l-14 -69h-93l-111 -560h93z" />
    <glyph glyph-name="imacron" unicode="&#x12b;" horiz-adv-x="264" 
d="M68 639l14 66h272l-14 -66h-272zM187 0h-67c-46 0 -69 26 -69 63c0 6 1 13 3 23l86 430h77l-90 -448h73z" />
    <glyph glyph-name="Ibreve" unicode="&#x12c;" horiz-adv-x="387" 
d="M296 766c-98 0 -123 80 -131 134l46 20l10 -22c21 -46 38 -71 77 -71c36 0 61 20 100 71l17 22l48 -20c-26 -55 -70 -134 -167 -134zM276 0h-267l14 69h93l111 560h-93l14 69h267l-14 -69h-93l-111 -560h93z" />
    <glyph glyph-name="ibreve" unicode="&#x12d;" horiz-adv-x="264" 
d="M200 596c-98 0 -123 80 -131 134l46 20l10 -22c21 -46 38 -71 77 -71c36 0 61 20 100 71l17 22l48 -20c-26 -55 -70 -134 -167 -134zM187 0h-67c-46 0 -69 26 -69 63c0 6 1 13 3 23l86 430h77l-90 -448h73z" />
    <glyph glyph-name="Iogonek" unicode="&#x12e;" horiz-adv-x="387" 
d="M9 0l14 69h93l111 560h-93l14 69h267l-14 -69h-93l-111 -560h93l-14 -69c-105 -70 -118 -101 -118 -122s15 -31 33 -31c16 0 36 9 54 27l37 -44c-17 -19 -50 -37 -96 -37c-50 0 -96 21 -96 75c0 55 49 93 125 127l-1 5h-205z" />
    <glyph glyph-name="iogonek" unicode="&#x12f;" horiz-adv-x="264" 
d="M200 68l-13 -68c-105 -70 -118 -101 -118 -122s15 -31 33 -31c16 0 36 9 54 27l37 -44c-17 -19 -50 -37 -96 -37c-50 0 -96 21 -96 75c0 55 51 93 127 127l-1 5h-6c-47 0 -70 26 -70 63c0 7 1 14 3 24l86 429h77l-90 -448h73zM206 637c-31 0 -42 16 -42 35c0 4 0 9 4 28
c5 25 21 40 54 40c31 0 42 -16 42 -35c0 -4 0 -9 -4 -28c-5 -25 -21 -40 -54 -40z" />
    <glyph glyph-name="Idotaccent" unicode="&#x130;" horiz-adv-x="387" 
d="M296 787c-26 0 -42 12 -42 35c0 5 1 10 3 21c6 30 23 47 56 47c26 0 42 -12 42 -35c0 -5 -1 -10 -3 -21c-6 -30 -23 -47 -56 -47zM276 0h-267l14 69h93l111 560h-93l14 69h267l-14 -69h-93l-111 -560h93z" />
    <glyph glyph-name="dotlessi" unicode="&#x131;" horiz-adv-x="264" 
d="M187 0h-67c-46 0 -69 26 -69 63c0 6 1 13 3 23l86 430h77l-90 -448h73z" />
    <glyph glyph-name="IJ" unicode="&#x132;" horiz-adv-x="643" 
d="M403 698h237l-96 -477c-30 -150 -123 -233 -269 -233c-122 0 -200 71 -200 166l75 19c3 -73 47 -112 131 -112c97 0 162 60 183 166l80 398h-156zM97 290l82 408h81l-82 -408h-81z" />
    <glyph glyph-name="ij" unicode="&#x133;" horiz-adv-x="512" 
d="M269 -132l130 648h77l-123 -614c-14 -70 -44 -102 -114 -102h-67l14 68h83zM465 637c-31 0 -42 16 -42 35c0 4 0 9 4 28c5 25 21 40 54 40c31 0 42 -16 42 -35c0 -4 0 -9 -4 -28c-5 -25 -21 -40 -54 -40zM206 637c-31 0 -42 16 -42 35c0 4 0 9 4 28c5 25 21 40 54 40
c31 0 42 -16 42 -35c0 -4 0 -9 -4 -28c-5 -25 -21 -40 -54 -40zM187 0h-66c-47 0 -70 26 -70 63c0 7 1 14 3 24l86 429h77l-90 -448h73z" />
    <glyph glyph-name="Jcircumflex" unicode="&#x134;" horiz-adv-x="498" 
d="M322 935h94l82 -143l-43 -30l-93 115l-139 -116l-40 32zM179 698h316l-103 -512c-25 -125 -103 -198 -221 -198c-96 0 -165 59 -168 165l74 15c3 -61 34 -107 98 -107c77 0 120 47 138 137l86 428h-234z" />
    <glyph glyph-name="jcircumflex" unicode="&#x135;" horiz-adv-x="253" 
d="M178 765h94l82 -143l-43 -31l-93 115l-139 -116l-39 32zM-87 -200l14 68h83l130 648h77l-123 -614c-14 -70 -44 -102 -114 -102h-67z" />
    <glyph glyph-name="Kcommaaccent" unicode="&#x136;" horiz-adv-x="615" 
d="M244 -66c29 0 42 -14 42 -36c0 -5 0 -9 -3 -24c-9 -45 -37 -90 -70 -119h-56c31 31 43 48 56 76c-17 3 -28 14 -28 33c0 4 0 9 3 24c6 30 23 46 56 46zM461 0l-171 343l-125 -117l-45 -226h-81l140 698h81l-71 -356h5l119 115l249 241h103l-313 -303l197 -395h-88z" />
    <glyph glyph-name="kcommaaccent" unicode="&#x137;" horiz-adv-x="519" 
d="M225 -66c29 0 42 -14 42 -36c0 -5 0 -9 -3 -24c-9 -45 -37 -90 -70 -119h-56c31 31 43 48 56 76c-17 3 -28 14 -28 33c0 4 0 9 3 24c6 30 23 46 56 46zM36 0l149 740h77l-94 -465h5l92 88l174 153h93l-230 -208l105 -240h66l-13 -68h-44c-46 0 -68 15 -85 54l-91 209
l-91 -82l-36 -181h-77z" />
    <glyph glyph-name="kgreenlandic" unicode="&#x138;" horiz-adv-x="533" 
d="M36 0l104 516h77l-55 -268h5l105 99l192 169h93l-248 -224l98 -224h66l-13 -68h-44c-46 0 -68 15 -85 54l-84 193l-104 -93l-30 -154h-77z" />
    <glyph glyph-name="Lacute" unicode="&#x139;" horiz-adv-x="489" 
d="M368 914l-123 -158l-49 25l104 169zM408 0h-369l140 698h81l-125 -626h287z" />
    <glyph glyph-name="lacute" unicode="&#x13a;" horiz-adv-x="264" 
d="M374 944l-124 -159l-48 25l104 170zM192 0h-71c-47 0 -70 26 -70 63c0 7 1 14 3 24l131 653h77l-135 -672h78z" />
    <glyph glyph-name="Lcommaaccent" unicode="&#x13b;" horiz-adv-x="489" 
d="M208 -66c29 0 42 -14 42 -36c0 -5 0 -9 -3 -24c-9 -45 -37 -90 -70 -119h-56c31 31 43 48 56 76c-17 3 -28 14 -28 33c0 4 0 9 3 24c6 30 23 46 56 46zM408 0h-369l140 698h81l-125 -626h287z" />
    <glyph glyph-name="lcommaaccent" unicode="&#x13c;" horiz-adv-x="264" 
d="M101 -66c29 0 42 -14 42 -36c0 -5 0 -9 -3 -24c-9 -45 -37 -90 -70 -119h-56c31 31 43 48 56 76c-17 3 -28 14 -28 33c0 4 0 9 3 24c6 30 23 46 56 46zM192 0h-71c-47 0 -70 26 -70 63c0 7 1 14 3 24l131 653h77l-135 -672h78z" />
    <glyph glyph-name="Lcaron" unicode="&#x13d;" horiz-adv-x="489" 
d="M443 740l-75 -185h-53l35 185h93zM408 0h-369l140 698h81l-125 -626h287z" />
    <glyph glyph-name="lcaron" unicode="&#x13e;" horiz-adv-x="264" 
d="M422 740l-75 -185h-53l35 185h93zM192 0h-71c-47 0 -70 26 -70 63c0 7 1 14 3 24l131 653h77l-135 -672h78z" />
    <glyph glyph-name="Ldot" unicode="&#x13f;" horiz-adv-x="489" 
d="M376 289c-26 0 -42 12 -42 35c0 5 1 10 3 21c6 30 23 47 56 47c26 0 42 -12 42 -35c0 -5 -1 -10 -3 -21c-6 -30 -23 -47 -56 -47zM408 0h-369l140 698h81l-125 -626h287z" />
    <glyph glyph-name="ldot" unicode="&#x140;" horiz-adv-x="338" 
d="M297 253c-26 0 -42 12 -42 35c0 5 1 10 3 21c6 30 23 47 56 47c26 0 42 -12 42 -35c0 -5 -1 -10 -3 -21c-6 -30 -23 -47 -56 -47zM192 0h-71c-47 0 -70 26 -70 63c0 7 1 14 3 24l131 653h77l-135 -672h78z" />
    <glyph glyph-name="Lslash" unicode="&#x141;" horiz-adv-x="498" 
d="M427 72l-15 -72h-369l54 269l-105 -33l13 70l106 34l72 358h81l-66 -330l186 61l-14 -74l-187 -59l-44 -224h288z" />
    <glyph glyph-name="lslash" unicode="&#x142;" horiz-adv-x="270" 
d="M208 68l-13 -68h-71c-47 0 -70 26 -70 63c0 7 1 14 3 24l47 238l-67 -21l13 67l68 22l70 347h77l-65 -320l110 37l-13 -69l-110 -35l-57 -285h78z" />
    <glyph glyph-name="Nacute" unicode="&#x143;" horiz-adv-x="684" 
d="M579 914l-123 -158l-49 25l104 169zM447 0l-152 420l-55 167h-5l-117 -587h-79l140 698h94l152 -420l55 -167h5l117 587h79l-140 -698h-94z" />
    <glyph glyph-name="nacute" unicode="&#x144;" horiz-adv-x="565" 
d="M486 744l-124 -159l-48 25l104 170zM113 0h-77l104 516h77l-21 -102h5c36 77 84 114 158 114c89 0 133 -54 133 -143c0 -19 -2 -42 -7 -67l-50 -250h73l-13 -68h-73c-38 0 -64 18 -64 58c0 6 0 11 2 21l48 239c4 20 5 41 5 53c0 58 -24 87 -79 87c-37 0 -67 -13 -95 -41
c-34 -34 -60 -88 -68 -129z" />
    <glyph glyph-name="Ncommaaccent" unicode="&#x145;" horiz-adv-x="684" 
d="M275 -66c29 0 42 -14 42 -36c0 -5 0 -9 -3 -24c-9 -45 -37 -90 -70 -119h-56c31 31 43 48 56 76c-17 3 -28 14 -28 33c0 4 0 9 3 24c6 30 23 46 56 46zM447 0l-152 420l-55 167h-5l-117 -587h-79l140 698h94l152 -420l55 -167h5l117 587h79l-140 -698h-94z" />
    <glyph glyph-name="ncommaaccent" unicode="&#x146;" horiz-adv-x="565" 
d="M236 -66c29 0 42 -14 42 -36c0 -5 0 -9 -3 -24c-9 -45 -37 -90 -70 -119h-56c31 31 43 48 56 76c-17 3 -28 14 -28 33c0 4 0 9 3 24c6 30 23 46 56 46zM113 0h-77l104 516h77l-21 -102h5c36 77 84 114 158 114c89 0 133 -54 133 -143c0 -19 -2 -42 -7 -67l-50 -250h73
l-13 -68h-73c-38 0 -64 18 -64 58c0 6 0 11 2 21l48 239c4 20 5 41 5 53c0 58 -24 87 -79 87c-37 0 -67 -13 -95 -41c-34 -34 -60 -88 -68 -129z" />
    <glyph glyph-name="Ncaron" unicode="&#x147;" horiz-adv-x="684" 
d="M494 769h-94l-82 143l44 31l90 -116l140 117l41 -32zM447 0l-152 420l-55 167h-5l-117 -587h-79l140 698h94l152 -420l55 -167h5l117 587h79l-140 -698h-94z" />
    <glyph glyph-name="ncaron" unicode="&#x148;" horiz-adv-x="565" 
d="M399 599h-95l-82 143l44 31l90 -116l140 117l41 -32zM113 0h-77l104 516h77l-21 -102h5c36 77 84 114 158 114c89 0 133 -54 133 -143c0 -19 -2 -42 -7 -67l-50 -250h73l-13 -68h-73c-38 0 -64 18 -64 58c0 6 0 11 2 21l48 239c4 20 5 41 5 53c0 58 -24 87 -79 87
c-37 0 -67 -13 -95 -41c-34 -34 -60 -88 -68 -129z" />
    <glyph glyph-name="napostrophe" unicode="&#x149;" horiz-adv-x="806" 
d="M354 0h-77l104 516h77l-21 -102h5c36 77 84 114 158 114c89 0 133 -54 133 -143c0 -19 -2 -42 -7 -67l-50 -250h73l-13 -68h-73c-38 0 -64 18 -64 58c0 6 0 11 2 21l48 239c4 20 5 41 5 53c0 58 -24 87 -79 87c-37 0 -67 -13 -95 -41c-34 -34 -60 -88 -68 -129zM234 750
c32 0 51 -14 51 -40c0 -9 -2 -21 -4 -31c-11 -51 -48 -130 -116 -179h-65c49 43 77 82 98 127c-21 5 -33 16 -33 37c0 9 2 21 4 31c6 27 20 55 65 55z" />
    <glyph glyph-name="Eng" unicode="&#x14a;" horiz-adv-x="684" 
d="M118 0h-79l140 698h94l152 -420l55 -167h5l117 587h79l-160 -796c-14 -70 -44 -102 -114 -102h-67l14 70h82l26 130h-15l-152 420l-55 167h-5z" />
    <glyph glyph-name="eng" unicode="&#x14b;" horiz-adv-x="561" 
d="M235 -132h83l90 450c4 20 5 41 5 53c0 58 -24 87 -79 87c-37 0 -67 -13 -95 -41c-34 -34 -60 -88 -68 -129l-58 -288h-77l104 516h77l-21 -102h5c36 77 84 114 158 114c89 0 133 -54 133 -143c0 -19 -2 -42 -7 -67l-83 -416c-14 -70 -44 -102 -114 -102h-67z" />
    <glyph glyph-name="Omacron" unicode="&#x14c;" horiz-adv-x="679" 
d="M290 809l14 66h272l-14 -66h-272zM298 -12c-139 0 -243 96 -243 272c0 231 133 450 354 450c139 0 243 -96 243 -272c0 -231 -133 -450 -354 -450zM306 61c123 0 210 87 239 232l20 100c5 25 7 49 7 69c0 106 -63 175 -171 175c-123 0 -210 -87 -239 -232l-20 -100
c-5 -25 -7 -49 -7 -69c0 -106 63 -175 171 -175z" />
    <glyph glyph-name="omacron" unicode="&#x14d;" horiz-adv-x="550" 
d="M202 639l14 66h272l-14 -66h-272zM235 -12c-108 0 -186 72 -186 212c0 173 108 328 266 328c108 0 186 -72 186 -212c0 -173 -108 -328 -266 -328zM245 57c74 0 139 56 160 161l15 75c3 15 5 30 5 45c0 72 -42 121 -120 121c-74 0 -139 -56 -160 -161l-15 -75
c-3 -15 -5 -30 -5 -45c0 -72 42 -121 120 -121z" />
    <glyph glyph-name="Obreve" unicode="&#x14e;" horiz-adv-x="679" 
d="M425 766c-98 0 -123 80 -131 134l46 20l10 -22c21 -46 38 -71 77 -71c36 0 61 20 100 71l17 22l48 -20c-26 -55 -70 -134 -167 -134zM298 -12c-139 0 -243 96 -243 272c0 231 133 450 354 450c139 0 243 -96 243 -272c0 -231 -133 -450 -354 -450zM306 61
c123 0 210 87 239 232l20 100c5 25 7 49 7 69c0 106 -63 175 -171 175c-123 0 -210 -87 -239 -232l-20 -100c-5 -25 -7 -49 -7 -69c0 -106 63 -175 171 -175z" />
    <glyph glyph-name="obreve" unicode="&#x14f;" horiz-adv-x="550" 
d="M334 596c-98 0 -123 80 -131 134l46 20l10 -22c21 -46 38 -71 77 -71c36 0 61 20 100 71l17 22l48 -20c-26 -55 -70 -134 -167 -134zM235 -12c-108 0 -186 72 -186 212c0 173 108 328 266 328c108 0 186 -72 186 -212c0 -173 -108 -328 -266 -328zM245 57
c74 0 139 56 160 161l15 75c3 15 5 30 5 45c0 72 -42 121 -120 121c-74 0 -139 -56 -160 -161l-15 -75c-3 -15 -5 -30 -5 -45c0 -72 42 -121 120 -121z" />
    <glyph glyph-name="Ohungarumlaut" unicode="&#x150;" horiz-adv-x="679" 
d="M450 914l-123 -158l-45 23l104 169zM606 914l-122 -158l-45 23l104 169zM298 -12c-139 0 -243 96 -243 272c0 231 133 450 354 450c139 0 243 -96 243 -272c0 -231 -133 -450 -354 -450zM306 61c123 0 210 87 239 232l20 100c5 25 7 49 7 69c0 106 -63 175 -171 175
c-123 0 -210 -87 -239 -232l-20 -100c-5 -25 -7 -49 -7 -69c0 -106 63 -175 171 -175z" />
    <glyph glyph-name="ohungarumlaut" unicode="&#x151;" horiz-adv-x="550" 
d="M387 745l-123 -159l-45 22l105 171zM544 745l-123 -159l-45 22l104 171zM235 -12c-108 0 -186 72 -186 212c0 173 108 328 266 328c108 0 186 -72 186 -212c0 -173 -108 -328 -266 -328zM245 57c74 0 139 56 160 161l15 75c3 15 5 30 5 45c0 72 -42 121 -120 121
c-74 0 -139 -56 -160 -161l-15 -75c-3 -15 -5 -30 -5 -45c0 -72 42 -121 120 -121z" />
    <glyph glyph-name="OE" unicode="&#x152;" horiz-adv-x="939" 
d="M840 0h-428c-40 -7 -81 -12 -113 -12c-141 0 -244 96 -244 272c0 231 126 450 365 450c32 0 94 -4 132 -12h411l-15 -72h-329l-47 -236h296l-14 -72h-296l-50 -246h346zM317 61c34 0 78 5 111 15l109 550c-32 7 -90 11 -121 11c-141 0 -224 -82 -254 -232l-20 -99
c-5 -26 -7 -50 -7 -70c0 -106 57 -175 182 -175z" />
    <glyph glyph-name="oe" unicode="&#x153;" horiz-adv-x="871" 
d="M245 57c74 0 139 56 160 161l15 75c3 15 5 30 5 45c0 72 -42 121 -120 121c-74 0 -139 -56 -160 -161l-15 -75c-3 -15 -5 -30 -5 -45c0 -72 42 -121 120 -121zM671 462c-81 0 -147 -60 -166 -152l-6 -29c221 8 267 39 267 110c0 55 -46 71 -95 71zM604 -12
c-85 0 -147 36 -175 111h-5c-45 -68 -103 -111 -189 -111c-108 0 -186 72 -186 212c0 173 108 328 266 328c75 0 135 -36 162 -111h5c47 68 112 111 197 111c95 0 166 -55 166 -130c0 -120 -103 -174 -356 -177c-2 -14 -3 -30 -3 -45c0 -70 43 -119 125 -119
c64 0 119 36 156 82l50 -45c-64 -78 -139 -106 -213 -106z" />
    <glyph glyph-name="Racute" unicode="&#x154;" horiz-adv-x="625" 
d="M538 914l-123 -158l-49 25l104 169zM180 300l-60 -300h-81l140 698h249c123 0 173 -71 173 -167c0 -107 -71 -201 -183 -223l102 -308h-87l-95 300h-158zM195 371h184c66 0 113 35 126 100c9 45 12 58 12 74c0 48 -25 81 -95 81h-177z" />
    <glyph glyph-name="racute" unicode="&#x155;" horiz-adv-x="364" 
d="M413 744l-124 -159l-48 25l104 170zM113 0h-77l104 516h77l-22 -103h5c28 51 71 103 155 103h32l-15 -79h-36c-95 0 -147 -60 -161 -130z" />
    <glyph glyph-name="Rcommaaccent" unicode="&#x156;" horiz-adv-x="625" 
d="M256 -66c29 0 42 -14 42 -36c0 -5 0 -9 -3 -24c-9 -45 -37 -90 -70 -119h-56c31 31 43 48 56 76c-17 3 -28 14 -28 33c0 4 0 9 3 24c6 30 23 46 56 46zM180 300l-60 -300h-81l140 698h249c123 0 173 -71 173 -167c0 -107 -71 -201 -183 -223l102 -308h-87l-95 300h-158z
M195 371h184c66 0 113 35 126 100c9 45 12 58 12 74c0 48 -25 81 -95 81h-177z" />
    <glyph glyph-name="rcommaaccent" unicode="&#x157;" horiz-adv-x="364" 
d="M59 -66c29 0 42 -14 42 -36c0 -5 0 -9 -3 -24c-9 -45 -37 -90 -70 -119h-56c31 31 43 48 56 76c-17 3 -28 14 -28 33c0 4 0 9 3 24c6 30 23 46 56 46zM113 0h-77l104 516h77l-22 -103h5c28 51 71 103 155 103h32l-15 -79h-36c-95 0 -147 -60 -161 -130z" />
    <glyph glyph-name="Rcaron" unicode="&#x158;" horiz-adv-x="625" 
d="M453 769h-94l-82 143l44 31l90 -116l140 117l41 -32zM180 300l-60 -300h-81l140 698h249c123 0 173 -71 173 -167c0 -107 -71 -201 -183 -223l102 -308h-87l-95 300h-158zM195 371h184c66 0 113 35 126 100c9 45 12 58 12 74c0 48 -25 81 -95 81h-177z" />
    <glyph glyph-name="rcaron" unicode="&#x159;" horiz-adv-x="364" 
d="M326 599h-95l-82 143l44 31l90 -116l140 117l41 -32zM113 0h-77l104 516h77l-22 -103h5c28 51 71 103 155 103h32l-15 -79h-36c-95 0 -147 -60 -161 -130z" />
    <glyph glyph-name="Sacute" unicode="&#x15a;" horiz-adv-x="577" 
d="M499 914l-123 -158l-49 25l104 169zM249 -12c-103 0 -194 38 -238 125l62 45c41 -70 103 -97 178 -97c118 0 180 66 180 149c0 59 -32 96 -106 110l-67 13c-98 19 -153 81 -153 171c0 113 87 206 241 206c107 0 179 -45 225 -108l-59 -49c-38 52 -92 84 -171 84
c-94 0 -155 -46 -155 -127c0 -60 34 -95 106 -109l67 -13c98 -19 153 -79 153 -174c0 -125 -94 -226 -263 -226z" />
    <glyph glyph-name="sacute" unicode="&#x15b;" horiz-adv-x="471" 
d="M418 744l-124 -159l-48 25l104 170zM209 -12c-79 0 -154 34 -195 94l53 47c36 -48 82 -74 142 -74c68 0 117 34 117 97c0 35 -16 60 -76 72l-39 8c-78 16 -138 48 -138 133c0 86 62 163 191 163c76 0 129 -27 168 -76l-53 -47c-23 32 -60 56 -121 56
c-75 0 -110 -37 -110 -89c0 -36 17 -59 75 -71l39 -8c83 -17 138 -50 138 -136c0 -104 -81 -169 -191 -169z" />
    <glyph glyph-name="Scircumflex" unicode="&#x15c;" horiz-adv-x="577" 
d="M347 935h94l82 -143l-43 -30l-93 115l-139 -116l-40 32zM249 -12c-103 0 -194 38 -238 125l62 45c41 -70 103 -97 178 -97c118 0 180 66 180 149c0 59 -32 96 -106 110l-67 13c-98 19 -153 81 -153 171c0 113 87 206 241 206c107 0 179 -45 225 -108l-59 -49
c-38 52 -92 84 -171 84c-94 0 -155 -46 -155 -127c0 -60 34 -95 106 -109l67 -13c98 -19 153 -79 153 -174c0 -125 -94 -226 -263 -226z" />
    <glyph glyph-name="scircumflex" unicode="&#x15d;" horiz-adv-x="471" 
d="M261 765h94l82 -143l-43 -31l-93 115l-139 -116l-39 32zM209 -12c-79 0 -154 34 -195 94l53 47c36 -48 82 -74 142 -74c68 0 117 34 117 97c0 35 -16 60 -76 72l-39 8c-78 16 -138 48 -138 133c0 86 62 163 191 163c76 0 129 -27 168 -76l-53 -47c-23 32 -60 56 -121 56
c-75 0 -110 -37 -110 -89c0 -36 17 -59 75 -71l39 -8c83 -17 138 -50 138 -136c0 -104 -81 -169 -191 -169z" />
    <glyph glyph-name="Scedilla" unicode="&#x15e;" horiz-adv-x="577" 
d="M341 637c-94 0 -155 -46 -155 -127c0 -60 34 -95 106 -109l67 -13c98 -19 153 -79 153 -174c0 -122 -90 -221 -251 -226l-16 -50l2 -2c7 1 16 4 31 4c33 0 59 -14 59 -56c0 -55 -44 -91 -108 -91c-50 0 -86 17 -101 37l40 41c9 -13 30 -25 59 -25s46 15 46 36
s-13 34 -55 39l-26 3l20 66c-88 8 -163 46 -201 123l62 45c41 -70 103 -97 178 -97c118 0 180 66 180 149c0 59 -32 96 -106 110l-67 13c-98 19 -153 81 -153 171c0 113 87 206 241 206c107 0 179 -45 225 -108l-59 -49c-38 52 -92 84 -171 84z" />
    <glyph glyph-name="scedilla" unicode="&#x15f;" horiz-adv-x="471" 
d="M183 -207c-50 0 -86 17 -101 37l40 41c9 -13 30 -25 59 -25s46 15 46 36s-13 34 -55 39l-26 3l21 67c-62 10 -120 42 -153 91l53 47c36 -48 82 -74 142 -74c68 0 117 34 117 97c0 35 -16 60 -76 72l-39 8c-78 16 -138 48 -138 133c0 86 62 163 191 163
c76 0 129 -27 168 -76l-53 -47c-23 32 -60 56 -121 56c-75 0 -110 -37 -110 -89c0 -36 17 -59 75 -71l39 -8c83 -17 138 -50 138 -136c0 -102 -78 -166 -185 -169l-16 -50l2 -2c7 1 16 4 31 4c33 0 59 -14 59 -56c0 -55 -44 -91 -108 -91z" />
    <glyph glyph-name="Scaron" unicode="&#x160;" horiz-adv-x="577" 
d="M414 769h-94l-82 143l44 31l90 -116l140 117l41 -32zM249 -12c-103 0 -194 38 -238 125l62 45c41 -70 103 -97 178 -97c118 0 180 66 180 149c0 59 -32 96 -106 110l-67 13c-98 19 -153 81 -153 171c0 113 87 206 241 206c107 0 179 -45 225 -108l-59 -49
c-38 52 -92 84 -171 84c-94 0 -155 -46 -155 -127c0 -60 34 -95 106 -109l67 -13c98 -19 153 -79 153 -174c0 -125 -94 -226 -263 -226z" />
    <glyph glyph-name="scaron" unicode="&#x161;" horiz-adv-x="471" 
d="M331 599h-95l-82 143l44 31l90 -116l140 117l41 -32zM209 -12c-79 0 -154 34 -195 94l53 47c36 -48 82 -74 142 -74c68 0 117 34 117 97c0 35 -16 60 -76 72l-39 8c-78 16 -138 48 -138 133c0 86 62 163 191 163c76 0 129 -27 168 -76l-53 -47c-23 32 -60 56 -121 56
c-75 0 -110 -37 -110 -89c0 -36 17 -59 75 -71l39 -8c83 -17 138 -50 138 -136c0 -104 -81 -169 -191 -169z" />
    <glyph glyph-name="uni0162" unicode="&#x162;" horiz-adv-x="557" 
d="M212 -66c29 0 42 -14 42 -36c0 -5 0 -9 -3 -24c-9 -45 -37 -90 -70 -119h-56c31 31 43 48 56 76c-17 3 -28 14 -28 33c0 4 0 9 3 24c6 30 23 46 56 46zM605 626h-213l-125 -626h-81l125 626h-213l14 72h507z" />
    <glyph glyph-name="uni0163" unicode="&#x163;" horiz-adv-x="320" 
d="M128 -66c29 0 42 -14 42 -36c0 -5 0 -9 -3 -24c-9 -45 -37 -90 -70 -119h-56c31 31 43 48 56 76c-17 3 -28 14 -28 33c0 4 0 9 3 24c6 30 23 46 56 46zM230 0h-94c-47 0 -70 26 -70 63c0 7 1 14 3 24l73 361h-76l13 68h39c37 0 45 13 52 49l19 94h71l-28 -143h109
l-13 -68h-109l-77 -380h101z" />
    <glyph glyph-name="Tcaron" unicode="&#x164;" horiz-adv-x="557" 
d="M430 769h-94l-82 143l44 31l90 -116l140 117l41 -32zM605 626h-213l-125 -626h-81l125 626h-213l14 72h507z" />
    <glyph glyph-name="tcaron" unicode="&#x165;" horiz-adv-x="320" 
d="M438 751l-75 -185h-53l35 185h93zM230 0h-94c-47 0 -70 26 -70 63c0 7 1 14 3 24l73 361h-76l13 68h39c37 0 45 13 52 49l19 94h71l-28 -143h109l-13 -68h-109l-77 -380h101z" />
    <glyph glyph-name="Tbar" unicode="&#x166;" horiz-adv-x="557" 
d="M492 335h-158l-67 -335h-81l67 335h-159l13 66h159l45 225h-213l14 72h507l-14 -72h-213l-45 -225h158z" />
    <glyph glyph-name="tbar" unicode="&#x167;" horiz-adv-x="326" 
d="M246 68l-13 -68h-94c-47 0 -70 26 -70 63c0 7 1 14 3 24l33 166h-46l11 54h46l29 141h-76l13 68h39c37 0 45 13 52 49l19 94h71l-28 -143h109l-13 -68h-109l-29 -141h89l-11 -54h-89l-37 -185h101z" />
    <glyph glyph-name="Utilde" unicode="&#x168;" horiz-adv-x="656" 
d="M500 782c-34 0 -57 15 -75 26c-29 19 -48 24 -65 24c-21 0 -37 -10 -60 -27l-27 38c21 28 54 54 99 54c34 0 57 -15 75 -26c29 -19 48 -24 65 -24c21 0 37 10 60 27l27 -38c-21 -28 -54 -54 -99 -54zM174 698h81l-86 -429c-6 -30 -8 -50 -8 -72c0 -85 49 -136 128 -136
c112 0 172 61 204 223l83 414h81l-84 -420c-43 -214 -127 -290 -293 -290c-124 0 -198 74 -198 201c0 31 3 65 11 105z" />
    <glyph glyph-name="utilde" unicode="&#x169;" horiz-adv-x="562" 
d="M417 612c-34 0 -55 13 -74 25c-29 19 -48 24 -65 24c-22 0 -38 -10 -60 -27l-28 39c22 27 54 53 99 53c34 0 55 -13 74 -25c29 -19 48 -24 65 -24c22 0 38 10 60 27l28 -39c-22 -27 -54 -53 -99 -53zM134 516h77l-64 -318c-4 -20 -5 -41 -5 -53c0 -57 22 -87 77 -87
c36 0 66 13 93 41c37 38 60 90 68 129l58 288h77l-90 -448h73l-13 -68h-70c-44 0 -66 26 -66 63c0 7 1 15 4 29l2 10h-5c-36 -78 -84 -114 -155 -114c-88 0 -132 54 -132 143c0 19 2 42 7 67z" />
    <glyph glyph-name="Umacron" unicode="&#x16a;" horiz-adv-x="656" 
d="M293 809l14 66h272l-14 -66h-272zM174 698h81l-86 -429c-6 -30 -8 -50 -8 -72c0 -85 49 -136 128 -136c112 0 172 61 204 223l83 414h81l-84 -420c-43 -214 -127 -290 -293 -290c-124 0 -198 74 -198 201c0 31 3 65 11 105z" />
    <glyph glyph-name="umacron" unicode="&#x16b;" horiz-adv-x="562" 
d="M211 639l14 66h272l-14 -66h-272zM134 516h77l-64 -318c-4 -20 -5 -41 -5 -53c0 -57 22 -87 77 -87c36 0 66 13 93 41c37 38 60 90 68 129l58 288h77l-90 -448h73l-13 -68h-70c-44 0 -66 26 -66 63c0 7 1 15 4 29l2 10h-5c-36 -78 -84 -114 -155 -114
c-88 0 -132 54 -132 143c0 19 2 42 7 67z" />
    <glyph glyph-name="Ubreve" unicode="&#x16c;" horiz-adv-x="656" 
d="M428 766c-98 0 -123 80 -131 134l46 20l10 -22c21 -46 38 -71 77 -71c36 0 61 20 100 71l17 22l48 -20c-26 -55 -70 -134 -167 -134zM174 698h81l-86 -429c-6 -30 -8 -50 -8 -72c0 -85 49 -136 128 -136c112 0 172 61 204 223l83 414h81l-84 -420
c-43 -214 -127 -290 -293 -290c-124 0 -198 74 -198 201c0 31 3 65 11 105z" />
    <glyph glyph-name="ubreve" unicode="&#x16d;" horiz-adv-x="562" 
d="M343 596c-98 0 -123 80 -131 134l46 20l10 -22c21 -46 38 -71 77 -71c36 0 61 20 100 71l17 22l48 -20c-26 -55 -70 -134 -167 -134zM134 516h77l-64 -318c-4 -20 -5 -41 -5 -53c0 -57 22 -87 77 -87c36 0 66 13 93 41c37 38 60 90 68 129l58 288h77l-90 -448h73l-13 -68
h-70c-44 0 -66 26 -66 63c0 7 1 15 4 29l2 10h-5c-36 -78 -84 -114 -155 -114c-88 0 -132 54 -132 143c0 19 2 42 7 67z" />
    <glyph glyph-name="Uring" unicode="&#x16e;" horiz-adv-x="656" 
d="M426 746c-60 0 -100 43 -100 100c0 79 51 130 129 130c60 0 100 -43 100 -100c0 -79 -51 -130 -129 -130zM432 794c35 0 56 20 63 56c3 14 4 24 4 31c0 30 -18 47 -50 47c-35 0 -56 -20 -63 -56c-3 -14 -4 -24 -4 -31c0 -30 18 -47 50 -47zM174 698h81l-86 -429
c-6 -30 -8 -50 -8 -72c0 -85 49 -136 128 -136c112 0 172 61 204 223l83 414h81l-84 -420c-43 -214 -127 -290 -293 -290c-124 0 -198 74 -198 201c0 31 3 65 11 105z" />
    <glyph glyph-name="uring" unicode="&#x16f;" horiz-adv-x="562" 
d="M343 576c-60 0 -100 43 -100 100c0 79 51 130 129 130c60 0 100 -43 100 -100c0 -79 -51 -130 -129 -130zM349 624c35 0 56 20 63 56c3 14 4 24 4 31c0 30 -18 47 -50 47c-35 0 -56 -20 -63 -56c-3 -14 -4 -24 -4 -31c0 -30 18 -47 50 -47zM134 516h77l-64 -318
c-4 -20 -5 -41 -5 -53c0 -57 22 -87 77 -87c36 0 66 13 93 41c37 38 60 90 68 129l58 288h77l-90 -448h73l-13 -68h-70c-44 0 -66 26 -66 63c0 7 1 15 4 29l2 10h-5c-36 -78 -84 -114 -155 -114c-88 0 -132 54 -132 143c0 19 2 42 7 67z" />
    <glyph glyph-name="Uhungarumlaut" unicode="&#x170;" horiz-adv-x="656" 
d="M453 914l-123 -158l-45 23l104 169zM609 914l-122 -158l-45 23l104 169zM174 698h81l-86 -429c-6 -30 -8 -50 -8 -72c0 -85 49 -136 128 -136c112 0 172 61 204 223l83 414h81l-84 -420c-43 -214 -127 -290 -293 -290c-124 0 -198 74 -198 201c0 31 3 65 11 105z" />
    <glyph glyph-name="uhungarumlaut" unicode="&#x171;" horiz-adv-x="562" 
d="M396 745l-123 -159l-45 22l105 171zM553 745l-123 -159l-45 22l104 171zM134 516h77l-64 -318c-4 -20 -5 -41 -5 -53c0 -57 22 -87 77 -87c36 0 66 13 93 41c37 38 60 90 68 129l58 288h77l-90 -448h73l-13 -68h-70c-44 0 -66 26 -66 63c0 7 1 15 4 29l2 10h-5
c-36 -78 -84 -114 -155 -114c-88 0 -132 54 -132 143c0 19 2 42 7 67z" />
    <glyph glyph-name="Uogonek" unicode="&#x172;" horiz-adv-x="656" 
d="M174 698h81l-86 -429c-6 -30 -8 -50 -8 -72c0 -85 49 -136 128 -136c112 0 172 61 204 223l83 414h81l-84 -420c-46 -229 -129 -244 -212 -289c-93 -50 -110 -90 -110 -111s15 -31 33 -31c16 0 36 9 54 27l37 -44c-17 -19 -50 -37 -96 -37c-50 0 -96 21 -96 75
c0 50 41 89 110 116l-1 4c-140 0 -210 74 -210 201c0 31 3 65 11 105z" />
    <glyph glyph-name="uogonek" unicode="&#x173;" horiz-adv-x="562" 
d="M134 516h77l-64 -318c-4 -20 -5 -41 -5 -53c0 -57 22 -87 77 -87c36 0 66 13 93 41c37 38 60 90 68 129l58 288h77l-90 -448h73l-13 -68c-105 -70 -118 -101 -118 -122s15 -31 33 -31c16 0 36 9 54 27l37 -44c-17 -19 -50 -37 -96 -37c-50 0 -96 21 -96 75
c0 55 49 93 125 127l-1 5c-54 0 -74 26 -74 63c0 7 1 15 4 29l2 10h-5c-36 -78 -84 -114 -155 -114c-88 0 -132 54 -132 143c0 19 2 42 7 67z" />
    <glyph glyph-name="Wcircumflex" unicode="&#x174;" horiz-adv-x="862" 
d="M506 935h94l82 -143l-43 -30l-93 115l-139 -116l-40 32zM226 0h-94l-29 698h81l9 -354l6 -243h4l137 315l126 282h96l15 -295l14 -301h4l106 247l150 349h84l-313 -698h-93l-18 367l-10 239h-5l-109 -244z" />
    <glyph glyph-name="wcircumflex" unicode="&#x175;" horiz-adv-x="740" 
d="M410 765h94l82 -143l-43 -31l-93 115l-139 -116l-39 32zM105 0l-28 516h74l9 -251l6 -191h5l79 169l128 273h75l22 -260l12 -178h5l76 174l117 264h75l-235 -516h-93l-25 279l-7 132h-5l-59 -132l-133 -279h-98z" />
    <glyph glyph-name="Ycircumflex" unicode="&#x176;" horiz-adv-x="577" 
d="M358 935h94l82 -143l-43 -30l-93 115l-139 -116l-40 32zM277 0h-81l55 273l-146 425h82l116 -341h5l250 341h93l-319 -425z" />
    <glyph glyph-name="ycircumflex" unicode="&#x177;" horiz-adv-x="484" 
d="M288 765h94l82 -143l-43 -31l-93 115l-139 -116l-39 32zM300 261l138 255h82l-349 -633c-33 -60 -59 -83 -111 -83h-80l13 66h93l64 118l-82 532h75l38 -255l21 -188h5z" />
    <glyph glyph-name="Ydieresis" unicode="&#x178;" horiz-adv-x="577" 
d="M288 787c-26 0 -42 12 -42 35c0 5 1 11 3 23c6 30 23 47 56 47c26 0 42 -12 42 -35c0 -5 -1 -11 -3 -23c-6 -30 -23 -47 -56 -47zM470 787c-26 0 -42 12 -42 35c0 5 1 11 3 23c6 30 23 47 56 47c26 0 42 -12 42 -35c0 -5 -1 -11 -3 -23c-6 -30 -23 -47 -56 -47zM277 0
h-81l55 273l-146 425h82l116 -341h5l250 341h93l-319 -425z" />
    <glyph glyph-name="Zacute" unicode="&#x179;" horiz-adv-x="563" 
d="M501 914l-123 -158l-49 25l104 169zM487 72l-15 -72h-487l16 78l492 548h-374l15 72h469l-16 -78l-492 -548h392z" />
    <glyph glyph-name="zacute" unicode="&#x17a;" horiz-adv-x="448" 
d="M432 744l-124 -159l-48 25l104 170zM368 0h-373l13 66l343 382h-266l13 68h359l-13 -66l-343 -382h280z" />
    <glyph glyph-name="Zdotaccent" unicode="&#x17b;" horiz-adv-x="563" 
d="M372 787c-26 0 -42 12 -42 35c0 5 1 10 3 21c6 30 23 47 56 47c26 0 42 -12 42 -35c0 -5 -1 -10 -3 -21c-6 -30 -23 -47 -56 -47zM487 72l-15 -72h-487l16 78l492 548h-374l15 72h469l-16 -78l-492 -548h392z" />
    <glyph glyph-name="zdotaccent" unicode="&#x17c;" horiz-adv-x="448" 
d="M301 616c-26 0 -42 12 -42 35c0 5 1 10 3 21c6 30 23 47 56 47c26 0 42 -12 42 -35c0 -5 -1 -10 -3 -21c-6 -30 -23 -47 -56 -47zM368 0h-373l13 66l343 382h-266l13 68h359l-13 -66l-343 -382h280z" />
    <glyph glyph-name="Zcaron" unicode="&#x17d;" horiz-adv-x="563" 
d="M416 769h-94l-82 143l44 31l90 -116l140 117l41 -32zM487 72l-15 -72h-487l16 78l492 548h-374l15 72h469l-16 -78l-492 -548h392z" />
    <glyph glyph-name="zcaron" unicode="&#x17e;" horiz-adv-x="448" 
d="M345 599h-95l-82 143l44 31l90 -116l140 117l41 -32zM368 0h-373l13 66l343 382h-266l13 68h359l-13 -66l-343 -382h280z" />
    <glyph glyph-name="uni018F" unicode="&#x18f;" horiz-adv-x="679" 
d="M295 -12c-141 0 -240 104 -240 267c0 29 4 60 10 94l4 22h491c9 39 10 68 10 88c0 106 -61 178 -172 178c-76 0 -157 -30 -217 -139l-61 34c53 109 159 178 285 178c159 0 247 -112 247 -272c0 -225 -125 -450 -357 -450zM301 61c129 0 213 88 244 242h-402
c-4 -19 -7 -48 -7 -68c0 -105 59 -174 165 -174z" />
    <glyph glyph-name="florin" unicode="&#x192;" horiz-adv-x="482" 
d="M-73 -134l13 68h146l99 370h-126l14 68h132l59 216c19 70 61 110 137 110h120l-14 -68h-151l-70 -258h167l-14 -68h-173l-89 -328c-21 -77 -60 -110 -137 -110h-113z" />
    <glyph glyph-name="Ohorn" unicode="&#x1a0;" horiz-adv-x="679" 
d="M664 810h69l-21 -101c-8 -36 -21 -63 -69 -63h-68c53 -52 77 -125 77 -208c0 -231 -133 -450 -354 -450c-139 0 -243 96 -243 272c0 231 133 450 354 450c28 0 55 -4 80 -12h153zM306 61c123 0 210 87 239 232l20 100c5 25 7 49 7 69c0 106 -63 175 -171 175
c-123 0 -210 -87 -239 -232l-20 -100c-5 -25 -7 -49 -7 -69c0 -106 63 -175 171 -175z" />
    <glyph glyph-name="ohorn" unicode="&#x1a1;" horiz-adv-x="550" 
d="M235 -12c-108 0 -186 72 -186 212c0 173 108 328 266 328c25 0 49 -4 70 -12h95l22 112h68l-20 -101c-7 -37 -22 -62 -70 -62h-23c31 -40 44 -93 44 -149c0 -173 -108 -328 -266 -328zM245 57c74 0 139 56 160 161l15 75c3 15 5 30 5 45c0 72 -42 121 -120 121
c-74 0 -139 -56 -160 -161l-15 -75c-3 -15 -5 -30 -5 -45c0 -72 42 -121 120 -121z" />
    <glyph glyph-name="Uhorn" unicode="&#x1af;" horiz-adv-x="656" 
d="M174 698h81l-86 -429c-6 -30 -8 -50 -8 -72c0 -85 49 -136 128 -136c112 0 172 61 204 223l83 414h90l22 112h68l-20 -102c-7 -35 -22 -62 -69 -62h-21l-73 -368c-43 -214 -127 -290 -293 -290c-124 0 -198 74 -198 201c0 31 3 65 11 105z" />
    <glyph glyph-name="uhorn" unicode="&#x1b0;" horiz-adv-x="565" 
d="M485 0h-70c-44 0 -66 26 -66 63c0 7 1 15 4 29l2 10h-5c-36 -77 -81 -114 -158 -114c-86 0 -129 54 -129 142c0 20 2 43 7 68l64 318h77l-64 -318c-4 -20 -5 -40 -5 -56c0 -55 23 -84 78 -84c34 0 65 13 92 41c35 35 60 89 68 129l58 288h84l22 112h68l-20 -101
c-7 -36 -21 -63 -68 -63h-20l-79 -396h73z" />
    <glyph glyph-name="Aringacute" unicode="&#x1fa;" horiz-adv-x="623" 
d="M558 1082l-106 -96l-37 27l89 107zM411 736c-60 0 -100 43 -100 100c0 80 51 131 129 131c60 0 100 -43 100 -100c0 -80 -51 -131 -129 -131zM417 783c35 0 56 20 63 57c3 15 4 25 4 32c0 30 -18 47 -50 47c-35 0 -56 -20 -63 -56c-3 -15 -4 -25 -4 -32
c0 -31 18 -48 50 -48zM547 0h-83l-26 206h-271l-108 -206h-86l373 698h107zM430 278l-43 343h-5l-178 -343h226z" />
    <glyph glyph-name="aringacute" unicode="&#x1fb;" horiz-adv-x="583" 
d="M491 919l-106 -105l-37 27l89 116zM344 566c-60 0 -100 43 -100 100c0 79 51 130 129 130c60 0 100 -43 100 -99c0 -80 -51 -131 -129 -131zM350 614c35 0 56 20 63 56c3 15 4 25 4 32c0 30 -18 46 -50 46c-35 0 -56 -19 -63 -55c-3 -15 -4 -25 -4 -32
c0 -30 18 -47 50 -47zM506 0h-69c-45 0 -67 25 -67 62c0 8 1 17 3 27l5 23h-3c-42 -86 -91 -124 -167 -124c-94 0 -157 75 -157 197c0 152 81 343 252 343c62 0 120 -31 135 -96h4l17 84h77l-90 -448h73zM229 58c45 0 78 21 108 51c33 33 55 72 65 124l21 105
c13 64 -21 120 -113 120c-84 0 -140 -57 -160 -157l-15 -75c-3 -17 -5 -34 -5 -51c0 -67 30 -117 99 -117z" />
    <glyph glyph-name="AEacute" unicode="&#x1fc;" horiz-adv-x="886" 
d="M799 914l-123 -158l-49 25l104 169zM360 0l41 205h-212l-139 -205h-92l482 698h471l-15 -72h-329l-47 -236h296l-14 -72h-297l-49 -246h346l-14 -72h-428zM487 631h-10l-238 -355h177z" />
    <glyph glyph-name="aeacute" unicode="&#x1fd;" horiz-adv-x="806" 
d="M598 744l-124 -159l-48 25l104 170zM185 56c71 0 137 40 148 94l16 79l-99 -4c-77 -3 -134 -15 -144 -67c-5 -25 -6 -32 -6 -39c0 -40 31 -63 85 -63zM611 462c-89 0 -152 -60 -171 -152l-5 -24c218 7 266 37 266 98c0 64 -46 78 -90 78zM168 -12c-92 0 -146 48 -146 134
c0 99 72 154 232 160l107 4l11 59c2 10 3 18 3 27c0 55 -37 86 -105 86c-61 0 -99 -25 -135 -73l-48 46c36 55 107 97 194 97c82 0 128 -38 146 -95h7c44 60 106 95 181 95c83 0 165 -43 165 -138c0 -116 -121 -160 -354 -162c-2 -14 -5 -36 -5 -54c0 -66 43 -117 123 -117
c65 0 118 33 158 82l50 -45c-64 -78 -139 -106 -214 -106c-89 0 -148 39 -175 106h-7c-38 -70 -109 -106 -188 -106z" />
    <glyph glyph-name="Oslashacute" unicode="&#x1fe;" horiz-adv-x="679" 
d="M554 914l-123 -158l-49 25l104 169zM298 -12c-64 0 -120 20 -163 59l-81 -93l-51 45l90 103c-24 42 -38 94 -38 158c0 231 133 450 354 450c64 0 120 -20 163 -59l81 93l51 -45l-90 -103c24 -42 38 -94 38 -158c0 -231 -133 -450 -354 -450zM142 305
c-5 -25 -7 -49 -7 -69c0 -27 4 -52 12 -74l376 430c-30 28 -71 45 -122 45c-123 0 -210 -87 -239 -232zM306 61c123 0 210 87 239 232l20 100c5 25 7 49 7 69c0 27 -4 52 -12 74l-376 -430c30 -28 71 -45 122 -45z" />
    <glyph glyph-name="oslashacute" unicode="&#x1ff;" horiz-adv-x="550" 
d="M476 744l-124 -159l-48 25l104 170zM22 -41l-39 38l88 91c-14 31 -22 67 -22 112c0 173 108 328 266 328c54 0 100 -19 133 -54l80 83l39 -38l-88 -91c14 -31 22 -67 22 -112c0 -173 -108 -328 -266 -328c-54 0 -100 19 -133 54zM245 57c74 0 139 56 160 161
c18 90 20 105 20 120c0 12 -1 24 -3 33l-270 -277c20 -23 52 -37 93 -37zM305 459c-74 0 -139 -56 -160 -161c-18 -90 -20 -105 -20 -120c0 -12 1 -24 3 -33l270 277c-20 23 -52 37 -93 37z" />
    <glyph glyph-name="Scommaaccent" unicode="&#x218;" horiz-adv-x="577" 
d="M225 -66c29 0 42 -14 42 -36c0 -5 0 -9 -3 -24c-9 -45 -37 -90 -70 -119h-56c31 31 43 48 56 76c-17 3 -28 14 -28 33c0 4 0 9 3 24c6 30 23 46 56 46zM249 -12c-103 0 -194 38 -238 125l62 45c41 -70 103 -97 178 -97c118 0 180 66 180 149c0 59 -32 96 -106 110l-67 13
c-98 19 -153 81 -153 171c0 113 87 206 241 206c107 0 179 -45 225 -108l-59 -49c-38 52 -92 84 -171 84c-94 0 -155 -46 -155 -127c0 -60 34 -95 106 -109l67 -13c98 -19 153 -79 153 -174c0 -125 -94 -226 -263 -226z" />
    <glyph glyph-name="scommaaccent" unicode="&#x219;" horiz-adv-x="471" 
d="M179 -66c29 0 42 -14 42 -36c0 -5 0 -9 -3 -24c-9 -45 -37 -90 -70 -119h-56c31 31 43 48 56 76c-17 3 -28 14 -28 33c0 4 0 9 3 24c6 30 23 46 56 46zM209 -12c-79 0 -154 34 -195 94l53 47c36 -48 82 -74 142 -74c68 0 117 34 117 97c0 35 -16 60 -76 72l-39 8
c-78 16 -138 48 -138 133c0 86 62 163 191 163c76 0 129 -27 168 -76l-53 -47c-23 32 -60 56 -121 56c-75 0 -110 -37 -110 -89c0 -36 17 -59 75 -71l39 -8c83 -17 138 -50 138 -136c0 -104 -81 -169 -191 -169z" />
    <glyph glyph-name="uni021A" unicode="&#x21a;" horiz-adv-x="557" 
d="M212 -66c29 0 42 -14 42 -36c0 -5 0 -9 -3 -24c-9 -45 -37 -90 -70 -119h-56c31 31 43 48 56 76c-17 3 -28 14 -28 33c0 4 0 9 3 24c6 30 23 46 56 46zM605 626h-213l-125 -626h-81l125 626h-213l14 72h507z" />
    <glyph glyph-name="uni021B" unicode="&#x21b;" horiz-adv-x="320" 
d="M128 -66c29 0 42 -14 42 -36c0 -5 0 -9 -3 -24c-9 -45 -37 -90 -70 -119h-56c31 31 43 48 56 76c-17 3 -28 14 -28 33c0 4 0 9 3 24c6 30 23 46 56 46zM230 0h-94c-47 0 -70 26 -70 63c0 7 1 14 3 24l73 361h-76l13 68h39c37 0 45 13 52 49l19 94h71l-28 -143h109
l-13 -68h-109l-77 -380h101z" />
    <glyph glyph-name="uni0237" unicode="&#x237;" horiz-adv-x="253" 
d="M-87 -200l14 68h83l130 648h77l-123 -614c-14 -70 -44 -102 -114 -102h-67z" />
    <glyph glyph-name="uni0259" unicode="&#x259;" horiz-adv-x="511" 
d="M192 -12c-88 0 -166 45 -166 138c0 113 116 167 356 169c2 14 3 31 3 42c0 73 -43 122 -123 122c-65 0 -118 -33 -158 -82l-50 45c64 78 139 106 213 106c123 0 195 -76 195 -216c0 -171 -108 -324 -270 -324zM200 54c81 0 147 60 166 152l6 29
c-221 -8 -267 -39 -267 -110c0 -55 46 -71 95 -71z" />
    <glyph glyph-name="uni02BB" unicode="&#x2bb;" horiz-adv-x="600" 
d="M315 595c-29 0 -42 14 -42 36c0 5 0 9 3 24c9 45 37 90 70 119h56c-31 -31 -43 -48 -56 -76c17 -3 28 -14 28 -33c0 -4 0 -9 -3 -24c-6 -30 -23 -46 -56 -46z" />
    <glyph glyph-name="uni02BC" unicode="&#x2bc;" horiz-adv-x="593" 
d="M387 740l-75 -185h-53l35 185h93z" />
    <glyph glyph-name="circumflex" unicode="&#x2c6;" horiz-adv-x="593" 
d="M284 765h94l82 -143l-43 -31l-93 115l-139 -116l-39 32z" />
    <glyph glyph-name="caron" unicode="&#x2c7;" horiz-adv-x="593" 
d="M354 599h-95l-82 143l44 31l90 -116l140 117l41 -32z" />
    <glyph glyph-name="breve" unicode="&#x2d8;" horiz-adv-x="593" 
d="M306 596c-98 0 -123 80 -131 134l46 20l10 -22c21 -46 38 -71 77 -71c36 0 61 20 100 71l17 22l48 -20c-26 -55 -70 -134 -167 -134z" />
    <glyph glyph-name="dotaccent" unicode="&#x2d9;" horiz-adv-x="593" 
d="M310 616c-26 0 -42 12 -42 35c0 5 1 10 3 21c6 30 23 47 56 47c26 0 42 -12 42 -35c0 -5 -1 -10 -3 -21c-6 -30 -23 -47 -56 -47z" />
    <glyph glyph-name="ring" unicode="&#x2da;" horiz-adv-x="593" 
d="M306 576c-60 0 -100 43 -100 100c0 79 51 130 129 130c60 0 100 -43 100 -100c0 -79 -51 -130 -129 -130zM312 624c35 0 56 20 63 56c3 14 4 24 4 31c0 30 -18 47 -50 47c-35 0 -56 -20 -63 -56c-3 -14 -4 -24 -4 -31c0 -30 18 -47 50 -47z" />
    <glyph glyph-name="ogonek" unicode="&#x2db;" horiz-adv-x="593" 
d="M200 -207c-50 0 -96 21 -96 75c0 55 49 93 125 127l-3 17l52 6l12 -18c-105 -70 -118 -101 -118 -122s15 -31 33 -31c16 0 36 9 54 27l37 -44c-17 -19 -50 -37 -96 -37z" />
    <glyph glyph-name="tilde" unicode="&#x2dc;" horiz-adv-x="593" 
d="M380 612c-34 0 -55 13 -74 25c-29 19 -48 24 -65 24c-22 0 -38 -10 -60 -27l-28 39c22 27 54 53 99 53c34 0 55 -13 74 -25c29 -19 48 -24 65 -24c22 0 38 10 60 27l28 -39c-22 -27 -54 -53 -99 -53z" />
    <glyph glyph-name="hungarumlaut" unicode="&#x2dd;" horiz-adv-x="593" 
d="M359 745l-123 -159l-45 22l105 171zM516 745l-123 -159l-45 22l104 171z" />
    <glyph glyph-name="uni0300" unicode="&#x300;" 
d="M-1 585l-84 159l68 32l61 -170z" />
    <glyph glyph-name="uni0301" unicode="&#x301;" 
d="M151 744l-124 -159l-48 25l104 170z" />
    <glyph glyph-name="uni0302" unicode="&#x302;" 
d="M-6 765h94l82 -143l-43 -31l-93 115l-139 -116l-39 32z" />
    <glyph glyph-name="uni0303" unicode="&#x303;" 
d="M90 612c-34 0 -55 13 -74 25c-29 19 -48 24 -65 24c-22 0 -38 -10 -60 -27l-28 39c22 27 54 53 99 53c34 0 55 -13 74 -25c29 -19 48 -24 65 -24c22 0 38 10 60 27l28 -39c-22 -27 -54 -53 -99 -53z" />
    <glyph glyph-name="uni0304" unicode="&#x304;" 
d="M-116 639l14 66h272l-14 -66h-272z" />
    <glyph glyph-name="uni0306" unicode="&#x306;" 
d="M16 596c-98 0 -123 80 -131 134l46 20l10 -22c21 -46 38 -71 77 -71c36 0 61 20 100 71l17 22l48 -20c-26 -55 -70 -134 -167 -134z" />
    <glyph glyph-name="uni0307" unicode="&#x307;" 
d="M20 616c-26 0 -42 12 -42 35c0 5 1 10 3 21c6 30 23 47 56 47c26 0 42 -12 42 -35c0 -5 -1 -10 -3 -21c-6 -30 -23 -47 -56 -47z" />
    <glyph glyph-name="uni0308" unicode="&#x308;" 
d="M-73 618c-26 0 -42 12 -42 35c0 5 1 10 3 21c6 30 23 47 56 47c26 0 42 -12 42 -35c0 -5 -1 -10 -3 -21c-6 -30 -23 -47 -56 -47zM109 618c-26 0 -42 12 -42 35c0 5 1 10 3 21c6 30 23 47 56 47c26 0 42 -12 42 -35c0 -5 -1 -10 -3 -21c-6 -30 -23 -47 -56 -47z" />
    <glyph glyph-name="uni0309" unicode="&#x309;" 
d="M-57 706l8 59h107c49 0 62 -26 62 -49c0 -33 -26 -67 -61 -107l-28 -32l-41 23l69 106h-116z" />
    <glyph glyph-name="uni030A" unicode="&#x30a;" 
d="M16 576c-60 0 -100 43 -100 100c0 79 51 130 129 130c60 0 100 -43 100 -100c0 -79 -51 -130 -129 -130zM22 624c35 0 56 20 63 56c3 14 4 24 4 31c0 30 -18 47 -50 47c-35 0 -56 -20 -63 -56c-3 -14 -4 -24 -4 -31c0 -30 18 -47 50 -47z" />
    <glyph glyph-name="uni030B" unicode="&#x30b;" 
d="M69 745l-123 -159l-45 22l105 171zM226 745l-123 -159l-45 22l104 171z" />
    <glyph glyph-name="uni030C" unicode="&#x30c;" 
d="M64 599h-95l-82 143l44 31l90 -116l140 117l41 -32z" />
    <glyph glyph-name="uni0312" unicode="&#x312;" 
d="M15 595c-29 0 -42 14 -42 36c0 5 0 9 3 24c9 45 37 90 70 119h56c-31 -31 -43 -48 -56 -76c17 -3 28 -14 28 -33c0 -4 0 -9 -3 -24c-6 -30 -23 -46 -56 -46z" />
    <glyph glyph-name="uni0315" unicode="&#x315;" 
d="M97 740l-75 -185h-53l35 185h93z" />
    <glyph glyph-name="uni031B" unicode="&#x31b;" 
d="M91 628l-20 -101c-7 -36 -22 -63 -69 -63h-93l10 52h82l22 112h68z" />
    <glyph glyph-name="uni0323" unicode="&#x323;" 
d="M-32 -169c-26 0 -42 12 -42 35c0 5 1 10 3 21c6 30 23 47 56 47c26 0 42 -12 42 -35c0 -5 -1 -10 -3 -21c-6 -30 -23 -47 -56 -47z" />
    <glyph glyph-name="uni0326" unicode="&#x326;" 
d="M-15 -66c29 0 42 -14 42 -36c0 -5 0 -9 -3 -24c-9 -45 -37 -90 -70 -119h-56c31 31 43 48 56 76c-17 3 -28 14 -28 33c0 4 0 9 3 24c6 30 23 46 56 46z" />
    <glyph glyph-name="uni0327" unicode="&#x327;" 
d="M-11 -207c-50 0 -86 17 -101 37l40 41c9 -13 30 -25 59 -25s46 15 46 36s-13 34 -55 39l-26 3l29 96h50l-26 -82l2 -2c7 1 16 4 31 4c33 0 59 -14 59 -56c0 -55 -44 -91 -108 -91z" />
    <glyph glyph-name="uni0328" unicode="&#x328;" 
d="M-90 -207c-50 0 -96 21 -96 75c0 55 49 93 125 127l-3 17l52 6l12 -18c-105 -70 -118 -101 -118 -122s15 -31 33 -31c16 0 36 9 54 27l37 -44c-17 -19 -50 -37 -96 -37z" />
    <glyph glyph-name="uni037E" unicode="&#x37e;" horiz-adv-x="292" 
d="M178 394c-32 0 -51 14 -51 40c0 9 2 24 4 34c6 27 20 55 65 55c32 0 51 -14 51 -40c0 -9 -2 -24 -4 -34c-6 -27 -20 -55 -65 -55zM112 117c32 0 51 -14 51 -40c0 -9 -2 -21 -4 -31c-11 -51 -48 -130 -116 -179h-65c49 43 77 82 98 127c-21 5 -33 16 -33 37c0 9 2 21 4 31
c6 27 20 55 65 55z" />
    <glyph glyph-name="tonos" unicode="&#x384;" horiz-adv-x="593" 
d="M417 762l-85 -177l-52 12l63 183z" />
    <glyph glyph-name="dieresistonos" unicode="&#x385;" horiz-adv-x="593" 
d="M412 762l-84 -177l-43 12l63 183zM220 618c-20 0 -37 12 -37 35c0 5 1 10 3 21c6 30 24 47 51 47c20 0 37 -12 37 -35c0 -5 -1 -10 -3 -21c-6 -30 -24 -47 -51 -47zM442 618c-20 0 -37 12 -37 35c0 5 1 10 3 21c6 30 24 47 51 47c20 0 37 -12 37 -35c0 -5 -1 -10 -3 -21
c-6 -30 -24 -47 -51 -47z" />
    <glyph glyph-name="Alphatonos" unicode="&#x386;" horiz-adv-x="623" 
d="M237 762l-85 -177l-52 12l63 183zM547 0h-83l-26 206h-271l-108 -206h-86l373 698h107zM430 278l-43 343h-5l-178 -343h226z" />
    <glyph glyph-name="anoteleia" unicode="&#x387;" horiz-adv-x="292" 
d="M178 394c-32 0 -51 14 -51 40c0 9 2 24 4 34c6 27 20 55 65 55c32 0 51 -14 51 -40c0 -9 -2 -24 -4 -34c-6 -27 -20 -55 -65 -55z" />
    <glyph glyph-name="Epsilontonos" unicode="&#x388;" horiz-adv-x="605" 
d="M195 762l-85 -177l-52 12l63 183zM507 0h-428l140 698h411l-15 -72h-329l-47 -236h296l-14 -72h-297l-49 -246h346z" />
    <glyph glyph-name="Etatonos" unicode="&#x389;" horiz-adv-x="724" 
d="M195 762l-85 -177l-52 12l63 183zM500 0l63 318h-339l-64 -318h-81l140 698h81l-61 -308h339l62 308h81l-140 -698h-81z" />
    <glyph glyph-name="Iotatonos" unicode="&#x38a;" horiz-adv-x="458" 
d="M195 762l-85 -177l-52 12l63 183zM347 0h-267l14 69h93l111 560h-93l14 69h267l-14 -69h-93l-111 -560h93z" />
    <glyph glyph-name="Omicrontonos" unicode="&#x38c;" horiz-adv-x="716" 
d="M195 762l-85 -177l-52 12l63 183zM335 -12c-139 0 -243 96 -243 272c0 231 133 450 354 450c139 0 243 -96 243 -272c0 -231 -133 -450 -354 -450zM343 61c123 0 210 87 239 232l20 100c5 25 7 49 7 69c0 106 -63 175 -171 175c-123 0 -210 -87 -239 -232l-20 -100
c-5 -25 -7 -49 -7 -69c0 -106 63 -175 171 -175z" />
    <glyph glyph-name="Upsilontonos" unicode="&#x38e;" horiz-adv-x="669" 
d="M195 762l-85 -177l-52 12l63 183zM369 0h-81l55 273l-146 425h82l116 -341h5l250 341h93l-319 -425z" />
    <glyph glyph-name="Omegatonos" unicode="&#x38f;" horiz-adv-x="703" 
d="M195 762l-85 -177l-52 12l63 183zM18 0l15 72h156l3 12c-62 41 -91 127 -91 219c0 224 149 407 346 407c136 0 235 -95 235 -260c0 -137 -50 -306 -207 -366l-3 -12h157l-15 -72h-225l23 111c78 29 143 93 162 185l22 109c4 20 6 39 6 69c0 93 -59 163 -163 163
c-123 0 -208 -86 -236 -224l-19 -95c-3 -15 -3 -34 -3 -49c0 -76 36 -138 85 -158l-23 -111h-225z" />
    <glyph glyph-name="iotadieresistonos" unicode="&#x390;" horiz-adv-x="279" 
d="M290 762l-84 -177l-43 12l63 183zM98 618c-20 0 -37 12 -37 35c0 5 1 10 3 21c6 30 24 47 51 47c20 0 37 -12 37 -35c0 -5 -1 -10 -3 -21c-6 -30 -24 -47 -51 -47zM320 618c-20 0 -37 12 -37 35c0 5 1 10 3 21c6 30 24 47 51 47c20 0 37 -12 37 -35c0 -5 -1 -10 -3 -21
c-6 -30 -24 -47 -51 -47zM228 68l-13 -68h-94c-47 0 -70 26 -70 63c0 7 1 14 3 24l86 429h77l-90 -448h101z" />
    <glyph glyph-name="Alpha" unicode="&#x391;" horiz-adv-x="623" 
d="M547 0h-83l-26 206h-271l-108 -206h-86l373 698h107zM430 278l-43 343h-5l-178 -343h226z" />
    <glyph glyph-name="Beta" unicode="&#x392;" horiz-adv-x="627" 
d="M39 0l140 698h257c107 0 167 -58 167 -149c0 -85 -51 -161 -142 -182l-1 -5c63 -15 101 -52 101 -124c0 -130 -98 -238 -228 -238h-294zM134 72h198c69 0 120 37 135 112c7 35 9 49 9 58c0 52 -36 82 -102 82h-190zM198 394h169c74 0 126 30 140 100c6 30 7 46 7 55
c0 48 -30 77 -89 77h-181z" />
    <glyph glyph-name="Gamma" unicode="&#x393;" horiz-adv-x="485" 
d="M39 0l140 698h364l-14 -72h-283l-126 -626h-81z" />
    <glyph glyph-name="uni0394" unicode="&#x394;" horiz-adv-x="623" 
d="M-10 0l16 77l340 621h107l92 -621l-15 -77h-540zM463 72l-76 549h-5l-293 -549h374z" />
    <glyph glyph-name="Epsilon" unicode="&#x395;" horiz-adv-x="565" 
d="M467 0h-428l140 698h411l-15 -72h-329l-47 -236h296l-14 -72h-297l-49 -246h346z" />
    <glyph glyph-name="Zeta" unicode="&#x396;" horiz-adv-x="563" 
d="M487 72l-15 -72h-487l16 78l492 548h-374l15 72h469l-16 -78l-492 -548h392z" />
    <glyph glyph-name="Eta" unicode="&#x397;" horiz-adv-x="684" 
d="M460 0l63 318h-339l-64 -318h-81l140 698h81l-61 -308h339l62 308h81l-140 -698h-81z" />
    <glyph glyph-name="Theta" unicode="&#x398;" horiz-adv-x="679" 
d="M298 -12c-139 0 -243 96 -243 272c0 231 133 450 354 450c139 0 243 -96 243 -272c0 -231 -133 -450 -354 -450zM306 61c123 0 210 87 239 232l20 100c5 25 7 49 7 69c0 106 -63 175 -171 175c-123 0 -210 -87 -239 -232l-20 -100c-5 -25 -7 -49 -7 -69
c0 -106 63 -175 171 -175zM491 318h-288l15 72h288z" />
    <glyph glyph-name="Iota" unicode="&#x399;" horiz-adv-x="387" 
d="M276 0h-267l14 69h93l111 560h-93l14 69h267l-14 -69h-93l-111 -560h93z" />
    <glyph glyph-name="Kappa" unicode="&#x39a;" horiz-adv-x="615" 
d="M461 0l-171 343l-125 -117l-45 -226h-81l140 698h81l-71 -356h5l119 115l249 241h103l-313 -303l197 -395h-88z" />
    <glyph glyph-name="Lambda" unicode="&#x39b;" horiz-adv-x="613" 
d="M341 698h107l89 -698h-83l-40 350l-32 271h-5l-138 -271l-180 -350h-86z" />
    <glyph glyph-name="Mu" unicode="&#x39c;" horiz-adv-x="784" 
d="M561 0l119 586h-5l-81 -117l-217 -303l-99 303l-37 116h-5l-117 -585h-80l140 698h105l118 -379h3l263 379h113l-140 -698h-80z" />
    <glyph glyph-name="Nu" unicode="&#x39d;" horiz-adv-x="684" 
d="M447 0l-152 420l-55 167h-5l-117 -587h-79l140 698h94l152 -420l55 -167h5l117 587h79l-140 -698h-94z" />
    <glyph glyph-name="Xi" unicode="&#x39e;" horiz-adv-x="584" 
d="M137 626l15 72h457l-15 -72h-457zM131 318l14 72h346l-14 -72h-346zM11 0l15 72h457l-15 -72h-457z" />
    <glyph glyph-name="Omicron" unicode="&#x39f;" horiz-adv-x="679" 
d="M298 -12c-139 0 -243 96 -243 272c0 231 133 450 354 450c139 0 243 -96 243 -272c0 -231 -133 -450 -354 -450zM306 61c123 0 210 87 239 232l20 100c5 25 7 49 7 69c0 106 -63 175 -171 175c-123 0 -210 -87 -239 -232l-20 -100c-5 -25 -7 -49 -7 -69
c0 -106 63 -175 171 -175z" />
    <glyph glyph-name="Pi" unicode="&#x3a0;" horiz-adv-x="670" 
d="M39 0l140 698h488l-141 -698h-81l126 626h-325l-126 -626h-81z" />
    <glyph glyph-name="Rho" unicode="&#x3a1;" horiz-adv-x="588" 
d="M120 0h-81l140 698h249c123 0 173 -71 173 -167c0 -130 -90 -233 -234 -233h-187zM245 626l-50 -256h184c66 0 113 35 126 101c9 45 12 58 12 74c0 49 -25 81 -95 81h-177z" />
    <glyph glyph-name="Sigma" unicode="&#x3a3;" horiz-adv-x="541" 
d="M447 0h-456l16 78l287 276l-173 266l16 78h433l-15 -72h-345l181 -277l-288 -277h358z" />
    <glyph glyph-name="Tau" unicode="&#x3a4;" horiz-adv-x="557" 
d="M605 626h-213l-125 -626h-81l125 626h-213l14 72h507z" />
    <glyph glyph-name="Upsilon" unicode="&#x3a5;" horiz-adv-x="577" 
d="M277 0h-81l55 273l-146 425h82l116 -341h5l250 341h93l-319 -425z" />
    <glyph glyph-name="Phi" unicode="&#x3a6;" horiz-adv-x="795" 
d="M294 -29l12 60h-10c-164 0 -245 97 -245 246c0 208 133 400 375 400h10l10 48h81l-10 -48h10c164 0 245 -97 245 -246c0 -208 -133 -400 -375 -400h-10l-12 -60h-81zM323 99l102 510h-10c-143 0 -240 -89 -269 -231l-11 -54c-3 -16 -4 -32 -4 -56
c0 -108 52 -169 182 -169h10zM398 99h10c143 0 240 89 269 231l11 54c3 16 4 32 4 56c0 108 -52 169 -182 169h-10z" />
    <glyph glyph-name="Chi" unicode="&#x3a7;" horiz-adv-x="596" 
d="M360 343l148 -343h-85l-120 286h-4l-230 -286h-94l288 358l-143 340h85l119 -287h4l231 287h94z" />
    <glyph glyph-name="Psi" unicode="&#x3a8;" horiz-adv-x="765" 
d="M290 0l41 204c-160 0 -226 92 -226 196c0 42 6 85 16 135l33 163h81l-37 -183c-10 -50 -14 -84 -14 -107c0 -91 49 -136 161 -136l85 426h81l-85 -426c138 0 205 61 241 235l39 191h81l-42 -209c-39 -195 -147 -285 -333 -285l-41 -204h-81z" />
    <glyph glyph-name="uni03A9" unicode="&#x3a9;" horiz-adv-x="669" 
d="M-16 0l15 72h156l3 12c-62 41 -91 127 -91 219c0 224 149 407 346 407c136 0 235 -95 235 -260c0 -137 -50 -306 -207 -366l-3 -12h157l-15 -72h-225l23 111c78 29 143 93 162 185l22 109c4 20 6 39 6 69c0 93 -59 163 -163 163c-123 0 -208 -86 -236 -224l-19 -95
c-3 -15 -3 -34 -3 -49c0 -76 36 -138 85 -158l-23 -111h-225z" />
    <glyph glyph-name="Iotadieresis" unicode="&#x3aa;" horiz-adv-x="387" 
d="M203 787c-26 0 -42 12 -42 35c0 5 1 11 3 23c6 30 23 47 56 47c26 0 42 -12 42 -35c0 -5 -1 -11 -3 -23c-6 -30 -23 -47 -56 -47zM385 787c-26 0 -42 12 -42 35c0 5 1 11 3 23c6 30 23 47 56 47c26 0 42 -12 42 -35c0 -5 -1 -11 -3 -23c-6 -30 -23 -47 -56 -47zM276 0
h-267l14 69h93l111 560h-93l14 69h267l-14 -69h-93l-111 -560h93z" />
    <glyph glyph-name="Upsilondieresis" unicode="&#x3ab;" horiz-adv-x="577" 
d="M288 787c-26 0 -42 12 -42 35c0 5 1 11 3 23c6 30 23 47 56 47c26 0 42 -12 42 -35c0 -5 -1 -11 -3 -23c-6 -30 -23 -47 -56 -47zM470 787c-26 0 -42 12 -42 35c0 5 1 11 3 23c6 30 23 47 56 47c26 0 42 -12 42 -35c0 -5 -1 -11 -3 -23c-6 -30 -23 -47 -56 -47zM277 0
h-81l55 273l-146 425h82l116 -341h5l250 341h93l-319 -425z" />
    <glyph glyph-name="alphatonos" unicode="&#x3ac;" horiz-adv-x="629" 
d="M442 762l-85 -177l-52 12l63 183zM567 68l-13 -68h-51c-47 0 -72 24 -71 74l2 110h-4c-78 -156 -141 -196 -221 -196c-103 0 -158 70 -158 197c0 166 90 343 252 343c100 0 153 -56 157 -196h4l54 114l37 70h86l-158 -259l26 -189h58zM222 58c41 0 77 20 137 116l53 84
l-15 85c-16 92 -44 115 -95 115c-72 0 -132 -57 -152 -157l-15 -75c-3 -17 -5 -35 -5 -51c0 -84 34 -117 92 -117z" />
    <glyph glyph-name="epsilontonos" unicode="&#x3ad;" horiz-adv-x="513" 
d="M435 762l-85 -177l-52 12l63 183zM404 130l47 -47c-68 -72 -138 -95 -230 -95c-120 0 -183 57 -183 135c0 74 50 132 146 144l1 4c-58 10 -89 45 -89 95c0 80 74 162 218 162c90 0 139 -24 185 -76l-53 -47c-32 38 -70 55 -138 55c-84 0 -127 -33 -135 -77
c-1 -7 -2 -15 -2 -25c0 -35 31 -59 98 -59h108l-13 -65h-118c-74 0 -120 -30 -130 -80c-2 -10 -3 -17 -3 -27c0 -44 37 -71 113 -71c70 0 126 18 178 74z" />
    <glyph glyph-name="etatonos" unicode="&#x3ae;" horiz-adv-x="574" 
d="M467 762l-85 -177l-52 12l63 183zM126 0h-77l90 448h-73l13 68h70c44 0 66 -26 66 -63c0 -7 -1 -15 -4 -29l-2 -10h5c36 77 84 114 158 114c89 0 133 -54 133 -143c0 -19 -2 -42 -7 -67l-104 -518h-77l104 518c4 20 5 41 5 53c0 58 -24 87 -79 87c-37 0 -67 -13 -95 -41
c-34 -34 -60 -88 -68 -129z" />
    <glyph glyph-name="iotatonos" unicode="&#x3af;" horiz-adv-x="279" 
d="M305 762l-85 -177l-52 12l63 183zM228 68l-13 -68h-94c-47 0 -70 26 -70 63c0 7 1 14 3 24l86 429h77l-90 -448h101z" />
    <glyph glyph-name="upsilondieresistonos" unicode="&#x3b0;" horiz-adv-x="557" 
d="M434 762l-84 -177l-43 12l63 183zM242 618c-20 0 -37 12 -37 35c0 5 1 10 3 21c6 30 24 47 51 47c20 0 37 -12 37 -35c0 -5 -1 -10 -3 -21c-6 -30 -24 -47 -51 -47zM464 618c-20 0 -37 12 -37 35c0 5 1 10 3 21c6 30 24 47 51 47c20 0 37 -12 37 -35c0 -5 -1 -10 -3 -21
c-6 -30 -24 -47 -51 -47zM211 516l-54 -269c-6 -32 -11 -62 -11 -96c0 -66 34 -94 100 -94c76 0 118 35 148 183l55 276h77l-57 -282c-36 -176 -109 -246 -233 -246c-104 0 -166 67 -166 171c0 26 4 58 12 98l52 259h77z" />
    <glyph glyph-name="alpha" unicode="&#x3b1;" horiz-adv-x="629" 
d="M567 68l-13 -68h-51c-47 0 -72 24 -71 74l2 110h-4c-78 -156 -141 -196 -221 -196c-103 0 -158 70 -158 197c0 166 90 343 252 343c100 0 153 -56 157 -196h4l54 114l37 70h86l-158 -259l26 -189h58zM222 58c41 0 77 20 137 116l53 84l-15 85c-16 92 -44 115 -95 115
c-72 0 -132 -57 -152 -157l-15 -75c-3 -17 -5 -35 -5 -51c0 -84 34 -117 92 -117z" />
    <glyph glyph-name="beta" unicode="&#x3b2;" horiz-adv-x="551" 
d="M-4 -200l144 717c29 144 105 235 234 235c100 0 162 -56 162 -152c0 -118 -73 -179 -163 -193l-1 -4c84 -16 128 -72 128 -176c0 -142 -95 -239 -231 -239c-62 0 -120 31 -135 96h-4l-57 -284h-77zM259 369l14 68h35c95 0 127 42 142 110c4 18 7 38 7 53
c0 50 -27 82 -93 82c-67 0 -123 -47 -145 -155l-70 -349c-13 -64 21 -120 113 -120c78 0 137 36 154 131c3 17 5 34 5 58c0 83 -42 122 -126 122h-36z" />
    <glyph glyph-name="gamma" unicode="&#x3b3;" horiz-adv-x="490" 
d="M118 -200l40 200l-60 448h-53l13 68h43c44 0 65 -19 70 -60l26 -199l17 -168h5c97 138 176 287 218 427h78c-42 -140 -124 -304 -280 -516l-40 -200h-77z" />
    <glyph glyph-name="delta" unicode="&#x3b4;" horiz-adv-x="550" 
d="M546 672h-205l-83 5l-1 -4l103 -93c104 -94 141 -158 141 -260c0 -179 -110 -332 -266 -332c-108 0 -186 72 -186 212c0 167 113 316 271 316l1 5c-3 3 -7 6 -10 10l-125 120l17 89h357zM423 331c0 56 -16 98 -69 157c-109 -12 -185 -91 -212 -205
c-11 -48 -17 -87 -17 -105c0 -72 42 -121 120 -121c74 0 133 55 156 144c13 49 22 102 22 130z" />
    <glyph glyph-name="epsilon" unicode="&#x3b5;" horiz-adv-x="513" 
d="M404 130l47 -47c-68 -72 -138 -95 -230 -95c-120 0 -183 57 -183 135c0 74 50 132 146 144l1 4c-58 10 -89 45 -89 95c0 80 74 162 218 162c90 0 139 -24 185 -76l-53 -47c-32 38 -70 55 -138 55c-84 0 -127 -33 -135 -77c-1 -7 -2 -15 -2 -25c0 -35 31 -59 98 -59h108
l-13 -65h-118c-74 0 -120 -30 -130 -80c-2 -10 -3 -17 -3 -27c0 -44 37 -71 113 -71c70 0 126 18 178 74z" />
    <glyph glyph-name="zeta" unicode="&#x3b6;" horiz-adv-x="412" 
d="M156 672l13 68h330l-13 -66l-215 -220c-120 -122 -155 -196 -155 -270c0 -50 31 -84 93 -102l78 -22c36 -10 51 -29 51 -60c0 -16 -4 -32 -14 -54l-51 -114l-67 28l57 127l-71 20c-104 29 -153 91 -153 177c0 91 45 178 184 317l171 171l1 5l-86 -5h-153z" />
    <glyph glyph-name="eta" unicode="&#x3b7;" horiz-adv-x="574" 
d="M126 0h-77l90 448h-73l13 68h70c44 0 66 -26 66 -63c0 -7 -1 -15 -4 -29l-2 -10h5c36 77 84 114 158 114c89 0 133 -54 133 -143c0 -19 -2 -42 -7 -67l-104 -518h-77l104 518c4 20 5 41 5 53c0 58 -24 87 -79 87c-37 0 -67 -13 -95 -41c-34 -34 -60 -88 -68 -129z" />
    <glyph glyph-name="theta" unicode="&#x3b8;" horiz-adv-x="553" 
d="M45 397h60c44 0 66 -26 66 -63c0 -6 -1 -14 -3 -24l-14 -70c-6 -32 -9 -58 -9 -80c0 -68 34 -103 100 -103c89 0 140 63 171 227l18 94h-101c-142 0 -180 75 -180 157c0 50 22 117 64 159c40 40 88 58 154 58c110 0 166 -74 166 -188c0 -160 -59 -429 -144 -514
c-46 -46 -92 -62 -158 -62c-110 0 -166 76 -166 180c0 22 3 43 13 95l13 66h-63zM229 529c0 -58 25 -83 117 -83h102l4 22c6 30 9 68 9 112c0 68 -34 103 -100 103c-70 0 -113 -40 -126 -104c-5 -24 -6 -36 -6 -50z" />
    <glyph glyph-name="iota" unicode="&#x3b9;" horiz-adv-x="279" 
d="M228 68l-13 -68h-94c-47 0 -70 26 -70 63c0 7 1 14 3 24l86 429h77l-90 -448h101z" />
    <glyph glyph-name="kappa" unicode="&#x3ba;" horiz-adv-x="533" 
d="M357 0l-130 245l-79 -71l-35 -174h-77l104 516h77l-50 -249h4l105 97l136 124c22 20 43 28 75 28h49l-14 -68h-58l-178 -162l159 -286h-88z" />
    <glyph glyph-name="lambda" unicode="&#x3bb;" horiz-adv-x="493" 
d="M262 516l-18 156h-103l13 68h93c44 0 65 -20 70 -60l71 -612h63l-13 -68h-53c-44 0 -66 20 -70 60l-23 198l-10 173h-5l-87 -173l-150 -258h-82z" />
    <glyph glyph-name="uni03BC" unicode="&#x3bc;" horiz-adv-x="568" 
d="M73 -200h-77l144 716h77l-64 -318c-4 -20 -5 -41 -5 -53c0 -57 22 -87 77 -87c36 0 66 13 93 41c37 38 60 90 68 129l58 288h77l-90 -448h73l-13 -68h-69c-45 0 -67 26 -67 63c0 7 1 15 4 29l2 10h-5c-36 -78 -76 -114 -138 -114c-69 0 -97 44 -103 114h-5l-7 -154z" />
    <glyph glyph-name="nu" unicode="&#x3bd;" horiz-adv-x="493" 
d="M238 0h-83l-57 448h-53l13 68h43c44 0 65 -19 70 -60l25 -195l14 -184h5c104 150 183 299 225 439h78c-42 -140 -124 -304 -280 -516z" />
    <glyph glyph-name="xi" unicode="&#x3be;" horiz-adv-x="440" 
d="M495 672h-108c-83 0 -148 -47 -164 -133c-3 -16 -4 -28 -4 -42c0 -53 33 -79 89 -79h85l-14 -68h-87c-98 0 -152 -45 -167 -126c-3 -16 -4 -26 -4 -40c0 -48 27 -82 98 -102l78 -22c36 -10 51 -29 51 -60c0 -16 -4 -32 -14 -54l-51 -114l-67 28l57 127l-71 20
c-112 32 -158 91 -158 177c0 94 62 189 188 201l1 4c-59 14 -91 56 -91 110c0 74 39 134 113 166l2 7h-130l13 68h368z" />
    <glyph glyph-name="omicron" unicode="&#x3bf;" horiz-adv-x="550" 
d="M235 -12c-108 0 -186 72 -186 212c0 173 108 328 266 328c108 0 186 -72 186 -212c0 -173 -108 -328 -266 -328zM245 57c74 0 139 56 160 161l15 75c3 15 5 30 5 45c0 72 -42 121 -120 121c-74 0 -139 -56 -160 -161l-15 -75c-3 -15 -5 -30 -5 -45
c0 -72 42 -121 120 -121z" />
    <glyph glyph-name="pi" unicode="&#x3c0;" horiz-adv-x="607" 
d="M491 0h-69c-45 0 -67 26 -67 63c0 7 1 14 3 24l73 361h-199l-90 -448h-77l90 448h-95l14 68h556l-14 -68h-108l-77 -380h73z" />
    <glyph glyph-name="rho" unicode="&#x3c1;" horiz-adv-x="548" 
d="M-28 -200l97 482c31 152 112 246 244 246c113 0 184 -72 184 -207c0 -142 -81 -333 -252 -333c-62 0 -120 31 -135 96h-4l-57 -284h-77zM238 58c84 0 141 56 161 156l14 69c3 17 5 34 5 58c0 67 -42 117 -115 117c-71 0 -133 -55 -154 -160l-24 -120
c-14 -65 22 -120 113 -120z" />
    <glyph glyph-name="sigma1" unicode="&#x3c2;" horiz-adv-x="475" 
d="M228 -140l57 127l-71 20c-114 32 -165 90 -165 210c0 156 89 311 249 311c91 0 151 -51 171 -121l-64 -29c-17 54 -52 81 -109 81c-81 0 -135 -56 -153 -147c-7 -35 -17 -83 -17 -103c0 -74 33 -107 105 -127l78 -22c36 -10 51 -29 51 -60c0 -16 -4 -32 -14 -54l-51 -114
z" />
    <glyph glyph-name="sigma" unicode="&#x3c3;" horiz-adv-x="571" 
d="M571 448h-125l-2 -7c36 -30 55 -75 55 -137c0 -161 -106 -316 -264 -316c-108 0 -186 72 -186 212c0 162 106 316 264 316h271zM388 448h-75c-84 0 -149 -57 -170 -162l-13 -63c-3 -15 -5 -30 -5 -45c0 -72 42 -121 120 -121c74 0 139 56 160 161l13 63c3 15 5 30 5 45
c0 60 -9 92 -35 122z" />
    <glyph glyph-name="tau" unicode="&#x3c4;" horiz-adv-x="452" 
d="M315 0h-104c-47 0 -70 26 -70 63c0 7 1 14 3 24l73 361h-162l14 68h406l-14 -68h-167l-77 -380h111z" />
    <glyph glyph-name="upsilon" unicode="&#x3c5;" horiz-adv-x="557" 
d="M211 516l-54 -269c-6 -32 -11 -62 -11 -96c0 -66 34 -94 100 -94c76 0 118 35 148 183l55 276h77l-57 -282c-36 -176 -109 -246 -233 -246c-104 0 -166 67 -166 171c0 26 4 58 12 98l52 259h77z" />
    <glyph glyph-name="phi" unicode="&#x3c6;" horiz-adv-x="708" 
d="M213 -200l38 188c-126 0 -200 72 -200 188c0 157 74 298 202 352l35 -59c-80 -34 -124 -96 -146 -204l-8 -38c-4 -20 -7 -39 -7 -55c0 -76 36 -115 138 -115l45 227c34 173 101 244 209 244c86 0 138 -49 138 -171c0 -220 -109 -369 -329 -369l-38 -188h-77zM392 309
l-50 -252c123 0 198 65 219 176l12 64c5 26 8 59 8 76c0 58 -26 86 -70 86c-57 0 -99 -47 -119 -150z" />
    <glyph glyph-name="chi" unicode="&#x3c7;" horiz-adv-x="476" 
d="M60 516h58c38 0 61 -15 68 -48l45 -234h5l183 282h88l-241 -350l65 -298h68l-13 -68h-58c-38 0 -61 15 -68 48l-51 257h-5l-195 -305h-88l253 373l-59 275h-68z" />
    <glyph glyph-name="psi" unicode="&#x3c8;" horiz-adv-x="707" 
d="M299 -200h-77l38 188c-122 0 -190 73 -190 175c0 22 3 55 11 95l52 258h77l-54 -269c-8 -38 -10 -62 -10 -84c0 -70 36 -106 128 -106l131 653h77l-131 -653c120 0 164 39 194 189l54 270h77l-56 -276c-39 -192 -125 -252 -283 -252z" />
    <glyph glyph-name="omega" unicode="&#x3c9;" horiz-adv-x="729" 
d="M424 349l-26 -130c-5 -26 -8 -59 -8 -76c0 -58 26 -86 72 -86c50 0 95 38 123 177l9 44c4 18 6 40 6 56c0 66 -21 106 -65 142l50 52c62 -48 91 -106 91 -200c0 -149 -68 -340 -214 -340c-82 0 -118 45 -122 127h-4c-28 -86 -79 -127 -145 -127c-86 0 -138 49 -138 171
c0 174 76 315 204 369l35 -59c-80 -34 -124 -96 -146 -204l-9 -46c-5 -26 -8 -59 -8 -76c0 -58 26 -86 70 -86c57 0 99 47 119 150l29 142h77z" />
    <glyph glyph-name="iotadieresis" unicode="&#x3ca;" horiz-adv-x="279" 
d="M117 618c-26 0 -42 12 -42 35c0 5 1 10 3 21c6 30 23 47 56 47c26 0 42 -12 42 -35c0 -5 -1 -10 -3 -21c-6 -30 -23 -47 -56 -47zM299 618c-26 0 -42 12 -42 35c0 5 1 10 3 21c6 30 23 47 56 47c26 0 42 -12 42 -35c0 -5 -1 -10 -3 -21c-6 -30 -23 -47 -56 -47zM228 68
l-13 -68h-94c-47 0 -70 26 -70 63c0 7 1 14 3 24l86 429h77l-90 -448h101z" />
    <glyph glyph-name="upsilondieresis" unicode="&#x3cb;" horiz-adv-x="557" 
d="M261 618c-26 0 -42 12 -42 35c0 5 1 10 3 21c6 30 23 47 56 47c26 0 42 -12 42 -35c0 -5 -1 -10 -3 -21c-6 -30 -23 -47 -56 -47zM443 618c-26 0 -42 12 -42 35c0 5 1 10 3 21c6 30 23 47 56 47c26 0 42 -12 42 -35c0 -5 -1 -10 -3 -21c-6 -30 -23 -47 -56 -47zM211 516
l-54 -269c-6 -32 -11 -62 -11 -96c0 -66 34 -94 100 -94c76 0 118 35 148 183l55 276h77l-57 -282c-36 -176 -109 -246 -233 -246c-104 0 -166 67 -166 171c0 26 4 58 12 98l52 259h77z" />
    <glyph glyph-name="omicrontonos" unicode="&#x3cc;" horiz-adv-x="550" 
d="M433 762l-85 -177l-52 12l63 183zM235 -12c-108 0 -186 72 -186 212c0 173 108 328 266 328c108 0 186 -72 186 -212c0 -173 -108 -328 -266 -328zM245 57c74 0 139 56 160 161l15 75c3 15 5 30 5 45c0 72 -42 121 -120 121c-74 0 -139 -56 -160 -161l-15 -75
c-3 -15 -5 -30 -5 -45c0 -72 42 -121 120 -121z" />
    <glyph glyph-name="upsilontonos" unicode="&#x3cd;" horiz-adv-x="557" 
d="M449 762l-85 -177l-52 12l63 183zM211 516l-54 -269c-6 -32 -11 -62 -11 -96c0 -66 34 -94 100 -94c76 0 118 35 148 183l55 276h77l-57 -282c-36 -176 -109 -246 -233 -246c-104 0 -166 67 -166 171c0 26 4 58 12 98l52 259h77z" />
    <glyph glyph-name="omegatonos" unicode="&#x3ce;" horiz-adv-x="729" 
d="M539 762l-85 -177l-52 12l63 183zM424 349l-26 -130c-5 -26 -8 -59 -8 -76c0 -58 26 -86 72 -86c50 0 95 38 123 177l9 44c4 18 6 40 6 56c0 66 -21 106 -65 142l50 52c62 -48 91 -106 91 -200c0 -149 -68 -340 -214 -340c-82 0 -118 45 -122 127h-4
c-28 -86 -79 -127 -145 -127c-86 0 -138 49 -138 171c0 174 76 315 204 369l35 -59c-80 -34 -124 -96 -146 -204l-9 -46c-5 -26 -8 -59 -8 -76c0 -58 26 -86 70 -86c57 0 99 47 119 150l29 142h77z" />
    <glyph glyph-name="uni0400" unicode="&#x400;" horiz-adv-x="565" 
d="M384 755l-84 161l68 32l62 -172zM467 0h-428l140 698h411l-15 -72h-329l-47 -236h296l-14 -72h-297l-49 -246h346z" />
    <glyph glyph-name="uni0401" unicode="&#x401;" horiz-adv-x="565" 
d="M303 787c-26 0 -42 12 -42 35c0 5 1 11 3 23c6 30 23 47 56 47c26 0 42 -12 42 -35c0 -5 -1 -11 -3 -23c-6 -30 -23 -47 -56 -47zM485 787c-26 0 -42 12 -42 35c0 5 1 11 3 23c6 30 23 47 56 47c26 0 42 -12 42 -35c0 -5 -1 -11 -3 -23c-6 -30 -23 -47 -56 -47zM467 0
h-428l140 698h411l-15 -72h-329l-47 -236h296l-14 -72h-297l-49 -246h346z" />
    <glyph glyph-name="uni0402" unicode="&#x402;" horiz-adv-x="758" 
d="M402 -164l14 72h85c38 28 65 74 81 156l21 107c7 34 11 61 11 82c0 79 -43 114 -127 114c-60 0 -114 -9 -152 -25l-68 -342h-81l125 626h-213l14 72h507l-14 -72h-213l-43 -213h4c40 16 96 26 146 26c131 0 196 -64 196 -178c0 -22 -3 -50 -11 -90l-21 -107
c-32 -162 -108 -228 -217 -228h-44z" />
    <glyph glyph-name="uni0403" unicode="&#x403;" horiz-adv-x="485" 
d="M495 914l-123 -158l-49 25l104 169zM39 0l140 698h364l-14 -72h-283l-126 -626h-81z" />
    <glyph glyph-name="uni0404" unicode="&#x404;" horiz-adv-x="612" 
d="M295 -12c-143 0 -240 98 -240 278c0 242 132 444 341 444c120 0 195 -51 229 -159l-73 -33c-25 78 -70 119 -164 119c-114 0 -197 -81 -223 -208l-8 -39h281l-14 -72h-281l-1 -5c-5 -25 -6 -47 -6 -67c0 -110 57 -185 164 -185c104 0 152 49 197 130l68 -34
c-61 -116 -139 -169 -270 -169z" />
    <glyph glyph-name="uni0405" unicode="&#x405;" horiz-adv-x="577" 
d="M249 -12c-103 0 -194 38 -238 125l62 45c41 -70 103 -97 178 -97c118 0 180 66 180 149c0 59 -32 96 -106 110l-67 13c-98 19 -153 81 -153 171c0 113 87 206 241 206c107 0 179 -45 225 -108l-59 -49c-38 52 -92 84 -171 84c-94 0 -155 -46 -155 -127
c0 -60 34 -95 106 -109l67 -13c98 -19 153 -79 153 -174c0 -125 -94 -226 -263 -226z" />
    <glyph glyph-name="uni0406" unicode="&#x406;" horiz-adv-x="387" 
d="M276 0h-267l14 69h93l111 560h-93l14 69h267l-14 -69h-93l-111 -560h93z" />
    <glyph glyph-name="uni0407" unicode="&#x407;" horiz-adv-x="387" 
d="M203 787c-26 0 -42 12 -42 35c0 5 1 11 3 23c6 30 23 47 56 47c26 0 42 -12 42 -35c0 -5 -1 -11 -3 -23c-6 -30 -23 -47 -56 -47zM385 787c-26 0 -42 12 -42 35c0 5 1 11 3 23c6 30 23 47 56 47c26 0 42 -12 42 -35c0 -5 -1 -11 -3 -23c-6 -30 -23 -47 -56 -47zM276 0
h-267l14 69h93l111 560h-93l14 69h267l-14 -69h-93l-111 -560h93z" />
    <glyph glyph-name="uni0408" unicode="&#x408;" horiz-adv-x="498" 
d="M179 698h316l-103 -512c-25 -125 -103 -198 -221 -198c-96 0 -165 59 -168 165l74 15c3 -61 34 -107 98 -107c77 0 120 47 138 137l86 428h-234z" />
    <glyph glyph-name="uni0409" unicode="&#x409;" horiz-adv-x="970" 
d="M-39 0l14 72h67c60 50 105 124 165 422l41 204h388l-55 -280h172c123 0 173 -69 173 -176c0 -141 -90 -242 -234 -242h-277l125 626h-229l-28 -139c-60 -296 -101 -379 -155 -433c-38 -38 -77 -54 -133 -54h-34zM511 72h193c66 0 113 35 126 101c8 38 12 73 12 92
c0 49 -25 81 -95 81h-181z" />
    <glyph glyph-name="uni040A" unicode="&#x40a;" horiz-adv-x="994" 
d="M39 0l140 698h81l-61 -308h318l62 308h81l-55 -280h172c123 0 173 -69 173 -176c0 -141 -90 -242 -234 -242h-277l64 318h-319l-64 -318h-81zM535 72h193c66 0 113 35 126 101c8 38 12 73 12 92c0 49 -25 81 -95 81h-181z" />
    <glyph glyph-name="uni040B" unicode="&#x40b;" horiz-adv-x="769" 
d="M186 0l125 626h-213l14 72h507l-14 -72h-213l-43 -213h4c40 16 96 26 151 26c136 0 201 -64 201 -178c0 -32 -5 -66 -15 -116l-29 -145h-81l34 170c7 35 12 62 12 83c0 79 -45 114 -134 114c-65 0 -119 -9 -157 -25l-68 -342h-81z" />
    <glyph glyph-name="uni040C" unicode="&#x40c;" horiz-adv-x="635" 
d="M538 914l-123 -158l-49 25l104 169zM39 0l140 698h81l-62 -309h121l188 247c39 51 62 62 100 62h50l-14 -72h-57l-170 -224c-23 -31 -40 -40 -65 -45l-1 -5c22 -8 36 -22 50 -53l103 -227h56l-14 -72h-46c-36 0 -57 17 -78 64l-116 255h-122l-63 -319h-81z" />
    <glyph glyph-name="uni040D" unicode="&#x40d;" horiz-adv-x="684" 
d="M434 755l-84 161l68 32l62 -172zM39 0l140 698h79l-89 -440l-38 -141h3l91 126l384 455h72l-140 -698h-79l89 440l38 141h-3l-91 -126l-384 -455h-72z" />
    <glyph glyph-name="uni040E" unicode="&#x40e;" horiz-adv-x="551" 
d="M371 766c-61 0 -98 22 -118 78l-14 41l67 28l22 -82c14 -4 35 -6 50 -6c16 0 33 2 45 6l52 82l61 -34l-26 -35c-42 -56 -83 -78 -139 -78zM73 0l14 72h97l49 86l-126 540h83l72 -307l24 -135h6l72 137l173 305h84l-358 -626c-34 -59 -57 -72 -116 -72h-74z" />
    <glyph glyph-name="uni040F" unicode="&#x40f;" horiz-adv-x="670" 
d="M216 -150l30 150h-207l140 698h81l-125 -626h325l125 626h81l-139 -698h-207l-30 -150h-74z" />
    <glyph glyph-name="uni0410" unicode="&#x410;" horiz-adv-x="623" 
d="M547 0h-83l-26 206h-271l-108 -206h-86l373 698h107zM430 278l-43 343h-5l-178 -343h226z" />
    <glyph glyph-name="uni0411" unicode="&#x411;" horiz-adv-x="612" 
d="M39 0l140 698h408l-14 -72h-327l-41 -208h172c123 0 173 -71 173 -176c0 -139 -90 -242 -234 -242h-277zM135 72h193c66 0 113 35 126 101c8 38 12 73 12 92c0 49 -25 81 -95 81h-181z" />
    <glyph glyph-name="uni0412" unicode="&#x412;" horiz-adv-x="627" 
d="M39 0l140 698h257c107 0 167 -58 167 -149c0 -85 -51 -161 -142 -182l-1 -5c63 -15 101 -52 101 -124c0 -130 -98 -238 -228 -238h-294zM134 72h198c69 0 120 37 135 112c7 35 9 49 9 58c0 52 -36 82 -102 82h-190zM198 394h169c74 0 126 30 140 100c6 30 7 46 7 55
c0 48 -30 77 -89 77h-181z" />
    <glyph glyph-name="uni0413" unicode="&#x413;" horiz-adv-x="485" 
d="M39 0l140 698h364l-14 -72h-283l-126 -626h-81z" />
    <glyph glyph-name="uni0414" unicode="&#x414;" horiz-adv-x="694" 
d="M-73 -150l44 222h75c56 50 106 131 169 442l37 184h404l-125 -626h96l-45 -222h-74l30 150h-506l-31 -150h-74zM145 72h305l110 554h-245l-24 -119c-58 -289 -104 -381 -145 -430z" />
    <glyph glyph-name="uni0415" unicode="&#x415;" horiz-adv-x="565" 
d="M467 0h-428l140 698h411l-15 -72h-329l-47 -236h296l-14 -72h-297l-49 -246h346z" />
    <glyph glyph-name="uni0416" unicode="&#x416;" horiz-adv-x="928" 
d="M-11 0l14 72h56l149 217c28 40 52 58 84 62l1 5c-20 7 -33 22 -47 69l-53 201h-57l14 72h42c42 0 66 -18 79 -69l63 -240h116l62 309h81l-62 -309h116l157 247c30 47 57 62 111 62h39l-14 -72h-56l-133 -209c-26 -40 -47 -54 -74 -60l-1 -5c20 -7 34 -20 49 -67l67 -213
h58l-14 -72h-45c-42 0 -63 17 -79 68l-79 251h-117l-63 -319h-81l64 319h-116l-175 -255c-33 -49 -62 -64 -114 -64h-42z" />
    <glyph glyph-name="uni0417" unicode="&#x417;" horiz-adv-x="571" 
d="M245 -12c-104 0 -188 41 -234 123l63 47c40 -68 103 -97 173 -97c80 0 144 37 162 123c3 16 5 30 5 46c0 60 -42 92 -124 92h-97l15 72h82c99 0 150 43 164 111c3 13 4 28 4 42c0 56 -39 90 -117 90c-74 0 -134 -32 -174 -83l-54 50c54 64 133 106 235 106
c130 0 199 -59 199 -158c0 -95 -55 -162 -153 -190l-1 -5c70 -18 106 -61 106 -129c0 -144 -106 -240 -254 -240z" />
    <glyph glyph-name="uni0418" unicode="&#x418;" horiz-adv-x="684" 
d="M39 0l140 698h79l-89 -440l-38 -141h3l91 126l384 455h72l-140 -698h-79l89 440l38 141h-3l-91 -126l-384 -455h-72z" />
    <glyph glyph-name="uni0419" unicode="&#x419;" horiz-adv-x="684" 
d="M442 766c-61 0 -98 22 -118 78l-14 41l67 28l22 -82c14 -4 35 -6 50 -6c16 0 33 2 45 6l52 82l61 -34l-26 -35c-42 -56 -83 -78 -139 -78zM39 0l140 698h79l-89 -440l-38 -141h3l91 126l384 455h72l-140 -698h-79l89 440l38 141h-3l-91 -126l-384 -455h-72z" />
    <glyph glyph-name="uni041A" unicode="&#x41a;" horiz-adv-x="635" 
d="M39 0l140 698h81l-62 -309h121l188 247c39 51 62 62 100 62h50l-14 -72h-57l-170 -224c-23 -31 -40 -40 -65 -45l-1 -5c22 -8 36 -22 50 -53l103 -227h56l-14 -72h-46c-36 0 -57 17 -78 64l-116 255h-122l-63 -319h-81z" />
    <glyph glyph-name="uni041B" unicode="&#x41b;" horiz-adv-x="659" 
d="M-39 0l14 72h67c60 50 105 124 165 422l41 204h408l-140 -698h-81l125 626h-249l-28 -139c-60 -296 -101 -379 -155 -433c-38 -38 -77 -54 -133 -54h-34z" />
    <glyph glyph-name="uni041C" unicode="&#x41c;" horiz-adv-x="784" 
d="M561 0l119 586h-5l-81 -117l-217 -303l-99 303l-37 116h-5l-117 -585h-80l140 698h105l118 -379h3l263 379h113l-140 -698h-80z" />
    <glyph glyph-name="uni041D" unicode="&#x41d;" horiz-adv-x="684" 
d="M460 0l63 318h-339l-64 -318h-81l140 698h81l-61 -308h339l62 308h81l-140 -698h-81z" />
    <glyph glyph-name="uni041E" unicode="&#x41e;" horiz-adv-x="679" 
d="M298 -12c-139 0 -243 96 -243 272c0 231 133 450 354 450c139 0 243 -96 243 -272c0 -231 -133 -450 -354 -450zM306 61c123 0 210 87 239 232l20 100c5 25 7 49 7 69c0 106 -63 175 -171 175c-123 0 -210 -87 -239 -232l-20 -100c-5 -25 -7 -49 -7 -69
c0 -106 63 -175 171 -175z" />
    <glyph glyph-name="uni041F" unicode="&#x41f;" horiz-adv-x="670" 
d="M39 0l140 698h488l-141 -698h-81l126 626h-325l-126 -626h-81z" />
    <glyph glyph-name="uni0420" unicode="&#x420;" horiz-adv-x="588" 
d="M120 0h-81l140 698h249c123 0 173 -71 173 -167c0 -130 -90 -233 -234 -233h-187zM245 626l-50 -256h184c66 0 113 35 126 101c9 45 12 58 12 74c0 49 -25 81 -95 81h-177z" />
    <glyph glyph-name="uni0421" unicode="&#x421;" horiz-adv-x="602" 
d="M290 -12c-136 0 -235 98 -235 278c0 242 134 444 336 444c113 0 190 -51 224 -159l-73 -33c-25 78 -72 119 -159 119c-107 0 -193 -83 -218 -210l-23 -115c-5 -25 -6 -46 -6 -66c0 -110 59 -185 159 -185c97 0 147 49 192 130l68 -34c-61 -116 -141 -169 -265 -169z" />
    <glyph glyph-name="uni0422" unicode="&#x422;" horiz-adv-x="557" 
d="M605 626h-213l-125 -626h-81l125 626h-213l14 72h507z" />
    <glyph glyph-name="uni0423" unicode="&#x423;" horiz-adv-x="551" 
d="M73 0l14 72h97l49 86l-126 540h83l72 -307l24 -135h6l72 137l173 305h84l-358 -626c-34 -59 -57 -72 -116 -72h-74z" />
    <glyph glyph-name="uni0424" unicode="&#x424;" horiz-adv-x="779" 
d="M292 -29l18 90h-26c-148 0 -237 97 -237 226c0 182 127 348 351 348h26l18 90h81l-18 -90h26c148 0 237 -97 237 -226c0 -182 -127 -348 -351 -348h-26l-18 -90h-81zM302 129h23l88 438h-29c-125 0 -220 -81 -242 -189l-11 -54c-3 -16 -4 -32 -4 -46
c0 -86 60 -149 175 -149zM401 129h30c125 0 220 81 242 189l11 54c3 16 4 32 4 46c0 86 -60 149 -175 149h-24z" />
    <glyph glyph-name="uni0425" unicode="&#x425;" horiz-adv-x="596" 
d="M360 343l148 -343h-85l-120 286h-4l-230 -286h-94l288 358l-143 340h85l119 -287h4l231 287h94z" />
    <glyph glyph-name="uni0426" unicode="&#x426;" horiz-adv-x="704" 
d="M518 -150l30 150h-509l140 698h81l-125 -626h325l125 626h81l-125 -626h96l-45 -222h-74z" />
    <glyph glyph-name="uni0427" unicode="&#x427;" horiz-adv-x="622" 
d="M398 0l55 277h-4c-40 -16 -95 -26 -150 -26c-136 0 -201 64 -201 178c0 32 5 66 15 116l31 153h81l-36 -178c-7 -35 -12 -62 -12 -83c0 -79 45 -114 134 -114c65 0 119 9 157 25l70 350h81l-140 -698h-81z" />
    <glyph glyph-name="uni0428" unicode="&#x428;" horiz-adv-x="918" 
d="M39 0l140 698h81l-125 -626h246l125 626h81l-125 -626h246l125 626h81l-139 -698h-736z" />
    <glyph glyph-name="uni0429" unicode="&#x429;" horiz-adv-x="952" 
d="M766 -150l30 150h-757l140 698h81l-125 -626h246l125 626h81l-125 -626h246l125 626h81l-125 -626h96l-45 -222h-74z" />
    <glyph glyph-name="uni042A" unicode="&#x42a;" horiz-adv-x="712" 
d="M147 0l126 626h-175l15 72h255l-55 -280h182c123 0 173 -69 173 -176c0 -141 -90 -242 -234 -242h-287zM243 72h203c66 0 113 35 126 101c8 38 12 73 12 92c0 49 -25 81 -95 81h-191z" />
    <glyph glyph-name="uni042B" unicode="&#x42b;" horiz-adv-x="844" 
d="M39 0l140 698h81l-55 -280h172c123 0 173 -69 173 -176c0 -141 -90 -242 -234 -242h-277zM135 72h193c66 0 113 35 126 101c8 38 12 73 12 92c0 49 -25 81 -95 81h-181zM620 0l140 698h81l-140 -698h-81z" />
    <glyph glyph-name="uni042C" unicode="&#x42c;" horiz-adv-x="604" 
d="M39 0l140 698h81l-55 -280h182c123 0 173 -69 173 -176c0 -141 -90 -242 -234 -242h-287zM135 72h203c66 0 113 35 126 101c8 38 12 73 12 92c0 49 -25 81 -95 81h-191z" />
    <glyph glyph-name="uni042D" unicode="&#x42d;" horiz-adv-x="614" 
d="M204 318l14 72h281c4 23 5 43 5 62c0 110 -57 185 -163 185c-92 0 -141 -39 -193 -123l-66 34c60 106 136 162 264 162c142 0 239 -98 239 -278c0 -249 -138 -444 -340 -444c-117 0 -192 47 -231 170l73 33c28 -92 75 -130 166 -130c107 0 197 79 222 210l9 47h-280z" />
    <glyph glyph-name="uni042E" unicode="&#x42e;" horiz-adv-x="920" 
d="M555 -12c-139 0 -227 96 -227 272c0 24 1 47 2 58h-146l-64 -318h-81l140 698h81l-62 -308h144c40 183 163 320 324 320c139 0 227 -96 227 -272c0 -232 -134 -450 -338 -450zM563 61c106 0 194 85 223 232l20 100c5 25 7 49 7 69c0 114 -55 175 -155 175
c-106 0 -194 -85 -223 -232l-20 -100c-5 -25 -7 -49 -7 -69c0 -114 55 -175 155 -175z" />
    <glyph glyph-name="uni042F" unicode="&#x42f;" horiz-adv-x="623" 
d="M-2 0l14 72h56l116 176c24 36 50 56 82 60l1 5c-102 6 -147 62 -147 152c0 130 90 233 234 233h266l-140 -698h-81l60 300h-149l-156 -236c-33 -49 -62 -64 -114 -64h-42zM525 626h-183c-66 0 -114 -35 -127 -101c-6 -31 -11 -58 -11 -74c0 -49 25 -81 95 -81h175z" />
    <glyph glyph-name="uni0430" unicode="&#x430;" horiz-adv-x="583" 
d="M506 0h-69c-45 0 -67 25 -67 62c0 8 1 17 3 27l5 23h-3c-42 -86 -91 -124 -167 -124c-94 0 -157 75 -157 197c0 152 81 343 252 343c62 0 120 -31 135 -96h4l17 84h77l-90 -448h73zM229 58c45 0 78 21 108 51c33 33 55 72 65 124l21 105c13 64 -21 120 -113 120
c-84 0 -140 -57 -160 -157l-15 -75c-3 -17 -5 -34 -5 -51c0 -67 30 -117 99 -117z" />
    <glyph glyph-name="uni0431" unicode="&#x431;" horiz-adv-x="549" 
d="M237 -12c-108 0 -186 72 -186 212c0 111 56 349 156 449c46 46 100 70 190 81l154 18l-16 -79l-156 -18c-106 -12 -156 -60 -214 -240h5c36 69 82 105 164 105c89 0 166 -73 166 -196c0 -181 -105 -332 -263 -332zM247 57c74 0 139 56 160 161l12 63c3 15 5 30 5 45
c0 72 -42 121 -120 121c-74 0 -139 -58 -160 -163l-12 -61c-3 -15 -5 -30 -5 -45c0 -72 42 -121 120 -121z" />
    <glyph glyph-name="uni0432" unicode="&#x432;" horiz-adv-x="536" 
d="M36 0l105 516h224c79 0 129 -43 129 -110c0 -70 -50 -116 -121 -132l-1 -3c56 -10 91 -45 91 -95c0 -86 -69 -176 -175 -176h-252zM126 66h154c56 0 91 30 102 77c3 13 5 27 5 34c0 37 -26 59 -71 59h-156zM174 300h144c44 0 87 25 97 76c2 11 3 23 3 30
c0 26 -27 44 -66 44h-148z" />
    <glyph glyph-name="uni0433" unicode="&#x433;" horiz-adv-x="417" 
d="M36 0l103 516h309l-14 -68h-231l-90 -448h-77z" />
    <glyph glyph-name="uni0434" unicode="&#x434;" horiz-adv-x="557" 
d="M235 -12c-108 0 -186 72 -186 212c0 161 102 316 245 316c67 0 116 -42 130 -90h4v30c0 94 -15 145 -45 175c-34 34 -77 48 -125 48c-32 0 -53 -1 -74 -4l15 73c14 2 35 4 59 4c84 0 139 -24 179 -64c48 -48 69 -109 69 -255c0 -204 -59 -445 -271 -445zM245 57
c74 0 134 51 158 171l7 35c6 30 9 48 9 63c0 72 -38 121 -114 121c-70 0 -141 -54 -162 -159l-13 -65c-3 -15 -5 -30 -5 -45c0 -72 42 -121 120 -121z" />
    <glyph glyph-name="uni0435" unicode="&#x435;" horiz-adv-x="511" 
d="M244 -12c-123 0 -195 76 -195 216c0 171 108 324 270 324c88 0 166 -45 166 -138c0 -113 -116 -167 -356 -169c-2 -14 -3 -31 -3 -42c0 -73 43 -122 123 -122c65 0 118 33 158 82l50 -45c-64 -78 -139 -106 -213 -106zM311 462c-81 0 -147 -60 -166 -152l-6 -29
c221 8 267 39 267 110c0 55 -46 71 -95 71z" />
    <glyph glyph-name="uni0436" unicode="&#x436;" horiz-adv-x="753" 
d="M-10 0l14 68h86c20 26 45 79 62 169c11 58 17 103 17 135c0 34 -4 58 -11 76h-70l14 68h32c69 0 106 -35 106 -147c0 -16 -2 -45 -6 -71h113l44 218h75l-44 -218h111c36 164 85 218 175 218h47l-14 -68h-77c-20 -26 -46 -79 -63 -169c-11 -58 -17 -107 -17 -135
c0 -34 4 -58 11 -76h78l-14 -68h-40c-69 0 -106 35 -106 147c0 18 4 64 8 88h-112l-47 -235h-75l47 235h-111c-36 -180 -87 -235 -177 -235h-56z" />
    <glyph glyph-name="uni0437" unicode="&#x437;" horiz-adv-x="477" 
d="M187 -12c-98 0 -157 37 -187 99l57 42c26 -50 67 -73 130 -73c83 0 125 35 136 81c3 13 5 29 5 37c0 37 -31 61 -96 61h-95l13 65h96c51 0 99 29 107 72c3 15 4 25 4 31c0 36 -34 57 -91 57c-65 0 -105 -19 -151 -63l-44 48c45 52 108 83 195 83c110 0 166 -52 166 -125
c0 -70 -48 -117 -124 -129l-1 -4c63 -6 96 -42 96 -96c0 -106 -86 -186 -216 -186z" />
    <glyph glyph-name="uni0438" unicode="&#x438;" horiz-adv-x="562" 
d="M134 516h77l-64 -318c-4 -20 -5 -41 -5 -53c0 -57 22 -87 77 -87c36 0 66 13 93 41c37 38 60 90 68 129l58 288h77l-90 -448h73l-13 -68h-70c-44 0 -66 26 -66 63c0 7 1 15 4 29l2 10h-5c-36 -78 -84 -114 -155 -114c-88 0 -132 54 -132 143c0 19 2 42 7 67z" />
    <glyph glyph-name="uni0439" unicode="&#x439;" horiz-adv-x="562" 
d="M341 596c-61 0 -98 22 -118 78l-14 41l67 28l22 -82c14 -4 35 -6 50 -6c16 0 33 2 45 6l52 82l61 -34l-26 -35c-42 -56 -83 -78 -139 -78zM134 516h77l-64 -318c-4 -20 -5 -41 -5 -53c0 -57 22 -87 77 -87c36 0 66 13 93 41c37 38 60 90 68 129l58 288h77l-90 -448h73
l-13 -68h-70c-44 0 -66 26 -66 63c0 7 1 15 4 29l2 10h-5c-36 -78 -84 -114 -155 -114c-88 0 -132 54 -132 143c0 19 2 42 7 67z" />
    <glyph glyph-name="uni043A" unicode="&#x43a;" horiz-adv-x="532" 
d="M36 0l104 516h77l-44 -217h92l138 171c28 34 52 46 90 46h46l-14 -68h-57l-114 -141c-21 -26 -36 -35 -60 -39l-1 -4c24 -6 36 -18 51 -55l58 -141h55l-14 -68h-38c-46 0 -66 24 -86 72l-67 162h-92l-47 -234h-77z" />
    <glyph glyph-name="uni043B" unicode="&#x43b;" horiz-adv-x="537" 
d="M-46 0l14 68h63c40 52 79 138 114 310l28 138h328l-104 -516h-77l90 448h-178l-13 -65c-42 -210 -85 -301 -125 -341c-32 -32 -68 -42 -110 -42h-30z" />
    <glyph glyph-name="uni043C" unicode="&#x43c;" horiz-adv-x="679" 
d="M36 0l104 516h96l98 -271h3l210 271h96l-104 -516h-74l84 416h-5l-39 -55l-196 -253l-91 252l-19 56h-5l-84 -416h-74z" />
    <glyph glyph-name="uni043D" unicode="&#x43d;" horiz-adv-x="561" 
d="M36 0l104 516h77l-44 -216h231l44 216h77l-104 -516h-77l47 232h-231l-47 -232h-77z" />
    <glyph glyph-name="uni043E" unicode="&#x43e;" horiz-adv-x="550" 
d="M235 -12c-108 0 -186 72 -186 212c0 173 108 328 266 328c108 0 186 -72 186 -212c0 -173 -108 -328 -266 -328zM245 57c74 0 139 56 160 161l15 75c3 15 5 30 5 45c0 72 -42 121 -120 121c-74 0 -139 -56 -160 -161l-15 -75c-3 -15 -5 -30 -5 -45
c0 -72 42 -121 120 -121z" />
    <glyph glyph-name="uni043F" unicode="&#x43f;" horiz-adv-x="565" 
d="M113 0h-77l104 516h77l-21 -102h5c36 77 84 114 158 114c89 0 133 -54 133 -143c0 -19 -2 -42 -7 -67l-50 -250h73l-13 -68h-73c-38 0 -64 18 -64 58c0 6 0 11 2 21l48 239c4 20 5 41 5 53c0 58 -24 87 -79 87c-37 0 -67 -13 -95 -41c-34 -34 -60 -88 -68 -129z" />
    <glyph glyph-name="uni0440" unicode="&#x440;" horiz-adv-x="572" 
d="M-4 -200l144 716h77l-23 -112h3c42 86 91 124 167 124c94 0 157 -75 157 -197c0 -152 -81 -343 -252 -343c-62 0 -120 31 -135 96h-4l-57 -284h-77zM262 58c84 0 140 57 160 157l15 75c3 17 5 34 5 51c0 67 -30 117 -99 117c-45 0 -78 -21 -108 -51
c-33 -33 -55 -72 -65 -124l-21 -105c-13 -64 21 -120 113 -120z" />
    <glyph glyph-name="uni0441" unicode="&#x441;" horiz-adv-x="488" 
d="M236 -12c-117 0 -187 84 -187 211c0 179 97 329 253 329c91 0 151 -51 171 -121l-64 -29c-17 54 -52 81 -109 81c-82 0 -135 -56 -153 -147l-17 -84c-3 -15 -4 -33 -4 -45c0 -74 39 -126 118 -126c50 0 91 24 132 101l61 -30c-43 -89 -112 -140 -201 -140z" />
    <glyph glyph-name="uni0442" unicode="&#x442;" horiz-adv-x="447" 
d="M133 0l90 448h-168l14 68h413l-14 -68h-168l-90 -448h-77z" />
    <glyph glyph-name="uni0443" unicode="&#x443;" horiz-adv-x="484" 
d="M300 261l138 255h82l-349 -633c-33 -60 -59 -83 -111 -83h-80l13 66h93l64 118l-82 532h75l38 -255l21 -188h5z" />
    <glyph glyph-name="uni0444" unicode="&#x444;" horiz-adv-x="773" 
d="M256 -200l55 274h-3c-34 -58 -72 -86 -126 -86c-80 0 -130 62 -130 161c0 156 78 379 225 379c52 0 91 -28 105 -86h3l54 268h77l-54 -268h3c34 58 72 86 126 86c80 0 130 -62 130 -161c0 -156 -78 -379 -225 -379c-52 0 -91 28 -105 86h-3l-55 -274h-77zM205 58
c32 0 56 12 80 36c27 27 40 49 48 90l33 163c13 62 -20 111 -73 111c-68 0 -115 -57 -136 -157l-14 -68c-9 -44 -12 -70 -12 -100c0 -50 25 -75 74 -75zM480 58c68 0 115 57 136 157l14 68c9 44 12 70 12 100c0 50 -25 75 -74 75c-32 0 -56 -12 -80 -36
c-27 -27 -40 -49 -48 -90l-33 -163c-12 -62 20 -111 73 -111z" />
    <glyph glyph-name="uni0445" unicode="&#x445;" horiz-adv-x="494" 
d="M60 0h-88l234 267l-126 249h84l93 -198h5l168 198h88l-224 -256l136 -260h-84l-103 210h-5z" />
    <glyph glyph-name="uni0446" unicode="&#x446;" horiz-adv-x="568" 
d="M399 -140l28 140h-12c-46 0 -66 24 -66 61c0 9 1 17 4 31l2 10h-5c-36 -78 -84 -114 -155 -114c-88 0 -132 54 -132 143c0 19 2 42 7 67l64 318h77l-64 -318c-4 -20 -5 -41 -5 -53c0 -57 22 -87 77 -87c36 0 66 13 93 41c37 38 60 90 68 129l58 288h77l-90 -448h86
l-42 -208h-70z" />
    <glyph glyph-name="uni0447" unicode="&#x447;" horiz-adv-x="520" 
d="M303 0l56 277h-5c-36 -66 -84 -100 -158 -100c-83 0 -132 55 -132 115c0 20 2 42 7 67l32 157h77l-32 -157c-4 -20 -5 -36 -5 -49c0 -39 27 -63 77 -63c91 0 148 73 159 130l28 139h77l-104 -516h-77z" />
    <glyph glyph-name="uni0448" unicode="&#x448;" horiz-adv-x="828" 
d="M188 -12c-86 0 -125 52 -125 142c0 20 2 42 7 67l64 319h77l-64 -319c-4 -20 -6 -39 -6 -55c0 -55 19 -84 74 -84c32 0 55 13 82 41c33 33 56 87 64 129l58 288h77l-64 -318c-4 -20 -6 -41 -6 -58c0 -53 17 -82 66 -82c35 0 61 16 84 40c37 37 62 90 70 130l58 288h77
l-90 -448h73l-13 -68h-70c-44 0 -66 26 -66 63c0 7 1 15 4 29l2 10h-5c-36 -77 -77 -114 -152 -114c-72 0 -106 43 -114 114h-6c-35 -77 -80 -114 -156 -114z" />
    <glyph glyph-name="uni0449" unicode="&#x449;" horiz-adv-x="834" 
d="M665 -140l28 140h-12c-46 0 -66 24 -66 61c0 9 1 17 4 31l2 10h-5c-36 -77 -77 -114 -152 -114c-72 0 -106 43 -114 114h-6c-35 -77 -80 -114 -156 -114c-86 0 -125 52 -125 142c0 20 2 42 7 67l64 319h77l-64 -319c-4 -20 -6 -39 -6 -55c0 -55 19 -84 74 -84
c32 0 55 13 82 41c33 33 56 87 64 129l58 288h77l-64 -318c-4 -20 -6 -41 -6 -58c0 -53 17 -82 66 -82c35 0 61 16 84 40c37 37 62 90 70 130l58 288h77l-90 -448h86l-42 -208h-70z" />
    <glyph glyph-name="uni044A" unicode="&#x44a;" horiz-adv-x="560" 
d="M97 0l90 448h-132l14 68h209l-38 -187h125c101 0 145 -48 145 -130c0 -106 -71 -199 -195 -199h-218zM187 68h128c63 0 99 27 113 85c5 19 6 33 6 47c0 40 -23 61 -81 61h-127z" />
    <glyph glyph-name="uni044B" unicode="&#x44b;" horiz-adv-x="703" 
d="M36 0l104 516h77l-38 -187h117c101 0 145 -48 145 -130c0 -106 -71 -199 -195 -199h-210zM126 68h120c63 0 99 27 113 85c5 19 6 33 6 47c0 40 -23 61 -81 61h-119zM486 0l104 516h77l-104 -516h-77z" />
    <glyph glyph-name="uni044C" unicode="&#x44c;" horiz-adv-x="499" 
d="M36 0l104 516h77l-38 -187h125c101 0 145 -48 145 -130c0 -106 -71 -199 -195 -199h-218zM126 68h128c63 0 99 27 113 85c5 19 6 33 6 47c0 40 -23 61 -81 61h-127z" />
    <glyph glyph-name="uni044D" unicode="&#x44d;" horiz-adv-x="496" 
d="M143 228l14 65h210c2 14 3 29 3 40c0 74 -39 127 -127 127c-60 0 -101 -26 -142 -77l-47 44c45 59 109 101 200 101c123 0 193 -84 193 -211c0 -179 -98 -329 -259 -329c-93 0 -159 53 -180 129l63 29c18 -59 60 -90 119 -90c88 0 140 57 159 148l5 24h-211z" />
    <glyph glyph-name="uni044E" unicode="&#x44e;" horiz-adv-x="761" 
d="M450 -12c-108 0 -182 72 -182 212c0 11 0 22 1 33h-109l-47 -233h-77l104 516h77l-44 -217h106c32 129 124 229 251 229c108 0 182 -72 182 -212c0 -173 -104 -328 -262 -328zM460 57c74 0 135 56 156 161l15 75c3 15 5 30 5 45c0 71 -38 121 -116 121
c-74 0 -135 -56 -156 -161l-15 -75c-3 -15 -5 -30 -5 -45c0 -72 38 -121 116 -121z" />
    <glyph glyph-name="uni044F" unicode="&#x44f;" horiz-adv-x="523" 
d="M-3 0l14 68h55l64 94c19 27 39 41 67 43l1 4c-76 10 -121 55 -121 125c0 92 68 182 192 182h218l-104 -516h-77l41 200h-105l-95 -140c-28 -42 -60 -60 -102 -60h-48zM397 448h-128c-71 0 -104 -38 -112 -78c-2 -9 -4 -22 -4 -34c0 -50 23 -70 81 -70h126z" />
    <glyph glyph-name="uni0450" unicode="&#x450;" horiz-adv-x="511" 
d="M320 585l-84 159l68 32l61 -170zM244 -12c-123 0 -195 76 -195 216c0 171 108 324 270 324c88 0 166 -45 166 -138c0 -113 -116 -167 -356 -169c-2 -14 -3 -31 -3 -42c0 -73 43 -122 123 -122c65 0 118 33 158 82l50 -45c-64 -78 -139 -106 -213 -106zM311 462
c-81 0 -147 -60 -166 -152l-6 -29c221 8 267 39 267 110c0 55 -46 71 -95 71z" />
    <glyph glyph-name="uni0451" unicode="&#x451;" horiz-adv-x="511" 
d="M248 618c-26 0 -42 12 -42 35c0 5 1 10 3 21c6 30 23 47 56 47c26 0 42 -12 42 -35c0 -5 -1 -10 -3 -21c-6 -30 -23 -47 -56 -47zM430 618c-26 0 -42 12 -42 35c0 5 1 10 3 21c6 30 23 47 56 47c26 0 42 -12 42 -35c0 -5 -1 -10 -3 -21c-6 -30 -23 -47 -56 -47zM244 -12
c-123 0 -195 76 -195 216c0 171 108 324 270 324c88 0 166 -45 166 -138c0 -113 -116 -167 -356 -169c-2 -14 -3 -31 -3 -42c0 -73 43 -122 123 -122c65 0 118 33 158 82l50 -45c-64 -78 -139 -106 -213 -106zM311 462c-81 0 -147 -60 -166 -152l-6 -29
c221 8 267 39 267 110c0 55 -46 71 -95 71z" />
    <glyph glyph-name="uni0452" unicode="&#x452;" horiz-adv-x="561" 
d="M221 -200l14 68h83l90 450c4 20 5 41 5 53c0 58 -24 87 -79 87c-37 0 -67 -13 -95 -41c-34 -34 -60 -88 -68 -129l-58 -288h-77l123 610h-62l12 60h62l14 70h77l-14 -70h144l-12 -60h-144l-40 -196h5c36 77 84 114 158 114c89 0 133 -54 133 -143c0 -19 -2 -42 -7 -67
l-83 -416c-14 -70 -44 -102 -114 -102h-67z" />
    <glyph glyph-name="uni0453" unicode="&#x453;" horiz-adv-x="417" 
d="M423 744l-124 -159l-48 25l104 170zM36 0l103 516h309l-14 -68h-231l-90 -448h-77z" />
    <glyph glyph-name="uni0454" unicode="&#x454;" horiz-adv-x="496" 
d="M240 -12c-123 0 -191 84 -191 211c0 179 95 329 257 329c97 0 155 -51 175 -121l-64 -29c-17 54 -50 81 -113 81c-88 0 -138 -56 -157 -147l-4 -19h210l-13 -65h-210c-3 -15 -4 -33 -4 -45c0 -74 37 -126 122 -126c54 0 92 22 133 95l62 -29c-43 -84 -108 -135 -203 -135
z" />
    <glyph glyph-name="uni0455" unicode="&#x455;" horiz-adv-x="471" 
d="M209 -12c-79 0 -154 34 -195 94l53 47c36 -48 82 -74 142 -74c68 0 117 34 117 97c0 35 -16 60 -76 72l-39 8c-78 16 -138 48 -138 133c0 86 62 163 191 163c76 0 129 -27 168 -76l-53 -47c-23 32 -60 56 -121 56c-75 0 -110 -37 -110 -89c0 -36 17 -59 75 -71l39 -8
c83 -17 138 -50 138 -136c0 -104 -81 -169 -191 -169z" />
    <glyph glyph-name="uni0456" unicode="&#x456;" horiz-adv-x="264" 
d="M206 637c-31 0 -42 16 -42 35c0 4 0 9 4 28c5 25 21 40 54 40c31 0 42 -16 42 -35c0 -4 0 -9 -4 -28c-5 -25 -21 -40 -54 -40zM187 0h-66c-47 0 -70 26 -70 63c0 7 1 14 3 24l86 429h77l-90 -448h73z" />
    <glyph glyph-name="uni0457" unicode="&#x457;" horiz-adv-x="264" 
d="M111 618c-26 0 -42 12 -42 35c0 5 1 10 3 21c6 30 23 47 56 47c26 0 42 -12 42 -35c0 -5 -1 -10 -3 -21c-6 -30 -23 -47 -56 -47zM293 618c-26 0 -42 12 -42 35c0 5 1 10 3 21c6 30 23 47 56 47c26 0 42 -12 42 -35c0 -5 -1 -10 -3 -21c-6 -30 -23 -47 -56 -47zM187 0
h-67c-46 0 -69 26 -69 63c0 6 1 13 3 23l86 430h77l-90 -448h73z" />
    <glyph glyph-name="uni0458" unicode="&#x458;" horiz-adv-x="253" 
d="M10 -132l130 648h77l-123 -614c-14 -70 -44 -102 -114 -102h-67l14 68h83zM206 637c-31 0 -42 16 -42 35c0 4 0 9 4 28c5 25 21 40 54 40c31 0 42 -16 42 -35c0 -4 0 -9 -4 -28c-5 -25 -21 -40 -54 -40z" />
    <glyph glyph-name="uni0459" unicode="&#x459;" horiz-adv-x="755" 
d="M-46 0l14 68h63c40 52 79 138 114 310l28 138h308l-38 -187h117c101 0 145 -48 145 -130c0 -106 -71 -199 -195 -199h-210l90 448h-158l-13 -65c-42 -210 -85 -301 -125 -341c-32 -32 -68 -42 -110 -42h-30zM390 68h120c63 0 99 27 113 85c5 19 6 33 6 47
c0 40 -23 61 -81 61h-119z" />
    <glyph glyph-name="uni045A" unicode="&#x45a;" horiz-adv-x="779" 
d="M36 0l104 516h77l-44 -216h211l44 216h77l-38 -187h117c101 0 145 -48 145 -130c0 -106 -71 -199 -195 -199h-210l47 232h-211l-47 -232h-77zM414 68h120c63 0 99 27 113 85c5 19 6 33 6 47c0 40 -23 61 -81 61h-119z" />
    <glyph glyph-name="uni045B" unicode="&#x45b;" horiz-adv-x="565" 
d="M36 0l123 610h-62l12 60h62l14 70h77l-14 -70h144l-12 -60h-144l-40 -196h5c36 77 84 114 158 114c89 0 133 -54 133 -143c0 -19 -2 -42 -7 -67l-50 -250h73l-13 -68h-73c-38 0 -64 18 -64 58c0 6 0 11 2 21l48 239c4 20 5 41 5 53c0 58 -24 87 -79 87
c-37 0 -67 -13 -95 -41c-34 -34 -60 -88 -68 -129l-58 -288h-77z" />
    <glyph glyph-name="uni045C" unicode="&#x45c;" horiz-adv-x="532" 
d="M466 744l-124 -159l-48 25l104 170zM36 0l104 516h77l-44 -217h92l138 171c28 34 52 46 90 46h46l-14 -68h-57l-114 -141c-21 -26 -36 -35 -60 -39l-1 -4c24 -6 36 -18 51 -55l58 -141h55l-14 -68h-38c-46 0 -66 24 -86 72l-67 162h-92l-47 -234h-77z" />
    <glyph glyph-name="uni045D" unicode="&#x45d;" horiz-adv-x="562" 
d="M326 585l-84 159l68 32l61 -170zM134 516h77l-64 -318c-4 -20 -5 -41 -5 -53c0 -57 22 -87 77 -87c36 0 66 13 93 41c37 38 60 90 68 129l58 288h77l-90 -448h73l-13 -68h-70c-44 0 -66 26 -66 63c0 7 1 15 4 29l2 10h-5c-36 -78 -84 -114 -155 -114
c-88 0 -132 54 -132 143c0 19 2 42 7 67z" />
    <glyph glyph-name="uni045E" unicode="&#x45e;" horiz-adv-x="484" 
d="M308 596c-61 0 -98 22 -118 78l-14 41l67 28l22 -82c14 -4 35 -6 50 -6c16 0 33 2 45 6l52 82l61 -34l-26 -35c-42 -56 -83 -78 -139 -78zM300 261l138 255h82l-349 -633c-33 -60 -59 -83 -111 -83h-80l13 66h93l64 118l-82 532h75l38 -255l21 -188h5z" />
    <glyph glyph-name="uni045F" unicode="&#x45f;" horiz-adv-x="562" 
d="M195 -12c-88 0 -132 54 -132 143c0 19 2 42 7 67l64 318h77l-64 -318c-4 -20 -5 -41 -5 -53c0 -57 22 -87 77 -87c36 0 66 13 93 41c37 38 60 90 68 129l58 288h77l-90 -448h73l-13 -68h-70c-44 0 -66 26 -66 63c0 7 1 15 4 29l2 10h-5c-36 -78 -84 -114 -155 -114z
M144 -200l30 150h70l-30 -150h-70z" />
    <glyph glyph-name="uni0472" unicode="&#x472;" horiz-adv-x="679" 
d="M298 -12c-139 0 -243 96 -243 272c0 231 133 450 354 450c139 0 243 -96 243 -272c0 -231 -133 -450 -354 -450zM306 61c123 0 210 87 239 232l5 25h-405l-3 -14c-5 -25 -7 -48 -7 -68c0 -106 63 -175 171 -175zM162 405l-3 -15h405c6 28 8 52 8 72
c0 106 -63 175 -171 175c-123 0 -210 -87 -239 -232z" />
    <glyph glyph-name="uni0473" unicode="&#x473;" horiz-adv-x="550" 
d="M235 -12c-108 0 -186 72 -186 212c0 173 108 328 266 328c108 0 186 -72 186 -212c0 -173 -108 -328 -266 -328zM245 57c74 0 138 56 160 161l3 14h-276l-2 -9c-3 -15 -5 -30 -5 -45c0 -72 42 -121 120 -121zM145 297l-1 -5h276c3 16 5 31 5 46c0 72 -42 121 -120 121
c-74 0 -139 -57 -160 -162z" />
    <glyph glyph-name="uni0490" unicode="&#x490;" horiz-adv-x="486" 
d="M39 0l140 698h290l30 150h74l-44 -222h-283l-126 -626h-81z" />
    <glyph glyph-name="uni0491" unicode="&#x491;" horiz-adv-x="417" 
d="M36 0l103 516h239l28 140h70l-42 -208h-231l-90 -448h-77z" />
    <glyph glyph-name="uni0492" unicode="&#x492;" horiz-adv-x="509" 
d="M63 0l67 335h-96l13 66h96l60 297h364l-14 -72h-283l-45 -225h188l-13 -66h-189l-67 -335h-81z" />
    <glyph glyph-name="uni0493" unicode="&#x493;" horiz-adv-x="431" 
d="M50 0l46 231h-70l12 60h70l45 225h309l-14 -68h-231l-32 -157h158l-12 -60h-158l-46 -231h-77z" />
    <glyph glyph-name="uni0494" unicode="&#x494;" horiz-adv-x="612" 
d="M241 -164l14 72h85c44 30 81 86 99 172l11 54c7 34 11 61 11 82c0 79 -44 114 -127 114c-60 0 -114 -8 -152 -24l-62 -306h-81l140 698h364l-14 -72h-283l-50 -250h4c40 16 96 26 146 26c131 0 196 -64 196 -178c0 -22 -3 -50 -11 -90l-11 -54
c-34 -168 -123 -244 -235 -244h-44z" />
    <glyph glyph-name="uni0495" unicode="&#x495;" horiz-adv-x="522" 
d="M185 -200l14 68h84c24 24 45 71 59 141l22 108c4 20 5 36 5 49c0 39 -27 63 -77 63c-85 0 -146 -64 -157 -120l-22 -109h-77l103 516h309l-14 -68h-231l-48 -239h5c40 58 84 90 156 90c83 0 132 -55 132 -115c0 -20 -2 -42 -7 -67l-24 -118c-30 -146 -91 -199 -181 -199
h-51z" />
    <glyph glyph-name="uni0496" unicode="&#x496;" horiz-adv-x="936" 
d="M769 -150l30 150h-8c-42 0 -63 17 -79 68l-79 251h-117l-63 -319h-81l64 319h-116l-175 -255c-33 -49 -62 -64 -114 -64h-42l14 72h56l149 217c28 40 52 58 84 62l1 5c-20 7 -33 22 -47 69l-53 201h-57l14 72h42c42 0 66 -18 79 -69l63 -240h116l62 309h81l-62 -309h116
l157 247c30 47 57 62 111 62h39l-14 -72h-56l-133 -209c-26 -40 -47 -54 -74 -60l-1 -5c20 -7 34 -20 49 -67l67 -213h96l-45 -222h-74z" />
    <glyph glyph-name="uni0497" unicode="&#x497;" horiz-adv-x="759" 
d="M590 -140l27 140c-68 0 -104 36 -104 147c0 18 4 64 8 88h-112l-47 -235h-75l47 235h-111c-36 -180 -87 -235 -177 -235h-56l14 68h86c20 26 45 79 62 169c11 58 17 103 17 135c0 34 -4 58 -11 76h-70l14 68h32c69 0 106 -35 106 -147c0 -16 -2 -45 -6 -71h113l44 218h75
l-44 -218h111c36 164 85 218 175 218h47l-14 -68h-77c-20 -26 -46 -79 -63 -169c-11 -58 -17 -107 -17 -135c0 -34 4 -58 11 -76h107l-42 -208h-70z" />
    <glyph glyph-name="uni0498" unicode="&#x498;" horiz-adv-x="571" 
d="M161 -150l28 142c-78 13 -141 52 -178 119l63 47c40 -68 103 -97 173 -97c80 0 144 37 162 123c3 16 5 30 5 46c0 60 -42 92 -124 92h-97l15 72h82c99 0 150 43 164 111c3 13 4 28 4 42c0 56 -39 90 -117 90c-74 0 -134 -32 -174 -83l-54 50c54 64 133 106 235 106
c130 0 199 -59 199 -158c0 -95 -55 -162 -153 -190l-1 -5c70 -18 106 -61 106 -129c0 -139 -97 -231 -236 -240l-28 -138h-74z" />
    <glyph glyph-name="uni0499" unicode="&#x499;" horiz-adv-x="477" 
d="M113 -140l26 131c-69 11 -115 45 -139 96l57 42c26 -50 67 -73 130 -73c83 0 125 35 136 81c3 13 5 29 5 37c0 37 -31 61 -96 61h-95l13 65h96c51 0 99 29 107 72c3 15 4 25 4 31c0 36 -34 57 -91 57c-65 0 -105 -19 -151 -63l-44 48c45 52 108 83 195 83
c110 0 166 -52 166 -125c0 -70 -48 -117 -124 -129l-1 -4c63 -6 96 -42 96 -96c0 -100 -77 -177 -194 -185l-26 -129h-70z" />
    <glyph glyph-name="uni049A" unicode="&#x49a;" horiz-adv-x="643" 
d="M480 -150l30 150h-11c-36 0 -57 17 -78 64l-116 255h-122l-63 -319h-81l140 698h81l-62 -309h121l188 247c39 51 62 62 100 62h50l-14 -72h-57l-170 -224c-23 -31 -40 -40 -65 -45l-1 -5c22 -8 36 -22 50 -53l103 -227h96l-45 -222h-74z" />
    <glyph glyph-name="uni049B" unicode="&#x49b;" horiz-adv-x="538" 
d="M373 -140l28 140c-43 1 -63 25 -82 72l-67 162h-92l-47 -234h-77l104 516h77l-44 -217h92l138 171c28 34 52 46 90 46h46l-14 -68h-57l-114 -141c-21 -26 -36 -35 -60 -39l-1 -4c24 -6 36 -18 51 -55l58 -141h83l-42 -208h-70z" />
    <glyph glyph-name="uni049C" unicode="&#x49c;" horiz-adv-x="665" 
d="M39 0l140 698h81l-62 -309h56l31 155h61l-31 -155h44l178 247c36 49 62 62 100 62h50l-14 -72h-57l-162 -225c-23 -31 -38 -39 -63 -44l-1 -5c22 -8 35 -22 48 -54l95 -226h56l-14 -72h-46c-36 0 -57 17 -77 64l-107 255h-44l-31 -155h-61l31 155h-57l-63 -319h-81z" />
    <glyph glyph-name="uni049D" unicode="&#x49d;" horiz-adv-x="562" 
d="M36 0l104 516h77l-44 -217h42l24 119h56l-24 -119h34l126 167c29 38 54 50 92 50h46l-14 -68h-57l-101 -134c-24 -32 -41 -42 -63 -46l-1 -4c20 -4 33 -14 48 -56l51 -140h55l-14 -68h-38c-46 0 -66 23 -84 72l-59 162h-34l-24 -119h-56l24 119h-42l-47 -234h-77z" />
    <glyph glyph-name="uni04A0" unicode="&#x4a0;" horiz-adv-x="743" 
d="M147 0l125 626h-174l15 72h255l-62 -309h121l188 247c39 51 62 62 100 62h50l-14 -72h-57l-170 -224c-23 -31 -40 -40 -65 -45l-1 -5c22 -8 36 -22 50 -53l103 -227h56l-14 -72h-46c-36 0 -57 17 -78 64l-116 255h-122l-63 -319h-81z" />
    <glyph glyph-name="uni04A1" unicode="&#x4a1;" horiz-adv-x="593" 
d="M97 0l90 448h-132l14 68h209l-44 -217h92l138 171c28 34 52 46 90 46h46l-14 -68h-57l-114 -141c-21 -26 -36 -35 -60 -39l-1 -4c24 -6 36 -18 51 -55l58 -141h55l-14 -68h-38c-46 0 -66 24 -86 72l-67 162h-92l-47 -234h-77z" />
    <glyph glyph-name="uni04A2" unicode="&#x4a2;" horiz-adv-x="719" 
d="M532 -150l30 150h-102l63 318h-339l-64 -318h-81l140 698h81l-61 -308h339l62 308h81l-126 -626h96l-45 -222h-74z" />
    <glyph glyph-name="uni04A3" unicode="&#x4a3;" horiz-adv-x="578" 
d="M409 -140l28 140h-93l47 232h-231l-47 -232h-77l104 516h77l-44 -216h231l44 216h77l-90 -448h86l-42 -208h-70z" />
    <glyph glyph-name="uni04A4" unicode="&#x4a4;" horiz-adv-x="885" 
d="M39 0l140 698h81l-61 -308h318l62 308h364l-14 -72h-283l-126 -626h-81l64 318h-319l-64 -318h-81z" />
    <glyph glyph-name="uni04A5" unicode="&#x4a5;" horiz-adv-x="706" 
d="M36 0l104 516h77l-44 -216h212l43 216h309l-14 -68h-231l-90 -448h-77l46 232h-211l-47 -232h-77z" />
    <glyph glyph-name="uni04AA" unicode="&#x4aa;" horiz-adv-x="602" 
d="M212 -150l29 143c-110 21 -186 115 -186 273c0 242 134 444 336 444c113 0 190 -51 224 -159l-73 -33c-25 78 -72 119 -159 119c-107 0 -193 -83 -218 -210l-23 -115c-5 -25 -6 -46 -6 -66c0 -110 59 -185 159 -185c97 0 147 49 192 130l68 -34
c-58 -109 -129 -162 -241 -168l-28 -139h-74z" />
    <glyph glyph-name="uni04AB" unicode="&#x4ab;" horiz-adv-x="488" 
d="M168 -140l26 132c-92 18 -145 96 -145 207c0 179 97 329 253 329c91 0 151 -51 171 -121l-64 -29c-17 54 -52 81 -109 81c-82 0 -135 -56 -153 -147l-17 -84c-3 -15 -4 -33 -4 -45c0 -74 39 -126 118 -126c50 0 91 24 132 101l61 -30c-38 -79 -99 -129 -173 -139
l-26 -129h-70z" />
    <glyph glyph-name="uni04AE" unicode="&#x4ae;" horiz-adv-x="577" 
d="M277 0h-81l55 273l-146 425h82l116 -341h5l250 341h93l-319 -425z" />
    <glyph glyph-name="uni04AF" unicode="&#x4af;" horiz-adv-x="484" 
d="M112 -200l40 200l-85 516h75l41 -259l20 -168h5l85 168l144 259h82l-290 -516l-40 -200h-77z" />
    <glyph glyph-name="uni04B0" unicode="&#x4b0;" horiz-adv-x="577" 
d="M196 0l41 207h-158l13 66h159l-146 425h82l116 -341h5l250 341h93l-319 -425h159l-13 -66h-160l-41 -207h-81z" />
    <glyph glyph-name="uni04B1" unicode="&#x4b1;" horiz-adv-x="484" 
d="M21 -60l12 60h119l-85 516h75l41 -259l20 -168h5l85 168l144 259h82l-290 -516h119l-12 -60h-119l-28 -140h-77l28 140h-119z" />
    <glyph glyph-name="uni04B2" unicode="&#x4b2;" horiz-adv-x="627" 
d="M454 -150l30 150h-61l-120 286h-4l-230 -286h-94l288 358l-143 340h85l119 -287h4l231 287h94l-293 -355l117 -271h96l-45 -222h-74z" />
    <glyph glyph-name="uni04B3" unicode="&#x4b3;" horiz-adv-x="518" 
d="M369 -140l28 140h-51l-103 210h-5l-178 -210h-88l234 267l-126 249h84l93 -198h5l168 198h88l-224 -256l101 -192h86l-42 -208h-70z" />
    <glyph glyph-name="uni04B6" unicode="&#x4b6;" horiz-adv-x="657" 
d="M470 -150l30 150h-102l55 277h-4c-40 -16 -95 -26 -150 -26c-136 0 -201 64 -201 178c0 32 5 66 15 116l31 153h81l-36 -178c-7 -35 -12 -62 -12 -83c0 -79 45 -114 134 -114c65 0 119 9 157 25l70 350h81l-126 -626h96l-45 -222h-74z" />
    <glyph glyph-name="uni04B7" unicode="&#x4b7;" horiz-adv-x="537" 
d="M368 -140l28 140h-93l56 277h-5c-36 -66 -84 -100 -158 -100c-83 0 -132 55 -132 115c0 20 2 42 7 67l32 157h77l-32 -157c-4 -20 -5 -36 -5 -49c0 -39 27 -63 77 -63c91 0 148 73 159 130l28 139h77l-90 -448h86l-42 -208h-70z" />
    <glyph glyph-name="uni04B8" unicode="&#x4b8;" horiz-adv-x="622" 
d="M398 0l55 277h-4c-33 -13 -79 -23 -123 -25l-28 -140h-61l28 140c-113 11 -167 72 -167 177c0 32 5 66 15 116l31 153h81l-36 -178c-7 -35 -12 -62 -12 -83c0 -70 35 -104 102 -112l34 168h61l-34 -170c51 3 96 11 128 25l70 350h81l-140 -698h-81z" />
    <glyph glyph-name="uni04B9" unicode="&#x4b9;" horiz-adv-x="520" 
d="M303 0l55 273h-5c-24 -48 -59 -79 -105 -93l-18 -91h-58l18 88c-80 3 -126 56 -126 115c0 20 2 42 7 67l32 157h77l-32 -157c-4 -20 -5 -36 -5 -49c0 -35 22 -58 61 -62l29 144h58l-29 -144c70 19 107 77 116 125l29 143h77l-104 -516h-77z" />
    <glyph glyph-name="uni04BA" unicode="&#x4ba;" horiz-adv-x="622" 
d="M39 0l140 698h81l-55 -277h4c40 16 95 26 150 26c136 0 201 -64 201 -178c0 -32 -5 -66 -15 -116l-31 -153h-81l36 178c7 35 12 62 12 83c0 79 -45 114 -134 114c-65 0 -119 -9 -157 -25l-70 -350h-81z" />
    <glyph glyph-name="uni04BB" unicode="&#x4bb;" horiz-adv-x="565" 
d="M36 0l149 740h77l-66 -326h5c36 77 84 114 158 114c89 0 133 -54 133 -143c0 -19 -2 -42 -7 -67l-50 -250h73l-13 -68h-73c-38 0 -64 18 -64 58c0 6 0 11 2 21l48 239c4 20 5 41 5 53c0 58 -24 87 -79 87c-37 0 -67 -13 -95 -41c-34 -34 -60 -88 -68 -129l-58 -288h-77z
" />
    <glyph glyph-name="uni04C0" unicode="&#x4c0;" horiz-adv-x="387" 
d="M276 0h-267l14 69h93l111 560h-93l14 69h267l-14 -69h-93l-111 -560h93z" />
    <glyph glyph-name="uni04C1" unicode="&#x4c1;" horiz-adv-x="928" 
d="M569 766c-61 0 -98 22 -118 78l-14 41l67 28l22 -82c14 -4 35 -6 50 -6c16 0 33 2 45 6l52 82l61 -34l-26 -35c-42 -56 -83 -78 -139 -78zM-11 0l14 72h56l149 217c28 40 52 58 84 62l1 5c-20 7 -33 22 -47 69l-53 201h-57l14 72h42c42 0 66 -18 79 -69l63 -240h116
l62 309h81l-62 -309h116l157 247c30 47 57 62 111 62h39l-14 -72h-56l-133 -209c-26 -40 -47 -54 -74 -60l-1 -5c20 -7 34 -20 49 -67l67 -213h58l-14 -72h-45c-42 0 -63 17 -79 68l-79 251h-117l-63 -319h-81l64 319h-116l-175 -255c-33 -49 -62 -64 -114 -64h-42z" />
    <glyph glyph-name="uni04C2" unicode="&#x4c2;" horiz-adv-x="753" 
d="M447 596c-61 0 -98 22 -118 78l-14 41l67 28l22 -82c14 -4 35 -6 50 -6c16 0 33 2 45 6l52 82l61 -34l-26 -35c-42 -56 -83 -78 -139 -78zM-10 0l14 68h86c20 26 45 79 62 169c11 58 17 103 17 135c0 34 -4 58 -11 76h-70l14 68h32c69 0 106 -35 106 -147
c0 -16 -2 -45 -6 -71h113l44 218h75l-44 -218h111c36 164 85 218 175 218h47l-14 -68h-77c-20 -26 -46 -79 -63 -169c-11 -58 -17 -107 -17 -135c0 -34 4 -58 11 -76h78l-14 -68h-40c-69 0 -106 35 -106 147c0 18 4 64 8 88h-112l-47 -235h-75l47 235h-111
c-36 -180 -87 -235 -177 -235h-56z" />
    <glyph glyph-name="uni04CF" unicode="&#x4cf;" horiz-adv-x="253" 
d="M36 0l149 740h77l-149 -740h-77z" />
    <glyph glyph-name="uni04D0" unicode="&#x4d0;" horiz-adv-x="623" 
d="M411 766c-61 0 -98 22 -118 78l-14 41l67 28l22 -82c14 -4 35 -6 50 -6c16 0 33 2 45 6l52 82l61 -34l-26 -35c-42 -56 -83 -78 -139 -78zM547 0h-83l-26 206h-271l-108 -206h-86l373 698h107zM430 278l-43 343h-5l-178 -343h226z" />
    <glyph glyph-name="uni04D1" unicode="&#x4d1;" horiz-adv-x="583" 
d="M345 596c-61 0 -98 22 -118 78l-14 41l67 28l22 -82c14 -4 35 -6 50 -6c16 0 33 2 45 6l52 82l61 -34l-26 -35c-42 -56 -83 -78 -139 -78zM506 0h-69c-45 0 -67 25 -67 62c0 8 1 17 3 27l5 23h-3c-42 -86 -91 -124 -167 -124c-94 0 -157 75 -157 197
c0 152 81 343 252 343c62 0 120 -31 135 -96h4l17 84h77l-90 -448h73zM229 58c45 0 78 21 108 51c33 33 55 72 65 124l21 105c13 64 -21 120 -113 120c-84 0 -140 -57 -160 -157l-15 -75c-3 -17 -5 -34 -5 -51c0 -67 30 -117 99 -117z" />
    <glyph glyph-name="uni04D2" unicode="&#x4d2;" horiz-adv-x="623" 
d="M322 787c-26 0 -42 12 -42 35c0 5 1 11 3 23c6 30 23 47 56 47c26 0 42 -12 42 -35c0 -5 -1 -11 -3 -23c-6 -30 -23 -47 -56 -47zM504 787c-26 0 -42 12 -42 35c0 5 1 11 3 23c6 30 23 47 56 47c26 0 42 -12 42 -35c0 -5 -1 -11 -3 -23c-6 -30 -23 -47 -56 -47zM547 0
h-83l-26 206h-271l-108 -206h-86l373 698h107zM430 278l-43 343h-5l-178 -343h226z" />
    <glyph glyph-name="uni04D3" unicode="&#x4d3;" horiz-adv-x="583" 
d="M258 618c-26 0 -42 12 -42 35c0 5 1 10 3 21c6 30 23 47 56 47c26 0 42 -12 42 -35c0 -5 -1 -10 -3 -21c-6 -30 -23 -47 -56 -47zM440 618c-26 0 -42 12 -42 35c0 5 1 10 3 21c6 30 23 47 56 47c26 0 42 -12 42 -35c0 -5 -1 -10 -3 -21c-6 -30 -23 -47 -56 -47zM506 0
h-69c-45 0 -67 25 -67 62c0 8 1 17 3 27l5 23h-3c-42 -86 -91 -124 -167 -124c-94 0 -157 75 -157 197c0 152 81 343 252 343c62 0 120 -31 135 -96h4l17 84h77l-90 -448h73zM229 58c45 0 78 21 108 51c33 33 55 72 65 124l21 105c13 64 -21 120 -113 120
c-84 0 -140 -57 -160 -157l-15 -75c-3 -17 -5 -34 -5 -51c0 -67 30 -117 99 -117z" />
    <glyph glyph-name="uni04D4" unicode="&#x4d4;" horiz-adv-x="886" 
d="M360 0l41 205h-212l-139 -205h-92l482 698h471l-15 -72h-329l-47 -236h296l-14 -72h-297l-49 -246h346l-14 -72h-428zM487 631h-10l-238 -355h177z" />
    <glyph glyph-name="uni04D5" unicode="&#x4d5;" horiz-adv-x="806" 
d="M185 56c71 0 137 40 148 94l16 79l-99 -4c-77 -3 -134 -15 -144 -67c-5 -25 -6 -32 -6 -39c0 -40 31 -63 85 -63zM611 462c-89 0 -152 -60 -171 -152l-5 -24c218 7 266 37 266 98c0 64 -46 78 -90 78zM168 -12c-92 0 -146 48 -146 134c0 99 72 154 232 160l107 4l11 59
c2 10 3 18 3 27c0 55 -37 86 -105 86c-61 0 -99 -25 -135 -73l-48 46c36 55 107 97 194 97c82 0 128 -38 146 -95h7c44 60 106 95 181 95c83 0 165 -43 165 -138c0 -116 -121 -160 -354 -162c-2 -14 -5 -36 -5 -54c0 -66 43 -117 123 -117c65 0 118 33 158 82l50 -45
c-64 -78 -139 -106 -214 -106c-89 0 -148 39 -175 106h-7c-38 -70 -109 -106 -188 -106z" />
    <glyph glyph-name="uni04D6" unicode="&#x4d6;" horiz-adv-x="565" 
d="M392 766c-61 0 -98 22 -118 78l-14 41l67 28l22 -82c14 -4 35 -6 50 -6c16 0 33 2 45 6l52 82l61 -34l-26 -35c-42 -56 -83 -78 -139 -78zM467 0h-428l140 698h411l-15 -72h-329l-47 -236h296l-14 -72h-297l-49 -246h346z" />
    <glyph glyph-name="uni04D7" unicode="&#x4d7;" horiz-adv-x="511" 
d="M335 596c-61 0 -98 22 -118 78l-14 41l67 28l22 -82c14 -4 35 -6 50 -6c16 0 33 2 45 6l52 82l61 -34l-26 -35c-42 -56 -83 -78 -139 -78zM244 -12c-123 0 -195 76 -195 216c0 171 108 324 270 324c88 0 166 -45 166 -138c0 -113 -116 -167 -356 -169
c-2 -14 -3 -31 -3 -42c0 -73 43 -122 123 -122c65 0 118 33 158 82l50 -45c-64 -78 -139 -106 -213 -106zM311 462c-81 0 -147 -60 -166 -152l-6 -29c221 8 267 39 267 110c0 55 -46 71 -95 71z" />
    <glyph glyph-name="uni04D8" unicode="&#x4d8;" horiz-adv-x="679" 
d="M295 -12c-141 0 -240 104 -240 267c0 29 4 60 10 94l4 22h491c9 39 10 68 10 88c0 106 -61 178 -172 178c-76 0 -157 -30 -217 -139l-61 34c53 109 159 178 285 178c159 0 247 -112 247 -272c0 -225 -125 -450 -357 -450zM301 61c129 0 213 88 244 242h-402
c-4 -19 -7 -48 -7 -68c0 -105 59 -174 165 -174z" />
    <glyph glyph-name="uni04D9" unicode="&#x4d9;" horiz-adv-x="511" 
d="M192 -12c-88 0 -166 45 -166 138c0 113 116 167 356 169c2 14 3 31 3 42c0 73 -43 122 -123 122c-65 0 -118 -33 -158 -82l-50 45c64 78 139 106 213 106c123 0 195 -76 195 -216c0 -171 -108 -324 -270 -324zM200 54c81 0 147 60 166 152l6 29
c-221 -8 -267 -39 -267 -110c0 -55 46 -71 95 -71z" />
    <glyph glyph-name="uni04DC" unicode="&#x4dc;" horiz-adv-x="928" 
d="M480 787c-26 0 -42 12 -42 35c0 5 1 11 3 23c6 30 23 47 56 47c26 0 42 -12 42 -35c0 -5 -1 -11 -3 -23c-6 -30 -23 -47 -56 -47zM662 787c-26 0 -42 12 -42 35c0 5 1 11 3 23c6 30 23 47 56 47c26 0 42 -12 42 -35c0 -5 -1 -11 -3 -23c-6 -30 -23 -47 -56 -47zM-11 0
l14 72h56l149 217c28 40 52 58 84 62l1 5c-20 7 -33 22 -47 69l-53 201h-57l14 72h42c42 0 66 -18 79 -69l63 -240h116l62 309h81l-62 -309h116l157 247c30 47 57 62 111 62h39l-14 -72h-56l-133 -209c-26 -40 -47 -54 -74 -60l-1 -5c20 -7 34 -20 49 -67l67 -213h58
l-14 -72h-45c-42 0 -63 17 -79 68l-79 251h-117l-63 -319h-81l64 319h-116l-175 -255c-33 -49 -62 -64 -114 -64h-42z" />
    <glyph glyph-name="uni04DD" unicode="&#x4dd;" horiz-adv-x="753" 
d="M360 618c-26 0 -42 12 -42 35c0 5 1 10 3 21c6 30 23 47 56 47c26 0 42 -12 42 -35c0 -5 -1 -10 -3 -21c-6 -30 -23 -47 -56 -47zM542 618c-26 0 -42 12 -42 35c0 5 1 10 3 21c6 30 23 47 56 47c26 0 42 -12 42 -35c0 -5 -1 -10 -3 -21c-6 -30 -23 -47 -56 -47zM-10 0
l14 68h86c20 26 45 79 62 169c11 58 17 103 17 135c0 34 -4 58 -11 76h-70l14 68h32c69 0 106 -35 106 -147c0 -16 -2 -45 -6 -71h113l44 218h75l-44 -218h111c36 164 85 218 175 218h47l-14 -68h-77c-20 -26 -46 -79 -63 -169c-11 -58 -17 -107 -17 -135
c0 -34 4 -58 11 -76h78l-14 -68h-40c-69 0 -106 35 -106 147c0 18 4 64 8 88h-112l-47 -235h-75l47 235h-111c-36 -180 -87 -235 -177 -235h-56z" />
    <glyph glyph-name="uni04DE" unicode="&#x4de;" horiz-adv-x="571" 
d="M279 787c-26 0 -42 12 -42 35c0 5 1 11 3 23c6 30 23 47 56 47c26 0 42 -12 42 -35c0 -5 -1 -11 -3 -23c-6 -30 -23 -47 -56 -47zM461 787c-26 0 -42 12 -42 35c0 5 1 11 3 23c6 30 23 47 56 47c26 0 42 -12 42 -35c0 -5 -1 -11 -3 -23c-6 -30 -23 -47 -56 -47zM245 -12
c-104 0 -188 41 -234 123l63 47c40 -68 103 -97 173 -97c80 0 144 37 162 123c3 16 5 30 5 46c0 60 -42 92 -124 92h-97l15 72h82c99 0 150 43 164 111c3 13 4 28 4 42c0 56 -39 90 -117 90c-74 0 -134 -32 -174 -83l-54 50c54 64 133 106 235 106c130 0 199 -59 199 -158
c0 -95 -55 -162 -153 -190l-1 -5c70 -18 106 -61 106 -129c0 -144 -106 -240 -254 -240z" />
    <glyph glyph-name="uni04DF" unicode="&#x4df;" horiz-adv-x="477" 
d="M194 618c-26 0 -42 12 -42 35c0 5 1 10 3 21c6 30 23 47 56 47c26 0 42 -12 42 -35c0 -5 -1 -10 -3 -21c-6 -30 -23 -47 -56 -47zM376 618c-26 0 -42 12 -42 35c0 5 1 10 3 21c6 30 23 47 56 47c26 0 42 -12 42 -35c0 -5 -1 -10 -3 -21c-6 -30 -23 -47 -56 -47zM187 -12
c-98 0 -157 37 -187 99l57 42c26 -50 67 -73 130 -73c83 0 125 35 136 81c3 13 5 29 5 37c0 37 -31 61 -96 61h-95l13 65h96c51 0 99 29 107 72c3 15 4 25 4 31c0 36 -34 57 -91 57c-65 0 -105 -19 -151 -63l-44 48c45 52 108 83 195 83c110 0 166 -52 166 -125
c0 -70 -48 -117 -124 -129l-1 -4c63 -6 96 -42 96 -96c0 -106 -86 -186 -216 -186z" />
    <glyph glyph-name="uni04E2" unicode="&#x4e2;" horiz-adv-x="684" 
d="M311 809l14 66h272l-14 -66h-272zM39 0l140 698h79l-89 -440l-38 -141h3l91 126l384 455h72l-140 -698h-79l89 440l38 141h-3l-91 -126l-384 -455h-72z" />
    <glyph glyph-name="uni04E3" unicode="&#x4e3;" horiz-adv-x="562" 
d="M211 639l14 66h272l-14 -66h-272zM134 516h77l-64 -318c-4 -20 -5 -41 -5 -53c0 -57 22 -87 77 -87c36 0 66 13 93 41c37 38 60 90 68 129l58 288h77l-90 -448h73l-13 -68h-70c-44 0 -66 26 -66 63c0 7 1 15 4 29l2 10h-5c-36 -78 -84 -114 -155 -114
c-88 0 -132 54 -132 143c0 19 2 42 7 67z" />
    <glyph glyph-name="uni04E4" unicode="&#x4e4;" horiz-adv-x="684" 
d="M353 787c-26 0 -42 12 -42 35c0 5 1 11 3 23c6 30 23 47 56 47c26 0 42 -12 42 -35c0 -5 -1 -11 -3 -23c-6 -30 -23 -47 -56 -47zM535 787c-26 0 -42 12 -42 35c0 5 1 11 3 23c6 30 23 47 56 47c26 0 42 -12 42 -35c0 -5 -1 -11 -3 -23c-6 -30 -23 -47 -56 -47zM39 0
l140 698h79l-89 -440l-38 -141h3l91 126l384 455h72l-140 -698h-79l89 440l38 141h-3l-91 -126l-384 -455h-72z" />
    <glyph glyph-name="uni04E5" unicode="&#x4e5;" horiz-adv-x="562" 
d="M254 618c-26 0 -42 12 -42 35c0 5 1 10 3 21c6 30 23 47 56 47c26 0 42 -12 42 -35c0 -5 -1 -10 -3 -21c-6 -30 -23 -47 -56 -47zM436 618c-26 0 -42 12 -42 35c0 5 1 10 3 21c6 30 23 47 56 47c26 0 42 -12 42 -35c0 -5 -1 -10 -3 -21c-6 -30 -23 -47 -56 -47zM134 516
h77l-64 -318c-4 -20 -5 -41 -5 -53c0 -57 22 -87 77 -87c36 0 66 13 93 41c37 38 60 90 68 129l58 288h77l-90 -448h73l-13 -68h-70c-44 0 -66 26 -66 63c0 7 1 15 4 29l2 10h-5c-36 -78 -84 -114 -155 -114c-88 0 -132 54 -132 143c0 19 2 42 7 67z" />
    <glyph glyph-name="uni04E6" unicode="&#x4e6;" horiz-adv-x="679" 
d="M332 787c-26 0 -42 12 -42 35c0 5 1 11 3 23c6 30 23 47 56 47c26 0 42 -12 42 -35c0 -5 -1 -11 -3 -23c-6 -30 -23 -47 -56 -47zM514 787c-26 0 -42 12 -42 35c0 5 1 11 3 23c6 30 23 47 56 47c26 0 42 -12 42 -35c0 -5 -1 -11 -3 -23c-6 -30 -23 -47 -56 -47zM298 -12
c-139 0 -243 96 -243 272c0 231 133 450 354 450c139 0 243 -96 243 -272c0 -231 -133 -450 -354 -450zM306 61c123 0 210 87 239 232l20 100c5 25 7 49 7 69c0 106 -63 175 -171 175c-123 0 -210 -87 -239 -232l-20 -100c-5 -25 -7 -49 -7 -69c0 -106 63 -175 171 -175z
" />
    <glyph glyph-name="uni04E7" unicode="&#x4e7;" horiz-adv-x="550" 
d="M245 618c-26 0 -42 12 -42 35c0 5 1 10 3 21c6 30 23 47 56 47c26 0 42 -12 42 -35c0 -5 -1 -10 -3 -21c-6 -30 -23 -47 -56 -47zM427 618c-26 0 -42 12 -42 35c0 5 1 10 3 21c6 30 23 47 56 47c26 0 42 -12 42 -35c0 -5 -1 -10 -3 -21c-6 -30 -23 -47 -56 -47zM235 -12
c-108 0 -186 72 -186 212c0 173 108 328 266 328c108 0 186 -72 186 -212c0 -173 -108 -328 -266 -328zM245 57c74 0 139 56 160 161l15 75c3 15 5 30 5 45c0 72 -42 121 -120 121c-74 0 -139 -56 -160 -161l-15 -75c-3 -15 -5 -30 -5 -45c0 -72 42 -121 120 -121z" />
    <glyph glyph-name="uni04E8" unicode="&#x4e8;" horiz-adv-x="679" 
d="M298 -12c-139 0 -243 96 -243 272c0 231 133 450 354 450c139 0 243 -96 243 -272c0 -231 -133 -450 -354 -450zM306 61c123 0 210 87 239 232l5 25h-405l-3 -14c-5 -25 -7 -48 -7 -68c0 -106 63 -175 171 -175zM162 405l-3 -15h405c6 28 8 52 8 72
c0 106 -63 175 -171 175c-123 0 -210 -87 -239 -232z" />
    <glyph glyph-name="uni04E9" unicode="&#x4e9;" horiz-adv-x="550" 
d="M235 -12c-108 0 -186 72 -186 212c0 173 108 328 266 328c108 0 186 -72 186 -212c0 -173 -108 -328 -266 -328zM245 57c74 0 138 56 160 161l3 14h-276l-2 -9c-3 -15 -5 -30 -5 -45c0 -72 42 -121 120 -121zM145 297l-1 -5h276c3 16 5 31 5 46c0 72 -42 121 -120 121
c-74 0 -139 -57 -160 -162z" />
    <glyph glyph-name="uni04EE" unicode="&#x4ee;" horiz-adv-x="551" 
d="M240 809l14 66h272l-14 -66h-272zM73 0l14 72h97l49 86l-126 540h83l72 -307l24 -135h6l72 137l173 305h84l-358 -626c-34 -59 -57 -72 -116 -72h-74z" />
    <glyph glyph-name="uni04EF" unicode="&#x4ef;" horiz-adv-x="484" 
d="M178 639l14 66h272l-14 -66h-272zM300 261l138 255h82l-349 -633c-33 -60 -59 -83 -111 -83h-80l13 66h93l64 118l-82 532h75l38 -255l21 -188h5z" />
    <glyph glyph-name="uni04F0" unicode="&#x4f0;" horiz-adv-x="551" 
d="M282 787c-26 0 -42 12 -42 35c0 5 1 11 3 23c6 30 23 47 56 47c26 0 42 -12 42 -35c0 -5 -1 -11 -3 -23c-6 -30 -23 -47 -56 -47zM464 787c-26 0 -42 12 -42 35c0 5 1 11 3 23c6 30 23 47 56 47c26 0 42 -12 42 -35c0 -5 -1 -11 -3 -23c-6 -30 -23 -47 -56 -47zM73 0
l14 72h97l49 86l-126 540h83l72 -307l24 -135h6l72 137l173 305h84l-358 -626c-34 -59 -57 -72 -116 -72h-74z" />
    <glyph glyph-name="uni04F1" unicode="&#x4f1;" horiz-adv-x="484" 
d="M221 618c-26 0 -42 12 -42 35c0 5 1 10 3 21c6 30 23 47 56 47c26 0 42 -12 42 -35c0 -5 -1 -10 -3 -21c-6 -30 -23 -47 -56 -47zM403 618c-26 0 -42 12 -42 35c0 5 1 10 3 21c6 30 23 47 56 47c26 0 42 -12 42 -35c0 -5 -1 -10 -3 -21c-6 -30 -23 -47 -56 -47zM300 261
l138 255h82l-349 -633c-33 -60 -59 -83 -111 -83h-80l13 66h93l64 118l-82 532h75l38 -255l21 -188h5z" />
    <glyph glyph-name="uni04F2" unicode="&#x4f2;" horiz-adv-x="551" 
d="M400 914l-123 -158l-45 23l104 169zM556 914l-122 -158l-45 23l104 169zM73 0l14 72h97l49 86l-126 540h83l72 -307l24 -135h6l72 137l173 305h84l-358 -626c-34 -59 -57 -72 -116 -72h-74z" />
    <glyph glyph-name="uni04F3" unicode="&#x4f3;" horiz-adv-x="484" 
d="M363 745l-123 -159l-45 22l105 171zM520 745l-123 -159l-45 22l104 171zM300 261l138 255h82l-349 -633c-33 -60 -59 -83 -111 -83h-80l13 66h93l64 118l-82 532h75l38 -255l21 -188h5z" />
    <glyph glyph-name="uni04F4" unicode="&#x4f4;" horiz-adv-x="622" 
d="M308 787c-26 0 -42 12 -42 35c0 5 1 11 3 23c6 30 23 47 56 47c26 0 42 -12 42 -35c0 -5 -1 -11 -3 -23c-6 -30 -23 -47 -56 -47zM490 787c-26 0 -42 12 -42 35c0 5 1 11 3 23c6 30 23 47 56 47c26 0 42 -12 42 -35c0 -5 -1 -11 -3 -23c-6 -30 -23 -47 -56 -47zM398 0
l55 277h-4c-40 -16 -95 -26 -150 -26c-136 0 -201 64 -201 178c0 32 5 66 15 116l31 153h81l-36 -178c-7 -35 -12 -62 -12 -83c0 -79 45 -114 134 -114c65 0 119 9 157 25l70 350h81l-140 -698h-81z" />
    <glyph glyph-name="uni04F5" unicode="&#x4f5;" horiz-adv-x="520" 
d="M225 618c-26 0 -42 12 -42 35c0 5 1 10 3 21c6 30 23 47 56 47c26 0 42 -12 42 -35c0 -5 -1 -10 -3 -21c-6 -30 -23 -47 -56 -47zM407 618c-26 0 -42 12 -42 35c0 5 1 10 3 21c6 30 23 47 56 47c26 0 42 -12 42 -35c0 -5 -1 -10 -3 -21c-6 -30 -23 -47 -56 -47zM303 0
l56 277h-5c-36 -66 -84 -100 -158 -100c-83 0 -132 55 -132 115c0 20 2 42 7 67l32 157h77l-32 -157c-4 -20 -5 -36 -5 -49c0 -39 27 -63 77 -63c91 0 148 73 159 130l28 139h77l-104 -516h-77z" />
    <glyph glyph-name="uni04F8" unicode="&#x4f8;" horiz-adv-x="844" 
d="M437 787c-26 0 -42 12 -42 35c0 5 1 11 3 23c6 30 23 47 56 47c26 0 42 -12 42 -35c0 -5 -1 -11 -3 -23c-6 -30 -23 -47 -56 -47zM619 787c-26 0 -42 12 -42 35c0 5 1 11 3 23c6 30 23 47 56 47c26 0 42 -12 42 -35c0 -5 -1 -11 -3 -23c-6 -30 -23 -47 -56 -47zM39 0
l140 698h81l-55 -280h172c123 0 173 -69 173 -176c0 -141 -90 -242 -234 -242h-277zM135 72h193c66 0 113 35 126 101c8 38 12 73 12 92c0 49 -25 81 -95 81h-181zM620 0l140 698h81l-140 -698h-81z" />
    <glyph glyph-name="uni04F9" unicode="&#x4f9;" horiz-adv-x="703" 
d="M335 618c-26 0 -42 12 -42 35c0 5 1 10 3 21c6 30 23 47 56 47c26 0 42 -12 42 -35c0 -5 -1 -10 -3 -21c-6 -30 -23 -47 -56 -47zM517 618c-26 0 -42 12 -42 35c0 5 1 10 3 21c6 30 23 47 56 47c26 0 42 -12 42 -35c0 -5 -1 -10 -3 -21c-6 -30 -23 -47 -56 -47zM36 0
l104 516h77l-38 -187h117c101 0 145 -48 145 -130c0 -106 -71 -199 -195 -199h-210zM126 68h120c63 0 99 27 113 85c5 19 6 33 6 47c0 40 -23 61 -81 61h-119zM486 0l104 516h77l-104 -516h-77z" />
    <glyph glyph-name="uni0E3F" unicode="&#xe3f;" horiz-adv-x="614" 
d="M288 20l-21 -102h-60l21 102h-185l132 657h184l21 103h60l-21 -103c119 0 175 -54 175 -141c0 -83 -51 -144 -131 -167l-1 -4c56 -17 93 -58 93 -131c0 -99 -81 -214 -225 -214h-42zM198 393h105l42 212h-105zM404 605l-42 -212h5c69 1 119 27 131 86c4 20 9 39 9 55
c0 49 -35 71 -93 71h-10zM138 92h104l47 232h-105zM348 324l-47 -232h29c70 0 118 30 132 99c5 25 9 43 9 61c0 50 -37 72 -103 72h-20z" />
    <glyph glyph-name="Wgrave" unicode="&#x1e80;" horiz-adv-x="862" 
d="M517 755l-84 161l68 32l62 -172zM226 0h-94l-29 698h81l9 -354l6 -243h4l137 315l126 282h96l15 -295l14 -301h4l106 247l150 349h84l-313 -698h-93l-18 367l-10 239h-5l-109 -244z" />
    <glyph glyph-name="wgrave" unicode="&#x1e81;" horiz-adv-x="740" 
d="M415 585l-84 159l68 32l61 -170zM105 0l-28 516h74l9 -251l6 -191h5l79 169l128 273h75l22 -260l12 -178h5l76 174l117 264h75l-235 -516h-93l-25 279l-7 132h-5l-59 -132l-133 -279h-98z" />
    <glyph glyph-name="Wacute" unicode="&#x1e82;" horiz-adv-x="862" 
d="M658 914l-123 -158l-49 25l104 169zM226 0h-94l-29 698h81l9 -354l6 -243h4l137 315l126 282h96l15 -295l14 -301h4l106 247l150 349h84l-313 -698h-93l-18 367l-10 239h-5l-109 -244z" />
    <glyph glyph-name="wacute" unicode="&#x1e83;" horiz-adv-x="740" 
d="M567 744l-124 -159l-48 25l104 170zM105 0l-28 516h74l9 -251l6 -191h5l79 169l128 273h75l22 -260l12 -178h5l76 174l117 264h75l-235 -516h-93l-25 279l-7 132h-5l-59 -132l-133 -279h-98z" />
    <glyph glyph-name="Wdieresis" unicode="&#x1e84;" horiz-adv-x="862" 
d="M436 787c-26 0 -42 12 -42 35c0 5 1 11 3 23c6 30 23 47 56 47c26 0 42 -12 42 -35c0 -5 -1 -11 -3 -23c-6 -30 -23 -47 -56 -47zM618 787c-26 0 -42 12 -42 35c0 5 1 11 3 23c6 30 23 47 56 47c26 0 42 -12 42 -35c0 -5 -1 -11 -3 -23c-6 -30 -23 -47 -56 -47zM226 0
h-94l-29 698h81l9 -354l6 -243h4l137 315l126 282h96l15 -295l14 -301h4l106 247l150 349h84l-313 -698h-93l-18 367l-10 239h-5l-109 -244z" />
    <glyph glyph-name="wdieresis" unicode="&#x1e85;" horiz-adv-x="740" 
d="M343 618c-26 0 -42 12 -42 35c0 5 1 10 3 21c6 30 23 47 56 47c26 0 42 -12 42 -35c0 -5 -1 -10 -3 -21c-6 -30 -23 -47 -56 -47zM525 618c-26 0 -42 12 -42 35c0 5 1 10 3 21c6 30 23 47 56 47c26 0 42 -12 42 -35c0 -5 -1 -10 -3 -21c-6 -30 -23 -47 -56 -47zM105 0
l-28 516h74l9 -251l6 -191h5l79 169l128 273h75l22 -260l12 -178h5l76 174l117 264h75l-235 -516h-93l-25 279l-7 132h-5l-59 -132l-133 -279h-98z" />
    <glyph glyph-name="uni1E9E" unicode="&#x1e9e;" horiz-adv-x="700" 
d="M393 59c80 0 127 47 143 121c9 42 11 56 11 66c0 57 -43 91 -117 91h-88l15 72l229 217h-341l-125 -626h-81l140 698h506l-16 -82l-223 -211l-1 -4c119 -2 187 -55 187 -155c0 -133 -97 -258 -244 -258c-85 0 -160 32 -197 105l62 45c32 -56 82 -79 140 -79z" />
    <glyph glyph-name="uni1EA0" unicode="&#x1ea0;" horiz-adv-x="623" 
d="M230 -169c-26 0 -42 12 -42 35c0 5 1 10 3 21c6 30 23 47 56 47c26 0 42 -12 42 -35c0 -5 -1 -10 -3 -21c-6 -30 -23 -47 -56 -47zM547 0h-83l-26 206h-271l-108 -206h-86l373 698h107zM430 278l-43 343h-5l-178 -343h226z" />
    <glyph glyph-name="uni1EA1" unicode="&#x1ea1;" horiz-adv-x="583" 
d="M229 -169c-26 0 -42 12 -42 35c0 5 1 10 3 21c6 30 23 47 56 47c26 0 42 -12 42 -35c0 -5 -1 -10 -3 -21c-6 -30 -23 -47 -56 -47zM506 0h-69c-45 0 -67 25 -67 62c0 8 1 17 3 27l5 23h-3c-42 -86 -91 -124 -167 -124c-94 0 -157 75 -157 197c0 152 81 343 252 343
c62 0 120 -31 135 -96h4l17 84h77l-90 -448h73zM229 58c45 0 78 21 108 51c33 33 55 72 65 124l21 105c13 64 -21 120 -113 120c-84 0 -140 -57 -160 -157l-15 -75c-3 -17 -5 -34 -5 -51c0 -67 30 -117 99 -117z" />
    <glyph glyph-name="uni1EA2" unicode="&#x1ea2;" horiz-adv-x="623" 
d="M338 875l8 60h107c50 0 62 -26 62 -49c0 -35 -25 -66 -61 -107l-28 -32l-41 23l69 105h-116zM547 0h-83l-26 206h-271l-108 -206h-86l373 698h107zM430 278l-43 343h-5l-178 -343h226z" />
    <glyph glyph-name="uni1EA3" unicode="&#x1ea3;" horiz-adv-x="583" 
d="M274 706l8 59h107c49 0 62 -26 62 -49c0 -33 -26 -67 -61 -107l-28 -32l-41 23l69 106h-116zM506 0h-69c-45 0 -67 25 -67 62c0 8 1 17 3 27l5 23h-3c-42 -86 -91 -124 -167 -124c-94 0 -157 75 -157 197c0 152 81 343 252 343c62 0 120 -31 135 -96h4l17 84h77l-90 -448
h73zM229 58c45 0 78 21 108 51c33 33 55 72 65 124l21 105c13 64 -21 120 -113 120c-84 0 -140 -57 -160 -157l-15 -75c-3 -17 -5 -34 -5 -51c0 -67 30 -117 99 -117z" />
    <glyph glyph-name="uni1EA4" unicode="&#x1ea4;" horiz-adv-x="623" 
d="M702 1026l-123 -159l-49 24l104 171zM388 915h94l85 -133l-41 -32l-95 113l-131 -113l-40 32zM547 0h-83l-26 206h-271l-108 -206h-86l373 698h107zM430 278l-43 343h-5l-178 -343h226z" />
    <glyph glyph-name="uni1EA5" unicode="&#x1ea5;" horiz-adv-x="583" 
d="M630 866l-123 -160l-48 25l103 170zM323 745h94l84 -132l-41 -32l-95 112l-130 -112l-41 32zM506 0h-69c-45 0 -67 25 -67 62c0 8 1 17 3 27l5 23h-3c-42 -86 -91 -124 -167 -124c-94 0 -157 75 -157 197c0 152 81 343 252 343c62 0 120 -31 135 -96h4l17 84h77l-90 -448
h73zM229 58c45 0 78 21 108 51c33 33 55 72 65 124l21 105c13 64 -21 120 -113 120c-84 0 -140 -57 -160 -157l-15 -75c-3 -17 -5 -34 -5 -51c0 -67 30 -117 99 -117z" />
    <glyph glyph-name="uni1EA6" unicode="&#x1ea6;" horiz-adv-x="623" 
d="M279 870l-84 160l67 31l62 -170zM387 915h94l85 -133l-41 -32l-95 113l-131 -113l-40 32zM547 0h-83l-26 206h-271l-108 -206h-86l373 698h107zM430 278l-43 343h-5l-178 -343h226z" />
    <glyph glyph-name="uni1EA7" unicode="&#x1ea7;" horiz-adv-x="583" 
d="M222 700l-85 160l68 31l61 -170zM322 745h94l84 -132l-41 -32l-95 112l-130 -112l-41 32zM506 0h-69c-45 0 -67 25 -67 62c0 8 1 17 3 27l5 23h-3c-42 -86 -91 -124 -167 -124c-94 0 -157 75 -157 197c0 152 81 343 252 343c62 0 120 -31 135 -96h4l17 84h77l-90 -448h73
zM229 58c45 0 78 21 108 51c33 33 55 72 65 124l21 105c13 64 -21 120 -113 120c-84 0 -140 -57 -160 -157l-15 -75c-3 -17 -5 -34 -5 -51c0 -67 30 -117 99 -117z" />
    <glyph glyph-name="uni1EA8" unicode="&#x1ea8;" horiz-adv-x="623" 
d="M479 994l10 56h106c49 0 61 -26 61 -49c0 -34 -25 -68 -61 -109l-27 -30l-41 23l68 109h-116zM387 915h94l85 -133l-41 -32l-95 113l-131 -113l-40 32zM547 0h-83l-26 206h-271l-108 -206h-86l373 698h107zM430 278l-43 343h-5l-178 -343h226z" />
    <glyph glyph-name="uni1EA9" unicode="&#x1ea9;" horiz-adv-x="583" 
d="M414 824l9 56h107c48 0 60 -25 60 -49c0 -34 -28 -67 -61 -108l-25 -31l-40 23l70 109h-120zM322 745h94l84 -132l-41 -32l-95 112l-130 -112l-41 32zM506 0h-69c-45 0 -67 25 -67 62c0 8 1 17 3 27l5 23h-3c-42 -86 -91 -124 -167 -124c-94 0 -157 75 -157 197
c0 152 81 343 252 343c62 0 120 -31 135 -96h4l17 84h77l-90 -448h73zM229 58c45 0 78 21 108 51c33 33 55 72 65 124l21 105c13 64 -21 120 -113 120c-84 0 -140 -57 -160 -157l-15 -75c-3 -17 -5 -34 -5 -51c0 -67 30 -117 99 -117z" />
    <glyph glyph-name="uni1EAA" unicode="&#x1eaa;" horiz-adv-x="623" 
d="M381 1054c33 0 55 -15 73 -26c29 -19 48 -24 65 -24c21 0 38 10 61 27l27 -36c-22 -27 -55 -53 -100 -53c-33 0 -55 15 -73 26c-29 19 -48 24 -65 24c-21 0 -38 -10 -61 -27l-27 38c22 26 55 51 100 51zM388 915h94l84 -132l-41 -32l-95 112l-130 -112l-41 32zM547 0h-83
l-26 206h-271l-108 -206h-86l373 698h107zM430 278l-43 343h-5l-178 -343h226z" />
    <glyph glyph-name="uni1EAB" unicode="&#x1eab;" horiz-adv-x="583" 
d="M315 884c33 0 55 -15 73 -26c29 -19 48 -24 65 -24c21 0 38 10 61 27l27 -36c-22 -27 -55 -53 -100 -53c-33 0 -55 15 -73 26c-29 19 -48 24 -65 24c-21 0 -38 -10 -61 -27l-27 38c22 26 55 51 100 51zM322 745h94l84 -132l-41 -32l-95 112l-130 -112l-41 32zM506 0h-69
c-45 0 -67 25 -67 62c0 8 1 17 3 27l5 23h-3c-42 -86 -91 -124 -167 -124c-94 0 -157 75 -157 197c0 152 81 343 252 343c62 0 120 -31 135 -96h4l17 84h77l-90 -448h73zM229 58c45 0 78 21 108 51c33 33 55 72 65 124l21 105c13 64 -21 120 -113 120
c-84 0 -140 -57 -160 -157l-15 -75c-3 -17 -5 -34 -5 -51c0 -67 30 -117 99 -117z" />
    <glyph glyph-name="uni1EAC" unicode="&#x1eac;" horiz-adv-x="623" 
d="M230 -169c-26 0 -42 12 -42 35c0 5 1 10 3 21c6 30 23 47 56 47c26 0 42 -12 42 -35c0 -5 -1 -10 -3 -21c-6 -30 -23 -47 -56 -47zM392 935h94l82 -143l-43 -30l-93 115l-139 -116l-40 32zM547 0h-83l-26 206h-271l-108 -206h-86l373 698h107zM430 278l-43 343h-5
l-178 -343h226z" />
    <glyph glyph-name="uni1EAD" unicode="&#x1ead;" horiz-adv-x="583" 
d="M229 -169c-26 0 -42 12 -42 35c0 5 1 10 3 21c6 30 23 47 56 47c26 0 42 -12 42 -35c0 -5 -1 -10 -3 -21c-6 -30 -23 -47 -56 -47zM325 765h94l82 -143l-43 -31l-93 115l-139 -116l-39 32zM506 0h-69c-45 0 -67 25 -67 62c0 8 1 17 3 27l5 23h-3
c-42 -86 -91 -124 -167 -124c-94 0 -157 75 -157 197c0 152 81 343 252 343c62 0 120 -31 135 -96h4l17 84h77l-90 -448h73zM229 58c45 0 78 21 108 51c33 33 55 72 65 124l21 105c13 64 -21 120 -113 120c-84 0 -140 -57 -160 -157l-15 -75c-3 -17 -5 -34 -5 -51
c0 -67 30 -117 99 -117z" />
    <glyph glyph-name="uni1EAE" unicode="&#x1eae;" horiz-adv-x="623" 
d="M412 757c-98 0 -123 80 -131 134l46 20l8 -22c18 -50 39 -74 79 -74c36 0 68 15 102 71l15 25l48 -20c-26 -55 -70 -134 -167 -134zM557 1029l-123 -160l-48 25l104 170zM547 0h-83l-26 206h-271l-108 -206h-86l373 698h107zM430 278l-43 343h-5l-178 -343h226z" />
    <glyph glyph-name="uni1EAF" unicode="&#x1eaf;" horiz-adv-x="583" 
d="M344 585c-98 0 -123 80 -131 134l46 20l8 -22c18 -50 39 -74 79 -74c36 0 68 15 102 71l15 25l48 -20c-26 -55 -70 -134 -167 -134zM489 857l-123 -160l-48 25l104 170zM506 0h-69c-45 0 -67 25 -67 62c0 8 1 17 3 27l5 23h-3c-42 -86 -91 -124 -167 -124
c-94 0 -157 75 -157 197c0 152 81 343 252 343c62 0 120 -31 135 -96h4l17 84h77l-90 -448h73zM229 58c45 0 78 21 108 51c33 33 55 72 65 124l21 105c13 64 -21 120 -113 120c-84 0 -140 -57 -160 -157l-15 -75c-3 -17 -5 -34 -5 -51c0 -67 30 -117 99 -117z" />
    <glyph glyph-name="uni1EB0" unicode="&#x1eb0;" horiz-adv-x="623" 
d="M412 757c-98 0 -123 80 -131 134l46 20l8 -22c18 -50 39 -74 79 -74c36 0 68 15 102 71l15 25l48 -20c-26 -55 -70 -134 -167 -134zM410 872l-84 160l69 31l61 -170zM547 0h-83l-26 206h-271l-108 -206h-86l373 698h107zM430 278l-43 343h-5l-178 -343h226z" />
    <glyph glyph-name="uni1EB1" unicode="&#x1eb1;" horiz-adv-x="583" 
d="M344 585c-98 0 -123 80 -131 134l46 20l8 -22c18 -50 39 -74 79 -74c36 0 68 15 102 71l15 25l48 -20c-26 -55 -70 -134 -167 -134zM342 700l-84 160l69 31l61 -170zM506 0h-69c-45 0 -67 25 -67 62c0 8 1 17 3 27l5 23h-3c-42 -86 -91 -124 -167 -124
c-94 0 -157 75 -157 197c0 152 81 343 252 343c62 0 120 -31 135 -96h4l17 84h77l-90 -448h73zM229 58c45 0 78 21 108 51c33 33 55 72 65 124l21 105c13 64 -21 120 -113 120c-84 0 -140 -57 -160 -157l-15 -75c-3 -17 -5 -34 -5 -51c0 -67 30 -117 99 -117z" />
    <glyph glyph-name="uni1EB2" unicode="&#x1eb2;" horiz-adv-x="623" 
d="M349 993l8 57h107c49 0 62 -26 62 -49c0 -33 -26 -67 -61 -107l-28 -32l-41 23l69 108h-116zM412 757c-98 0 -123 80 -131 134l46 20l8 -22c18 -50 39 -74 79 -74c36 0 68 15 102 71l15 25l48 -20c-26 -55 -70 -134 -167 -134zM547 0h-83l-26 206h-271l-108 -206h-86
l373 698h107zM430 278l-43 343h-5l-178 -343h226z" />
    <glyph glyph-name="uni1EB3" unicode="&#x1eb3;" horiz-adv-x="583" 
d="M344 585c-98 0 -123 80 -131 134l46 20l8 -22c18 -50 39 -74 79 -74c36 0 68 15 102 71l15 25l48 -20c-26 -55 -70 -134 -167 -134zM281 823l8 57h107c49 0 62 -26 62 -49c0 -33 -26 -67 -61 -107l-28 -32l-41 23l69 108h-116zM506 0h-69c-45 0 -67 25 -67 62
c0 8 1 17 3 27l5 23h-3c-42 -86 -91 -124 -167 -124c-94 0 -157 75 -157 197c0 152 81 343 252 343c62 0 120 -31 135 -96h4l17 84h77l-90 -448h73zM229 58c45 0 78 21 108 51c33 33 55 72 65 124l21 105c13 64 -21 120 -113 120c-84 0 -140 -57 -160 -157l-15 -75
c-3 -17 -5 -34 -5 -51c0 -67 30 -117 99 -117z" />
    <glyph glyph-name="uni1EB4" unicode="&#x1eb4;" horiz-adv-x="623" 
d="M507 942c-34 0 -57 15 -75 26c-29 19 -48 24 -65 24c-21 0 -38 -9 -60 -26l-27 37c19 27 53 51 98 51c34 0 57 -15 75 -26c29 -19 48 -24 65 -24c21 0 39 10 61 27l26 -34c-20 -28 -53 -55 -98 -55zM412 757c-98 0 -123 80 -131 134l46 20l8 -22c18 -50 39 -74 79 -74
c36 0 68 15 102 71l15 25l48 -20c-26 -55 -70 -134 -167 -134zM547 0h-83l-26 206h-271l-108 -206h-86l373 698h107zM430 278l-43 343h-5l-178 -343h226z" />
    <glyph glyph-name="uni1EB5" unicode="&#x1eb5;" horiz-adv-x="583" 
d="M344 585c-98 0 -123 80 -131 134l46 20l8 -22c18 -50 39 -74 79 -74c36 0 68 15 102 71l15 25l48 -20c-26 -55 -70 -134 -167 -134zM440 772c-34 0 -57 15 -75 26c-29 19 -48 24 -65 24c-21 0 -38 -9 -60 -26l-27 37c19 27 53 51 98 51c34 0 57 -15 75 -26
c29 -19 48 -24 65 -24c21 0 39 10 61 27l26 -34c-20 -28 -53 -55 -98 -55zM506 0h-69c-45 0 -67 25 -67 62c0 8 1 17 3 27l5 23h-3c-42 -86 -91 -124 -167 -124c-94 0 -157 75 -157 197c0 152 81 343 252 343c62 0 120 -31 135 -96h4l17 84h77l-90 -448h73zM229 58
c45 0 78 21 108 51c33 33 55 72 65 124l21 105c13 64 -21 120 -113 120c-84 0 -140 -57 -160 -157l-15 -75c-3 -17 -5 -34 -5 -51c0 -67 30 -117 99 -117z" />
    </font>
</defs>
</svg>
