<?xml version="1.0" standalone="no"?>
<!DOCTYPE svg PUBLIC "-//W3C//DTD SVG 1.1//EN" "http://www.w3.org/Graphics/SVG/1.1/DTD/svg11.dtd" >
<svg xmlns="http://www.w3.org/2000/svg" xmlns:xlink="http://www.w3.org/1999/xlink" version="1.1">
<metadata>
Created by FontForge 20180714 at Tue Aug 14 16:12:23 2018
 By Gisle,,,,
Copyright 2018 IBM Corp. All rights reserved.
</metadata>
<defs>
<font id="Aneliza-LightItalic" horiz-adv-x="0" >
  <font-face 
    font-family="Aneliza Light"
    font-weight="300"
    font-style="italic"
    font-stretch="normal"
    units-per-em="1000"
    panose-1="2 11 4 3 5 2 3 0 2 3"
    ascent="780"
    descent="-220"
    x-height="512"
    cap-height="698"
    bbox="-234 -232 1168 1108"
    underline-thickness="43"
    underline-position="-151"
    slope="-11.31"
    stemh="49"
    stemv="56"
    unicode-range="U+0020-FB02"
  />
<missing-glyph horiz-adv-x="472" 
d="M32 0v780h408v-780h-408zM75 43h322v694h-322v-694z" />
    <glyph glyph-name="fi" unicode="fi" horiz-adv-x="540" 
d="M66 463l9 49h91l29 146c10 52 32 82 92 82h85l-10 -49h-105l-36 -179h266l-93 -463h78l-10 -49h-71c-34 0 -51 18 -51 46c0 6 0 11 2 20l80 397h-210l-116 -581c-11 -52 -33 -82 -92 -82h-74l10 49h93l124 614h-91zM490 651c-25 0 -34 13 -34 28c0 4 0 8 3 22
c4 20 17 32 43 32c25 0 34 -13 34 -28c0 -4 0 -8 -3 -22c-4 -20 -17 -32 -43 -32z" />
    <glyph glyph-name=".notdef" horiz-adv-x="472" 
d="M32 0v780h408v-780h-408zM75 43h322v694h-322v-694z" />
    <glyph glyph-name="space" unicode=" " horiz-adv-x="236" 
 />
    <glyph glyph-name="exclam" unicode="!" horiz-adv-x="262" 
d="M130 181h-28l41 282l46 235h60l-47 -235zM83 -9c-27 0 -41 12 -41 32c0 7 2 20 4 28c4 20 15 41 50 41c27 0 41 -12 41 -32c0 -7 -2 -20 -4 -28c-4 -20 -15 -41 -50 -41z" />
    <glyph glyph-name="quotedbl" unicode="&#x22;" horiz-adv-x="395" 
d="M349 472h-51l54 268h51zM182 472h-51l54 268h51z" />
    <glyph glyph-name="numbersign" unicode="#" horiz-adv-x="692" 
d="M306 0l79 211h-154l-78 -211h-49l78 211h-136l9 43h143l69 190h-136l9 43h143l79 211h49l-79 -211h154l78 211h49l-78 -211h136l-9 -43h-143l-69 -190h136l-9 -43h-143l-79 -211h-49zM247 254h154l69 190h-154z" />
    <glyph glyph-name="dollar" unicode="$" horiz-adv-x="562" 
d="M187 -82l16 82c-89 9 -153 51 -191 117l43 35c34 -59 84 -94 159 -101l57 287l-16 4c-102 25 -149 76 -149 162c0 104 77 192 238 195l16 81h44l-17 -84c81 -10 132 -45 162 -104l-45 -33c-25 47 -64 77 -129 86l-53 -266l13 -3c110 -25 159 -77 159 -164
c0 -115 -83 -212 -247 -212l-17 -82h-43zM324 327l-12 3l-56 -280c119 0 180 75 180 157c0 63 -35 101 -112 120zM164 509c0 -62 32 -102 104 -117l14 -3l51 259c-112 -3 -169 -60 -169 -139z" />
    <glyph glyph-name="percent" unicode="%" horiz-adv-x="893" 
d="M187 0h-58l605 698h58zM233 319c-77 0 -122 55 -122 139c0 120 58 252 184 252c77 0 122 -55 122 -139c0 -120 -58 -252 -184 -252zM237 356c61 0 100 48 117 130l11 54c3 13 4 29 4 42c0 54 -26 91 -78 91c-61 0 -100 -48 -117 -130l-11 -54c-3 -13 -4 -29 -4 -42
c0 -54 26 -91 78 -91zM626 -12c-77 0 -122 55 -122 139c0 120 58 252 184 252c77 0 122 -55 122 -139c0 -120 -58 -252 -184 -252zM630 25c61 0 100 48 117 130l11 54c3 13 4 29 4 42c0 54 -26 91 -78 91c-61 0 -100 -48 -117 -130l-11 -54c-3 -13 -4 -29 -4 -42
c0 -54 26 -91 78 -91z" />
    <glyph glyph-name="ampersand" unicode="&#x26;" horiz-adv-x="673" 
d="M521 0l-73 97c-59 -67 -139 -109 -228 -109c-112 0 -178 60 -178 157c0 105 75 173 196 232c-36 48 -55 93 -55 140c0 100 72 193 193 193c82 0 146 -45 146 -126c0 -100 -82 -156 -211 -220l139 -184c31 52 53 118 67 181h124l-11 -49h-77c-17 -62 -42 -124 -74 -173
l105 -139h-63zM371 663c-69 0 -118 -46 -130 -108c-3 -16 -5 -26 -5 -35c0 -32 10 -68 49 -121c117 56 182 101 182 177c0 56 -37 87 -96 87zM419 135l-155 206c-97 -48 -150 -88 -164 -159c-2 -11 -3 -20 -3 -31c0 -75 51 -114 134 -114c77 0 142 40 188 98z" />
    <glyph glyph-name="quotesingle" unicode="'" horiz-adv-x="228" 
d="M182 472h-51l54 268h51z" />
    <glyph glyph-name="parenleft" unicode="(" horiz-adv-x="329" 
d="M88 211c0 238 128 441 271 549h56c-127 -97 -229 -249 -257 -397l-12 -65c-6 -30 -9 -61 -9 -92c0 -132 37 -252 109 -343h-49c-63 78 -109 199 -109 348z" />
    <glyph glyph-name="parenright" unicode=")" horiz-adv-x="329" 
d="M261 412c0 -238 -128 -441 -271 -549h-56c127 97 229 249 257 397l12 65c6 30 9 61 9 92c0 132 -37 252 -109 343h49c63 -78 109 -199 109 -348z" />
    <glyph glyph-name="asterisk" unicode="*" horiz-adv-x="417" 
d="M264 533l-110 -131l-38 32l118 123l-135 41l22 47l131 -52l27 154h49l-33 -154l148 51l9 -46l-152 -44l68 -121l-41 -28z" />
    <glyph glyph-name="plus" unicode="+" horiz-adv-x="600" 
d="M288 62h-53l44 219h-204l10 48h204l44 219h53l-44 -219h203l-10 -48h-203z" />
    <glyph glyph-name="comma" unicode="," horiz-adv-x="260" 
d="M92 92c27 0 41 -12 41 -32c0 -7 -1 -18 -3 -26c-12 -52 -52 -127 -113 -172h-48c53 45 82 91 99 132c-21 3 -30 14 -30 30c0 8 2 19 4 26c5 21 15 42 50 42z" />
    <glyph glyph-name="hyphen" unicode="-" horiz-adv-x="387" 
d="M319 275h-243l12 58h242z" />
    <glyph glyph-name="period" unicode="." horiz-adv-x="260" 
d="M80 -9c-27 0 -41 12 -41 32c0 7 2 20 4 28c4 20 15 41 50 41c27 0 41 -12 41 -32c0 -7 -2 -20 -4 -28c-4 -20 -15 -41 -50 -41z" />
    <glyph glyph-name="slash" unicode="/" horiz-adv-x="348" 
d="M-20 -151h-52l428 891h51z" />
    <glyph glyph-name="zero" unicode="0" horiz-adv-x="600" 
d="M255 -12c-124 0 -184 89 -184 236c0 209 90 486 304 486c124 0 184 -89 184 -236c0 -209 -90 -486 -304 -486zM261 39c108 0 181 100 213 257l18 87c7 34 10 69 10 99c0 110 -40 177 -133 177c-108 0 -181 -100 -213 -257l-18 -87c-7 -34 -10 -69 -10 -99
c0 -110 40 -177 133 -177z" />
    <glyph glyph-name="one" unicode="1" horiz-adv-x="600" 
d="M505 0h-460l10 52h207l120 602h-6l-222 -172l-31 40l229 176h97l-129 -646h196z" />
    <glyph glyph-name="two" unicode="2" horiz-adv-x="600" 
d="M479 52l-10 -52h-435l13 64l285 236c82 65 131 133 142 188c5 22 7 42 7 55c0 56 -31 115 -121 115c-85 0 -138 -44 -174 -129l-51 21c44 102 117 160 231 160s178 -73 178 -166c0 -112 -66 -192 -180 -284l-256 -208h371z" />
    <glyph glyph-name="three" unicode="3" horiz-adv-x="600" 
d="M223 391h80c89 0 148 39 166 126c3 17 4 25 4 34c0 68 -45 107 -121 107s-127 -28 -166 -92l-41 33c43 66 109 111 214 111c103 0 177 -60 177 -154c0 -102 -70 -172 -163 -189l-1 -4c67 -10 118 -64 118 -145c0 -137 -96 -230 -244 -230c-108 0 -179 49 -208 117l47 31
c26 -62 74 -96 166 -96c100 0 156 51 173 139c4 20 6 33 6 44c0 70 -45 117 -135 117h-83z" />
    <glyph glyph-name="four" unicode="4" horiz-adv-x="600" 
d="M391 0h-56l29 146h-335l11 56l409 496h82l-100 -503h103l-9 -49h-104zM459 635l-365 -440h280l88 440h-3z" />
    <glyph glyph-name="five" unicode="5" horiz-adv-x="600" 
d="M573 698l-10 -52h-305l-76 -298h5c39 55 82 79 154 79c106 0 174 -66 174 -175c0 -155 -98 -264 -253 -264c-104 0 -176 49 -204 117l47 31c26 -63 78 -96 163 -96c101 0 160 56 180 156c5 25 8 39 8 56c0 76 -41 124 -132 124c-65 0 -108 -27 -150 -69l-51 7l98 384h352
z" />
    <glyph glyph-name="six" unicode="6" horiz-adv-x="600" 
d="M268 -12c-127 0 -192 76 -192 201c0 204 160 408 346 509h83c-180 -107 -302 -230 -350 -377l4 -1c44 77 105 107 178 107c109 0 181 -69 181 -182c0 -146 -105 -257 -250 -257zM271 40c99 0 166 65 184 155c4 21 5 35 5 46c0 83 -47 135 -137 135
c-99 0 -166 -65 -184 -155c-4 -21 -5 -35 -5 -46c0 -83 47 -135 137 -135z" />
    <glyph glyph-name="seven" unicode="7" horiz-adv-x="600" 
d="M196 0h-62l401 647h-323l-29 -147h-54l40 198h436l-11 -56z" />
    <glyph glyph-name="eight" unicode="8" horiz-adv-x="600" 
d="M257 -12c-132 0 -205 72 -205 176c0 100 67 187 182 202l1 7c-64 20 -95 66 -95 132c0 120 96 205 232 205c116 0 185 -62 185 -155c0 -87 -59 -166 -155 -188l-1 -6c72 -18 112 -72 112 -144c0 -137 -101 -229 -256 -229zM260 39c100 0 171 52 188 137c4 22 6 32 6 45
c0 72 -53 120 -149 120c-100 0 -171 -52 -188 -137c-4 -22 -6 -32 -6 -45c0 -72 53 -120 149 -120zM330 391c89 0 150 46 165 123c3 18 4 27 4 37c0 66 -48 108 -132 108c-89 0 -150 -46 -165 -123c-3 -18 -4 -27 -4 -37c0 -66 48 -108 132 -108z" />
    <glyph glyph-name="nine" unicode="9" horiz-adv-x="600" 
d="M558 509c0 -204 -160 -408 -346 -509h-83c180 107 302 230 350 377l-4 1c-44 -77 -105 -107 -178 -107c-109 0 -181 69 -181 182c0 146 105 257 250 257c127 0 192 -76 192 -201zM311 322c99 0 166 65 184 155c4 21 5 35 5 46c0 83 -47 135 -137 135
c-99 0 -166 -65 -184 -155c-4 -21 -5 -35 -5 -46c0 -83 47 -135 137 -135z" />
    <glyph glyph-name="colon" unicode=":" horiz-adv-x="280" 
d="M177 420c-27 0 -41 12 -41 32c0 7 2 20 4 28c4 20 15 41 50 41c27 0 41 -12 41 -32c0 -7 -2 -20 -4 -28c-4 -20 -15 -41 -50 -41zM90 -9c-27 0 -41 12 -41 32c0 7 2 20 4 28c4 20 15 41 50 41c27 0 41 -12 41 -32c0 -7 -2 -20 -4 -28c-4 -20 -15 -41 -50 -41z" />
    <glyph glyph-name="semicolon" unicode=";" horiz-adv-x="280" 
d="M177 420c-27 0 -41 12 -41 32c0 7 2 20 4 28c4 20 15 41 50 41c27 0 41 -12 41 -32c0 -7 -2 -20 -4 -28c-4 -20 -15 -41 -50 -41zM102 92c27 0 41 -12 41 -32c0 -7 -1 -18 -3 -26c-12 -52 -52 -127 -113 -172h-48c53 45 82 91 99 132c-21 3 -30 14 -30 30c0 8 2 19 4 26
c5 21 15 42 50 42z" />
    <glyph glyph-name="less" unicode="&#x3c;" horiz-adv-x="600" 
d="M460 8l-365 255l10 53l466 253l-12 -63l-405 -216l-1 -6l318 -220z" />
    <glyph glyph-name="equal" unicode="=" horiz-adv-x="600" 
d="M550 378h-460l10 48h460zM512 186h-460l10 48h460z" />
    <glyph glyph-name="greater" unicode="&#x3e;" horiz-adv-x="600" 
d="M43 8l12 62l405 220l1 5l-318 216l11 57l365 -252l-11 -53z" />
    <glyph glyph-name="question" unicode="?" horiz-adv-x="463" 
d="M227 196h-54l33 168c121 6 197 60 210 143c2 11 4 31 4 41c0 68 -42 111 -120 111c-86 0 -133 -50 -164 -126l-49 18c39 96 106 159 217 159c107 0 176 -61 176 -159c0 -116 -80 -209 -228 -229zM165 -9c-27 0 -41 12 -41 32c0 7 2 20 4 28c4 20 15 41 50 41
c27 0 41 -12 41 -32c0 -7 -2 -20 -4 -28c-4 -20 -15 -41 -50 -41z" />
    <glyph glyph-name="at" unicode="@" horiz-adv-x="870" 
d="M588 -121h-226c-188 0 -297 115 -297 312c0 29 3 69 12 112c47 238 219 406 445 406c181 0 302 -111 302 -299c0 -21 -2 -52 -9 -90c-26 -139 -89 -251 -201 -251c-56 0 -85 29 -85 82v12h-4c-24 -50 -75 -94 -142 -94c-77 0 -133 53 -133 151c0 21 2 46 9 77
c27 136 98 212 201 212c62 0 102 -34 114 -87h4l14 76h50l-62 -313c-2 -10 -5 -22 -5 -33c0 -25 14 -40 46 -40c65 0 119 74 142 189l9 49c5 22 6 44 6 64c0 154 -99 252 -260 252c-191 0 -345 -142 -387 -342l-12 -57c-5 -27 -7 -54 -7 -76c0 -167 91 -268 253 -268h232z
M399 115c68 0 128 55 140 118l26 128c10 54 -32 102 -99 102c-76 0 -130 -55 -146 -136l-14 -73c-3 -14 -4 -27 -4 -40c0 -61 35 -99 97 -99z" />
    <glyph glyph-name="A" unicode="A" horiz-adv-x="612" 
d="M536 0h-59l-34 217h-289l-113 -217h-62l370 698h77zM437 268l-58 373h-4l-194 -373h256z" />
    <glyph glyph-name="B" unicode="B" horiz-adv-x="619" 
d="M45 0l139 698h243c103 0 159 -54 159 -144c0 -84 -41 -165 -137 -186l-1 -4c64 -15 101 -60 101 -130c0 -135 -91 -234 -221 -234h-283zM113 52h215c83 0 136 45 152 122c7 37 9 53 9 63c0 59 -38 100 -114 100h-205zM180 388h187c82 0 137 35 151 106c7 35 8 50 8 60
c0 57 -34 92 -106 92h-189z" />
    <glyph glyph-name="C" unicode="C" horiz-adv-x="599" 
d="M290 -12c-134 0 -230 91 -230 260c0 225 117 462 334 462c112 0 182 -52 211 -152l-53 -22c-23 77 -70 122 -164 122c-120 0 -214 -98 -244 -248l-18 -91c-6 -32 -8 -60 -8 -83c0 -118 64 -196 175 -196c96 0 151 49 199 135l49 -24c-61 -114 -137 -163 -251 -163z" />
    <glyph glyph-name="D" unicode="D" horiz-adv-x="650" 
d="M45 0l139 698h198c150 0 236 -90 236 -255c0 -220 -116 -443 -340 -443h-233zM114 52h165c134 0 225 97 254 242l18 86c5 29 7 58 7 80c0 118 -65 186 -180 186h-146z" />
    <glyph glyph-name="E" unicode="E" horiz-adv-x="560" 
d="M453 0h-408l140 698h398l-11 -52h-339l-54 -266h315l-10 -51h-315l-55 -277h349z" />
    <glyph glyph-name="F" unicode="F" horiz-adv-x="537" 
d="M103 0h-58l140 698h388l-11 -52h-330l-53 -266h309l-10 -51h-309z" />
    <glyph glyph-name="G" unicode="G" horiz-adv-x="661" 
d="M478 0l21 107h-3c-38 -72 -111 -119 -210 -119c-133 0 -226 90 -226 260c0 220 111 462 344 462c121 0 197 -58 224 -152l-52 -22c-26 76 -78 122 -179 122c-129 0 -222 -98 -254 -254l-17 -85c-6 -28 -8 -56 -8 -79c0 -124 65 -200 182 -200c100 0 195 59 220 181l15 75
h-160l12 53h215l-69 -349h-55z" />
    <glyph glyph-name="H" unicode="H" horiz-adv-x="682" 
d="M476 0l66 329h-373l-66 -329h-58l140 698h58l-64 -318h373l64 318h58l-140 -698h-58z" />
    <glyph glyph-name="I" unicode="I" horiz-adv-x="380" 
d="M266 0h-255l10 50h99l119 598h-98l10 50h255l-10 -50h-99l-119 -598h98z" />
    <glyph glyph-name="J" unicode="J" horiz-adv-x="481" 
d="M179 698h297l-103 -515c-25 -124 -101 -195 -213 -195c-97 0 -159 57 -164 151l53 11c5 -67 44 -110 113 -110c84 0 135 54 155 153l91 453h-239z" />
    <glyph glyph-name="K" unicode="K" horiz-adv-x="595" 
d="M466 0l-176 361l-141 -131l-46 -230h-58l140 698h58l-77 -384h5l137 130l270 254h75l-319 -300l195 -398h-63z" />
    <glyph glyph-name="L" unicode="L" horiz-adv-x="481" 
d="M405 0h-360l140 698h58l-129 -646h301z" />
    <glyph glyph-name="M" unicode="M" horiz-adv-x="781" 
d="M577 0l126 620h-5l-317 -427l-151 426h-4l-124 -619h-57l140 698h76l137 -395h3l291 395h82l-140 -698h-57z" />
    <glyph glyph-name="N" unicode="N" horiz-adv-x="681" 
d="M465 0l-237 615h-4l-123 -615h-56l140 698h69l237 -615h4l123 615h56l-140 -698h-69z" />
    <glyph glyph-name="O" unicode="O" horiz-adv-x="671" 
d="M295 -12c-136 0 -235 90 -235 256c0 219 116 466 346 466c136 0 235 -90 235 -256c0 -219 -116 -466 -346 -466zM300 40c132 0 225 100 258 261l17 83c6 31 8 61 8 84c0 116 -66 190 -182 190c-132 0 -225 -100 -258 -261l-17 -83c-6 -31 -8 -61 -8 -84
c0 -116 66 -190 182 -190z" />
    <glyph glyph-name="P" unicode="P" horiz-adv-x="586" 
d="M103 0h-58l140 698h250c112 0 164 -68 164 -160c0 -135 -86 -231 -225 -231h-209zM232 646l-56 -287h207c80 0 131 44 145 116c9 43 11 58 11 72c0 57 -30 99 -109 99h-198z" />
    <glyph glyph-name="Q" unicode="Q" horiz-adv-x="671" 
d="M235 -113c0 7 2 19 4 27l17 77c-115 15 -196 103 -196 253c0 219 116 466 346 466c136 0 235 -90 235 -256c0 -214 -111 -454 -330 -465l-21 -94h103l-12 -53h-91c-40 0 -55 19 -55 45zM300 40c132 0 225 100 258 261l17 83c6 31 8 61 8 84c0 116 -66 190 -182 190
c-132 0 -225 -100 -258 -261l-17 -83c-6 -31 -8 -61 -8 -84c0 -116 66 -190 182 -190z" />
    <glyph glyph-name="R" unicode="R" horiz-adv-x="627" 
d="M165 309l-62 -309h-58l140 698h250c112 0 164 -68 164 -160c0 -121 -70 -214 -195 -226l111 -312h-62l-107 309h-181zM176 360h207c80 0 131 44 145 115c9 43 11 58 11 72c0 57 -30 99 -109 99h-198z" />
    <glyph glyph-name="S" unicode="S" horiz-adv-x="561" 
d="M244 -12c-110 0 -189 40 -232 120l45 32c40 -68 98 -100 188 -100c131 0 191 76 191 168c0 64 -34 102 -112 119l-75 16c-94 21 -143 78 -143 165c0 110 81 202 231 202c110 0 176 -41 217 -104l-43 -34c-37 57 -90 86 -177 86c-110 0 -170 -60 -170 -147
c0 -65 34 -102 109 -119l74 -16c96 -21 147 -77 147 -166c0 -122 -85 -222 -250 -222z" />
    <glyph glyph-name="T" unicode="T" horiz-adv-x="552" 
d="M610 646h-227l-129 -646h-58l129 646h-227l10 52h513z" />
    <glyph glyph-name="U" unicode="U" horiz-adv-x="650" 
d="M179 698h58l-85 -428c-9 -42 -12 -67 -12 -92c0 -86 50 -138 144 -138c127 0 187 63 222 239l84 419h58l-85 -423c-43 -214 -119 -287 -285 -287c-122 0 -195 66 -195 185c0 33 5 68 14 114z" />
    <glyph glyph-name="V" unicode="V" horiz-adv-x="582" 
d="M276 0h-73l-90 698h58l77 -636h3l335 636h62z" />
    <glyph glyph-name="W" unicode="W" horiz-adv-x="863" 
d="M213 0h-70l-33 698h58l25 -622h3l286 622h71l38 -622h3l278 622h61l-320 -698h-68l-38 628h-4z" />
    <glyph glyph-name="X" unicode="X" horiz-adv-x="579" 
d="M339 348l155 -348h-61l-134 306h-4l-253 -306h-69l296 357l-150 341h61l132 -301h4l249 301h68z" />
    <glyph glyph-name="Y" unicode="Y" horiz-adv-x="563" 
d="M259 0h-58l56 281l-150 417h59l128 -355h4l270 355h67l-320 -417z" />
    <glyph glyph-name="Z" unicode="Z" horiz-adv-x="555" 
d="M479 52l-11 -52h-486l12 56l521 590h-389l11 52h457l-11 -56l-522 -590h418z" />
    <glyph glyph-name="bracketleft" unicode="[" horiz-adv-x="311" 
d="M165 -138h-145l180 898h145l-9 -44h-95l-162 -810h94z" />
    <glyph glyph-name="backslash" unicode="\" horiz-adv-x="348" 
d="M255 -151h-48l-71 891h48z" />
    <glyph glyph-name="bracketright" unicode="]" horiz-adv-x="311" 
d="M169 760h145l-180 -898h-146l10 44h95l162 810h-95z" />
    <glyph glyph-name="asciicircum" unicode="^" horiz-adv-x="600" 
d="M548 328l-44 -22l-126 336h-3l-260 -336l-41 25l280 367h60z" />
    <glyph glyph-name="underscore" unicode="_" horiz-adv-x="552" 
d="M441 -154h-495l10 47h495z" />
    <glyph glyph-name="grave" unicode="`" horiz-adv-x="596" 
d="M303 586l-84 156l49 24l68 -164z" />
    <glyph glyph-name="a" unicode="a" horiz-adv-x="577" 
d="M500 0h-72c-34 0 -50 18 -50 45c0 7 1 16 3 25l8 42h-3c-42 -82 -93 -124 -172 -124c-98 0 -159 77 -159 193c0 165 84 343 250 343c71 0 127 -36 144 -99h3l17 87h55l-92 -463h78zM227 38c43 0 76 17 108 47c36 32 65 78 76 137l24 119c13 65 -23 133 -125 133
c-96 0 -159 -68 -182 -180l-12 -60c-3 -19 -5 -37 -5 -59c0 -77 35 -137 116 -137z" />
    <glyph glyph-name="b" unicode="b" horiz-adv-x="565" 
d="M43 0l148 740h55l-68 -340h3c42 82 93 124 172 124c98 0 159 -77 159 -193c0 -165 -84 -343 -250 -343c-71 0 -127 36 -144 99h-3l-17 -87h-55zM257 38c96 0 159 68 182 180l12 60c3 19 5 37 5 59c0 77 -35 137 -116 137c-43 0 -76 -17 -108 -47
c-36 -32 -65 -78 -76 -137l-24 -119c-13 -65 23 -133 125 -133z" />
    <glyph glyph-name="c" unicode="c" horiz-adv-x="484" 
d="M231 -12c-114 0 -177 84 -177 206c0 182 92 330 248 330c86 0 145 -49 162 -119l-46 -19c-16 58 -57 89 -118 89c-90 0 -151 -65 -171 -169l-14 -70c-3 -19 -5 -35 -5 -52c0 -84 39 -147 126 -147c61 0 108 33 151 107l44 -21c-45 -84 -112 -135 -200 -135z" />
    <glyph glyph-name="d" unicode="d" horiz-adv-x="577" 
d="M500 0h-72c-34 0 -50 18 -50 45c0 7 1 15 3 25l8 42h-3c-42 -82 -93 -124 -172 -124c-98 0 -159 77 -159 193c0 165 84 343 250 343c71 0 127 -36 144 -99h3l63 315h55l-138 -691h78zM227 38c43 0 76 17 108 47c36 32 65 78 76 137l24 119c13 65 -23 133 -125 133
c-96 0 -159 -68 -182 -180l-12 -60c-3 -19 -5 -37 -5 -59c0 -77 35 -137 116 -137z" />
    <glyph glyph-name="e" unicode="e" horiz-adv-x="508" 
d="M240 -12c-119 0 -187 71 -187 209c0 176 105 327 261 327c90 0 163 -46 163 -132c0 -94 -87 -162 -365 -166c-2 -13 -3 -32 -3 -43c0 -95 45 -146 134 -146c72 0 130 39 170 99l38 -30c-59 -85 -133 -118 -211 -118zM308 476c-93 0 -162 -74 -184 -182l-5 -24
c252 7 301 53 301 123c0 57 -44 83 -112 83z" />
    <glyph glyph-name="f" unicode="f" horiz-adv-x="297" 
d="M212 463l-116 -581c-11 -52 -33 -82 -92 -82h-74l10 49h93l124 614h-91l9 49h91l29 146c10 52 32 82 92 82h85l-10 -49h-105l-36 -179h103l-10 -49h-102z" />
    <glyph glyph-name="g" unicode="g" horiz-adv-x="568" 
d="M214 -12c-98 0 -159 77 -159 193c0 165 84 343 250 343c71 0 127 -36 144 -99h3l18 87h55l-105 -524c-26 -131 -104 -200 -231 -200c-86 0 -143 33 -177 80l40 35c28 -42 72 -66 137 -66c94 0 157 49 178 159l22 116h-3c-42 -82 -93 -124 -172 -124zM227 38
c43 0 76 17 108 47c36 32 65 78 76 137l24 119c13 65 -23 133 -125 133c-96 0 -159 -68 -182 -180l-12 -60c-3 -19 -5 -37 -5 -59c0 -77 35 -137 116 -137z" />
    <glyph glyph-name="h" unicode="h" horiz-adv-x="558" 
d="M43 0l148 740h55l-66 -331h4c37 77 88 115 166 115c87 0 132 -52 132 -139c0 -19 -2 -43 -7 -66l-54 -270h78l-9 -49h-75c-29 0 -48 13 -48 43c0 6 0 10 2 19l51 257c4 21 6 44 6 57c0 65 -30 98 -93 98c-40 0 -77 -14 -110 -49c-29 -31 -56 -79 -66 -128l-59 -297h-55z
" />
    <glyph glyph-name="i" unicode="i" horiz-adv-x="254" 
d="M204 651c-25 0 -34 13 -34 28c0 4 0 8 3 22c4 20 17 32 43 32c25 0 34 -13 34 -28c0 -4 0 -8 -3 -22c-4 -20 -17 -32 -43 -32zM176 0h-71c-34 0 -51 18 -51 46c0 6 0 11 2 20l90 446h55l-93 -463h78z" />
    <glyph glyph-name="j" unicode="j" horiz-adv-x="244" 
d="M13 -151l132 663h55l-127 -637c-11 -53 -32 -75 -85 -75h-69l10 49h84zM203 651c-24 0 -33 13 -33 28c0 4 0 8 3 22c4 20 17 32 44 32c24 0 33 -13 33 -28c0 -4 0 -8 -3 -22c-4 -20 -17 -32 -44 -32z" />
    <glyph glyph-name="k" unicode="k" horiz-adv-x="503" 
d="M43 0l148 740h55l-97 -486h4l100 90l191 168h68l-235 -210l119 -253h63l-10 -49h-46c-34 0 -50 11 -63 41l-107 229l-98 -86l-37 -184h-55z" />
    <glyph glyph-name="l" unicode="l" horiz-adv-x="253" 
d="M179 0h-74c-34 0 -51 18 -51 46c0 6 0 9 2 20l135 674h55l-138 -691h81z" />
    <glyph glyph-name="m" unicode="m" horiz-adv-x="846" 
d="M98 0h-55l102 512h56l-21 -103h4c36 74 85 115 162 115c76 0 117 -48 122 -118h5c35 76 90 118 168 118c85 0 129 -51 129 -138c0 -20 -2 -43 -7 -66l-54 -271h78l-10 -49h-74c-30 0 -49 14 -49 42c0 9 2 17 4 28l50 249c4 21 6 44 6 59c0 63 -29 96 -90 96
c-37 0 -73 -15 -104 -49c-29 -32 -52 -77 -61 -125l-61 -300h-55l64 319c4 21 7 44 7 60c0 62 -29 95 -86 95c-38 0 -74 -17 -103 -49c-32 -33 -58 -82 -68 -128z" />
    <glyph glyph-name="n" unicode="n" horiz-adv-x="558" 
d="M98 0h-55l102 512h56l-21 -103h4c37 77 88 115 166 115c87 0 132 -52 132 -139c0 -19 -2 -43 -7 -66l-54 -270h78l-10 -49h-74c-30 0 -49 14 -49 42c0 9 2 17 4 28l50 249c4 21 6 44 6 57c0 65 -30 98 -93 98c-40 0 -77 -14 -110 -49c-29 -31 -56 -79 -66 -128z" />
    <glyph glyph-name="o" unicode="o" horiz-adv-x="544" 
d="M231 -12c-107 0 -178 75 -178 200c0 178 99 336 260 336c107 0 178 -75 178 -200c0 -178 -99 -336 -260 -336zM238 37c89 0 157 67 180 184l12 61c4 18 5 36 5 56c0 78 -42 137 -129 137c-89 0 -157 -67 -180 -184l-12 -61c-4 -18 -5 -36 -5 -56c0 -78 42 -137 129 -137z
" />
    <glyph glyph-name="p" unicode="p" horiz-adv-x="566" 
d="M2 -200l143 712h55l-23 -112h3c42 82 93 124 172 124c98 0 159 -77 159 -193c0 -165 -84 -343 -250 -343c-71 0 -127 36 -144 99h-3l-57 -287h-55zM256 38c96 0 159 68 182 180l12 60c3 19 5 37 5 59c0 77 -35 137 -116 137c-43 0 -76 -17 -108 -47
c-36 -32 -65 -78 -76 -137l-24 -119c-13 -65 23 -133 125 -133z" />
    <glyph glyph-name="q" unicode="q" horiz-adv-x="567" 
d="M327 -200l62 312h-3c-42 -82 -93 -124 -172 -124c-98 0 -159 77 -159 193c0 165 84 343 250 343c71 0 127 -36 144 -99h3l17 87h55l-142 -712h-55zM227 38c43 0 76 17 108 47c36 32 65 78 76 137l24 119c13 65 -23 133 -125 133c-96 0 -159 -68 -182 -180l-12 -60
c-3 -19 -5 -37 -5 -59c0 -77 35 -137 116 -137z" />
    <glyph glyph-name="r" unicode="r" horiz-adv-x="354" 
d="M98 0h-55l102 512h56l-23 -107h4c31 57 75 107 162 107h32l-11 -55h-33c-97 0 -157 -71 -174 -155z" />
    <glyph glyph-name="s" unicode="s" horiz-adv-x="462" 
d="M205 -12c-81 0 -150 34 -191 96l39 33c37 -54 87 -81 152 -81c78 0 132 39 132 111c0 45 -24 70 -87 84l-43 10c-74 16 -129 47 -129 129c0 89 67 154 181 154c81 0 130 -31 166 -77l-39 -34c-25 35 -62 63 -131 63c-79 0 -123 -40 -123 -102c0 -46 24 -70 85 -84l43 -10
c77 -17 130 -48 130 -130c0 -102 -80 -162 -185 -162z" />
    <glyph glyph-name="t" unicode="t" horiz-adv-x="313" 
d="M221 0h-97c-37 0 -52 18 -52 45c0 10 1 20 3 28l78 390h-84l10 49h51c30 0 38 11 43 40l21 103h52l-29 -143h114l-10 -49h-113l-83 -414h106z" />
    <glyph glyph-name="u" unicode="u" horiz-adv-x="557" 
d="M138 512h55l-64 -319c-4 -20 -5 -44 -5 -57c0 -64 28 -98 91 -98c40 0 77 14 109 49c31 34 56 81 66 128l59 297h55l-92 -463h77l-9 -49h-73c-33 0 -49 18 -49 46c0 6 1 13 3 24l6 33h-4c-37 -77 -88 -115 -164 -115c-87 0 -132 52 -132 139c0 19 3 43 7 66z" />
    <glyph glyph-name="v" unicode="v" horiz-adv-x="475" 
d="M218 0h-65l-84 512h54l70 -451h4l247 451h59z" />
    <glyph glyph-name="w" unicode="w" horiz-adv-x="731" 
d="M115 0l-38 512h53l29 -452h4l221 452h55l41 -450h4l211 450h54l-243 -512h-67l-40 429h-4l-210 -429h-70z" />
    <glyph glyph-name="x" unicode="x" horiz-adv-x="486" 
d="M46 0h-66l231 263l-128 249h59l107 -212h4l183 212h65l-224 -255l134 -257h-59l-113 221h-4z" />
    <glyph glyph-name="y" unicode="y" horiz-adv-x="475" 
d="M199 61l245 451h59l-364 -652c-24 -44 -43 -60 -83 -60h-78l10 48h89l78 141l-85 523h54l71 -451h4z" />
    <glyph glyph-name="z" unicode="z" horiz-adv-x="441" 
d="M359 0h-362l9 48l365 415h-283l9 49h349l-9 -48l-365 -415h297z" />
    <glyph glyph-name="braceleft" unicode="{" horiz-adv-x="324" 
d="M184 -138h-86c-32 0 -49 18 -49 45c0 5 1 11 4 26l51 256c2 10 3 18 3 26c0 45 -30 63 -77 63l13 66c66 0 99 34 110 89l53 266c8 41 30 61 65 61h92l-8 -45h-96l-55 -279c-13 -62 -47 -114 -119 -119l-3 -16c48 -5 76 -34 76 -83c0 -10 -2 -21 -4 -32l-56 -279h97z" />
    <glyph glyph-name="bar" unicode="|" horiz-adv-x="277" 
d="M84 -138h-48l180 898h48z" />
    <glyph glyph-name="braceright" unicode="}" horiz-adv-x="324" 
d="M-17 -138l8 45h96l55 279c12 62 46 113 118 118l4 16c-48 5 -76 35 -76 84c0 10 2 21 4 32l56 279h-97l10 45h87c32 0 48 -18 48 -45c0 -5 0 -11 -3 -26l-52 -256c-2 -10 -3 -18 -3 -26c0 -45 31 -63 78 -63l-14 -66c-65 0 -98 -34 -109 -89l-54 -266
c-8 -41 -29 -61 -64 -61h-92z" />
    <glyph glyph-name="asciitilde" unicode="~" horiz-adv-x="600" 
d="M416 244c-43 0 -71 13 -117 38c-40 21 -67 35 -106 35c-34 0 -59 -12 -94 -37l-20 34c36 32 72 51 125 51c43 0 71 -13 117 -38c40 -21 67 -35 106 -35c34 0 59 12 94 37l20 -34c-36 -32 -72 -51 -125 -51z" />
    <glyph glyph-name="uni00A0" unicode="&#xa0;" horiz-adv-x="236" 
 />
    <glyph glyph-name="exclamdown" unicode="&#xa1;" horiz-adv-x="262" 
d="M73 -185h-60l47 235l72 281h28l-41 -281zM166 420c-27 0 -41 12 -41 32c0 7 2 20 4 28c4 20 15 41 50 41c27 0 41 -12 41 -32c0 -7 -2 -20 -4 -28c-4 -20 -15 -41 -50 -41z" />
    <glyph glyph-name="cent" unicode="&#xa2;" horiz-adv-x="498" 
d="M164 -114l22 107c-85 18 -132 95 -132 202c0 175 86 321 238 328l20 103h50l-22 -106c66 -13 108 -55 126 -114l-49 -21c-13 48 -43 77 -88 87l-86 -436c59 3 102 36 144 108l44 -21c-50 -89 -111 -132 -198 -135l-20 -102h-49zM108 183c0 -69 27 -127 88 -141l86 431
c-82 -8 -137 -70 -155 -167l-14 -70c-4 -18 -5 -34 -5 -53z" />
    <glyph glyph-name="sterling" unicode="&#xa3;" horiz-adv-x="578" 
d="M456 0h-427l14 72c89 38 119 122 120 198c0 9 -1 18 -1 27h-91l10 49h77c-5 41 -9 83 -9 122c0 144 101 242 243 242c95 0 157 -43 192 -117l-49 -31c-28 63 -74 96 -147 96c-106 0 -180 -68 -180 -195c0 -38 4 -78 8 -117h211l-10 -49h-198c1 -9 1 -19 1 -28
c-4 -98 -58 -179 -124 -213l-1 -4h372z" />
    <glyph glyph-name="currency" unicode="&#xa4;" horiz-adv-x="600" 
d="M277 123c-58 0 -101 18 -129 50l-118 -97l-32 38l124 102c-9 21 -13 45 -13 72c0 20 2 42 7 65c12 56 31 104 59 138l-88 109l39 32l86 -106c40 32 90 49 146 49c58 0 101 -18 129 -50l118 97l32 -38l-124 -102c9 -21 13 -45 13 -72c0 -20 -2 -42 -7 -65
c-12 -56 -31 -104 -59 -138l88 -109l-39 -32l-86 106c-40 -32 -90 -49 -146 -49zM281 171c90 0 153 53 174 150l12 56c3 15 4 31 4 42c0 71 -42 108 -117 108c-90 0 -153 -53 -174 -150l-12 -56c-3 -15 -4 -31 -4 -42c0 -71 42 -108 117 -108z" />
    <glyph glyph-name="yen" unicode="&#xa5;" horiz-adv-x="583" 
d="M481 154h-181l-31 -154h-58l32 154h-180l10 47h179l23 114h-179l10 47h150l-127 336h61l119 -327h4l252 327h67l-264 -336h156l-10 -47h-182l-23 -114h182z" />
    <glyph glyph-name="brokenbar" unicode="&#xa6;" horiz-adv-x="277" 
d="M192 404h-48l72 356h48zM84 -138h-48l72 356h48z" />
    <glyph glyph-name="section" unicode="&#xa7;" horiz-adv-x="560" 
d="M399 16c0 -107 -88 -171 -201 -171c-69 0 -124 20 -161 57l38 38c30 -28 73 -46 128 -46c78 0 139 43 139 116c0 51 -26 82 -84 101l-66 22c-82 28 -116 65 -116 128c0 83 57 138 141 158l1 7c-39 28 -56 67 -56 113c0 107 88 171 201 171c69 0 124 -20 161 -57l-38 -38
c-30 28 -73 46 -128 46c-78 0 -139 -43 -139 -116c0 -51 26 -82 84 -101l66 -22c82 -28 116 -65 116 -128c0 -83 -57 -138 -141 -158l-1 -7c39 -28 56 -67 56 -113zM428 277c0 56 -26 81 -93 103l-66 22c-9 2 -16 5 -23 8c-71 -26 -113 -73 -113 -132c0 -56 26 -81 93 -103
l66 -22c9 -2 16 -5 23 -8c71 26 113 73 113 132z" />
    <glyph glyph-name="dieresis" unicode="&#xa8;" horiz-adv-x="596" 
d="M223 626c-25 0 -34 13 -34 28c0 4 0 8 3 22c4 20 17 32 43 32c25 0 34 -13 34 -28c0 -4 0 -8 -3 -22c-4 -20 -17 -32 -43 -32zM405 626c-25 0 -34 13 -34 28c0 4 0 8 3 22c4 20 17 32 43 32c25 0 34 -13 34 -28c0 -4 0 -8 -3 -22c-4 -20 -17 -32 -43 -32z" />
    <glyph glyph-name="copyright" unicode="&#xa9;" horiz-adv-x="752" 
d="M342 -12c-174 0 -289 120 -289 300c0 246 168 421 387 421c174 0 289 -120 289 -300c0 -246 -168 -421 -387 -421zM344 30c164 0 293 120 322 266c11 52 16 87 16 113c0 154 -96 258 -244 258c-164 0 -293 -120 -322 -266c-11 -52 -16 -87 -16 -113
c0 -154 96 -258 244 -258zM364 153c-79 0 -131 53 -131 148c0 137 78 242 190 242c68 0 109 -42 124 -89l-42 -17c-12 38 -39 63 -85 63c-63 0 -109 -48 -124 -125l-9 -44c-2 -14 -3 -26 -3 -35c0 -60 31 -99 85 -99c41 0 77 23 106 68l35 -26c-30 -49 -82 -86 -146 -86z
" />
    <glyph glyph-name="ordfeminine" unicode="&#xaa;" horiz-adv-x="376" 
d="M368 396l-8 -40h-39c-26 0 -37 9 -37 27c0 3 1 10 2 14l2 10h-3c-20 -29 -59 -57 -117 -57s-92 31 -92 78c0 72 50 116 157 116h81l7 37c1 8 2 17 2 25c0 41 -25 60 -70 60c-43 0 -80 -20 -103 -54l-28 23c27 39 75 69 136 69c68 0 109 -33 109 -98c0 -8 -1 -20 -3 -31
l-36 -179h40zM307 510h-81c-64 0 -93 -22 -101 -54c-3 -14 -4 -20 -4 -24c0 -30 21 -45 59 -45c55 0 108 29 117 76z" />
    <glyph glyph-name="guillemotleft" unicode="&#xab;" horiz-adv-x="485" 
d="M408 125l-24 -36l-157 174l11 53l223 170l11 -43l-185 -159zM217 125l-24 -36l-157 174l11 53l223 170l11 -43l-185 -159z" />
    <glyph glyph-name="logicalnot" unicode="&#xac;" horiz-adv-x="600" 
d="M490 87h-49l38 194h-411l10 48h460z" />
    <glyph glyph-name="uni00AD" unicode="&#xad;" horiz-adv-x="387" 
d="M319 275h-243l12 58h242z" />
    <glyph glyph-name="registered" unicode="&#xae;" horiz-adv-x="468" 
d="M258 298c-99 0 -172 73 -172 171c0 123 79 241 223 241c99 0 172 -73 172 -171c0 -123 -79 -241 -223 -241zM262 328c94 0 162 65 180 154c5 23 7 45 7 55c0 84 -59 143 -144 143c-94 0 -162 -65 -180 -154c-5 -23 -7 -45 -7 -55c0 -84 59 -143 144 -143zM241 484
l-16 -85h-30l42 210h80c36 0 55 -21 55 -51c0 -40 -24 -67 -56 -71l33 -88h-32l-29 85h-47zM246 508h51c21 0 35 7 39 28c3 16 4 21 4 25c0 13 -9 22 -27 22h-52z" />
    <glyph glyph-name="macron" unicode="&#xaf;" horiz-adv-x="596" 
d="M181 646l10 48h267l-10 -48h-267z" />
    <glyph glyph-name="degree" unicode="&#xb0;" horiz-adv-x="459" 
d="M266 369c-82 0 -143 62 -143 151c0 109 77 190 182 190c82 0 143 -62 143 -150c0 -110 -77 -191 -182 -191zM272 416c75 0 127 62 127 142c0 59 -37 106 -100 106c-75 0 -126 -63 -126 -143c0 -59 37 -105 99 -105z" />
    <glyph glyph-name="plusminus" unicode="&#xb1;" horiz-adv-x="600" 
d="M304 138h-53l43 213h-205l10 48h204l43 213h52l-42 -213h203l-10 -48h-203zM479 0h-460l9 48h461z" />
    <glyph glyph-name="twosuperior" unicode="&#xb2;" horiz-adv-x="339" 
d="M315 366l-7 -37h-259l8 44l145 103c54 38 90 66 98 108c2 9 3 16 3 22c0 36 -27 60 -71 60c-49 0 -78 -30 -95 -68l-38 16c23 51 64 90 138 90c66 0 114 -36 114 -97c0 -71 -62 -114 -126 -159l-118 -82h208z" />
    <glyph glyph-name="threesuperior" unicode="&#xb3;" horiz-adv-x="341" 
d="M165 539h46c65 0 87 28 93 60c1 7 2 12 2 16c0 30 -22 52 -66 52c-42 0 -74 -16 -98 -47l-27 25c28 35 69 59 129 59c69 0 108 -38 108 -89c0 -52 -39 -87 -90 -95v-2c40 -7 63 -33 63 -75c0 -70 -56 -120 -143 -120c-71 0 -110 30 -126 64l33 23c15 -31 42 -50 94 -50
c60 0 86 25 95 69c2 8 2 12 2 16c0 36 -24 57 -75 57h-47z" />
    <glyph glyph-name="acute" unicode="&#xb4;" horiz-adv-x="596" 
d="M439 742l-133 -156l-35 19l120 164z" />
    <glyph glyph-name="mu" unicode="&#xb5;" horiz-adv-x="565" 
d="M58 -200h-55l143 712h55l-64 -319c-4 -20 -5 -44 -5 -57c0 -64 28 -98 91 -98c40 0 78 14 109 49c31 34 56 81 66 128l59 297h55l-92 -463h77l-9 -49h-72c-34 0 -50 17 -50 47c0 7 2 22 5 36l4 22h-3c-39 -77 -83 -117 -155 -117c-70 0 -104 40 -113 105h-3l-12 -140z
" />
    <glyph glyph-name="paragraph" unicode="&#xb6;" horiz-adv-x="614" 
d="M161 -149l93 461c-86 0 -157 72 -157 167c0 132 106 219 238 219h281l-9 -47h-66l-161 -800h-51l160 800h-116l-160 -800h-52z" />
    <glyph glyph-name="periodcentered" unicode="&#xb7;" horiz-adv-x="309" 
d="M151 254c-27 0 -41 12 -41 32c0 7 2 20 4 28c4 20 15 41 50 41c27 0 41 -12 41 -32c0 -7 -2 -20 -4 -28c-4 -20 -15 -41 -50 -41z" />
    <glyph glyph-name="cedilla" unicode="&#xb8;" horiz-adv-x="596" 
d="M277 -205c-45 0 -78 16 -91 35l30 30c10 -14 31 -26 59 -26c35 0 57 19 57 45c0 22 -13 35 -54 39l-30 3l32 92h38l-29 -79l2 -2c8 1 18 3 30 3c34 0 58 -16 58 -55c0 -49 -41 -85 -102 -85z" />
    <glyph glyph-name="onesuperior" unicode="&#xb9;" horiz-adv-x="337" 
d="M323 329h-262l8 37h114l59 298h-4l-116 -87l-23 28l126 93h68l-66 -332h104z" />
    <glyph glyph-name="ordmasculine" unicode="&#xba;" horiz-adv-x="379" 
d="M215 350c-74 0 -122 54 -122 131c0 21 2 43 7 64c19 87 76 159 171 159c74 0 122 -54 122 -130c0 -22 -2 -44 -7 -65c-19 -86 -76 -159 -171 -159zM220 388c61 0 101 47 114 111l10 49c2 10 4 21 4 30c0 51 -27 88 -82 88c-61 0 -101 -47 -114 -111l-10 -49
c-2 -10 -4 -20 -4 -30c0 -51 27 -88 82 -88z" />
    <glyph glyph-name="guillemotright" unicode="&#xbb;" horiz-adv-x="485" 
d="M32 89l-11 43l186 158l-122 159l24 37l157 -175l-10 -52zM223 89l-11 43l186 158l-122 159l24 37l157 -175l-10 -52z" />
    <glyph glyph-name="onequarter" unicode="&#xbc;" horiz-adv-x="845" 
d="M705 0h-42l16 79h-194l7 39l231 251h56l-50 -255h57l-7 -35h-57zM686 114l41 205h-3l-190 -205h152zM189 0h-53l607 698h53zM323 329h-262l8 37h114l59 298h-4l-116 -87l-23 28l126 93h68l-66 -332h104z" />
    <glyph glyph-name="onehalf" unicode="&#xbd;" horiz-adv-x="860" 
d="M775 37l-8 -37h-259l9 44l145 103c54 38 90 66 98 108c2 9 3 16 3 22c0 36 -27 60 -71 60c-49 0 -79 -30 -95 -68l-38 16c23 51 64 90 138 90c66 0 114 -36 114 -97c0 -71 -62 -114 -126 -159l-118 -82h208zM189 0h-53l607 698h53zM323 329h-262l8 37h114l59 298h-4
l-116 -87l-23 28l126 93h68l-66 -332h104z" />
    <glyph glyph-name="threequarters" unicode="&#xbe;" horiz-adv-x="819" 
d="M679 0h-42l16 79h-194l7 39l231 251h56l-50 -255h57l-7 -35h-57zM660 114l41 205h-3l-190 -205h152zM163 0h-53l607 698h53zM165 539h46c65 0 87 28 93 60c1 7 2 12 2 16c0 30 -22 52 -66 52c-42 0 -74 -16 -98 -47l-27 25c28 35 69 59 129 59c69 0 108 -38 108 -89
c0 -52 -39 -87 -90 -95v-2c40 -7 63 -33 63 -75c0 -70 -56 -120 -143 -120c-71 0 -110 30 -126 64l33 23c15 -31 42 -50 94 -50c60 0 86 25 95 69c2 8 2 12 2 16c0 36 -24 57 -75 57h-47z" />
    <glyph glyph-name="questiondown" unicode="&#xbf;" horiz-adv-x="463" 
d="M162 -198c-107 0 -176 61 -176 159c0 116 80 209 228 229l25 126h54l-33 -168c-121 -7 -197 -61 -210 -143c-2 -11 -4 -31 -4 -41c0 -68 42 -111 120 -111c86 0 133 50 164 126l49 -19c-39 -96 -106 -158 -217 -158zM288 420c-27 0 -41 12 -41 32c0 7 2 20 4 28
c4 20 15 41 50 41c27 0 41 -12 41 -32c0 -7 -2 -20 -4 -28c-4 -20 -15 -41 -50 -41z" />
    <glyph glyph-name="Agrave" unicode="&#xc0;" horiz-adv-x="612" 
d="M400 760l-84 158l49 24l69 -166zM536 0h-59l-34 217h-289l-113 -217h-62l370 698h77zM437 268l-58 373h-4l-194 -373h256z" />
    <glyph glyph-name="Aacute" unicode="&#xc1;" horiz-adv-x="612" 
d="M534 916l-133 -156l-34 20l119 163zM536 0h-59l-34 217h-289l-113 -217h-62l370 698h77zM437 268l-58 373h-4l-194 -373h256z" />
    <glyph glyph-name="Acircumflex" unicode="&#xc2;" horiz-adv-x="612" 
d="M396 930h66l92 -139l-32 -22l-98 119l-142 -120l-30 24zM536 0h-59l-34 217h-289l-113 -217h-62l370 698h77zM437 268l-58 373h-4l-194 -373h256z" />
    <glyph glyph-name="Atilde" unicode="&#xc3;" horiz-adv-x="612" 
d="M475 792c-31 0 -50 12 -74 28c-27 18 -45 24 -64 24c-23 0 -41 -10 -64 -29l-21 28c25 28 55 48 93 48c31 0 50 -12 74 -28c27 -18 45 -24 64 -24c23 0 41 10 64 29l21 -28c-25 -28 -55 -48 -93 -48zM536 0h-59l-34 217h-289l-113 -217h-62l370 698h77zM437 268l-58 373
h-4l-194 -373h256z" />
    <glyph glyph-name="Adieresis" unicode="&#xc4;" horiz-adv-x="612" 
d="M315 800c-25 0 -34 13 -34 28c0 4 0 8 3 22c4 20 17 32 43 32c25 0 34 -13 34 -28c0 -4 0 -8 -3 -22c-4 -20 -17 -32 -43 -32zM497 800c-25 0 -34 13 -34 28c0 4 0 8 3 22c4 20 17 32 43 32c25 0 34 -13 34 -28c0 -4 0 -8 -3 -22c-4 -20 -17 -32 -43 -32zM536 0h-59
l-34 217h-289l-113 -217h-62l370 698h77zM437 268l-58 373h-4l-194 -373h256z" />
    <glyph glyph-name="Aring" unicode="&#xc5;" horiz-adv-x="612" 
d="M402 755c-60 0 -90 41 -90 89c0 74 47 122 120 122c60 0 90 -41 90 -89c0 -74 -47 -122 -120 -122zM407 791c38 0 63 22 70 60c3 15 4 23 4 30c0 30 -18 49 -54 49c-38 0 -63 -22 -70 -60c-3 -15 -4 -23 -4 -30c0 -30 18 -49 54 -49zM536 0h-59l-34 217h-289l-113 -217
h-62l370 698h77zM437 268l-58 373h-4l-194 -373h256z" />
    <glyph glyph-name="AE" unicode="&#xc6;" horiz-adv-x="885" 
d="M370 0l43 216h-228l-153 -216h-66l498 698h444l-11 -52h-339l-54 -266h315l-10 -51h-315l-55 -277h349l-10 -52h-408zM500 649h-10l-269 -382h203z" />
    <glyph glyph-name="Ccedilla" unicode="&#xc7;" horiz-adv-x="599" 
d="M388 658c-120 0 -214 -98 -244 -248l-18 -91c-6 -32 -8 -60 -8 -83c0 -118 64 -196 175 -196c96 0 151 49 199 135l49 -24c-60 -110 -133 -160 -241 -163l-21 -54l2 -2c8 1 18 3 31 3c34 0 58 -16 58 -55c0 -49 -41 -85 -103 -85c-45 0 -77 16 -91 35l30 30
c11 -14 31 -26 60 -26c35 0 57 19 57 45c0 22 -13 35 -54 39l-31 3l25 68c-120 13 -203 103 -203 259c0 225 117 462 334 462c112 0 182 -52 211 -152l-53 -22c-23 77 -70 122 -164 122z" />
    <glyph glyph-name="Egrave" unicode="&#xc8;" horiz-adv-x="560" 
d="M393 760l-84 158l49 24l69 -166zM453 0h-408l140 698h398l-11 -52h-339l-54 -266h315l-10 -51h-315l-55 -277h349z" />
    <glyph glyph-name="Eacute" unicode="&#xc9;" horiz-adv-x="560" 
d="M527 916l-133 -156l-34 20l119 163zM453 0h-408l140 698h398l-11 -52h-339l-54 -266h315l-10 -51h-315l-55 -277h349z" />
    <glyph glyph-name="Ecircumflex" unicode="&#xca;" horiz-adv-x="560" 
d="M389 930h66l92 -139l-32 -22l-98 119l-142 -120l-30 24zM453 0h-408l140 698h398l-11 -52h-339l-54 -266h315l-10 -51h-315l-55 -277h349z" />
    <glyph glyph-name="Edieresis" unicode="&#xcb;" horiz-adv-x="560" 
d="M308 800c-25 0 -34 13 -34 28c0 4 0 8 3 22c4 20 17 32 43 32c25 0 34 -13 34 -28c0 -4 0 -8 -3 -22c-4 -20 -17 -32 -43 -32zM490 800c-25 0 -34 13 -34 28c0 4 0 8 3 22c4 20 17 32 43 32c25 0 34 -13 34 -28c0 -4 0 -8 -3 -22c-4 -20 -17 -32 -43 -32zM453 0h-408
l140 698h398l-11 -52h-339l-54 -266h315l-10 -51h-315l-55 -277h349z" />
    <glyph glyph-name="Igrave" unicode="&#xcc;" horiz-adv-x="380" 
d="M289 760l-84 158l49 24l69 -166zM266 0h-255l10 50h99l119 598h-98l10 50h255l-10 -50h-99l-119 -598h98z" />
    <glyph glyph-name="Iacute" unicode="&#xcd;" horiz-adv-x="380" 
d="M423 916l-133 -156l-34 20l119 163zM266 0h-255l10 50h99l119 598h-98l10 50h255l-10 -50h-99l-119 -598h98z" />
    <glyph glyph-name="Icircumflex" unicode="&#xce;" horiz-adv-x="380" 
d="M285 930h66l92 -139l-32 -22l-98 119l-142 -120l-30 24zM266 0h-255l10 50h99l119 598h-98l10 50h255l-10 -50h-99l-119 -598h98z" />
    <glyph glyph-name="Idieresis" unicode="&#xcf;" horiz-adv-x="380" 
d="M204 800c-25 0 -34 13 -34 28c0 4 0 8 3 22c4 20 17 32 43 32c25 0 34 -13 34 -28c0 -4 0 -8 -3 -22c-4 -20 -17 -32 -43 -32zM386 800c-25 0 -34 13 -34 28c0 4 0 8 3 22c4 20 17 32 43 32c25 0 34 -13 34 -28c0 -4 0 -8 -3 -22c-4 -20 -17 -32 -43 -32zM266 0h-255
l10 50h99l119 598h-98l10 50h255l-10 -50h-99l-119 -598h98z" />
    <glyph glyph-name="Eth" unicode="&#xd0;" horiz-adv-x="653" 
d="M48 0l69 346h-79l9 45h80l60 307h198c150 0 236 -90 236 -255c0 -220 -116 -443 -340 -443h-233zM117 52h165c134 0 225 98 254 242l18 86c5 29 7 58 7 80c0 118 -65 186 -180 186h-146l-50 -255h146l-10 -45h-146z" />
    <glyph glyph-name="Ntilde" unicode="&#xd1;" horiz-adv-x="681" 
d="M523 792c-31 0 -50 12 -74 28c-27 18 -45 24 -64 24c-23 0 -41 -10 -64 -29l-21 28c25 28 55 48 93 48c31 0 50 -12 74 -28c27 -18 45 -24 64 -24c23 0 41 10 64 29l21 -28c-25 -28 -55 -48 -93 -48zM465 0l-237 615h-4l-123 -615h-56l140 698h69l237 -615h4l123 615h56
l-140 -698h-69z" />
    <glyph glyph-name="Ograve" unicode="&#xd2;" horiz-adv-x="671" 
d="M426 760l-84 158l49 24l69 -166zM295 -12c-136 0 -235 90 -235 256c0 219 116 466 346 466c136 0 235 -90 235 -256c0 -219 -116 -466 -346 -466zM300 40c132 0 225 100 258 261l17 83c6 31 8 61 8 84c0 116 -66 190 -182 190c-132 0 -225 -100 -258 -261l-17 -83
c-6 -31 -8 -61 -8 -84c0 -116 66 -190 182 -190z" />
    <glyph glyph-name="Oacute" unicode="&#xd3;" horiz-adv-x="671" 
d="M560 916l-133 -156l-34 20l119 163zM295 -12c-136 0 -235 90 -235 256c0 219 116 466 346 466c136 0 235 -90 235 -256c0 -219 -116 -466 -346 -466zM300 40c132 0 225 100 258 261l17 83c6 31 8 61 8 84c0 116 -66 190 -182 190c-132 0 -225 -100 -258 -261l-17 -83
c-6 -31 -8 -61 -8 -84c0 -116 66 -190 182 -190z" />
    <glyph glyph-name="Ocircumflex" unicode="&#xd4;" horiz-adv-x="671" 
d="M422 930h66l92 -139l-32 -22l-98 119l-142 -120l-30 24zM295 -12c-136 0 -235 90 -235 256c0 219 116 466 346 466c136 0 235 -90 235 -256c0 -219 -116 -466 -346 -466zM300 40c132 0 225 100 258 261l17 83c6 31 8 61 8 84c0 116 -66 190 -182 190
c-132 0 -225 -100 -258 -261l-17 -83c-6 -31 -8 -61 -8 -84c0 -116 66 -190 182 -190z" />
    <glyph glyph-name="Otilde" unicode="&#xd5;" horiz-adv-x="671" 
d="M501 792c-31 0 -50 12 -74 28c-27 18 -45 24 -64 24c-23 0 -41 -10 -64 -29l-21 28c25 28 55 48 93 48c31 0 50 -12 74 -28c27 -18 45 -24 64 -24c23 0 41 10 64 29l21 -28c-25 -28 -55 -48 -93 -48zM295 -12c-136 0 -235 90 -235 256c0 219 116 466 346 466
c136 0 235 -90 235 -256c0 -219 -116 -466 -346 -466zM300 40c132 0 225 100 258 261l17 83c6 31 8 61 8 84c0 116 -66 190 -182 190c-132 0 -225 -100 -258 -261l-17 -83c-6 -31 -8 -61 -8 -84c0 -116 66 -190 182 -190z" />
    <glyph glyph-name="Odieresis" unicode="&#xd6;" horiz-adv-x="671" 
d="M341 800c-25 0 -34 13 -34 28c0 4 0 8 3 22c4 20 17 32 43 32c25 0 34 -13 34 -28c0 -4 0 -8 -3 -22c-4 -20 -17 -32 -43 -32zM523 800c-25 0 -34 13 -34 28c0 4 0 8 3 22c4 20 17 32 43 32c25 0 34 -13 34 -28c0 -4 0 -8 -3 -22c-4 -20 -17 -32 -43 -32zM295 -12
c-136 0 -235 90 -235 256c0 219 116 466 346 466c136 0 235 -90 235 -256c0 -219 -116 -466 -346 -466zM300 40c132 0 225 100 258 261l17 83c6 31 8 61 8 84c0 116 -66 190 -182 190c-132 0 -225 -100 -258 -261l-17 -83c-6 -31 -8 -61 -8 -84c0 -116 66 -190 182 -190z
" />
    <glyph glyph-name="multiply" unicode="&#xd7;" horiz-adv-x="600" 
d="M434 100l-130 169l-198 -170l-30 38l199 171l-130 169l39 34l130 -169l198 169l29 -38l-198 -170l130 -170z" />
    <glyph glyph-name="Oslash" unicode="&#xd8;" horiz-adv-x="671" 
d="M295 -12c-69 0 -127 23 -169 68l-86 -97l-37 32l93 106c-23 39 -36 88 -36 147c0 219 116 466 346 466c69 0 127 -23 169 -68l86 97l37 -32l-93 -106c23 -39 36 -88 36 -147c0 -219 -116 -466 -346 -466zM126 314c-6 -31 -8 -61 -8 -84c0 -34 6 -64 17 -90l405 459
c-31 37 -78 59 -139 59c-132 0 -225 -100 -258 -261zM575 384c6 31 8 61 8 84c0 34 -6 64 -17 90l-405 -459c31 -37 78 -59 139 -59c132 0 225 100 258 261z" />
    <glyph glyph-name="Ugrave" unicode="&#xd9;" horiz-adv-x="650" 
d="M424 760l-84 158l49 24l69 -166zM179 698h58l-85 -428c-9 -42 -12 -67 -12 -92c0 -86 50 -138 144 -138c127 0 187 63 222 239l84 419h58l-85 -423c-43 -214 -119 -287 -285 -287c-122 0 -195 66 -195 185c0 33 5 68 14 114z" />
    <glyph glyph-name="Uacute" unicode="&#xda;" horiz-adv-x="650" 
d="M558 916l-133 -156l-34 20l119 163zM179 698h58l-85 -428c-9 -42 -12 -67 -12 -92c0 -86 50 -138 144 -138c127 0 187 63 222 239l84 419h58l-85 -423c-43 -214 -119 -287 -285 -287c-122 0 -195 66 -195 185c0 33 5 68 14 114z" />
    <glyph glyph-name="Ucircumflex" unicode="&#xdb;" horiz-adv-x="650" 
d="M420 930h66l92 -139l-32 -22l-98 119l-142 -120l-30 24zM179 698h58l-85 -428c-9 -42 -12 -67 -12 -92c0 -86 50 -138 144 -138c127 0 187 63 222 239l84 419h58l-85 -423c-43 -214 -119 -287 -285 -287c-122 0 -195 66 -195 185c0 33 5 68 14 114z" />
    <glyph glyph-name="Udieresis" unicode="&#xdc;" horiz-adv-x="650" 
d="M339 800c-25 0 -34 13 -34 28c0 4 0 8 3 22c4 20 17 32 43 32c25 0 34 -13 34 -28c0 -4 0 -8 -3 -22c-4 -20 -17 -32 -43 -32zM521 800c-25 0 -34 13 -34 28c0 4 0 8 3 22c4 20 17 32 43 32c25 0 34 -13 34 -28c0 -4 0 -8 -3 -22c-4 -20 -17 -32 -43 -32zM179 698h58
l-85 -428c-9 -42 -12 -67 -12 -92c0 -86 50 -138 144 -138c127 0 187 63 222 239l84 419h58l-85 -423c-43 -214 -119 -287 -285 -287c-122 0 -195 66 -195 185c0 33 5 68 14 114z" />
    <glyph glyph-name="Yacute" unicode="&#xdd;" horiz-adv-x="563" 
d="M509 916l-133 -156l-34 20l119 163zM259 0h-58l56 281l-150 417h59l128 -355h4l270 355h67l-320 -417z" />
    <glyph glyph-name="Thorn" unicode="&#xde;" horiz-adv-x="589" 
d="M102 0h-58l141 698h57l-29 -149h192c113 0 164 -67 164 -159c0 -135 -86 -231 -224 -231h-211zM202 498l-57 -288h208c80 0 131 46 146 117c8 42 10 58 10 72c0 56 -30 99 -109 99h-198z" />
    <glyph glyph-name="germandbls" unicode="&#xdf;" horiz-adv-x="636" 
d="M577 149c0 -101 -77 -161 -179 -161c-81 0 -150 34 -191 96l39 33c37 -54 87 -81 152 -81c74 0 125 39 125 110c0 42 -18 63 -65 79l-43 15c-63 21 -110 45 -110 126c0 89 85 149 214 150l2 9c5 22 7 43 7 61c0 77 -43 118 -122 118c-103 0 -162 -57 -186 -179l-104 -525
h-56l93 463h-88l9 49h88l3 14c31 146 114 226 248 226c103 0 168 -63 168 -166c0 -20 -2 -43 -6 -65l-10 -50h-33c-106 0 -173 -33 -173 -102c0 -44 18 -64 65 -80l44 -14c61 -21 109 -47 109 -126z" />
    <glyph glyph-name="agrave" unicode="&#xe0;" horiz-adv-x="577" 
d="M340 586l-84 156l49 24l68 -164zM500 0h-72c-34 0 -50 18 -50 45c0 7 1 16 3 25l8 42h-3c-42 -82 -93 -124 -172 -124c-98 0 -159 77 -159 193c0 165 84 343 250 343c71 0 127 -36 144 -99h3l17 87h55l-92 -463h78zM227 38c43 0 76 17 108 47c36 32 65 78 76 137l24 119
c13 65 -23 133 -125 133c-96 0 -159 -68 -182 -180l-12 -60c-3 -19 -5 -37 -5 -59c0 -77 35 -137 116 -137z" />
    <glyph glyph-name="aacute" unicode="&#xe1;" horiz-adv-x="577" 
d="M476 742l-133 -156l-35 19l120 164zM500 0h-72c-34 0 -50 18 -50 45c0 7 1 16 3 25l8 42h-3c-42 -82 -93 -124 -172 -124c-98 0 -159 77 -159 193c0 165 84 343 250 343c71 0 127 -36 144 -99h3l17 87h55l-92 -463h78zM227 38c43 0 76 17 108 47c36 32 65 78 76 137
l24 119c13 65 -23 133 -125 133c-96 0 -159 -68 -182 -180l-12 -60c-3 -19 -5 -37 -5 -59c0 -77 35 -137 116 -137z" />
    <glyph glyph-name="acircumflex" unicode="&#xe2;" horiz-adv-x="577" 
d="M338 756h66l92 -139l-32 -23l-98 120l-142 -120l-29 24zM500 0h-72c-34 0 -50 18 -50 45c0 7 1 16 3 25l8 42h-3c-42 -82 -93 -124 -172 -124c-98 0 -159 77 -159 193c0 165 84 343 250 343c71 0 127 -36 144 -99h3l17 87h55l-92 -463h78zM227 38c43 0 76 17 108 47
c36 32 65 78 76 137l24 119c13 65 -23 133 -125 133c-96 0 -159 -68 -182 -180l-12 -60c-3 -19 -5 -37 -5 -59c0 -77 35 -137 116 -137z" />
    <glyph glyph-name="atilde" unicode="&#xe3;" horiz-adv-x="577" 
d="M421 618c-31 0 -50 12 -74 28c-27 18 -45 24 -64 24c-23 0 -41 -10 -64 -29l-21 28c25 28 55 48 93 48c31 0 50 -12 74 -28c27 -18 45 -24 64 -24c23 0 41 10 64 29l21 -28c-25 -28 -55 -48 -93 -48zM500 0h-72c-34 0 -50 18 -50 45c0 7 1 16 3 25l8 42h-3
c-42 -82 -93 -124 -172 -124c-98 0 -159 77 -159 193c0 165 84 343 250 343c71 0 127 -36 144 -99h3l17 87h55l-92 -463h78zM227 38c43 0 76 17 108 47c36 32 65 78 76 137l24 119c13 65 -23 133 -125 133c-96 0 -159 -68 -182 -180l-12 -60c-3 -19 -5 -37 -5 -59
c0 -77 35 -137 116 -137z" />
    <glyph glyph-name="adieresis" unicode="&#xe4;" horiz-adv-x="577" 
d="M260 626c-25 0 -34 13 -34 28c0 4 0 8 3 22c4 20 17 32 43 32c25 0 34 -13 34 -28c0 -4 0 -8 -3 -22c-4 -20 -17 -32 -43 -32zM442 626c-25 0 -34 13 -34 28c0 4 0 8 3 22c4 20 17 32 43 32c25 0 34 -13 34 -28c0 -4 0 -8 -3 -22c-4 -20 -17 -32 -43 -32zM500 0h-72
c-34 0 -50 18 -50 45c0 7 1 16 3 25l8 42h-3c-42 -82 -93 -124 -172 -124c-98 0 -159 77 -159 193c0 165 84 343 250 343c71 0 127 -36 144 -99h3l17 87h55l-92 -463h78zM227 38c43 0 76 17 108 47c36 32 65 78 76 137l24 119c13 65 -23 133 -125 133
c-96 0 -159 -68 -182 -180l-12 -60c-3 -19 -5 -37 -5 -59c0 -77 35 -137 116 -137z" />
    <glyph glyph-name="aring" unicode="&#xe5;" horiz-adv-x="577" 
d="M344 581c-60 0 -90 41 -90 89c0 74 47 122 120 122c60 0 90 -41 90 -89c0 -74 -47 -122 -120 -122zM349 617c38 0 63 22 70 60c3 15 4 23 4 30c0 30 -18 49 -54 49c-38 0 -63 -22 -70 -60c-3 -15 -4 -23 -4 -30c0 -30 18 -49 54 -49zM500 0h-72c-34 0 -50 18 -50 45
c0 7 1 16 3 25l8 42h-3c-42 -82 -93 -124 -172 -124c-98 0 -159 77 -159 193c0 165 84 343 250 343c71 0 127 -36 144 -99h3l17 87h55l-92 -463h78zM227 38c43 0 76 17 108 47c36 32 65 78 76 137l24 119c13 65 -23 133 -125 133c-96 0 -159 -68 -182 -180l-12 -60
c-3 -19 -5 -37 -5 -59c0 -77 35 -137 116 -137z" />
    <glyph glyph-name="ae" unicode="&#xe6;" horiz-adv-x="827" 
d="M192 37c79 0 156 44 169 118l16 79l-131 -5c-90 -5 -143 -25 -153 -77c-5 -24 -5 -32 -5 -40c0 -47 37 -75 104 -75zM631 476c-98 0 -168 -74 -189 -180l-3 -19c250 6 300 51 300 113s-44 86 -108 86zM181 -12c-94 0 -149 45 -149 127c0 99 68 149 217 155l137 6l11 63
c3 13 4 25 4 37c0 58 -35 98 -117 98c-72 0 -112 -27 -150 -82l-36 31c37 60 100 101 194 101c92 0 137 -46 149 -109h5c43 67 107 109 188 109c87 0 162 -44 162 -130c0 -99 -94 -156 -364 -160c-2 -16 -5 -36 -5 -54c0 -83 47 -143 136 -143c71 0 129 39 170 99l38 -30
c-60 -85 -133 -118 -212 -118c-90 0 -152 45 -173 123h-6c-32 -78 -109 -123 -199 -123z" />
    <glyph glyph-name="ccedilla" unicode="&#xe7;" horiz-adv-x="484" 
d="M302 524c86 0 145 -49 162 -119l-46 -19c-16 58 -57 89 -118 89c-90 0 -151 -65 -171 -169l-14 -70c-3 -19 -5 -35 -5 -52c0 -84 39 -147 126 -147c61 0 108 33 151 107l44 -21c-43 -80 -104 -129 -186 -134l-20 -55l2 -2c8 1 18 3 30 3c35 0 59 -16 59 -55
c0 -49 -42 -85 -103 -85c-45 0 -77 16 -91 35l30 30c11 -14 31 -26 60 -26c34 0 56 19 56 45c0 22 -13 35 -53 39l-31 3l25 68c-100 10 -155 91 -155 205c0 182 92 330 248 330z" />
    <glyph glyph-name="egrave" unicode="&#xe8;" horiz-adv-x="508" 
d="M327 586l-84 156l49 24l68 -164zM240 -12c-119 0 -187 71 -187 209c0 176 105 327 261 327c90 0 163 -46 163 -132c0 -94 -87 -162 -365 -166c-2 -13 -3 -32 -3 -43c0 -95 45 -146 134 -146c72 0 130 39 170 99l38 -30c-59 -85 -133 -118 -211 -118zM308 476
c-93 0 -162 -74 -184 -182l-5 -24c252 7 301 53 301 123c0 57 -44 83 -112 83z" />
    <glyph glyph-name="eacute" unicode="&#xe9;" horiz-adv-x="508" 
d="M463 742l-133 -156l-35 19l120 164zM240 -12c-119 0 -187 71 -187 209c0 176 105 327 261 327c90 0 163 -46 163 -132c0 -94 -87 -162 -365 -166c-2 -13 -3 -32 -3 -43c0 -95 45 -146 134 -146c72 0 130 39 170 99l38 -30c-59 -85 -133 -118 -211 -118zM308 476
c-93 0 -162 -74 -184 -182l-5 -24c252 7 301 53 301 123c0 57 -44 83 -112 83z" />
    <glyph glyph-name="ecircumflex" unicode="&#xea;" horiz-adv-x="508" 
d="M325 756h66l92 -139l-32 -23l-98 120l-142 -120l-29 24zM240 -12c-119 0 -187 71 -187 209c0 176 105 327 261 327c90 0 163 -46 163 -132c0 -94 -87 -162 -365 -166c-2 -13 -3 -32 -3 -43c0 -95 45 -146 134 -146c72 0 130 39 170 99l38 -30
c-59 -85 -133 -118 -211 -118zM308 476c-93 0 -162 -74 -184 -182l-5 -24c252 7 301 53 301 123c0 57 -44 83 -112 83z" />
    <glyph glyph-name="edieresis" unicode="&#xeb;" horiz-adv-x="508" 
d="M247 626c-25 0 -34 13 -34 28c0 4 0 8 3 22c4 20 17 32 43 32c25 0 34 -13 34 -28c0 -4 0 -8 -3 -22c-4 -20 -17 -32 -43 -32zM429 626c-25 0 -34 13 -34 28c0 4 0 8 3 22c4 20 17 32 43 32c25 0 34 -13 34 -28c0 -4 0 -8 -3 -22c-4 -20 -17 -32 -43 -32zM240 -12
c-119 0 -187 71 -187 209c0 176 105 327 261 327c90 0 163 -46 163 -132c0 -94 -87 -162 -365 -166c-2 -13 -3 -32 -3 -43c0 -95 45 -146 134 -146c72 0 130 39 170 99l38 -30c-59 -85 -133 -118 -211 -118zM308 476c-93 0 -162 -74 -184 -182l-5 -24c252 7 301 53 301 123
c0 57 -44 83 -112 83z" />
    <glyph glyph-name="igrave" unicode="&#xec;" horiz-adv-x="253" 
d="M188 586l-84 156l49 24l68 -164zM176 0h-71c-34 0 -51 18 -51 46c0 6 0 11 2 20l90 446h55l-93 -463h78z" />
    <glyph glyph-name="iacute" unicode="&#xed;" horiz-adv-x="253" 
d="M324 742l-133 -156l-35 19l120 164zM176 0h-71c-34 0 -51 18 -51 46c0 6 0 11 2 20l90 446h55l-93 -463h78z" />
    <glyph glyph-name="icircumflex" unicode="&#xee;" horiz-adv-x="253" 
d="M186 756h66l92 -139l-32 -23l-98 120l-142 -120l-29 24zM176 0h-71c-34 0 -51 18 -51 46c0 6 0 11 2 20l90 446h55l-93 -463h78z" />
    <glyph glyph-name="idieresis" unicode="&#xef;" horiz-adv-x="253" 
d="M108 626c-25 0 -34 13 -34 28c0 4 0 8 3 22c4 20 17 32 43 32c25 0 34 -13 34 -28c0 -4 0 -8 -3 -22c-4 -20 -17 -32 -43 -32zM290 626c-25 0 -34 13 -34 28c0 4 0 8 3 22c4 20 17 32 43 32c25 0 34 -13 34 -28c0 -4 0 -8 -3 -22c-4 -20 -17 -32 -43 -32zM176 0h-71
c-34 0 -51 18 -51 46c0 6 0 11 2 20l90 446h55l-93 -463h78z" />
    <glyph glyph-name="eth" unicode="&#xf0;" horiz-adv-x="562" 
d="M489 719l-101 -64c62 -68 116 -168 116 -309c0 -224 -109 -358 -267 -358c-114 0 -184 81 -184 202c0 177 104 312 246 312c70 0 121 -34 144 -91l4 2c-12 83 -46 155 -100 216l-102 -65l-19 32l95 62c-33 31 -72 59 -115 82h82c23 -15 49 -33 74 -57l107 70zM246 38
c90 0 162 68 182 174l11 57c3 17 5 33 5 48c0 87 -55 135 -139 135c-90 0 -162 -65 -182 -171l-11 -57c-3 -17 -5 -33 -5 -48c0 -87 55 -138 139 -138z" />
    <glyph glyph-name="ntilde" unicode="&#xf1;" horiz-adv-x="558" 
d="M425 618c-31 0 -50 12 -74 28c-27 18 -45 24 -64 24c-23 0 -41 -10 -64 -29l-21 28c25 28 55 48 93 48c31 0 50 -12 74 -28c27 -18 45 -24 64 -24c23 0 41 10 64 29l21 -28c-25 -28 -55 -48 -93 -48zM98 0h-55l102 512h56l-21 -103h4c37 77 88 115 166 115
c87 0 132 -52 132 -139c0 -19 -2 -43 -7 -66l-54 -270h78l-10 -49h-74c-30 0 -49 14 -49 42c0 9 2 17 4 28l50 249c4 21 6 44 6 57c0 65 -30 98 -93 98c-40 0 -77 -14 -110 -49c-29 -31 -56 -79 -66 -128z" />
    <glyph glyph-name="ograve" unicode="&#xf2;" horiz-adv-x="544" 
d="M325 586l-84 156l49 24l68 -164zM231 -12c-107 0 -178 75 -178 200c0 178 99 336 260 336c107 0 178 -75 178 -200c0 -178 -99 -336 -260 -336zM238 37c89 0 157 67 180 184l12 61c4 18 5 36 5 56c0 78 -42 137 -129 137c-89 0 -157 -67 -180 -184l-12 -61
c-4 -18 -5 -36 -5 -56c0 -78 42 -137 129 -137z" />
    <glyph glyph-name="oacute" unicode="&#xf3;" horiz-adv-x="544" 
d="M461 742l-133 -156l-35 19l120 164zM231 -12c-107 0 -178 75 -178 200c0 178 99 336 260 336c107 0 178 -75 178 -200c0 -178 -99 -336 -260 -336zM238 37c89 0 157 67 180 184l12 61c4 18 5 36 5 56c0 78 -42 137 -129 137c-89 0 -157 -67 -180 -184l-12 -61
c-4 -18 -5 -36 -5 -56c0 -78 42 -137 129 -137z" />
    <glyph glyph-name="ocircumflex" unicode="&#xf4;" horiz-adv-x="544" 
d="M323 756h66l92 -139l-32 -23l-98 120l-142 -120l-29 24zM231 -12c-107 0 -178 75 -178 200c0 178 99 336 260 336c107 0 178 -75 178 -200c0 -178 -99 -336 -260 -336zM238 37c89 0 157 67 180 184l12 61c4 18 5 36 5 56c0 78 -42 137 -129 137c-89 0 -157 -67 -180 -184
l-12 -61c-4 -18 -5 -36 -5 -56c0 -78 42 -137 129 -137z" />
    <glyph glyph-name="otilde" unicode="&#xf5;" horiz-adv-x="544" 
d="M406 618c-31 0 -50 12 -74 28c-27 18 -45 24 -64 24c-23 0 -41 -10 -64 -29l-21 28c25 28 55 48 93 48c31 0 50 -12 74 -28c27 -18 45 -24 64 -24c23 0 41 10 64 29l21 -28c-25 -28 -55 -48 -93 -48zM231 -12c-107 0 -178 75 -178 200c0 178 99 336 260 336
c107 0 178 -75 178 -200c0 -178 -99 -336 -260 -336zM238 37c89 0 157 67 180 184l12 61c4 18 5 36 5 56c0 78 -42 137 -129 137c-89 0 -157 -67 -180 -184l-12 -61c-4 -18 -5 -36 -5 -56c0 -78 42 -137 129 -137z" />
    <glyph glyph-name="odieresis" unicode="&#xf6;" horiz-adv-x="544" 
d="M245 626c-25 0 -34 13 -34 28c0 4 0 8 3 22c4 20 17 32 43 32c25 0 34 -13 34 -28c0 -4 0 -8 -3 -22c-4 -20 -17 -32 -43 -32zM427 626c-25 0 -34 13 -34 28c0 4 0 8 3 22c4 20 17 32 43 32c25 0 34 -13 34 -28c0 -4 0 -8 -3 -22c-4 -20 -17 -32 -43 -32zM231 -12
c-107 0 -178 75 -178 200c0 178 99 336 260 336c107 0 178 -75 178 -200c0 -178 -99 -336 -260 -336zM238 37c89 0 157 67 180 184l12 61c4 18 5 36 5 56c0 78 -42 137 -129 137c-89 0 -157 -67 -180 -184l-12 -61c-4 -18 -5 -36 -5 -56c0 -78 42 -137 129 -137z" />
    <glyph glyph-name="divide" unicode="&#xf7;" horiz-adv-x="600" 
d="M535 281h-460l10 48h460zM265 65c-30 0 -41 13 -41 31c0 7 2 18 4 26c5 25 20 39 52 39c30 0 41 -13 41 -31c0 -7 -2 -18 -4 -26c-5 -25 -20 -39 -52 -39zM341 451c-30 0 -41 13 -41 31c0 7 2 18 4 26c5 25 20 39 52 39c30 0 41 -13 41 -31c0 -7 -2 -18 -4 -26
c-5 -25 -20 -39 -52 -39z" />
    <glyph glyph-name="oslash" unicode="&#xf8;" horiz-adv-x="544" 
d="M231 -12c-54 0 -99 19 -130 54l-71 -77l-29 27l77 83c-16 30 -25 68 -25 113c0 178 99 336 260 336c54 0 99 -19 130 -54l71 77l29 -27l-77 -83c16 -31 25 -69 25 -113c0 -178 -99 -336 -260 -336zM238 37c89 0 157 67 180 184l12 61c4 18 5 36 5 56s-3 39 -9 56
l-289 -313c21 -28 54 -44 101 -44zM109 174c0 -20 3 -39 8 -56l290 313c-22 27 -55 44 -101 44c-89 0 -157 -67 -180 -184l-12 -61c-4 -18 -5 -36 -5 -56z" />
    <glyph glyph-name="ugrave" unicode="&#xf9;" horiz-adv-x="557" 
d="M333 586l-84 156l49 24l68 -164zM138 512h55l-64 -319c-4 -20 -5 -44 -5 -57c0 -64 28 -98 91 -98c40 0 77 14 109 49c31 34 56 81 66 128l59 297h55l-92 -463h77l-9 -49h-73c-33 0 -49 18 -49 46c0 6 1 13 3 24l6 33h-4c-37 -77 -88 -115 -164 -115
c-87 0 -132 52 -132 139c0 19 3 43 7 66z" />
    <glyph glyph-name="uacute" unicode="&#xfa;" horiz-adv-x="557" 
d="M469 742l-133 -156l-35 19l120 164zM138 512h55l-64 -319c-4 -20 -5 -44 -5 -57c0 -64 28 -98 91 -98c40 0 77 14 109 49c31 34 56 81 66 128l59 297h55l-92 -463h77l-9 -49h-73c-33 0 -49 18 -49 46c0 6 1 13 3 24l6 33h-4c-37 -77 -88 -115 -164 -115
c-87 0 -132 52 -132 139c0 19 3 43 7 66z" />
    <glyph glyph-name="ucircumflex" unicode="&#xfb;" horiz-adv-x="557" 
d="M331 756h66l92 -139l-32 -23l-98 120l-142 -120l-29 24zM138 512h55l-64 -319c-4 -20 -5 -44 -5 -57c0 -64 28 -98 91 -98c40 0 77 14 109 49c31 34 56 81 66 128l59 297h55l-92 -463h77l-9 -49h-73c-33 0 -49 18 -49 46c0 6 1 13 3 24l6 33h-4
c-37 -77 -88 -115 -164 -115c-87 0 -132 52 -132 139c0 19 3 43 7 66z" />
    <glyph glyph-name="udieresis" unicode="&#xfc;" horiz-adv-x="557" 
d="M253 626c-25 0 -34 13 -34 28c0 4 0 8 3 22c4 20 17 32 43 32c25 0 34 -13 34 -28c0 -4 0 -8 -3 -22c-4 -20 -17 -32 -43 -32zM435 626c-25 0 -34 13 -34 28c0 4 0 8 3 22c4 20 17 32 43 32c25 0 34 -13 34 -28c0 -4 0 -8 -3 -22c-4 -20 -17 -32 -43 -32zM138 512h55
l-64 -319c-4 -20 -5 -44 -5 -57c0 -64 28 -98 91 -98c40 0 77 14 109 49c31 34 56 81 66 128l59 297h55l-92 -463h77l-9 -49h-73c-33 0 -49 18 -49 46c0 6 1 13 3 24l6 33h-4c-37 -77 -88 -115 -164 -115c-87 0 -132 52 -132 139c0 19 3 43 7 66z" />
    <glyph glyph-name="yacute" unicode="&#xfd;" horiz-adv-x="475" 
d="M432 742l-133 -156l-35 19l120 164zM199 61l245 451h59l-364 -652c-24 -44 -43 -60 -83 -60h-78l10 48h89l78 141l-85 523h54l71 -451h4z" />
    <glyph glyph-name="thorn" unicode="&#xfe;" horiz-adv-x="567" 
d="M3 -200l188 940h55l-68 -340h3c42 82 93 124 172 124c98 0 159 -77 159 -193c0 -165 -84 -343 -250 -343c-71 0 -127 36 -144 99h-3l-57 -287h-55zM257 38c96 0 159 68 182 180l12 60c3 19 5 37 5 59c0 77 -35 137 -116 137c-43 0 -76 -17 -108 -47
c-36 -32 -65 -78 -76 -137l-24 -119c-13 -65 23 -133 125 -133z" />
    <glyph glyph-name="ydieresis" unicode="&#xff;" horiz-adv-x="475" 
d="M216 626c-25 0 -34 13 -34 28c0 4 0 8 3 22c4 20 17 32 43 32c25 0 34 -13 34 -28c0 -4 0 -8 -3 -22c-4 -20 -17 -32 -43 -32zM398 626c-25 0 -34 13 -34 28c0 4 0 8 3 22c4 20 17 32 43 32c25 0 34 -13 34 -28c0 -4 0 -8 -3 -22c-4 -20 -17 -32 -43 -32zM199 61l245 451
h59l-364 -652c-24 -44 -43 -60 -83 -60h-78l10 48h89l78 141l-85 523h54l71 -451h4z" />
    <glyph glyph-name="Amacron" unicode="&#x100;" horiz-adv-x="612" 
d="M275 820l10 48h266l-9 -48h-267zM536 0h-59l-34 217h-289l-113 -217h-62l370 698h77zM437 268l-58 373h-4l-194 -373h256z" />
    <glyph glyph-name="amacron" unicode="&#x101;" horiz-adv-x="577" 
d="M218 646l10 48h267l-10 -48h-267zM500 0h-72c-34 0 -50 18 -50 45c0 7 1 16 3 25l8 42h-3c-42 -82 -93 -124 -172 -124c-98 0 -159 77 -159 193c0 165 84 343 250 343c71 0 127 -36 144 -99h3l17 87h55l-92 -463h78zM227 38c43 0 76 17 108 47c36 32 65 78 76 137l24 119
c13 65 -23 133 -125 133c-96 0 -159 -68 -182 -180l-12 -60c-3 -19 -5 -37 -5 -59c0 -77 35 -137 116 -137z" />
    <glyph glyph-name="Abreve" unicode="&#x102;" horiz-adv-x="612" 
d="M404 774c-85 0 -110 65 -125 127l35 15l12 -28c20 -47 40 -70 79 -70c40 0 65 19 103 71l20 27l36 -15c-34 -61 -73 -127 -160 -127zM536 0h-59l-34 217h-289l-113 -217h-62l370 698h77zM437 268l-58 373h-4l-194 -373h256z" />
    <glyph glyph-name="abreve" unicode="&#x103;" horiz-adv-x="577" 
d="M346 600c-85 0 -110 65 -125 127l35 15l12 -28c20 -47 40 -69 79 -69c40 0 65 18 103 70l20 27l36 -15c-34 -61 -73 -127 -160 -127zM500 0h-72c-34 0 -50 18 -50 45c0 7 1 16 3 25l8 42h-3c-42 -82 -93 -124 -172 -124c-98 0 -159 77 -159 193c0 165 84 343 250 343
c71 0 127 -36 144 -99h3l17 87h55l-92 -463h78zM227 38c43 0 76 17 108 47c36 32 65 78 76 137l24 119c13 65 -23 133 -125 133c-96 0 -159 -68 -182 -180l-12 -60c-3 -19 -5 -37 -5 -59c0 -77 35 -137 116 -137z" />
    <glyph glyph-name="Aogonek" unicode="&#x104;" horiz-adv-x="612" 
d="M-21 0l370 698h77l110 -698c-105 -65 -130 -95 -130 -127c0 -26 18 -38 40 -38c23 0 43 10 59 26l27 -31c-16 -19 -47 -35 -89 -35c-46 0 -86 21 -86 71s35 89 119 134l-33 217h-289l-113 -217h-62zM437 268l-58 373h-4l-194 -373h256z" />
    <glyph glyph-name="aogonek" unicode="&#x105;" horiz-adv-x="577" 
d="M510 49l-10 -49c-104 -65 -130 -95 -130 -127c0 -26 18 -38 40 -38c23 0 43 10 59 26l27 -31c-16 -19 -47 -35 -89 -35c-46 0 -86 21 -86 71c0 48 40 88 130 130l-1 4h-22c-34 0 -50 18 -50 45c0 7 1 15 3 24l8 43h-3c-42 -82 -93 -124 -172 -124c-98 0 -159 77 -159 193
c0 165 84 343 250 343c71 0 127 -36 144 -99h3l17 87h55l-92 -463h78zM227 38c43 0 76 17 108 47c36 32 65 78 76 137l24 119c13 65 -23 133 -125 133c-96 0 -159 -68 -182 -180l-12 -60c-3 -19 -5 -37 -5 -59c0 -77 35 -137 116 -137z" />
    <glyph glyph-name="Cacute" unicode="&#x106;" horiz-adv-x="599" 
d="M543 916l-133 -156l-34 20l119 163zM290 -12c-134 0 -230 91 -230 260c0 225 117 462 334 462c112 0 182 -52 211 -152l-53 -22c-23 77 -70 122 -164 122c-120 0 -214 -98 -244 -248l-18 -91c-6 -32 -8 -60 -8 -83c0 -118 64 -196 175 -196c96 0 151 49 199 135l49 -24
c-61 -114 -137 -163 -251 -163z" />
    <glyph glyph-name="cacute" unicode="&#x107;" horiz-adv-x="484" 
d="M451 742l-133 -156l-35 19l120 164zM231 -12c-114 0 -177 84 -177 206c0 182 92 330 248 330c86 0 145 -49 162 -119l-46 -19c-16 58 -57 89 -118 89c-90 0 -151 -65 -171 -169l-14 -70c-3 -19 -5 -35 -5 -52c0 -84 39 -147 126 -147c61 0 108 33 151 107l44 -21
c-45 -84 -112 -135 -200 -135z" />
    <glyph glyph-name="Ccircumflex" unicode="&#x108;" horiz-adv-x="599" 
d="M405 930h66l92 -139l-32 -22l-98 119l-142 -120l-30 24zM290 -12c-134 0 -230 91 -230 260c0 225 117 462 334 462c112 0 182 -52 211 -152l-53 -22c-23 77 -70 122 -164 122c-120 0 -214 -98 -244 -248l-18 -91c-6 -32 -8 -60 -8 -83c0 -118 64 -196 175 -196
c96 0 151 49 199 135l49 -24c-61 -114 -137 -163 -251 -163z" />
    <glyph glyph-name="ccircumflex" unicode="&#x109;" horiz-adv-x="484" 
d="M313 756h66l92 -139l-32 -23l-98 120l-142 -120l-29 24zM231 -12c-114 0 -177 84 -177 206c0 182 92 330 248 330c86 0 145 -49 162 -119l-46 -19c-16 58 -57 89 -118 89c-90 0 -151 -65 -171 -169l-14 -70c-3 -19 -5 -35 -5 -52c0 -84 39 -147 126 -147
c61 0 108 33 151 107l44 -21c-45 -84 -112 -135 -200 -135z" />
    <glyph glyph-name="Cdotaccent" unicode="&#x10a;" horiz-adv-x="599" 
d="M416 799c-25 0 -34 13 -34 28c0 4 0 8 3 22c4 20 17 32 43 32c25 0 34 -13 34 -28c0 -4 0 -8 -3 -22c-4 -20 -17 -32 -43 -32zM290 -12c-134 0 -230 91 -230 260c0 225 117 462 334 462c112 0 182 -52 211 -152l-53 -22c-23 77 -70 122 -164 122
c-120 0 -214 -98 -244 -248l-18 -91c-6 -32 -8 -60 -8 -83c0 -118 64 -196 175 -196c96 0 151 49 199 135l49 -24c-61 -114 -137 -163 -251 -163z" />
    <glyph glyph-name="cdotaccent" unicode="&#x10b;" horiz-adv-x="484" 
d="M327 626c-25 0 -34 13 -34 28c0 4 0 8 3 22c4 20 17 32 43 32c25 0 34 -13 34 -28c0 -4 0 -8 -3 -22c-4 -20 -17 -32 -43 -32zM231 -12c-114 0 -177 84 -177 206c0 182 92 330 248 330c86 0 145 -49 162 -119l-46 -19c-16 58 -57 89 -118 89c-90 0 -151 -65 -171 -169
l-14 -70c-3 -19 -5 -35 -5 -52c0 -84 39 -147 126 -147c61 0 108 33 151 107l44 -21c-45 -84 -112 -135 -200 -135z" />
    <glyph glyph-name="Ccaron" unicode="&#x10c;" horiz-adv-x="599" 
d="M445 774h-67l-91 140l32 23l96 -121l143 121l30 -24zM290 -12c-134 0 -230 91 -230 260c0 225 117 462 334 462c112 0 182 -52 211 -152l-53 -22c-23 77 -70 122 -164 122c-120 0 -214 -98 -244 -248l-18 -91c-6 -32 -8 -60 -8 -83c0 -118 64 -196 175 -196
c96 0 151 49 199 135l49 -24c-61 -114 -137 -163 -251 -163z" />
    <glyph glyph-name="ccaron" unicode="&#x10d;" horiz-adv-x="484" 
d="M354 601h-67l-92 139l33 23l95 -120l144 120l30 -24zM231 -12c-114 0 -177 84 -177 206c0 182 92 330 248 330c86 0 145 -49 162 -119l-46 -19c-16 58 -57 89 -118 89c-90 0 -151 -65 -171 -169l-14 -70c-3 -19 -5 -35 -5 -52c0 -84 39 -147 126 -147
c61 0 108 33 151 107l44 -21c-45 -84 -112 -135 -200 -135z" />
    <glyph glyph-name="Dcaron" unicode="&#x10e;" horiz-adv-x="650" 
d="M424 774h-67l-91 140l32 23l96 -121l143 121l30 -24zM45 0l139 698h198c150 0 236 -90 236 -255c0 -220 -116 -443 -340 -443h-233zM114 52h165c134 0 225 97 254 242l18 86c5 29 7 58 7 80c0 118 -65 186 -180 186h-146z" />
    <glyph glyph-name="dcaron" unicode="&#x10f;" horiz-adv-x="577" 
d="M708 740l-67 -181h-39l39 181h67zM500 0h-72c-34 0 -50 18 -50 45c0 7 1 15 3 25l8 42h-3c-42 -82 -93 -124 -172 -124c-98 0 -159 77 -159 193c0 165 84 343 250 343c71 0 127 -36 144 -99h3l63 315h55l-138 -691h78zM227 38c43 0 76 17 108 47c36 32 65 78 76 137
l24 119c13 65 -23 133 -125 133c-96 0 -159 -68 -182 -180l-12 -60c-3 -19 -5 -37 -5 -59c0 -77 35 -137 116 -137z" />
    <glyph glyph-name="Dcroat" unicode="&#x110;" horiz-adv-x="653" 
d="M48 0l69 346h-79l9 45h80l60 307h198c150 0 236 -90 236 -255c0 -220 -116 -443 -340 -443h-233zM117 52h165c134 0 225 98 254 242l18 86c5 29 7 58 7 80c0 118 -65 186 -180 186h-146l-50 -255h146l-10 -45h-146z" />
    <glyph glyph-name="dcroat" unicode="&#x111;" horiz-adv-x="580" 
d="M500 0h-72c-34 0 -50 18 -50 45c0 7 1 15 2 23l9 44h-3c-42 -82 -93 -124 -172 -124c-98 0 -159 77 -159 193c0 165 84 343 250 343c71 0 127 -36 144 -99h3l38 192h-152l9 43h152l16 80h55l-16 -80h63l-9 -43h-63l-113 -568h78zM227 38c43 0 76 17 108 47
c36 32 65 78 76 137l24 119c13 65 -23 133 -125 133c-96 0 -159 -68 -182 -180l-12 -60c-3 -19 -5 -37 -5 -59c0 -77 35 -137 116 -137z" />
    <glyph glyph-name="Emacron" unicode="&#x112;" horiz-adv-x="560" 
d="M268 820l10 48h266l-9 -48h-267zM453 0h-408l140 698h398l-11 -52h-339l-54 -266h315l-10 -51h-315l-55 -277h349z" />
    <glyph glyph-name="emacron" unicode="&#x113;" horiz-adv-x="508" 
d="M205 646l10 48h267l-10 -48h-267zM240 -12c-119 0 -187 71 -187 209c0 176 105 327 261 327c90 0 163 -46 163 -132c0 -94 -87 -162 -365 -166c-2 -13 -3 -32 -3 -43c0 -95 45 -146 134 -146c72 0 130 39 170 99l38 -30c-59 -85 -133 -118 -211 -118zM308 476
c-93 0 -162 -74 -184 -182l-5 -24c252 7 301 53 301 123c0 57 -44 83 -112 83z" />
    <glyph glyph-name="Ebreve" unicode="&#x114;" horiz-adv-x="560" 
d="M397 774c-85 0 -110 65 -125 127l35 15l12 -28c20 -47 40 -70 79 -70c40 0 65 19 103 71l20 27l36 -15c-34 -61 -73 -127 -160 -127zM453 0h-408l140 698h398l-11 -52h-339l-54 -266h315l-10 -51h-315l-55 -277h349z" />
    <glyph glyph-name="ebreve" unicode="&#x115;" horiz-adv-x="508" 
d="M333 600c-85 0 -110 65 -125 127l35 15l12 -28c20 -47 40 -69 79 -69c40 0 65 18 103 70l20 27l36 -15c-34 -61 -73 -127 -160 -127zM240 -12c-119 0 -187 71 -187 209c0 176 105 327 261 327c90 0 163 -46 163 -132c0 -94 -87 -162 -365 -166c-2 -13 -3 -32 -3 -43
c0 -95 45 -146 134 -146c72 0 130 39 170 99l38 -30c-59 -85 -133 -118 -211 -118zM308 476c-93 0 -162 -74 -184 -182l-5 -24c252 7 301 53 301 123c0 57 -44 83 -112 83z" />
    <glyph glyph-name="Edotaccent" unicode="&#x116;" horiz-adv-x="560" 
d="M400 799c-25 0 -34 13 -34 28c0 4 0 8 3 22c4 20 17 32 43 32c25 0 34 -13 34 -28c0 -4 0 -8 -3 -22c-4 -20 -17 -32 -43 -32zM453 0h-408l140 698h398l-11 -52h-339l-54 -266h315l-10 -51h-315l-55 -277h349z" />
    <glyph glyph-name="edotaccent" unicode="&#x117;" horiz-adv-x="508" 
d="M339 626c-25 0 -34 13 -34 28c0 4 0 8 3 22c4 20 17 32 43 32c25 0 34 -13 34 -28c0 -4 0 -8 -3 -22c-4 -20 -17 -32 -43 -32zM240 -12c-119 0 -187 71 -187 209c0 176 105 327 261 327c90 0 163 -46 163 -132c0 -94 -87 -162 -365 -166c-2 -13 -3 -32 -3 -43
c0 -95 45 -146 134 -146c72 0 130 39 170 99l38 -30c-59 -85 -133 -118 -211 -118zM308 476c-93 0 -162 -74 -184 -182l-5 -24c252 7 301 53 301 123c0 57 -44 83 -112 83z" />
    <glyph glyph-name="Eogonek" unicode="&#x118;" horiz-adv-x="560" 
d="M45 0l140 698h398l-11 -52h-339l-54 -266h315l-10 -51h-315l-55 -277h349l-10 -52c-104 -65 -129 -95 -129 -127c0 -26 17 -38 40 -38c22 0 42 10 58 26l28 -31c-17 -19 -48 -35 -89 -35c-47 0 -87 21 -87 71c0 48 40 88 130 130l-1 4h-358z" />
    <glyph glyph-name="eogonek" unicode="&#x119;" horiz-adv-x="509" 
d="M239 -205c-47 0 -87 21 -87 71c0 45 33 86 109 121l-1 3c-7 -1 -13 -2 -21 -2c-117 0 -185 72 -185 209c0 176 105 327 261 327c90 0 163 -46 163 -132c0 -94 -88 -162 -366 -166c-2 -13 -3 -32 -3 -43c0 -95 46 -146 135 -146c72 0 130 39 170 99l38 -30
c-37 -55 -83 -79 -129 -106c-72 -44 -121 -79 -121 -127c0 -26 17 -38 40 -38c22 0 42 10 58 26l28 -31c-17 -19 -48 -35 -89 -35zM309 476c-93 0 -165 -74 -185 -182l-5 -24c252 7 302 53 302 123c0 57 -44 83 -112 83z" />
    <glyph glyph-name="Ecaron" unicode="&#x11a;" horiz-adv-x="560" 
d="M429 774h-67l-91 140l32 23l96 -121l143 121l30 -24zM453 0h-408l140 698h398l-11 -52h-339l-54 -266h315l-10 -51h-315l-55 -277h349z" />
    <glyph glyph-name="ecaron" unicode="&#x11b;" horiz-adv-x="508" 
d="M366 601h-67l-92 139l33 23l95 -120l144 120l30 -24zM240 -12c-119 0 -187 71 -187 209c0 176 105 327 261 327c90 0 163 -46 163 -132c0 -94 -87 -162 -365 -166c-2 -13 -3 -32 -3 -43c0 -95 45 -146 134 -146c72 0 130 39 170 99l38 -30c-59 -85 -133 -118 -211 -118z
M308 476c-93 0 -162 -74 -184 -182l-5 -24c252 7 301 53 301 123c0 57 -44 83 -112 83z" />
    <glyph glyph-name="Gcircumflex" unicode="&#x11c;" horiz-adv-x="661" 
d="M418 930h66l92 -139l-32 -22l-98 119l-142 -120l-30 24zM478 0l21 107h-3c-38 -72 -111 -119 -210 -119c-133 0 -226 90 -226 260c0 220 111 462 344 462c121 0 197 -58 224 -152l-52 -22c-26 76 -78 122 -179 122c-129 0 -222 -98 -254 -254l-17 -85
c-6 -28 -8 -56 -8 -79c0 -124 65 -200 182 -200c100 0 195 59 220 181l15 75h-160l12 53h215l-69 -349h-55z" />
    <glyph glyph-name="gcircumflex" unicode="&#x11d;" horiz-adv-x="568" 
d="M314.4 746h66l92 -139l-32 -23l-98 120l-142 -120l-29 24zM214 -12c-98 0 -159 77 -159 193c0 165 84 343 250 343c71 0 127 -36 144 -99h3l18 87h55l-105 -524c-26 -131 -104 -200 -231 -200c-86 0 -143 33 -177 80l40 35c28 -42 72 -66 137 -66c94 0 157 49 178 159
l22 116h-3c-42 -82 -93 -124 -172 -124zM227 38c43 0 76 17 108 47c36 32 65 78 76 137l24 119c13 65 -23 133 -125 133c-96 0 -159 -68 -182 -180l-12 -60c-3 -19 -5 -37 -5 -59c0 -77 35 -137 116 -137z" />
    <glyph glyph-name="Gbreve" unicode="&#x11e;" horiz-adv-x="661" 
d="M426 774c-85 0 -110 65 -125 127l35 15l12 -28c20 -47 40 -70 79 -70c40 0 65 19 103 71l20 27l36 -15c-34 -61 -73 -127 -160 -127zM478 0l21 107h-3c-38 -72 -111 -119 -210 -119c-133 0 -226 90 -226 260c0 220 111 462 344 462c121 0 197 -58 224 -152l-52 -22
c-26 76 -78 122 -179 122c-129 0 -222 -98 -254 -254l-17 -85c-6 -28 -8 -56 -8 -79c0 -124 65 -200 182 -200c100 0 195 59 220 181l15 75h-160l12 53h215l-69 -349h-55z" />
    <glyph glyph-name="gbreve" unicode="&#x11f;" horiz-adv-x="568" 
d="M325.101 584c-85 0 -110 65 -125 127l35 15l12 -28c20 -47 40 -69 79 -69c40 0 65 18 103 70l20 27l36 -15c-34 -61 -73 -127 -160 -127zM214 -12c-98 0 -159 77 -159 193c0 165 84 343 250 343c71 0 127 -36 144 -99h3l18 87h55l-105 -524c-26 -131 -104 -200 -231 -200
c-86 0 -143 33 -177 80l40 35c28 -42 72 -66 137 -66c94 0 157 49 178 159l22 116h-3c-42 -82 -93 -124 -172 -124zM227 38c43 0 76 17 108 47c36 32 65 78 76 137l24 119c13 65 -23 133 -125 133c-96 0 -159 -68 -182 -180l-12 -60c-3 -19 -5 -37 -5 -59
c0 -77 35 -137 116 -137z" />
    <glyph glyph-name="Gdotaccent" unicode="&#x120;" horiz-adv-x="661" 
d="M429 799c-25 0 -34 13 -34 28c0 4 0 8 3 22c4 20 17 32 43 32c25 0 34 -13 34 -28c0 -4 0 -8 -3 -22c-4 -20 -17 -32 -43 -32zM478 0l21 107h-3c-38 -72 -111 -119 -210 -119c-133 0 -226 90 -226 260c0 220 111 462 344 462c121 0 197 -58 224 -152l-52 -22
c-26 76 -78 122 -179 122c-129 0 -222 -98 -254 -254l-17 -85c-6 -28 -8 -56 -8 -79c0 -124 65 -200 182 -200c100 0 195 59 220 181l15 75h-160l12 53h215l-69 -349h-55z" />
    <glyph glyph-name="gdotaccent" unicode="&#x121;" horiz-adv-x="568" 
d="M319.4 584c-25 0 -34 13 -34 28c0 4 0 8 3 22c4 20 17 32 43 32c25 0 34 -13 34 -28c0 -4 0 -8 -3 -22c-4 -20 -17 -32 -43 -32zM214 -12c-98 0 -159 77 -159 193c0 165 84 343 250 343c71 0 127 -36 144 -99h3l18 87h55l-105 -524c-26 -131 -104 -200 -231 -200
c-86 0 -143 33 -177 80l40 35c28 -42 72 -66 137 -66c94 0 157 49 178 159l22 116h-3c-42 -82 -93 -124 -172 -124zM227 38c43 0 76 17 108 47c36 32 65 78 76 137l24 119c13 65 -23 133 -125 133c-96 0 -159 -68 -182 -180l-12 -60c-3 -19 -5 -37 -5 -59
c0 -77 35 -137 116 -137z" />
    <glyph glyph-name="Gcommaaccent" unicode="&#x122;" horiz-adv-x="661" 
d="M271 -66c24 0 34 -12 34 -28c0 -5 -1 -11 -3 -22c-7 -40 -34 -86 -66 -116h-41c31 32 45 58 56 84c-18 2 -27 12 -27 26c0 4 0 10 2 21c5 22 17 35 45 35zM478 0l21 107h-3c-38 -72 -111 -119 -210 -119c-133 0 -226 90 -226 260c0 220 111 462 344 462
c121 0 197 -58 224 -152l-52 -22c-26 76 -78 122 -179 122c-129 0 -222 -98 -254 -254l-17 -85c-6 -28 -8 -56 -8 -79c0 -124 65 -200 182 -200c100 0 195 59 220 181l15 75h-160l12 53h215l-69 -349h-55z" />
    <glyph glyph-name="gcommaaccent" unicode="&#x123;" horiz-adv-x="568" 
d="M316.3 584c-24 0 -34 12 -34 28c0 5 1 11 3 22c7 40 34 86 66 116h41c-31 -32 -45 -58 -56 -84c18 -2 27 -12 27 -26c0 -4 0 -10 -2 -21c-5 -22 -17 -35 -45 -35zM214 -12c-98 0 -159 77 -159 193c0 165 84 343 250 343c71 0 127 -36 144 -99h3l18 87h55l-105 -524
c-26 -131 -104 -200 -231 -200c-86 0 -143 33 -177 80l40 35c28 -42 72 -66 137 -66c94 0 157 49 178 159l22 116h-3c-42 -82 -93 -124 -172 -124zM227 38c43 0 76 17 108 47c36 32 65 78 76 137l24 119c13 65 -23 133 -125 133c-96 0 -159 -68 -182 -180l-12 -60
c-3 -19 -5 -37 -5 -59c0 -77 35 -137 116 -137z" />
    <glyph glyph-name="Hcircumflex" unicode="&#x124;" horiz-adv-x="682" 
d="M441 930h66l92 -139l-32 -22l-98 119l-142 -120l-30 24zM476 0l66 329h-373l-66 -329h-58l140 698h58l-64 -318h373l64 318h58l-140 -698h-58z" />
    <glyph glyph-name="hcircumflex" unicode="&#x125;" horiz-adv-x="558" 
d="M217 910h66l92 -139l-32 -23l-98 120l-142 -120l-29 24zM43 0l148 740h55l-66 -331h4c37 77 88 115 166 115c87 0 132 -52 132 -139c0 -19 -2 -43 -7 -66l-54 -270h78l-9 -49h-75c-29 0 -48 13 -48 43c0 6 0 10 2 19l51 257c4 21 6 44 6 57c0 65 -30 98 -93 98
c-40 0 -77 -14 -110 -49c-29 -31 -56 -79 -66 -128l-59 -297h-55z" />
    <glyph glyph-name="Hbar" unicode="&#x126;" horiz-adv-x="688" 
d="M479 0l66 329h-373l-66 -329h-58l105 527h-72l9 45h73l25 126h58l-25 -126h373l25 126h58l-25 -126h73l-9 -45h-73l-106 -527h-58zM182 380h373l30 147h-374z" />
    <glyph glyph-name="hbar" unicode="&#x127;" horiz-adv-x="560" 
d="M44 0l124 617h-64l9 44h64l15 79h56l-16 -79h151l-9 -44h-151l-41 -208h4c37 77 88 115 166 115c87 0 132 -52 132 -139c0 -19 -2 -43 -7 -66l-54 -270h78l-9 -49h-75c-29 0 -48 13 -48 43c0 6 0 10 2 19l51 257c4 21 6 44 6 57c0 65 -30 98 -93 98
c-40 0 -77 -14 -110 -49c-29 -31 -56 -79 -66 -128l-60 -297h-55z" />
    <glyph glyph-name="Itilde" unicode="&#x128;" horiz-adv-x="380" 
d="M364 792c-31 0 -50 12 -74 28c-27 18 -45 24 -64 24c-23 0 -41 -10 -64 -29l-21 28c25 28 55 48 93 48c31 0 50 -12 74 -28c27 -18 45 -24 64 -24c23 0 41 10 64 29l21 -28c-25 -28 -55 -48 -93 -48zM266 0h-255l10 50h99l119 598h-98l10 50h255l-10 -50h-99l-119 -598
h98z" />
    <glyph glyph-name="itilde" unicode="&#x129;" horiz-adv-x="253" 
d="M269 618c-31 0 -50 12 -74 28c-27 18 -45 24 -64 24c-23 0 -41 -10 -64 -29l-21 28c25 28 55 48 93 48c31 0 50 -12 74 -28c27 -18 45 -24 64 -24c23 0 41 10 64 29l21 -28c-25 -28 -55 -48 -93 -48zM176 0h-71c-34 0 -51 18 -51 46c0 6 0 11 2 20l90 446h55l-93 -463h78
z" />
    <glyph glyph-name="Imacron" unicode="&#x12a;" horiz-adv-x="380" 
d="M164 820l10 48h266l-9 -48h-267zM266 0h-255l10 50h99l119 598h-98l10 50h255l-10 -50h-99l-119 -598h98z" />
    <glyph glyph-name="imacron" unicode="&#x12b;" horiz-adv-x="253" 
d="M66 646l10 48h267l-10 -48h-267zM176 0h-71c-34 0 -51 18 -51 46c0 6 0 11 2 20l90 446h55l-93 -463h78z" />
    <glyph glyph-name="Ibreve" unicode="&#x12c;" horiz-adv-x="380" 
d="M293 774c-85 0 -110 65 -125 127l35 15l12 -28c20 -47 40 -70 79 -70c40 0 65 19 103 71l20 27l36 -15c-34 -61 -73 -127 -160 -127zM266 0h-255l10 50h99l119 598h-98l10 50h255l-10 -50h-99l-119 -598h98z" />
    <glyph glyph-name="ibreve" unicode="&#x12d;" horiz-adv-x="253" 
d="M194 600c-85 0 -110 65 -125 127l35 15l12 -28c20 -47 40 -69 79 -69c40 0 65 18 103 70l20 27l36 -15c-34 -61 -73 -127 -160 -127zM176 0h-71c-34 0 -51 18 -51 46c0 6 0 11 2 20l90 446h55l-93 -463h78z" />
    <glyph glyph-name="Iogonek" unicode="&#x12e;" horiz-adv-x="380" 
d="M11 0l10 50h99l119 598h-98l10 50h255l-10 -50h-99l-119 -598h98l-10 -50c-104 -65 -129 -95 -129 -127c0 -26 17 -38 40 -38c22 0 42 10 58 26l28 -31c-17 -19 -48 -35 -89 -35c-47 0 -87 21 -87 71c0 48 40 88 130 130l-1 4h-205z" />
    <glyph glyph-name="iogonek" unicode="&#x12f;" horiz-adv-x="253" 
d="M186 49l-10 -49c-104 -65 -130 -95 -130 -127c0 -26 18 -38 40 -38c23 0 43 10 59 26l27 -31c-16 -19 -47 -35 -89 -35c-46 0 -86 21 -86 71c0 48 41 88 131 130l-1 4h-22c-34 0 -51 18 -51 46c0 6 0 11 2 20l90 446h55l-93 -463h78zM204 651c-25 0 -34 13 -34 28
c0 4 1 8 3 22c5 20 17 32 44 32c25 0 33 -13 33 -28c0 -4 0 -8 -3 -22c-4 -20 -17 -32 -43 -32z" />
    <glyph glyph-name="Idotaccent" unicode="&#x130;" horiz-adv-x="380" 
d="M296 799c-25 0 -34 13 -34 28c0 4 0 8 3 22c4 20 17 32 43 32c25 0 34 -13 34 -28c0 -4 0 -8 -3 -22c-4 -20 -17 -32 -43 -32zM266 0h-255l10 50h99l119 598h-98l10 50h255l-10 -50h-99l-119 -598h98z" />
    <glyph glyph-name="dotlessi" unicode="&#x131;" horiz-adv-x="253" 
d="M176 0h-71c-34 0 -51 18 -51 46c0 6 0 11 2 20l90 446h55l-93 -463h78z" />
    <glyph glyph-name="IJ" unicode="&#x132;" horiz-adv-x="636" 
d="M401 698h230l-98 -484c-29 -146 -120 -226 -262 -226c-120 0 -195 66 -198 158l53 14c6 -80 60 -120 150 -120c106 0 178 63 200 177l86 429h-172zM99 290l82 408h58l-82 -408h-58z" />
    <glyph glyph-name="ij" unicode="&#x133;" horiz-adv-x="498" 
d="M267 -151l132 663h55l-127 -637c-11 -53 -32 -75 -85 -75h-69l10 49h84zM457 651c-24 0 -33 13 -33 28c0 4 0 8 3 22c4 20 17 32 44 32c24 0 33 -13 33 -28c0 -4 0 -8 -3 -22c-4 -20 -17 -32 -44 -32zM204 651c-25 0 -34 13 -34 28c0 4 0 8 3 22c4 20 17 32 43 32
c25 0 34 -13 34 -28c0 -4 0 -8 -3 -22c-4 -20 -17 -32 -43 -32zM176 0h-71c-34 0 -51 18 -51 46c0 6 0 11 2 20l90 446h55l-93 -463h78z" />
    <glyph glyph-name="Jcircumflex" unicode="&#x134;" horiz-adv-x="481" 
d="M324 930h66l92 -139l-32 -22l-98 119l-142 -120l-30 24zM179 698h297l-103 -515c-25 -124 -101 -195 -213 -195c-97 0 -159 57 -164 151l53 11c5 -67 44 -110 113 -110c84 0 135 54 155 153l91 453h-239z" />
    <glyph glyph-name="jcircumflex" unicode="&#x135;" horiz-adv-x="244" 
d="M186 756h66l92 -139l-32 -23l-98 120l-142 -120l-29 24zM-81 -200l10 49h84l132 663h55l-127 -637c-11 -53 -32 -75 -85 -75h-69z" />
    <glyph glyph-name="Kcommaaccent" unicode="&#x136;" horiz-adv-x="595" 
d="M247 -66c24 0 34 -12 34 -28c0 -5 -1 -11 -3 -22c-7 -40 -34 -86 -66 -116h-41c31 32 45 58 56 84c-18 2 -27 12 -27 26c0 4 0 10 2 21c5 22 17 35 45 35zM466 0l-176 361l-141 -131l-46 -230h-58l140 698h58l-77 -384h5l137 130l270 254h75l-319 -300l195 -398h-63z" />
    <glyph glyph-name="kcommaaccent" unicode="&#x137;" horiz-adv-x="503" 
d="M221 -66c24 0 34 -12 34 -28c0 -5 -1 -11 -3 -22c-7 -40 -34 -86 -66 -116h-41c31 32 45 58 56 84c-18 2 -27 12 -27 26c0 4 0 10 2 21c5 22 17 35 45 35zM43 0l148 740h55l-97 -486h4l100 90l191 168h68l-235 -210l119 -253h63l-10 -49h-46c-34 0 -50 11 -63 41
l-107 229l-98 -86l-37 -184h-55z" />
    <glyph glyph-name="kgreenlandic" unicode="&#x138;" horiz-adv-x="509" 
d="M43 0l103 512h55l-57 -279h5l107 97l206 182h68l-250 -224l113 -239h62l-9 -49h-46c-34 0 -50 11 -64 41l-100 214l-106 -92l-32 -163h-55z" />
    <glyph glyph-name="Lacute" unicode="&#x139;" horiz-adv-x="481" 
d="M366 916l-133 -156l-34 20l119 163zM405 0h-360l140 698h58l-129 -646h301z" />
    <glyph glyph-name="lacute" unicode="&#x13a;" horiz-adv-x="253" 
d="M363 942l-133 -156l-35 19l120 164zM179 0h-74c-34 0 -51 18 -51 46c0 6 0 9 2 20l135 674h55l-138 -691h81z" />
    <glyph glyph-name="Lcommaaccent" unicode="&#x13b;" horiz-adv-x="481" 
d="M213 -66c24 0 34 -12 34 -28c0 -5 -1 -11 -3 -22c-7 -40 -34 -86 -66 -116h-41c31 32 45 58 56 84c-18 2 -27 12 -27 26c0 4 0 10 2 21c5 22 17 35 45 35zM405 0h-360l140 698h58l-129 -646h301z" />
    <glyph glyph-name="lcommaaccent" unicode="&#x13c;" horiz-adv-x="253" 
d="M97 -66c24 0 34 -12 34 -28c0 -5 -1 -11 -3 -22c-7 -40 -34 -86 -66 -116h-41c31 32 45 58 56 84c-18 2 -27 12 -27 26c0 4 0 10 2 21c5 22 17 35 45 35zM179 0h-74c-34 0 -51 18 -51 46c0 6 0 9 2 20l135 674h55l-138 -691h81z" />
    <glyph glyph-name="Lcaron" unicode="&#x13d;" horiz-adv-x="481" 
d="M412 740l-67 -181h-39l39 181h67zM405 0h-360l140 698h58l-129 -646h301z" />
    <glyph glyph-name="lcaron" unicode="&#x13e;" horiz-adv-x="253" 
d="M388 740l-67 -181h-39l39 181h67zM179 0h-74c-34 0 -51 18 -51 46c0 6 0 9 2 20l135 674h55l-138 -691h81z" />
    <glyph glyph-name="Ldot" unicode="&#x13f;" horiz-adv-x="481" 
d="M364 283c-25 0 -34 13 -34 28c0 4 0 8 3 22c4 20 17 32 43 32c25 0 34 -13 34 -28c0 -4 0 -8 -3 -22c-4 -20 -17 -32 -43 -32zM405 0h-360l140 698h58l-129 -646h301z" />
    <glyph glyph-name="ldot" unicode="&#x140;" horiz-adv-x="322" 
d="M281 248c-25 0 -34 13 -34 28c0 4 0 8 3 22c4 20 17 32 43 32c25 0 34 -13 34 -28c0 -4 0 -8 -3 -22c-4 -20 -17 -32 -43 -32zM179 0h-74c-34 0 -51 18 -51 46c0 6 0 9 2 20l135 674h55l-138 -691h81z" />
    <glyph glyph-name="Lslash" unicode="&#x141;" horiz-adv-x="487" 
d="M420 52l-11 -52h-361l57 282l-102 -32l8 51l104 33l73 364h58l-69 -344l193 61l-9 -53l-194 -61l-50 -249h303z" />
    <glyph glyph-name="lslash" unicode="&#x142;" horiz-adv-x="259" 
d="M192 49l-10 -49h-74c-34 0 -51 18 -51 46c0 6 0 9 2 20l54 269l-70 -22l8 49l72 23l71 355h55l-67 -336l101 34l-7 -50l-104 -33l-61 -306h81z" />
    <glyph glyph-name="Nacute" unicode="&#x143;" horiz-adv-x="681" 
d="M582 916l-133 -156l-34 20l119 163zM465 0l-237 615h-4l-123 -615h-56l140 698h69l237 -615h4l123 615h56l-140 -698h-69z" />
    <glyph glyph-name="nacute" unicode="&#x144;" horiz-adv-x="558" 
d="M98 0h-55l102 512h56l-21 -103h4c37 77 88 115 166 115c87 0 132 -52 132 -139c0 -19 -2 -43 -7 -66l-54 -270h78l-10 -49h-74c-30 0 -49 14 -49 42c0 9 2 17 4 28l50 249c4 21 6 44 6 57c0 65 -30 98 -93 98c-40 0 -77 -14 -110 -49c-29 -31 -56 -79 -66 -128zM480 742
l-133 -156l-35 19l120 164z" />
    <glyph glyph-name="Ncommaaccent" unicode="&#x145;" horiz-adv-x="681" 
d="M279 -66c24 0 34 -12 34 -28c0 -5 -1 -11 -3 -22c-7 -40 -34 -86 -66 -116h-41c31 32 45 58 56 84c-18 2 -27 12 -27 26c0 4 0 10 2 21c5 22 17 35 45 35zM465 0l-237 615h-4l-123 -615h-56l140 698h69l237 -615h4l123 615h56l-140 -698h-69z" />
    <glyph glyph-name="ncommaaccent" unicode="&#x146;" horiz-adv-x="558" 
d="M98 0h-55l102 512h56l-21 -103h4c37 77 88 115 166 115c87 0 132 -52 132 -139c0 -19 -2 -43 -7 -66l-54 -270h78l-10 -49h-74c-30 0 -49 14 -49 42c0 9 2 17 4 28l50 249c4 21 6 44 6 57c0 65 -30 98 -93 98c-40 0 -77 -14 -110 -49c-29 -31 -56 -79 -66 -128zM232 -66
c24 0 34 -12 34 -28c0 -5 -1 -11 -3 -22c-7 -40 -34 -86 -66 -116h-41c31 32 45 58 56 84c-18 2 -27 12 -27 26c0 4 0 10 2 21c5 22 17 35 45 35z" />
    <glyph glyph-name="Ncaron" unicode="&#x147;" horiz-adv-x="681" 
d="M484 774h-67l-91 140l32 23l96 -121l143 121l30 -24zM465 0l-237 615h-4l-123 -615h-56l140 698h69l237 -615h4l123 615h56l-140 -698h-69z" />
    <glyph glyph-name="ncaron" unicode="&#x148;" horiz-adv-x="558" 
d="M98 0h-55l102 512h56l-21 -103h4c37 77 88 115 166 115c87 0 132 -52 132 -139c0 -19 -2 -43 -7 -66l-54 -270h78l-10 -49h-74c-30 0 -49 14 -49 42c0 9 2 17 4 28l50 249c4 21 6 44 6 57c0 65 -30 98 -93 98c-40 0 -77 -14 -110 -49c-29 -31 -56 -79 -66 -128zM383 601
h-67l-92 139l33 23l95 -120l144 120l30 -24z" />
    <glyph glyph-name="napostrophe" unicode="&#x149;" horiz-adv-x="782" 
d="M322 0h-55l102 512h56l-21 -103h4c37 77 88 115 166 115c87 0 132 -52 132 -139c0 -19 -2 -43 -7 -66l-54 -270h78l-10 -49h-74c-30 0 -49 14 -49 42c0 9 2 17 4 28l50 249c4 21 6 44 6 57c0 65 -30 98 -93 98c-40 0 -77 -14 -110 -49c-29 -31 -56 -79 -66 -128zM230 750
c27 0 41 -12 41 -32c0 -7 -1 -18 -3 -26c-12 -52 -52 -127 -113 -172h-48c53 45 82 91 99 132c-21 3 -30 14 -30 30c0 8 2 19 4 26c5 21 15 42 50 42z" />
    <glyph glyph-name="Eng" unicode="&#x14a;" horiz-adv-x="682" 
d="M101 0h-56l140 698h69l237 -616h4l123 616h56l-165 -824c-10 -51 -33 -74 -83 -74h-71l10 50h83l30 150h-13l-237 616h-4z" />
    <glyph glyph-name="eng" unicode="&#x14b;" horiz-adv-x="556" 
d="M242 -151h84l94 470c4 21 6 44 6 57c0 65 -30 98 -93 98c-40 0 -77 -14 -110 -49c-29 -31 -56 -79 -66 -128l-59 -297h-55l102 512h56l-21 -103h4c37 77 88 115 166 115c87 0 132 -52 132 -139c0 -19 -2 -43 -7 -66l-88 -444c-11 -53 -33 -75 -87 -75h-68z" />
    <glyph glyph-name="Omacron" unicode="&#x14c;" horiz-adv-x="671" 
d="M301 820l10 48h266l-9 -48h-267zM295 -12c-136 0 -235 90 -235 256c0 219 116 466 346 466c136 0 235 -90 235 -256c0 -219 -116 -466 -346 -466zM300 40c132 0 225 100 258 261l17 83c6 31 8 61 8 84c0 116 -66 190 -182 190c-132 0 -225 -100 -258 -261l-17 -83
c-6 -31 -8 -61 -8 -84c0 -116 66 -190 182 -190z" />
    <glyph glyph-name="omacron" unicode="&#x14d;" horiz-adv-x="544" 
d="M203 646l10 48h267l-10 -48h-267zM231 -12c-107 0 -178 75 -178 200c0 178 99 336 260 336c107 0 178 -75 178 -200c0 -178 -99 -336 -260 -336zM238 37c89 0 157 67 180 184l12 61c4 18 5 36 5 56c0 78 -42 137 -129 137c-89 0 -157 -67 -180 -184l-12 -61
c-4 -18 -5 -36 -5 -56c0 -78 42 -137 129 -137z" />
    <glyph glyph-name="Obreve" unicode="&#x14e;" horiz-adv-x="671" 
d="M430 774c-85 0 -110 65 -125 127l35 15l12 -28c20 -47 40 -70 79 -70c40 0 65 19 103 71l20 27l36 -15c-34 -61 -73 -127 -160 -127zM295 -12c-136 0 -235 90 -235 256c0 219 116 466 346 466c136 0 235 -90 235 -256c0 -219 -116 -466 -346 -466zM300 40
c132 0 225 100 258 261l17 83c6 31 8 61 8 84c0 116 -66 190 -182 190c-132 0 -225 -100 -258 -261l-17 -83c-6 -31 -8 -61 -8 -84c0 -116 66 -190 182 -190z" />
    <glyph glyph-name="obreve" unicode="&#x14f;" horiz-adv-x="544" 
d="M331 600c-85 0 -110 65 -125 127l35 15l12 -28c20 -47 40 -69 79 -69c40 0 65 18 103 70l20 27l36 -15c-34 -61 -73 -127 -160 -127zM231 -12c-107 0 -178 75 -178 200c0 178 99 336 260 336c107 0 178 -75 178 -200c0 -178 -99 -336 -260 -336zM238 37
c89 0 157 67 180 184l12 61c4 18 5 36 5 56c0 78 -42 137 -129 137c-89 0 -157 -67 -180 -184l-12 -61c-4 -18 -5 -36 -5 -56c0 -78 42 -137 129 -137z" />
    <glyph glyph-name="Ohungarumlaut" unicode="&#x150;" horiz-adv-x="671" 
d="M467 916l-133 -156l-32 19l119 162zM624 916l-131 -156l-33 19l119 162zM295 -12c-136 0 -235 90 -235 256c0 219 116 466 346 466c136 0 235 -90 235 -256c0 -219 -116 -466 -346 -466zM300 40c132 0 225 100 258 261l17 83c6 31 8 61 8 84c0 116 -66 190 -182 190
c-132 0 -225 -100 -258 -261l-17 -83c-6 -31 -8 -61 -8 -84c0 -116 66 -190 182 -190z" />
    <glyph glyph-name="ohungarumlaut" unicode="&#x151;" horiz-adv-x="544" 
d="M386 742l-132 -156l-32 18l119 164zM545 742l-133 -156l-32 18l119 164zM231 -12c-107 0 -178 75 -178 200c0 178 99 336 260 336c107 0 178 -75 178 -200c0 -178 -99 -336 -260 -336zM238 37c89 0 157 67 180 184l12 61c4 18 5 36 5 56c0 78 -42 137 -129 137
c-89 0 -157 -67 -180 -184l-12 -61c-4 -18 -5 -36 -5 -56c0 -78 42 -137 129 -137z" />
    <glyph glyph-name="OE" unicode="&#x152;" horiz-adv-x="935" 
d="M827 0h-407c-38 -8 -83 -12 -116 -12c-142 0 -244 88 -244 255c0 182 89 467 362 467c39 0 99 -4 137 -12h398l-11 -52h-339l-54 -266h315l-10 -51h-315l-55 -277h349zM315 40c34 0 81 3 115 15l118 591c-32 7 -90 12 -129 12c-151 0 -243 -99 -275 -255l-17 -83
c-6 -35 -9 -67 -9 -91c0 -118 66 -189 197 -189z" />
    <glyph glyph-name="oe" unicode="&#x153;" horiz-adv-x="876" 
d="M238 37c89 0 157 67 180 184l12 61c4 18 5 36 5 56c0 78 -42 137 -129 137c-89 0 -157 -67 -180 -184l-12 -61c-4 -18 -5 -36 -5 -56c0 -78 42 -137 129 -137zM677 476c-93 0 -165 -74 -186 -182l-4 -24c251 7 302 53 302 123c0 57 -44 83 -112 83zM609 -12
c-94 0 -153 45 -174 134h-4c-43 -83 -107 -134 -200 -134c-108 0 -178 76 -178 200c0 178 99 336 260 336c84 0 143 -49 162 -130h5c42 74 110 130 203 130c95 0 162 -52 162 -127c0 -98 -79 -167 -365 -171c-2 -12 -3 -30 -3 -43c0 -93 47 -146 136 -146
c71 0 131 41 169 99l38 -30c-60 -85 -133 -118 -211 -118z" />
    <glyph glyph-name="Racute" unicode="&#x154;" horiz-adv-x="627" 
d="M532 916l-133 -156l-34 20l119 163zM165 309l-62 -309h-58l140 698h250c112 0 164 -68 164 -160c0 -121 -70 -214 -195 -226l111 -312h-62l-107 309h-181zM176 360h207c80 0 131 44 145 115c9 43 11 58 11 72c0 57 -30 99 -109 99h-198z" />
    <glyph glyph-name="racute" unicode="&#x155;" horiz-adv-x="354" 
d="M409 742l-133 -156l-35 19l120 164zM98 0h-55l102 512h56l-23 -107h4c31 57 75 107 162 107h32l-11 -55h-33c-97 0 -157 -71 -174 -155z" />
    <glyph glyph-name="Rcommaaccent" unicode="&#x156;" horiz-adv-x="627" 
d="M257 -66c24 0 34 -12 34 -28c0 -5 -1 -11 -3 -22c-7 -40 -34 -86 -66 -116h-41c31 32 45 58 56 84c-18 2 -27 12 -27 26c0 4 0 10 2 21c5 22 17 35 45 35zM165 309l-62 -309h-58l140 698h250c112 0 164 -68 164 -160c0 -121 -70 -214 -195 -226l111 -312h-62l-107 309
h-181zM176 360h207c80 0 131 44 145 115c9 43 11 58 11 72c0 57 -30 99 -109 99h-198z" />
    <glyph glyph-name="rcommaaccent" unicode="&#x157;" horiz-adv-x="354" 
d="M56 -66c24 0 34 -12 34 -28c0 -5 -1 -11 -3 -22c-7 -40 -34 -86 -66 -116h-41c31 32 45 58 56 84c-18 2 -27 12 -27 26c0 4 0 10 2 21c5 22 17 35 45 35zM98 0h-55l102 512h56l-23 -107h4c31 57 75 107 162 107h32l-11 -55h-33c-97 0 -157 -71 -174 -155z" />
    <glyph glyph-name="Rcaron" unicode="&#x158;" horiz-adv-x="627" 
d="M434 774h-67l-91 140l32 23l96 -121l143 121l30 -24zM165 309l-62 -309h-58l140 698h250c112 0 164 -68 164 -160c0 -121 -70 -214 -195 -226l111 -312h-62l-107 309h-181zM176 360h207c80 0 131 44 145 115c9 43 11 58 11 72c0 57 -30 99 -109 99h-198z" />
    <glyph glyph-name="rcaron" unicode="&#x159;" horiz-adv-x="354" 
d="M312 601h-67l-92 139l33 23l95 -120l144 120l30 -24zM98 0h-55l102 512h56l-23 -107h4c31 57 75 107 162 107h32l-11 -55h-33c-97 0 -157 -71 -174 -155z" />
    <glyph glyph-name="Sacute" unicode="&#x15a;" horiz-adv-x="561" 
d="M489 916l-133 -156l-34 20l119 163zM244 -12c-110 0 -189 40 -232 120l45 32c40 -68 98 -100 188 -100c131 0 191 76 191 168c0 64 -34 102 -112 119l-75 16c-94 21 -143 78 -143 165c0 110 81 202 231 202c110 0 176 -41 217 -104l-43 -34c-37 57 -90 86 -177 86
c-110 0 -170 -60 -170 -147c0 -65 34 -102 109 -119l74 -16c96 -21 147 -77 147 -166c0 -122 -85 -222 -250 -222z" />
    <glyph glyph-name="sacute" unicode="&#x15b;" horiz-adv-x="462" 
d="M407 742l-133 -156l-35 19l120 164zM205 -12c-81 0 -150 34 -191 96l39 33c37 -54 87 -81 152 -81c78 0 132 39 132 111c0 45 -24 70 -87 84l-43 10c-74 16 -129 47 -129 129c0 89 67 154 181 154c81 0 130 -31 166 -77l-39 -34c-25 35 -62 63 -131 63
c-79 0 -123 -40 -123 -102c0 -46 24 -70 85 -84l43 -10c77 -17 130 -48 130 -130c0 -102 -80 -162 -185 -162z" />
    <glyph glyph-name="Scircumflex" unicode="&#x15c;" horiz-adv-x="561" 
d="M351 930h66l92 -139l-32 -22l-98 119l-142 -120l-30 24zM244 -12c-110 0 -189 40 -232 120l45 32c40 -68 98 -100 188 -100c131 0 191 76 191 168c0 64 -34 102 -112 119l-75 16c-94 21 -143 78 -143 165c0 110 81 202 231 202c110 0 176 -41 217 -104l-43 -34
c-37 57 -90 86 -177 86c-110 0 -170 -60 -170 -147c0 -65 34 -102 109 -119l74 -16c96 -21 147 -77 147 -166c0 -122 -85 -222 -250 -222z" />
    <glyph glyph-name="scircumflex" unicode="&#x15d;" horiz-adv-x="462" 
d="M269 756h66l92 -139l-32 -23l-98 120l-142 -120l-29 24zM205 -12c-81 0 -150 34 -191 96l39 33c37 -54 87 -81 152 -81c78 0 132 39 132 111c0 45 -24 70 -87 84l-43 10c-74 16 -129 47 -129 129c0 89 67 154 181 154c81 0 130 -31 166 -77l-39 -34
c-25 35 -62 63 -131 63c-79 0 -123 -40 -123 -102c0 -46 24 -70 85 -84l43 -10c77 -17 130 -48 130 -130c0 -102 -80 -162 -185 -162z" />
    <glyph glyph-name="Scedilla" unicode="&#x15e;" horiz-adv-x="561" 
d="M217 -205c-45 0 -78 16 -91 35l30 30c10 -14 31 -26 59 -26c35 0 57 19 57 45c0 22 -13 35 -54 39l-30 3l24 68c-93 8 -162 47 -200 119l45 32c40 -68 98 -100 188 -100c131 0 191 76 191 168c0 64 -34 102 -112 119l-75 16c-94 21 -143 78 -143 165
c0 110 81 202 231 202c110 0 176 -41 217 -104l-43 -34c-37 57 -90 86 -177 86c-110 0 -170 -60 -170 -147c0 -65 34 -102 109 -119l74 -16c96 -21 147 -77 147 -166c0 -121 -84 -220 -245 -222l-20 -54l2 -2c8 1 18 3 30 3c34 0 58 -16 58 -55c0 -49 -41 -85 -102 -85z" />
    <glyph glyph-name="scedilla" unicode="&#x15f;" horiz-adv-x="462" 
d="M178 -205c-45 0 -78 16 -91 35l30 30c10 -14 31 -26 59 -26c35 0 57 19 57 45c0 22 -13 35 -54 39l-30 3l25 69c-68 7 -125 41 -160 94l39 33c37 -54 87 -81 152 -81c78 0 132 39 132 111c0 45 -24 70 -87 84l-43 10c-74 16 -129 47 -129 129c0 89 67 154 181 154
c81 0 130 -31 166 -77l-39 -34c-25 35 -62 63 -131 63c-79 0 -123 -40 -123 -102c0 -46 24 -70 85 -84l43 -10c77 -17 130 -48 130 -130c0 -101 -78 -160 -180 -162l-20 -54l2 -2c7 1 18 3 30 3c34 0 58 -16 58 -55c0 -49 -41 -85 -102 -85z" />
    <glyph glyph-name="Scaron" unicode="&#x160;" horiz-adv-x="561" 
d="M391 774h-67l-91 140l32 23l96 -121l143 121l30 -24zM244 -12c-110 0 -189 40 -232 120l45 32c40 -68 98 -100 188 -100c131 0 191 76 191 168c0 64 -34 102 -112 119l-75 16c-94 21 -143 78 -143 165c0 110 81 202 231 202c110 0 176 -41 217 -104l-43 -34
c-37 57 -90 86 -177 86c-110 0 -170 -60 -170 -147c0 -65 34 -102 109 -119l74 -16c96 -21 147 -77 147 -166c0 -122 -85 -222 -250 -222z" />
    <glyph glyph-name="scaron" unicode="&#x161;" horiz-adv-x="462" 
d="M310 601h-67l-92 139l33 23l95 -120l144 120l30 -24zM205 -12c-81 0 -150 34 -191 96l39 33c37 -54 87 -81 152 -81c78 0 132 39 132 111c0 45 -24 70 -87 84l-43 10c-74 16 -129 47 -129 129c0 89 67 154 181 154c81 0 130 -31 166 -77l-39 -34c-25 35 -62 63 -131 63
c-79 0 -123 -40 -123 -102c0 -46 24 -70 85 -84l43 -10c77 -17 130 -48 130 -130c0 -102 -80 -162 -185 -162z" />
    <glyph glyph-name="uni0162" unicode="&#x162;" horiz-adv-x="552" 
d="M212 -66c24 0 34 -12 34 -28c0 -5 -1 -11 -3 -22c-7 -40 -34 -86 -66 -116h-41c31 32 45 58 56 84c-18 2 -27 12 -27 26c0 4 0 10 2 21c5 22 17 35 45 35zM610 646h-227l-129 -646h-58l129 646h-227l10 52h513z" />
    <glyph glyph-name="uni0163" unicode="&#x163;" horiz-adv-x="313" 
d="M127 -66c24 0 34 -12 34 -28c0 -5 -1 -11 -3 -22c-7 -40 -34 -86 -66 -116h-41c31 32 45 58 56 84c-18 2 -27 12 -27 26c0 4 0 10 2 21c5 22 17 35 45 35zM221 0h-97c-37 0 -52 18 -52 45c0 10 1 20 3 28l78 390h-84l10 49h51c30 0 38 11 43 40l21 103h52l-29 -143h114
l-10 -49h-113l-83 -414h106z" />
    <glyph glyph-name="Tcaron" unicode="&#x164;" horiz-adv-x="552" 
d="M415 774h-67l-91 140l32 23l96 -121l143 121l30 -24zM610 646h-227l-129 -646h-58l129 646h-227l10 52h513z" />
    <glyph glyph-name="tcaron" unicode="&#x165;" horiz-adv-x="313" 
d="M409 747l-67 -181h-39l39 181h67zM221 0h-97c-37 0 -52 18 -52 45c0 10 1 20 3 28l78 390h-84l10 49h51c30 0 38 11 43 40l21 103h52l-29 -143h114l-10 -49h-113l-83 -414h106z" />
    <glyph glyph-name="Tbar" unicode="&#x166;" horiz-adv-x="553" 
d="M493 347h-170l-69 -347h-58l69 347h-170l10 47h170l50 252h-227l10 52h513l-11 -52h-227l-50 -252h169z" />
    <glyph glyph-name="tbar" unicode="&#x167;" horiz-adv-x="319" 
d="M234 49l-10 -49h-97c-37 0 -52 18 -52 45c0 10 1 19 3 28l38 191h-55l8 39h55l33 160h-84l10 49h51c30 0 38 11 43 40l21 103h52l-29 -143h114l-10 -49h-113l-33 -160h94l-8 -39h-94l-43 -215h106z" />
    <glyph glyph-name="Utilde" unicode="&#x168;" horiz-adv-x="650" 
d="M499 792c-31 0 -50 12 -74 28c-27 18 -45 24 -64 24c-23 0 -41 -10 -64 -29l-21 28c25 28 55 48 93 48c31 0 50 -12 74 -28c27 -18 45 -24 64 -24c23 0 41 10 64 29l21 -28c-25 -28 -55 -48 -93 -48zM179 698h58l-85 -428c-9 -42 -12 -67 -12 -92c0 -86 50 -138 144 -138
c127 0 187 63 222 239l84 419h58l-85 -423c-43 -214 -119 -287 -285 -287c-122 0 -195 66 -195 185c0 33 5 68 14 114z" />
    <glyph glyph-name="utilde" unicode="&#x169;" horiz-adv-x="557" 
d="M414 618c-31 0 -50 12 -74 28c-27 18 -45 24 -64 24c-23 0 -41 -10 -64 -29l-21 28c25 28 55 48 93 48c31 0 50 -12 74 -28c27 -18 45 -24 64 -24c23 0 41 10 64 29l21 -28c-25 -28 -55 -48 -93 -48zM138 512h55l-64 -319c-4 -20 -5 -44 -5 -57c0 -64 28 -98 91 -98
c40 0 77 14 109 49c31 34 56 81 66 128l59 297h55l-92 -463h77l-9 -49h-73c-33 0 -49 18 -49 46c0 6 1 13 3 24l6 33h-4c-37 -77 -88 -115 -164 -115c-87 0 -132 52 -132 139c0 19 3 43 7 66z" />
    <glyph glyph-name="Umacron" unicode="&#x16a;" horiz-adv-x="650" 
d="M299 820l10 48h266l-9 -48h-267zM179 698h58l-85 -428c-9 -42 -12 -67 -12 -92c0 -86 50 -138 144 -138c127 0 187 63 222 239l84 419h58l-85 -423c-43 -214 -119 -287 -285 -287c-122 0 -195 66 -195 185c0 33 5 68 14 114z" />
    <glyph glyph-name="umacron" unicode="&#x16b;" horiz-adv-x="557" 
d="M211 646l10 48h267l-10 -48h-267zM138 512h55l-64 -319c-4 -20 -5 -44 -5 -57c0 -64 28 -98 91 -98c40 0 77 14 109 49c31 34 56 81 66 128l59 297h55l-92 -463h77l-9 -49h-73c-33 0 -49 18 -49 46c0 6 1 13 3 24l6 33h-4c-37 -77 -88 -115 -164 -115
c-87 0 -132 52 -132 139c0 19 3 43 7 66z" />
    <glyph glyph-name="Ubreve" unicode="&#x16c;" horiz-adv-x="650" 
d="M428 774c-85 0 -110 65 -125 127l35 15l12 -28c20 -47 40 -70 79 -70c40 0 65 19 103 71l20 27l36 -15c-34 -61 -73 -127 -160 -127zM179 698h58l-85 -428c-9 -42 -12 -67 -12 -92c0 -86 50 -138 144 -138c127 0 187 63 222 239l84 419h58l-85 -423
c-43 -214 -119 -287 -285 -287c-122 0 -195 66 -195 185c0 33 5 68 14 114z" />
    <glyph glyph-name="ubreve" unicode="&#x16d;" horiz-adv-x="557" 
d="M339 600c-85 0 -110 65 -125 127l35 15l12 -28c20 -47 40 -69 79 -69c40 0 65 18 103 70l20 27l36 -15c-34 -61 -73 -127 -160 -127zM138 512h55l-64 -319c-4 -20 -5 -44 -5 -57c0 -64 28 -98 91 -98c40 0 77 14 109 49c31 34 56 81 66 128l59 297h55l-92 -463h77l-9 -49
h-73c-33 0 -49 18 -49 46c0 6 1 13 3 24l6 33h-4c-37 -77 -88 -115 -164 -115c-87 0 -132 52 -132 139c0 19 3 43 7 66z" />
    <glyph glyph-name="Uring" unicode="&#x16e;" horiz-adv-x="650" 
d="M426 755c-60 0 -90 41 -90 89c0 74 47 122 120 122c60 0 90 -41 90 -89c0 -74 -47 -122 -120 -122zM431 791c38 0 63 22 70 60c3 15 4 23 4 30c0 30 -18 49 -54 49c-38 0 -63 -22 -70 -60c-3 -15 -4 -23 -4 -30c0 -30 18 -49 54 -49zM179 698h58l-85 -428
c-9 -42 -12 -67 -12 -92c0 -86 50 -138 144 -138c127 0 187 63 222 239l84 419h58l-85 -423c-43 -214 -119 -287 -285 -287c-122 0 -195 66 -195 185c0 33 5 68 14 114z" />
    <glyph glyph-name="uring" unicode="&#x16f;" horiz-adv-x="557" 
d="M337 581c-60 0 -90 41 -90 89c0 74 47 122 120 122c60 0 90 -41 90 -89c0 -74 -47 -122 -120 -122zM342 617c38 0 63 22 70 60c3 15 4 23 4 30c0 30 -18 49 -54 49c-38 0 -63 -22 -70 -60c-3 -15 -4 -23 -4 -30c0 -30 18 -49 54 -49zM138 512h55l-64 -319
c-4 -20 -5 -44 -5 -57c0 -64 28 -98 91 -98c40 0 77 14 109 49c31 34 56 81 66 128l59 297h55l-92 -463h77l-9 -49h-73c-33 0 -49 18 -49 46c0 6 1 13 3 24l6 33h-4c-37 -77 -88 -115 -164 -115c-87 0 -132 52 -132 139c0 19 3 43 7 66z" />
    <glyph glyph-name="Uhungarumlaut" unicode="&#x170;" horiz-adv-x="650" 
d="M465 916l-133 -156l-32 19l119 162zM622 916l-131 -156l-33 19l119 162zM179 698h58l-85 -428c-9 -42 -12 -67 -12 -92c0 -86 50 -138 144 -138c127 0 187 63 222 239l84 419h58l-85 -423c-43 -214 -119 -287 -285 -287c-122 0 -195 66 -195 185c0 33 5 68 14 114z" />
    <glyph glyph-name="uhungarumlaut" unicode="&#x171;" horiz-adv-x="557" 
d="M394 742l-132 -156l-32 18l119 164zM553 742l-133 -156l-32 18l119 164zM138 512h55l-64 -319c-4 -20 -5 -44 -5 -57c0 -64 28 -98 91 -98c40 0 77 14 109 49c31 34 56 81 66 128l59 297h55l-92 -463h77l-9 -49h-73c-33 0 -49 18 -49 46c0 6 1 13 3 24l6 33h-4
c-37 -77 -88 -115 -164 -115c-87 0 -132 52 -132 139c0 19 3 43 7 66z" />
    <glyph glyph-name="Uogonek" unicode="&#x172;" horiz-adv-x="650" 
d="M179 698h58l-85 -428c-8 -42 -12 -67 -12 -92c0 -86 50 -138 144 -138c128 0 187 63 222 239l84 419h58l-85 -423c-40 -201 -108 -241 -192 -281c-94 -44 -129 -89 -129 -121c0 -26 18 -38 40 -38s43 10 58 26l28 -31c-17 -19 -48 -35 -89 -35c-47 0 -87 21 -87 71
c0 44 33 86 114 120l-1 3c-7 -1 -14 -1 -22 -1c-132 0 -200 67 -200 185c0 33 5 68 14 114z" />
    <glyph glyph-name="uogonek" unicode="&#x173;" horiz-adv-x="557" 
d="M138 512h55l-64 -319c-4 -20 -5 -44 -5 -57c0 -64 28 -98 91 -98c40 0 77 14 109 49c31 34 56 81 66 128l59 297h55l-92 -463h77l-9 -49c-104 -65 -130 -95 -130 -127c0 -26 18 -38 40 -38s43 10 59 26l27 -31c-16 -19 -47 -35 -89 -35c-46 0 -86 21 -86 71
c0 48 40 88 130 130l-1 4h-23c-36 0 -49 19 -49 46c0 6 1 13 3 24l6 33h-4c-37 -77 -88 -115 -164 -115c-87 0 -132 52 -132 139c0 19 3 43 7 66z" />
    <glyph glyph-name="Wcircumflex" unicode="&#x174;" horiz-adv-x="863" 
d="M525 930h66l92 -139l-32 -22l-98 119l-142 -120l-30 24zM213 0h-70l-33 698h58l25 -622h3l286 622h71l38 -622h3l278 622h61l-320 -698h-68l-38 628h-4z" />
    <glyph glyph-name="wcircumflex" unicode="&#x175;" horiz-adv-x="731" 
d="M421 756h66l92 -139l-32 -23l-98 120l-142 -120l-29 24zM115 0l-38 512h53l29 -452h4l221 452h55l41 -450h4l211 450h54l-243 -512h-67l-40 429h-4l-210 -429h-70z" />
    <glyph glyph-name="Ycircumflex" unicode="&#x176;" horiz-adv-x="563" 
d="M371 930h66l92 -139l-32 -22l-98 119l-142 -120l-30 24zM259 0h-58l56 281l-150 417h59l128 -355h4l270 355h67l-320 -417z" />
    <glyph glyph-name="ycircumflex" unicode="&#x177;" horiz-adv-x="475" 
d="M294 756h66l92 -139l-32 -23l-98 120l-142 -120l-29 24zM199 61l245 451h59l-364 -652c-24 -44 -43 -60 -83 -60h-78l10 48h89l78 141l-85 523h54l71 -451h4z" />
    <glyph glyph-name="Ydieresis" unicode="&#x178;" horiz-adv-x="563" 
d="M290 800c-25 0 -34 13 -34 28c0 4 0 8 3 22c4 20 17 32 43 32c25 0 34 -13 34 -28c0 -4 0 -8 -3 -22c-4 -20 -17 -32 -43 -32zM472 800c-25 0 -34 13 -34 28c0 4 0 8 3 22c4 20 17 32 43 32c25 0 34 -13 34 -28c0 -4 0 -8 -3 -22c-4 -20 -17 -32 -43 -32zM259 0h-58
l56 281l-150 417h59l128 -355h4l270 355h67l-320 -417z" />
    <glyph glyph-name="Zacute" unicode="&#x179;" horiz-adv-x="555" 
d="M504 916l-133 -156l-34 20l119 163zM479 52l-11 -52h-486l12 56l521 590h-389l11 52h457l-11 -56l-522 -590h418z" />
    <glyph glyph-name="zacute" unicode="&#x17a;" horiz-adv-x="441" 
d="M419 742l-133 -156l-35 19l120 164zM359 0h-362l9 48l365 415h-283l9 49h349l-9 -48l-365 -415h297z" />
    <glyph glyph-name="Zdotaccent" unicode="&#x17b;" horiz-adv-x="555" 
d="M377 799c-25 0 -34 13 -34 28c0 4 0 8 3 22c4 20 17 32 43 32c25 0 34 -13 34 -28c0 -4 0 -8 -3 -22c-4 -20 -17 -32 -43 -32zM479 52l-11 -52h-486l12 56l521 590h-389l11 52h457l-11 -56l-522 -590h418z" />
    <glyph glyph-name="zdotaccent" unicode="&#x17c;" horiz-adv-x="441" 
d="M295 626c-25 0 -34 13 -34 28c0 4 0 8 3 22c4 20 17 32 43 32c25 0 34 -13 34 -28c0 -4 0 -8 -3 -22c-4 -20 -17 -32 -43 -32zM359 0h-362l9 48l365 415h-283l9 49h349l-9 -48l-365 -415h297z" />
    <glyph glyph-name="Zcaron" unicode="&#x17d;" horiz-adv-x="555" 
d="M406 774h-67l-91 140l32 23l96 -121l143 121l30 -24zM479 52l-11 -52h-486l12 56l521 590h-389l11 52h457l-11 -56l-522 -590h418z" />
    <glyph glyph-name="zcaron" unicode="&#x17e;" horiz-adv-x="441" 
d="M322 601h-67l-92 139l33 23l95 -120l144 120l30 -24zM359 0h-362l9 48l365 415h-283l9 49h349l-9 -48l-365 -415h297z" />
    <glyph glyph-name="uni018F" unicode="&#x18f;" horiz-adv-x="671" 
d="M293 -12c-137 0 -233 95 -233 253c0 32 4 65 10 101l4 21h497c10 47 11 80 11 103c0 116 -65 192 -183 192c-88 0 -172 -45 -229 -155l-44 25c52 108 150 182 277 182c149 0 238 -100 238 -256c0 -215 -111 -466 -348 -466zM297 40c135 0 230 101 263 274h-433
c-6 -29 -9 -62 -9 -85c0 -115 64 -189 179 -189z" />
    <glyph glyph-name="florin" unicode="&#x192;" horiz-adv-x="484" 
d="M-77 -134l10 49h158l110 392h-144l11 49h148l75 262c15 52 42 80 99 80h142l-11 -49h-164l-83 -293h183l-11 -49h-187l-102 -361c-16 -57 -42 -80 -100 -80h-134z" />
    <glyph glyph-name="Ohorn" unicode="&#x1a0;" horiz-adv-x="671" 
d="M653 811h50l-20 -102c-7 -30 -19 -50 -56 -50h-68c50 -43 82 -113 82 -205c0 -219 -116 -466 -346 -466c-136 0 -235 90 -235 256c0 219 116 466 346 466c30 0 57 -3 83 -12h142zM300 40c132 0 225 100 258 261l17 83c6 31 8 61 8 84c0 116 -66 190 -182 190
c-132 0 -225 -100 -258 -261l-17 -83c-6 -31 -8 -61 -8 -84c0 -116 66 -190 182 -190z" />
    <glyph glyph-name="ohorn" unicode="&#x1a1;" horiz-adv-x="544" 
d="M231 -12c-107 0 -178 75 -178 200c0 178 99 336 260 336c25 0 48 -4 69 -12h96l22 112h49l-19 -101c-6 -30 -19 -49 -57 -49h-34c33 -34 52 -86 52 -150c0 -178 -99 -336 -260 -336zM238 37c89 0 157 67 180 184l12 61c4 18 5 36 5 56c0 78 -42 137 -129 137
c-89 0 -157 -67 -180 -184l-12 -61c-4 -18 -5 -36 -5 -56c0 -78 42 -137 129 -137z" />
    <glyph glyph-name="Uhorn" unicode="&#x1af;" horiz-adv-x="650" 
d="M179 698h58l-85 -428c-9 -42 -12 -67 -12 -92c0 -86 50 -138 144 -138c127 0 187 63 222 239l84 419h86l22 112h49l-19 -102c-6 -29 -19 -49 -56 -49h-32l-77 -384c-43 -214 -120 -287 -286 -287c-122 0 -194 66 -194 185c0 33 5 68 14 114z" />
    <glyph glyph-name="uhorn" unicode="&#x1b0;" horiz-adv-x="558" 
d="M480 0h-73c-33 0 -49 18 -49 46c0 6 1 13 3 24l6 33h-4c-37 -77 -88 -115 -164 -115c-87 0 -132 52 -132 139c0 19 3 43 7 66l64 319h55l-64 -319c-4 -20 -5 -44 -5 -57c0 -64 28 -98 91 -98c40 0 77 14 109 49c31 34 56 81 66 128l59 297h83l22 112h49l-20 -101
c-5 -30 -18 -50 -55 -50h-32l-84 -424h77z" />
    <glyph glyph-name="Aringacute" unicode="&#x1fa;" horiz-adv-x="612" 
d="M542 1080l-101 -97l-28 21l91 104zM401 750c-60 0 -90 41 -90 89c0 74 47 122 120 122c60 0 90 -41 90 -89c0 -74 -47 -122 -120 -122zM406 786c38 0 63 22 70 60c3 15 4 23 4 30c0 30 -18 49 -54 49c-38 0 -63 -22 -70 -60c-3 -15 -4 -23 -4 -30c0 -30 18 -49 54 -49z
M536 0h-59l-34 217h-289l-113 -217h-62l370 698h77zM437 268l-58 373h-4l-194 -373h256z" />
    <glyph glyph-name="aringacute" unicode="&#x1fb;" horiz-adv-x="577" 
d="M484 910l-103 -102l-28 21l92 110zM342 575c-60 0 -90 41 -90 89c0 74 47 122 120 122c60 0 90 -41 90 -89c0 -74 -47 -122 -120 -122zM347 611c38 0 63 22 70 60c3 15 4 23 4 30c0 30 -18 49 -54 49c-38 0 -63 -22 -70 -60c-3 -15 -4 -23 -4 -30c0 -30 18 -49 54 -49z
M500 0h-72c-34 0 -50 18 -50 45c0 7 1 16 3 25l8 42h-3c-42 -82 -93 -124 -172 -124c-98 0 -159 77 -159 193c0 165 84 343 250 343c71 0 127 -36 144 -99h3l17 87h55l-92 -463h78zM227 38c43 0 76 17 108 47c36 32 65 78 76 137l24 119c13 65 -23 133 -125 133
c-96 0 -159 -68 -182 -180l-12 -60c-3 -19 -5 -37 -5 -59c0 -77 35 -137 116 -137z" />
    <glyph glyph-name="AEacute" unicode="&#x1fc;" horiz-adv-x="885" 
d="M799 916l-133 -156l-34 20l119 163zM370 0l43 216h-228l-153 -216h-66l498 698h444l-11 -52h-339l-54 -266h315l-10 -51h-315l-55 -277h349l-10 -52h-408zM500 649h-10l-269 -382h203z" />
    <glyph glyph-name="aeacute" unicode="&#x1fd;" horiz-adv-x="827" 
d="M611 742l-133 -156l-35 19l120 164zM192 37c79 0 156 44 169 118l16 79l-131 -5c-90 -5 -143 -25 -153 -77c-5 -24 -5 -32 -5 -40c0 -47 37 -75 104 -75zM631 476c-98 0 -168 -74 -189 -180l-3 -19c250 6 300 51 300 113s-44 86 -108 86zM181 -12c-94 0 -149 45 -149 127
c0 99 68 149 217 155l137 6l11 63c3 13 4 25 4 37c0 58 -35 98 -117 98c-72 0 -112 -27 -150 -82l-36 31c37 60 100 101 194 101c92 0 137 -46 149 -109h5c43 67 107 109 188 109c87 0 162 -44 162 -130c0 -99 -94 -156 -364 -160c-2 -16 -5 -36 -5 -54
c0 -83 47 -143 136 -143c71 0 129 39 170 99l38 -30c-60 -85 -133 -118 -212 -118c-90 0 -152 45 -173 123h-6c-32 -78 -109 -123 -199 -123z" />
    <glyph glyph-name="Oslashacute" unicode="&#x1fe;" horiz-adv-x="671" 
d="M557 916l-133 -156l-34 20l119 163zM295 -12c-69 0 -127 23 -169 68l-86 -97l-37 32l93 106c-23 39 -36 88 -36 147c0 219 116 466 346 466c69 0 127 -23 169 -68l86 97l37 -32l-93 -106c23 -39 36 -88 36 -147c0 -219 -116 -466 -346 -466zM126 314
c-6 -31 -8 -61 -8 -84c0 -34 6 -64 17 -90l405 459c-31 37 -78 59 -139 59c-132 0 -225 -100 -258 -261zM575 384c6 31 8 61 8 84c0 34 -6 64 -17 90l-405 -459c31 -37 78 -59 139 -59c132 0 225 100 258 261z" />
    <glyph glyph-name="oslashacute" unicode="&#x1ff;" horiz-adv-x="544" 
d="M466 742l-133 -156l-35 19l120 164zM231 -12c-54 0 -99 19 -130 54l-71 -77l-29 27l77 83c-16 30 -25 68 -25 113c0 178 99 336 260 336c54 0 99 -19 130 -54l71 77l29 -27l-77 -83c16 -31 25 -69 25 -113c0 -178 -99 -336 -260 -336zM238 37c89 0 157 67 180 184l12 61
c4 18 5 36 5 56s-3 39 -9 56l-289 -313c21 -28 54 -44 101 -44zM109 174c0 -20 3 -39 8 -56l290 313c-22 27 -55 44 -101 44c-89 0 -157 -67 -180 -184l-12 -61c-4 -18 -5 -36 -5 -56z" />
    <glyph glyph-name="Scommaaccent" unicode="&#x218;" horiz-adv-x="561" 
d="M220 -66c24 0 34 -12 34 -28c0 -5 -1 -11 -3 -22c-7 -40 -34 -86 -66 -116h-41c31 32 45 58 56 84c-18 2 -27 12 -27 26c0 4 0 10 2 21c5 22 17 35 45 35zM244 -12c-110 0 -189 40 -232 120l45 32c40 -68 98 -100 188 -100c131 0 191 76 191 168c0 64 -34 102 -112 119
l-75 16c-94 21 -143 78 -143 165c0 110 81 202 231 202c110 0 176 -41 217 -104l-43 -34c-37 57 -90 86 -177 86c-110 0 -170 -60 -170 -147c0 -65 34 -102 109 -119l74 -16c96 -21 147 -77 147 -166c0 -122 -85 -222 -250 -222z" />
    <glyph glyph-name="scommaaccent" unicode="&#x219;" horiz-adv-x="462" 
d="M182 -66c24 0 34 -12 34 -28c0 -5 -1 -11 -3 -22c-7 -40 -34 -86 -66 -116h-41c31 32 45 58 56 84c-18 2 -27 12 -27 26c0 4 0 10 2 21c5 22 17 35 45 35zM205 -12c-81 0 -150 34 -191 96l39 33c37 -54 87 -81 152 -81c78 0 132 39 132 111c0 45 -24 70 -87 84l-43 10
c-74 16 -129 47 -129 129c0 89 67 154 181 154c81 0 130 -31 166 -77l-39 -34c-25 35 -62 63 -131 63c-79 0 -123 -40 -123 -102c0 -46 24 -70 85 -84l43 -10c77 -17 130 -48 130 -130c0 -102 -80 -162 -185 -162z" />
    <glyph glyph-name="uni021A" unicode="&#x21a;" horiz-adv-x="552" 
d="M212 -66c24 0 34 -12 34 -28c0 -5 -1 -11 -3 -22c-7 -40 -34 -86 -66 -116h-41c31 32 45 58 56 84c-18 2 -27 12 -27 26c0 4 0 10 2 21c5 22 17 35 45 35zM610 646h-227l-129 -646h-58l129 646h-227l10 52h513z" />
    <glyph glyph-name="uni021B" unicode="&#x21b;" horiz-adv-x="313" 
d="M127 -66c24 0 34 -12 34 -28c0 -5 -1 -11 -3 -22c-7 -40 -34 -86 -66 -116h-41c31 32 45 58 56 84c-18 2 -27 12 -27 26c0 4 0 10 2 21c5 22 17 35 45 35zM221 0h-97c-37 0 -52 18 -52 45c0 10 1 20 3 28l78 390h-84l10 49h51c30 0 38 11 43 40l21 103h52l-29 -143h114
l-10 -49h-113l-83 -414h106z" />
    <glyph glyph-name="uni0237" unicode="&#x237;" horiz-adv-x="244" 
d="M-81 -200l10 49h84l132 663h55l-127 -637c-11 -53 -32 -75 -85 -75h-69z" />
    <glyph glyph-name="uni0259" unicode="&#x259;" horiz-adv-x="509" 
d="M194 -12c-91 0 -163 46 -163 132c0 94 87 162 366 166c1 13 3 32 3 43c0 95 -47 146 -136 146c-71 0 -129 -39 -170 -99l-38 30c59 85 133 118 211 118c119 0 188 -71 188 -209c0 -176 -105 -327 -261 -327zM200 36c93 0 165 74 185 182l5 24c-252 -6 -302 -53 -302 -122
c0 -58 44 -84 112 -84z" />
    <glyph glyph-name="uni02BB" unicode="&#x2bb;" horiz-adv-x="600" 
d="M314 597c-24 0 -34 12 -34 28c0 5 1 11 3 22c7 40 34 86 66 116h41c-31 -32 -45 -58 -56 -84c18 -2 27 -12 27 -26c0 -4 0 -10 -2 -21c-5 -22 -17 -35 -45 -35z" />
    <glyph glyph-name="uni02BC" unicode="&#x2bc;" horiz-adv-x="596" 
d="M369 740l-67 -181h-39l39 181h67z" />
    <glyph glyph-name="circumflex" unicode="&#x2c6;" horiz-adv-x="596" 
d="M301 756h66l92 -139l-32 -23l-98 120l-142 -120l-29 24z" />
    <glyph glyph-name="caron" unicode="&#x2c7;" horiz-adv-x="596" 
d="M342 601h-67l-92 139l33 23l95 -120l144 120l30 -24z" />
    <glyph glyph-name="breve" unicode="&#x2d8;" horiz-adv-x="596" 
d="M309 600c-85 0 -110 65 -125 127l35 15l12 -28c20 -47 40 -69 79 -69c40 0 65 18 103 70l20 27l36 -15c-34 -61 -73 -127 -160 -127z" />
    <glyph glyph-name="dotaccent" unicode="&#x2d9;" horiz-adv-x="596" 
d="M315 626c-25 0 -34 13 -34 28c0 4 0 8 3 22c4 20 17 32 43 32c25 0 34 -13 34 -28c0 -4 0 -8 -3 -22c-4 -20 -17 -32 -43 -32z" />
    <glyph glyph-name="ring" unicode="&#x2da;" horiz-adv-x="596" 
d="M307 581c-60 0 -90 41 -90 89c0 74 47 122 120 122c60 0 90 -41 90 -89c0 -74 -47 -122 -120 -122zM312 617c38 0 63 22 70 60c3 15 4 23 4 30c0 30 -18 49 -54 49c-38 0 -63 -22 -70 -60c-3 -15 -4 -23 -4 -30c0 -30 18 -49 54 -49z" />
    <glyph glyph-name="ogonek" unicode="&#x2db;" horiz-adv-x="596" 
d="M202 -205c-46 0 -86 21 -86 71c0 48 40 88 132 131l-3 15l41 5l9 -17c-104 -65 -130 -95 -130 -127c0 -26 18 -38 40 -38c23 0 43 10 59 26l27 -31c-16 -19 -47 -35 -89 -35z" />
    <glyph glyph-name="tilde" unicode="&#x2dc;" horiz-adv-x="596" 
d="M384 618c-31 0 -50 12 -74 28c-27 18 -45 24 -64 24c-23 0 -41 -10 -64 -29l-21 28c25 28 55 48 93 48c31 0 50 -12 74 -28c27 -18 45 -24 64 -24c23 0 41 10 64 29l21 -28c-25 -28 -55 -48 -93 -48z" />
    <glyph glyph-name="hungarumlaut" unicode="&#x2dd;" horiz-adv-x="596" 
d="M364 742l-132 -156l-32 18l119 164zM523 742l-133 -156l-32 18l119 164z" />
    <glyph glyph-name="uni0300" unicode="&#x300;" 
d="M9 586l-84 156l49 24l68 -164z" />
    <glyph glyph-name="uni0301" unicode="&#x301;" 
d="M145 742l-133 -156l-35 19l120 164z" />
    <glyph glyph-name="uni0302" unicode="&#x302;" 
d="M7 756h66l92 -139l-32 -23l-98 120l-142 -120l-29 24z" />
    <glyph glyph-name="uni0303" unicode="&#x303;" 
d="M90 618c-31 0 -50 12 -74 28c-27 18 -45 24 -64 24c-23 0 -41 -10 -64 -29l-21 28c25 28 55 48 93 48c31 0 50 -12 74 -28c27 -18 45 -24 64 -24c23 0 41 10 64 29l21 -28c-25 -28 -55 -48 -93 -48z" />
    <glyph glyph-name="uni0304" unicode="&#x304;" 
d="M-113 646l10 48h267l-10 -48h-267z" />
    <glyph glyph-name="uni0306" unicode="&#x306;" 
d="M15 600c-85 0 -110 65 -125 127l35 15l12 -28c20 -47 40 -69 79 -69c40 0 65 18 103 70l20 27l36 -15c-34 -61 -73 -127 -160 -127z" />
    <glyph glyph-name="uni0307" unicode="&#x307;" 
d="M21 626c-25 0 -34 13 -34 28c0 4 0 8 3 22c4 20 17 32 43 32c25 0 34 -13 34 -28c0 -4 0 -8 -3 -22c-4 -20 -17 -32 -43 -32z" />
    <glyph glyph-name="uni0308" unicode="&#x308;" 
d="M-71 626c-25 0 -34 13 -34 28c0 4 0 8 3 22c4 20 17 32 43 32c25 0 34 -13 34 -28c0 -4 0 -8 -3 -22c-4 -20 -17 -32 -43 -32zM111 626c-25 0 -34 13 -34 28c0 4 0 8 3 22c4 20 17 32 43 32c25 0 34 -13 34 -28c0 -4 0 -8 -3 -22c-4 -20 -17 -32 -43 -32z" />
    <glyph glyph-name="uni0309" unicode="&#x309;" 
d="M-48 711l6 43h117c37 0 47 -18 47 -36c0 -24 -17 -47 -52 -87l-44 -51l-31 17l82 114h-125z" />
    <glyph glyph-name="uni030A" unicode="&#x30a;" 
d="M13 581c-60 0 -90 41 -90 89c0 74 47 122 120 122c60 0 90 -41 90 -89c0 -74 -47 -122 -120 -122zM18 617c38 0 63 22 70 60c3 15 4 23 4 30c0 30 -18 49 -54 49c-38 0 -63 -22 -70 -60c-3 -15 -4 -23 -4 -30c0 -30 18 -49 54 -49z" />
    <glyph glyph-name="uni030B" unicode="&#x30b;" 
d="M70 742l-132 -156l-32 18l119 164zM229 742l-133 -156l-32 18l119 164z" />
    <glyph glyph-name="uni030C" unicode="&#x30c;" 
d="M48 601h-67l-92 139l33 23l95 -120l144 120l30 -24z" />
    <glyph glyph-name="uni0312" unicode="&#x312;" 
d="M14 597c-24 0 -34 12 -34 28c0 5 1 11 3 22c7 40 34 86 66 116h41c-31 -32 -45 -58 -56 -84c18 -2 27 -12 27 -26c0 -4 0 -10 -2 -21c-5 -22 -17 -35 -45 -35z" />
    <glyph glyph-name="uni0315" unicode="&#x315;" 
d="M75 740l-67 -181h-39l39 181h67z" />
    <glyph glyph-name="uni031B" unicode="&#x31b;" 
d="M80 624l-20 -101c-6 -30 -19 -50 -56 -50h-84l7 39h81l22 112h50z" />
    <glyph glyph-name="uni0323" unicode="&#x323;" 
d="M-28 -155c-22 0 -34 10 -34 28c0 5 1 9 3 18c5 22 17 36 44 36c22 0 34 -10 34 -28c0 -5 -1 -9 -3 -18c-5 -22 -17 -36 -44 -36z" />
    <glyph glyph-name="uni0326" unicode="&#x326;" 
d="M-14 -66c24 0 34 -12 34 -28c0 -5 -1 -11 -3 -22c-7 -40 -34 -86 -66 -116h-41c31 32 45 58 56 84c-18 2 -27 12 -27 26c0 4 0 10 2 21c5 22 17 35 45 35z" />
    <glyph glyph-name="uni0327" unicode="&#x327;" 
d="M-18 -205c-45 0 -78 16 -91 35l30 30c10 -14 31 -26 59 -26c35 0 57 19 57 45c0 22 -13 35 -54 39l-30 3l32 92h38l-29 -79l2 -2c8 1 18 3 30 3c34 0 58 -16 58 -55c0 -49 -41 -85 -102 -85z" />
    <glyph glyph-name="uni0328" unicode="&#x328;" 
d="M-93 -205c-46 0 -86 21 -86 71c0 48 40 88 132 131l-3 15l41 5l9 -17c-104 -65 -130 -95 -130 -127c0 -26 18 -38 40 -38c23 0 43 10 59 26l27 -31c-16 -19 -47 -35 -89 -35z" />
    <glyph glyph-name="uni037E" unicode="&#x37e;" horiz-adv-x="279" 
d="M173 410c-27 0 -41 12 -41 32c0 7 2 20 4 28c4 20 15 41 50 41c27 0 41 -12 41 -32c0 -7 -2 -20 -4 -28c-4 -20 -15 -41 -50 -41zM100 92c27 0 41 -12 41 -32c0 -7 -1 -18 -3 -26c-12 -52 -52 -127 -113 -172h-48c53 45 82 91 99 132c-21 3 -30 14 -30 30c0 8 2 19 4 26
c5 21 15 42 50 42z" />
    <glyph glyph-name="tonos" unicode="&#x384;" horiz-adv-x="586" 
d="M435 754l-91 -168l-36 10l76 173z" />
    <glyph glyph-name="dieresistonos" unicode="&#x385;" horiz-adv-x="586" 
d="M421 754l-90 -168l-32 10l76 173zM246 627c-19 0 -31 11 -31 28c0 5 1 10 3 19c5 22 18 35 40 35c19 0 31 -11 31 -28c0 -5 -1 -9 -3 -18c-5 -22 -18 -36 -40 -36zM449 627c-18 0 -30 11 -30 28c0 5 1 10 3 19c4 22 17 35 40 35c18 0 30 -11 30 -28c0 -5 -1 -9 -3 -18
c-5 -22 -17 -36 -40 -36z" />
    <glyph glyph-name="Alphatonos" unicode="&#x386;" horiz-adv-x="612" 
d="M249 754l-91 -168l-36 10l76 173zM536 0h-59l-34 217h-289l-113 -217h-62l370 698h77zM437 268l-58 373h-4l-194 -373h256z" />
    <glyph glyph-name="anoteleia" unicode="&#x387;" horiz-adv-x="279" 
d="M173 410c-27 0 -41 12 -41 32c0 7 2 20 4 28c4 20 15 41 50 41c27 0 41 -12 41 -32c0 -7 -2 -20 -4 -28c-4 -20 -15 -41 -50 -41z" />
    <glyph glyph-name="Epsilontonos" unicode="&#x388;" horiz-adv-x="592" 
d="M182 754l-91 -168l-36 10l76 173zM485 0h-408l140 698h398l-11 -52h-339l-54 -266h315l-10 -51h-315l-55 -277h349z" />
    <glyph glyph-name="Etatonos" unicode="&#x389;" horiz-adv-x="714" 
d="M182 754l-91 -168l-36 10l76 173zM508 0l66 329h-373l-66 -329h-58l140 698h58l-64 -318h373l64 318h58l-140 -698h-58z" />
    <glyph glyph-name="Iotatonos" unicode="&#x38a;" horiz-adv-x="443" 
d="M182 754l-91 -168l-36 10l76 173zM329 0h-255l10 50h99l119 598h-98l10 50h255l-10 -50h-99l-119 -598h98z" />
    <glyph glyph-name="Omicrontonos" unicode="&#x38c;" horiz-adv-x="697" 
d="M182 754l-91 -168l-36 10l76 173zM321 -12c-136 0 -235 90 -235 256c0 219 116 466 346 466c136 0 235 -90 235 -256c0 -219 -116 -466 -346 -466zM326 40c132 0 225 100 258 261l17 83c6 31 8 61 8 84c0 116 -66 190 -182 190c-132 0 -225 -100 -258 -261l-17 -83
c-6 -31 -8 -61 -8 -84c0 -116 66 -190 182 -190z" />
    <glyph glyph-name="Upsilontonos" unicode="&#x38e;" horiz-adv-x="649" 
d="M182 754l-91 -168l-36 10l76 173zM345 0h-58l56 281l-150 417h59l128 -355h4l270 355h67l-320 -417z" />
    <glyph glyph-name="Omegatonos" unicode="&#x38f;" horiz-adv-x="695" 
d="M182 754l-91 -168l-36 10l76 173zM23 0l10 52h163l3 15c-61 43 -101 118 -101 224c0 203 119 419 337 419c137 0 229 -88 229 -244c0 -174 -69 -336 -221 -399l-4 -15h162l-10 -52h-212l17 87c90 37 164 113 185 221l18 91c6 26 7 51 7 82c0 107 -63 177 -176 177
c-129 0 -224 -90 -254 -244l-16 -82c-4 -18 -4 -42 -4 -62c0 -93 41 -153 97 -183l-18 -87h-212z" />
    <glyph glyph-name="iotadieresistonos" unicode="&#x390;" horiz-adv-x="269" 
d="M282 754l-90 -168l-32 10l76 173zM107 627c-19 0 -31 11 -31 28c0 5 1 10 3 19c5 22 18 35 40 35c19 0 31 -11 31 -28c0 -5 -1 -9 -3 -18c-5 -22 -18 -36 -40 -36zM310 627c-18 0 -30 11 -30 28c0 5 1 10 3 19c4 22 17 35 40 35c18 0 30 -11 30 -28c0 -5 -1 -9 -3 -18
c-5 -22 -17 -36 -40 -36zM214 49l-10 -49h-97c-37 0 -52 18 -52 45c0 10 1 20 3 28l88 439h55l-93 -463h106z" />
    <glyph glyph-name="Alpha" unicode="&#x391;" horiz-adv-x="612" 
d="M536 0h-59l-34 217h-289l-113 -217h-62l370 698h77zM437 268l-58 373h-4l-194 -373h256z" />
    <glyph glyph-name="Beta" unicode="&#x392;" horiz-adv-x="619" 
d="M45 0l139 698h243c103 0 159 -54 159 -144c0 -84 -41 -165 -137 -186l-1 -4c64 -15 101 -60 101 -130c0 -135 -91 -234 -221 -234h-283zM113 52h215c83 0 136 45 152 122c7 37 9 53 9 63c0 59 -38 100 -114 100h-205zM180 388h187c82 0 137 35 151 106c7 35 8 50 8 60
c0 57 -34 92 -106 92h-189z" />
    <glyph glyph-name="Gamma" unicode="&#x393;" horiz-adv-x="485" 
d="M45 0l140 698h354l-10 -52h-296l-130 -646h-58z" />
    <glyph glyph-name="uni0394" unicode="&#x394;" horiz-adv-x="612" 
d="M-8 0l11 55l346 643h77l107 -642l-10 -56h-531zM475 52l-96 589h-4l-312 -589h412z" />
    <glyph glyph-name="Epsilon" unicode="&#x395;" horiz-adv-x="560" 
d="M453 0h-408l140 698h398l-11 -52h-339l-54 -266h315l-10 -51h-315l-55 -277h349z" />
    <glyph glyph-name="Zeta" unicode="&#x396;" horiz-adv-x="555" 
d="M479 52l-11 -52h-486l12 56l521 590h-389l11 52h457l-11 -56l-522 -590h418z" />
    <glyph glyph-name="Eta" unicode="&#x397;" horiz-adv-x="682" 
d="M476 0l66 329h-373l-66 -329h-58l140 698h58l-64 -318h373l64 318h58l-140 -698h-58z" />
    <glyph glyph-name="Theta" unicode="&#x398;" horiz-adv-x="671" 
d="M295 -12c-136 0 -235 90 -235 256c0 219 116 466 346 466c136 0 235 -90 235 -256c0 -219 -116 -466 -346 -466zM300 40c132 0 225 100 258 261l17 83c6 31 8 61 8 84c0 116 -66 190 -182 190c-132 0 -225 -100 -258 -261l-17 -83c-6 -31 -8 -61 -8 -84
c0 -116 66 -190 182 -190zM496 328h-300l11 52h300z" />
    <glyph glyph-name="Iota" unicode="&#x399;" horiz-adv-x="380" 
d="M266 0h-255l10 50h99l119 598h-98l10 50h255l-10 -50h-99l-119 -598h98z" />
    <glyph glyph-name="Kappa" unicode="&#x39a;" horiz-adv-x="595" 
d="M466 0l-176 361l-141 -131l-46 -230h-58l140 698h58l-77 -384h5l137 130l270 254h75l-319 -300l195 -398h-63z" />
    <glyph glyph-name="Lambda" unicode="&#x39b;" horiz-adv-x="606" 
d="M346 698h77l107 -698h-59l-95 641h-4l-331 -641h-62z" />
    <glyph glyph-name="Mu" unicode="&#x39c;" horiz-adv-x="781" 
d="M577 0l126 620h-5l-317 -427l-151 426h-4l-124 -619h-57l140 698h76l137 -395h3l291 395h82l-140 -698h-57z" />
    <glyph glyph-name="Nu" unicode="&#x39d;" horiz-adv-x="681" 
d="M465 0l-237 615h-4l-123 -615h-56l140 698h69l237 -615h4l123 615h56l-140 -698h-69z" />
    <glyph glyph-name="Xi" unicode="&#x39e;" horiz-adv-x="570" 
d="M143 646l11 52h439l-11 -52h-439zM125 329l11 51h348l-11 -51h-348zM14 0l11 52h439l-11 -52h-439z" />
    <glyph glyph-name="Omicron" unicode="&#x39f;" horiz-adv-x="671" 
d="M295 -12c-136 0 -235 90 -235 256c0 219 116 466 346 466c136 0 235 -90 235 -256c0 -219 -116 -466 -346 -466zM300 40c132 0 225 100 258 261l17 83c6 31 8 61 8 84c0 116 -66 190 -182 190c-132 0 -225 -100 -258 -261l-17 -83c-6 -31 -8 -61 -8 -84
c0 -116 66 -190 182 -190z" />
    <glyph glyph-name="Pi" unicode="&#x3a0;" horiz-adv-x="668" 
d="M45 0l140 698h475l-140 -698h-58l130 646h-359l-130 -646h-58z" />
    <glyph glyph-name="Rho" unicode="&#x3a1;" horiz-adv-x="586" 
d="M103 0h-58l140 698h250c112 0 164 -68 164 -160c0 -135 -86 -231 -225 -231h-209zM232 646l-56 -287h207c80 0 131 44 145 116c9 43 11 58 11 72c0 57 -30 99 -109 99h-198z" />
    <glyph glyph-name="Sigma" unicode="&#x3a3;" horiz-adv-x="548" 
d="M443 0h-447l11 56l305 298l-182 288l12 56h430l-10 -52h-369l187 -296l-305 -298h378z" />
    <glyph glyph-name="Tau" unicode="&#x3a4;" horiz-adv-x="552" 
d="M610 646h-227l-129 -646h-58l129 646h-227l10 52h513z" />
    <glyph glyph-name="Upsilon" unicode="&#x3a5;" horiz-adv-x="563" 
d="M259 0h-58l56 281l-150 417h59l128 -355h4l270 355h67l-320 -417z" />
    <glyph glyph-name="Phi" unicode="&#x3a6;" horiz-adv-x="801" 
d="M310 -29l12 62h-19c-162 0 -244 99 -244 249c0 212 135 393 371 393h21l10 50h58l-10 -50h19c162 0 244 -99 244 -249c0 -212 -135 -393 -371 -393h-21l-12 -62h-58zM334 83l109 542h-20c-165 0 -265 -107 -290 -234l-10 -50c-5 -26 -6 -41 -6 -64
c0 -122 61 -194 198 -194h19zM388 83h20c165 0 265 107 290 234l10 50c5 26 6 41 6 64c0 122 -61 194 -198 194h-19z" />
    <glyph glyph-name="Chi" unicode="&#x3a7;" horiz-adv-x="579" 
d="M339 348l155 -348h-61l-134 306h-4l-253 -306h-69l296 357l-150 341h61l132 -301h4l249 301h68z" />
    <glyph glyph-name="Psi" unicode="&#x3a8;" horiz-adv-x="742" 
d="M291 0l41 206c-153 0 -224 79 -224 186c0 40 5 80 15 131l35 175h58l-37 -186c-10 -49 -14 -85 -14 -115c0 -93 54 -142 176 -142l89 443h58l-89 -443c154 0 228 66 263 243l40 200h58l-43 -215c-40 -198 -143 -277 -327 -277l-41 -206h-58z" />
    <glyph glyph-name="uni03A9" unicode="&#x3a9;" horiz-adv-x="672" 
d="M0 0l10 52h163l3 15c-61 43 -101 118 -101 224c0 203 119 419 337 419c137 0 229 -88 229 -244c0 -174 -69 -336 -221 -399l-4 -15h162l-10 -52h-212l17 87c90 37 164 113 185 221l18 91c6 26 7 51 7 82c0 107 -63 177 -176 177c-129 0 -224 -90 -254 -244l-16 -82
c-4 -18 -4 -42 -4 -62c0 -93 41 -153 97 -183l-18 -87h-212z" />
    <glyph glyph-name="Iotadieresis" unicode="&#x3aa;" horiz-adv-x="380" 
d="M205 800c-25 0 -34 13 -34 28c0 4 0 8 3 22c4 20 17 32 43 32c25 0 34 -13 34 -28c0 -4 0 -8 -3 -22c-4 -20 -17 -32 -43 -32zM387 800c-25 0 -34 13 -34 28c0 4 0 8 3 22c4 20 17 32 43 32c25 0 34 -13 34 -28c0 -4 0 -8 -3 -22c-4 -20 -17 -32 -43 -32zM266 0h-255
l10 50h99l119 598h-98l10 50h255l-10 -50h-99l-119 -598h98z" />
    <glyph glyph-name="Upsilondieresis" unicode="&#x3ab;" horiz-adv-x="563" 
d="M290 800c-25 0 -34 13 -34 28c0 4 0 8 3 22c4 20 17 32 43 32c25 0 34 -13 34 -28c0 -4 0 -8 -3 -22c-4 -20 -17 -32 -43 -32zM472 800c-25 0 -34 13 -34 28c0 4 0 8 3 22c4 20 17 32 43 32c25 0 34 -13 34 -28c0 -4 0 -8 -3 -22c-4 -20 -17 -32 -43 -32zM259 0h-58
l56 281l-150 417h59l128 -355h4l270 355h67l-320 -417z" />
    <glyph glyph-name="alphatonos" unicode="&#x3ac;" horiz-adv-x="627" 
d="M447 754l-91 -168l-36 10l76 173zM556 49l-9 -49h-54c-35 0 -53 17 -52 53l-3 147h-4c-82 -174 -143 -212 -225 -212c-97 0 -154 70 -154 193c0 174 91 343 247 343c98 0 151 -54 155 -212h3l46 95l57 105h62l-151 -257l21 -206h61zM217 38c53 0 93 23 162 146l42 72
l-10 73c-13 112 -46 145 -109 145c-84 0 -151 -68 -174 -180l-12 -60c-3 -19 -5 -38 -5 -59c0 -96 42 -137 106 -137z" />
    <glyph glyph-name="epsilontonos" unicode="&#x3ad;" horiz-adv-x="513" 
d="M429 754l-91 -168l-36 10l76 173zM407 113l35 -33c-61 -66 -124 -92 -219 -92c-120 0 -176 58 -176 132c0 79 54 135 149 145l1 3c-57 13 -88 50 -88 100c0 87 72 156 204 156c88 0 140 -24 181 -72l-38 -34c-32 39 -75 57 -147 57c-92 0 -132 -36 -142 -84
c-2 -8 -3 -16 -3 -28c0 -46 38 -75 107 -75h101l-10 -47h-110c-79 0 -136 -31 -147 -87c-3 -14 -3 -22 -3 -32c0 -52 39 -85 124 -85c78 0 132 21 181 76z" />
    <glyph glyph-name="etatonos" unicode="&#x3ae;" horiz-adv-x="572" 
d="M468 754l-91 -168l-36 10l76 173zM114 0h-55l92 463h-77l9 49h73c33 0 50 -18 50 -46c0 -6 -1 -13 -3 -23l-7 -34h4c37 77 88 115 166 115c87 0 132 -52 132 -139c0 -19 -2 -43 -7 -66l-104 -519h-55l104 519c4 21 6 44 6 57c0 65 -30 98 -93 98c-40 0 -78 -14 -110 -49
c-29 -31 -56 -79 -66 -128z" />
    <glyph glyph-name="iotatonos" unicode="&#x3af;" horiz-adv-x="269" 
d="M300 754l-91 -168l-36 10l76 173zM214 49l-10 -49h-97c-37 0 -52 18 -52 45c0 10 1 20 3 28l88 439h55l-93 -463h106z" />
    <glyph glyph-name="upsilondieresistonos" unicode="&#x3b0;" horiz-adv-x="548" 
d="M427 754l-90 -168l-32 10l76 173zM252 627c-19 0 -31 11 -31 28c0 5 1 10 3 19c5 22 18 35 40 35c19 0 31 -11 31 -28c0 -5 -1 -9 -3 -18c-5 -22 -18 -36 -40 -36zM455 627c-18 0 -30 11 -30 28c0 5 1 10 3 19c4 22 17 35 40 35c18 0 30 -11 30 -28c0 -5 -1 -9 -3 -18
c-5 -22 -17 -36 -40 -36zM193 512l-55 -274c-6 -30 -10 -61 -10 -93c0 -74 38 -107 110 -107c85 0 130 37 161 191l57 283h55l-58 -287c-34 -172 -101 -237 -222 -237c-100 0 -157 62 -157 162c0 26 4 63 11 98l53 264h55z" />
    <glyph glyph-name="alpha" unicode="&#x3b1;" horiz-adv-x="627" 
d="M556 49l-9 -49h-54c-35 0 -53 17 -52 53l-3 147h-4c-82 -174 -143 -212 -225 -212c-97 0 -154 70 -154 193c0 174 91 343 247 343c98 0 151 -54 155 -212h3l46 95l57 105h62l-151 -257l21 -206h61zM217 38c53 0 93 23 162 146l42 72l-10 73c-13 112 -46 145 -109 145
c-84 0 -151 -68 -174 -180l-12 -60c-3 -19 -5 -38 -5 -59c0 -96 42 -137 106 -137z" />
    <glyph glyph-name="beta" unicode="&#x3b2;" horiz-adv-x="549" 
d="M3 -200l144 719c28 142 102 233 228 233c102 0 154 -60 154 -144c0 -117 -73 -185 -158 -201v-4c79 -14 122 -71 122 -162c0 -151 -96 -253 -230 -253c-72 0 -127 36 -143 100h-4l-58 -288h-55zM249 380l10 48h54c92 0 135 53 152 123c5 19 8 41 8 57
c0 57 -31 94 -105 94s-139 -51 -165 -177l-71 -354c-13 -65 23 -133 126 -133c94 0 157 57 174 155c3 20 5 39 5 60c0 80 -44 127 -133 127h-55z" />
    <glyph glyph-name="gamma" unicode="&#x3b3;" horiz-adv-x="478" 
d="M121 -200l40 200l-68 463h-50l10 49h41c32 0 48 -13 52 -43l30 -210l25 -194h4c110 148 193 303 239 447h56c-47 -147 -134 -315 -284 -512l-40 -200h-55z" />
    <glyph glyph-name="delta" unicode="&#x3b4;" horiz-adv-x="542" 
d="M541 691h-223l-72 4l-1 -2l108 -109c107 -109 138 -173 138 -267c0 -163 -95 -329 -260 -329c-108 0 -178 76 -178 200c0 181 116 324 291 324l1 7l-28 31l-122 128l12 62h344zM435 324c0 57 -12 100 -66 167c-142 -7 -222 -105 -248 -220c-9 -43 -12 -75 -12 -97
c0 -78 42 -137 129 -137c86 0 154 63 179 173c11 47 18 86 18 114z" />
    <glyph glyph-name="epsilon" unicode="&#x3b5;" horiz-adv-x="513" 
d="M407 113l35 -33c-61 -66 -124 -92 -219 -92c-120 0 -176 58 -176 132c0 79 54 135 149 145l1 3c-57 13 -88 50 -88 100c0 87 72 156 204 156c88 0 140 -24 181 -72l-38 -34c-32 39 -75 57 -147 57c-92 0 -132 -36 -142 -84c-2 -8 -3 -16 -3 -28c0 -46 38 -75 107 -75h101
l-10 -47h-110c-79 0 -136 -31 -147 -87c-3 -14 -3 -22 -3 -32c0 -52 39 -85 124 -85c78 0 132 21 181 76z" />
    <glyph glyph-name="zeta" unicode="&#x3b6;" horiz-adv-x="414" 
d="M162 691l10 49h325l-10 -48l-247 -250c-108 -109 -138 -179 -138 -252c0 -65 36 -104 121 -130l72 -21c27 -7 38 -21 38 -43c0 -12 -3 -23 -11 -41l-55 -120l-48 20l61 132l-68 20c-117 34 -166 92 -166 182c0 88 38 168 163 292l213 211l1 3l-73 -4h-188z" />
    <glyph glyph-name="eta" unicode="&#x3b7;" horiz-adv-x="572" 
d="M114 0h-55l92 463h-77l9 49h73c33 0 50 -18 50 -46c0 -6 -1 -13 -3 -23l-7 -34h4c37 77 88 115 166 115c87 0 132 -52 132 -139c0 -19 -2 -43 -7 -66l-104 -519h-55l104 519c4 21 6 44 6 57c0 65 -30 98 -93 98c-40 0 -78 -14 -110 -49c-29 -31 -56 -79 -66 -128z" />
    <glyph glyph-name="theta" unicode="&#x3b8;" horiz-adv-x="550" 
d="M44 394h57c33 0 49 -18 49 -46c0 -6 -1 -12 -2 -20l-13 -70c-7 -36 -12 -69 -12 -98c0 -83 38 -122 114 -122c98 0 160 71 200 273l16 79h-111c-135 0 -183 63 -183 150c0 47 18 111 60 153c39 39 88 59 148 59c107 0 163 -66 163 -181c0 -169 -61 -436 -147 -522
c-45 -45 -91 -61 -152 -61c-107 0 -164 67 -164 176c0 30 5 57 15 108l14 73h-62zM215 537c0 -70 35 -98 135 -98h113c7 40 11 88 11 141c0 83 -37 123 -113 123s-126 -45 -141 -116c-4 -21 -5 -35 -5 -50z" />
    <glyph glyph-name="iota" unicode="&#x3b9;" horiz-adv-x="269" 
d="M214 49l-10 -49h-97c-37 0 -52 18 -52 45c0 10 1 20 3 28l88 439h55l-93 -463h106z" />
    <glyph glyph-name="kappa" unicode="&#x3ba;" horiz-adv-x="513" 
d="M369 0l-144 257l-92 -81l-35 -176h-55l102 512h55l-53 -267h4l105 96l161 149c18 16 34 22 59 22h45l-10 -49h-54l-190 -175l165 -288h-63z" />
    <glyph glyph-name="lambda" unicode="&#x3bb;" horiz-adv-x="472" 
d="M258 513l-22 178h-89l10 49h79c32 0 48 -14 52 -43l82 -648h56l-10 -49h-46c-32 0 -48 14 -52 43l-28 217l-17 188h-5l-99 -189l-147 -259h-59z" />
    <glyph glyph-name="uni03BC" unicode="&#x3bc;" horiz-adv-x="565" 
d="M58 -200h-55l143 712h55l-64 -319c-4 -20 -5 -44 -5 -57c0 -64 28 -98 91 -98c40 0 78 14 109 49c31 34 56 81 66 128l59 297h55l-92 -463h77l-9 -49h-72c-34 0 -50 17 -50 47c0 7 2 22 5 36l4 22h-3c-39 -77 -83 -117 -155 -117c-70 0 -104 40 -113 105h-3l-12 -140z
" />
    <glyph glyph-name="nu" unicode="&#x3bd;" horiz-adv-x="480" 
d="M219 0h-61l-65 463h-50l10 49h41c32 0 48 -13 52 -43l30 -217l22 -196h4c115 156 198 312 243 456h57c-47 -147 -135 -315 -283 -512z" />
    <glyph glyph-name="xi" unicode="&#x3be;" horiz-adv-x="442" 
d="M495 691h-108c-90 0 -159 -52 -176 -137c-3 -15 -4 -29 -4 -43c0 -62 39 -94 98 -94h83l-11 -49h-84c-105 0 -166 -54 -182 -136c-4 -19 -5 -30 -5 -45c0 -61 35 -100 127 -127l72 -21c27 -7 38 -21 38 -43c0 -12 -3 -23 -11 -41l-55 -120l-48 20l61 132l-68 20
c-121 36 -172 91 -172 180c0 102 65 194 189 207l1 3c-59 17 -89 57 -89 116c0 78 42 143 124 173l1 5h-129l10 49h348z" />
    <glyph glyph-name="omicron" unicode="&#x3bf;" horiz-adv-x="544" 
d="M231 -12c-107 0 -178 75 -178 200c0 178 99 336 260 336c107 0 178 -75 178 -200c0 -178 -99 -336 -260 -336zM238 37c89 0 157 67 180 184l12 61c4 18 5 36 5 56c0 78 -42 137 -129 137c-89 0 -157 -67 -180 -184l-12 -61c-4 -18 -5 -36 -5 -56c0 -78 42 -137 129 -137z
" />
    <glyph glyph-name="pi" unicode="&#x3c0;" horiz-adv-x="589" 
d="M475 0h-69c-34 0 -50 18 -50 46c0 6 1 12 2 20l80 397h-223l-92 -463h-56l93 463h-95l11 49h534l-10 -49h-106l-84 -414h74z" />
    <glyph glyph-name="rho" unicode="&#x3c1;" horiz-adv-x="543" 
d="M-21 -200l97 484c29 147 106 240 238 240c109 0 175 -75 175 -197c0 -159 -83 -339 -251 -339c-71 0 -126 36 -142 100h-4l-58 -288h-55zM234 38c96 0 159 67 182 180l11 58c4 19 6 39 6 63c0 76 -42 136 -126 136c-80 0 -149 -56 -174 -181l-25 -123
c-13 -66 24 -133 126 -133z" />
    <glyph glyph-name="sigma1" unicode="&#x3c2;" horiz-adv-x="471" 
d="M239 -145l61 132l-68 20c-128 37 -178 94 -178 210c0 152 84 307 244 307c86 0 145 -49 163 -119l-47 -19c-16 58 -57 89 -118 89c-88 0 -149 -62 -170 -161c-8 -41 -16 -81 -16 -102c0 -84 37 -124 133 -152l72 -21c27 -7 38 -21 38 -43c0 -12 -3 -23 -11 -41l-55 -120z
" />
    <glyph glyph-name="sigma" unicode="&#x3c3;" horiz-adv-x="560" 
d="M562 463h-133l-2 -5c41 -34 64 -84 64 -143c0 -168 -98 -327 -259 -327c-108 0 -179 76 -179 200c0 172 104 324 265 324h253zM385 463h-67c-98 0 -171 -67 -194 -184l-11 -49c-3 -18 -4 -36 -4 -56c0 -78 43 -137 130 -137c89 0 157 67 180 184l9 46c3 17 7 37 7 55
c0 64 -12 103 -50 141z" />
    <glyph glyph-name="tau" unicode="&#x3c4;" horiz-adv-x="453" 
d="M309 0h-106c-37 0 -52 18 -52 45c0 10 1 20 3 28l79 390h-169l10 49h399l-10 -49h-175l-84 -414h114z" />
    <glyph glyph-name="upsilon" unicode="&#x3c5;" horiz-adv-x="548" 
d="M193 512l-55 -274c-6 -30 -10 -61 -10 -93c0 -74 38 -107 110 -107c85 0 130 37 161 191l57 283h55l-58 -287c-34 -172 -101 -237 -222 -237c-100 0 -157 62 -157 162c0 26 4 63 11 98l53 264h55z" />
    <glyph glyph-name="phi" unicode="&#x3c6;" horiz-adv-x="700" 
d="M217 -200l38 188c-130 0 -200 72 -200 183c0 146 68 299 197 353l24 -43c-80 -33 -129 -109 -151 -217l-8 -35c-4 -16 -6 -37 -6 -61c0 -85 44 -131 154 -131l49 246c33 167 94 241 200 241c80 0 127 -47 127 -159c0 -222 -109 -377 -331 -377l-38 -188h-55zM372 298
l-52 -261c128 0 221 65 247 200l9 46c6 31 9 60 9 93c0 71 -28 98 -77 98c-59 0 -110 -46 -136 -176z" />
    <glyph glyph-name="chi" unicode="&#x3c7;" horiz-adv-x="464" 
d="M61 512h50c29 0 45 -11 50 -35l59 -263h4l202 298h63l-243 -347l74 -316h59l-10 -49h-50c-28 0 -45 11 -50 36l-63 284h-4l-211 -320h-63l252 369l-70 294h-59z" />
    <glyph glyph-name="psi" unicode="&#x3c8;" horiz-adv-x="691" 
d="M280 -200h-55l38 188c-128 0 -189 74 -189 173c0 25 3 58 10 94l52 257h55l-53 -264c-6 -32 -10 -61 -10 -87c0 -79 40 -124 145 -124l134 673h55l-134 -673c122 0 184 38 217 203l54 272h56l-56 -276c-38 -189 -125 -248 -281 -248z" />
    <glyph glyph-name="omega" unicode="&#x3c9;" horiz-adv-x="720" 
d="M410 349l-26 -130c-5 -27 -7 -53 -7 -79c0 -73 30 -102 79 -102c56 0 106 42 136 187l8 39c4 19 7 49 7 73c0 67 -21 114 -67 150l35 37c59 -44 88 -104 88 -192c0 -154 -69 -344 -207 -344c-77 0 -115 43 -117 132h-4c-31 -93 -82 -132 -149 -132
c-80 0 -127 51 -127 159c0 170 70 323 199 377l24 -43c-80 -33 -129 -109 -151 -217l-7 -35c-6 -31 -9 -60 -9 -93c0 -71 28 -98 77 -98c59 0 111 47 136 176l27 135h55z" />
    <glyph glyph-name="iotadieresis" unicode="&#x3ca;" horiz-adv-x="269" 
d="M114 626c-25 0 -34 13 -34 28c0 4 0 8 3 22c4 20 17 32 43 32c25 0 34 -13 34 -28c0 -4 0 -8 -3 -22c-4 -20 -17 -32 -43 -32zM296 626c-25 0 -34 13 -34 28c0 4 0 8 3 22c4 20 17 32 43 32c25 0 34 -13 34 -28c0 -4 0 -8 -3 -22c-4 -20 -17 -32 -43 -32zM214 49l-10 -49
h-97c-37 0 -52 18 -52 45c0 10 1 20 3 28l88 439h55l-93 -463h106z" />
    <glyph glyph-name="upsilondieresis" unicode="&#x3cb;" horiz-adv-x="548" 
d="M259 626c-25 0 -34 13 -34 28c0 4 0 8 3 22c4 20 17 32 43 32c25 0 34 -13 34 -28c0 -4 0 -8 -3 -22c-4 -20 -17 -32 -43 -32zM441 626c-25 0 -34 13 -34 28c0 4 0 8 3 22c4 20 17 32 43 32c25 0 34 -13 34 -28c0 -4 0 -8 -3 -22c-4 -20 -17 -32 -43 -32zM193 512
l-55 -274c-6 -30 -10 -61 -10 -93c0 -74 38 -107 110 -107c85 0 130 37 161 191l57 283h55l-58 -287c-34 -172 -101 -237 -222 -237c-100 0 -157 62 -157 162c0 26 4 63 11 98l53 264h55z" />
    <glyph glyph-name="omicrontonos" unicode="&#x3cc;" horiz-adv-x="544" 
d="M433 754l-91 -168l-36 10l76 173zM231 -12c-107 0 -178 75 -178 200c0 178 99 336 260 336c107 0 178 -75 178 -200c0 -178 -99 -336 -260 -336zM238 37c89 0 157 67 180 184l12 61c4 18 5 36 5 56c0 78 -42 137 -129 137c-89 0 -157 -67 -180 -184l-12 -61
c-4 -18 -5 -36 -5 -56c0 -78 42 -137 129 -137z" />
    <glyph glyph-name="upsilontonos" unicode="&#x3cd;" horiz-adv-x="548" 
d="M446 754l-91 -168l-36 10l76 173zM193 512l-55 -274c-6 -30 -10 -61 -10 -93c0 -74 38 -107 110 -107c85 0 130 37 161 191l57 283h55l-58 -287c-34 -172 -101 -237 -222 -237c-100 0 -157 62 -157 162c0 26 4 63 11 98l53 264h55z" />
    <glyph glyph-name="omegatonos" unicode="&#x3ce;" horiz-adv-x="722" 
d="M533 754l-91 -168l-36 10l76 173zM410 349l-26 -130c-5 -27 -7 -53 -7 -79c0 -73 30 -102 79 -102c56 0 106 42 136 187l8 39c4 19 7 49 7 73c0 67 -21 114 -67 150l35 37c59 -44 88 -104 88 -192c0 -154 -69 -344 -207 -344c-77 0 -115 43 -117 132h-4
c-31 -93 -82 -132 -149 -132c-80 0 -127 51 -127 159c0 170 70 323 199 377l24 -43c-80 -33 -129 -109 -151 -217l-7 -35c-6 -31 -9 -60 -9 -93c0 -71 28 -98 77 -98c59 0 111 47 136 176l27 135h55z" />
    <glyph glyph-name="uni0400" unicode="&#x400;" horiz-adv-x="560" 
d="M393 760l-84 158l49 24l69 -166zM453 0h-408l140 698h398l-11 -52h-339l-54 -266h315l-10 -51h-315l-55 -277h349z" />
    <glyph glyph-name="uni0401" unicode="&#x401;" horiz-adv-x="560" 
d="M308 800c-25 0 -34 13 -34 28c0 4 0 8 3 22c4 20 17 32 43 32c25 0 34 -13 34 -28c0 -4 0 -8 -3 -22c-4 -20 -17 -32 -43 -32zM490 800c-25 0 -34 13 -34 28c0 4 0 8 3 22c4 20 17 32 43 32c25 0 34 -13 34 -28c0 -4 0 -8 -3 -22c-4 -20 -17 -32 -43 -32zM453 0h-408
l140 698h398l-11 -52h-339l-54 -266h315l-10 -51h-315l-55 -277h349z" />
    <glyph glyph-name="uni0402" unicode="&#x402;" horiz-adv-x="757" 
d="M410 -164l10 52h85c43 24 76 69 95 167l18 94c8 44 14 75 14 102c0 87 -47 129 -147 129c-61 0 -114 -9 -161 -26l-70 -354h-58l129 646h-227l10 52h513l-11 -52h-227l-48 -241h3c44 17 101 27 156 27c132 0 196 -63 196 -176c0 -28 -4 -59 -14 -109l-19 -94
c-30 -157 -100 -217 -194 -217h-53z" />
    <glyph glyph-name="uni0403" unicode="&#x403;" horiz-adv-x="485" 
d="M498 916l-133 -156l-34 20l119 163zM45 0l140 698h354l-10 -52h-296l-130 -646h-58z" />
    <glyph glyph-name="uni0404" unicode="&#x404;" horiz-adv-x="605" 
d="M293 -12c-138 0 -233 91 -233 260c0 225 116 462 337 462c117 0 185 -52 214 -152l-53 -22c-23 77 -69 122 -166 122c-125 0 -218 -98 -248 -248l-6 -30h301l-10 -52h-301l-2 -10c-6 -32 -8 -59 -8 -82c0 -118 63 -196 178 -196c100 0 154 49 202 135l49 -24
c-61 -114 -136 -163 -254 -163z" />
    <glyph glyph-name="uni0405" unicode="&#x405;" horiz-adv-x="561" 
d="M244 -12c-110 0 -189 40 -232 120l45 32c40 -68 98 -100 188 -100c131 0 191 76 191 168c0 64 -34 102 -112 119l-75 16c-94 21 -143 78 -143 165c0 110 81 202 231 202c110 0 176 -41 217 -104l-43 -34c-37 57 -90 86 -177 86c-110 0 -170 -60 -170 -147
c0 -65 34 -102 109 -119l74 -16c96 -21 147 -77 147 -166c0 -122 -85 -222 -250 -222z" />
    <glyph glyph-name="uni0406" unicode="&#x406;" horiz-adv-x="380" 
d="M266 0h-255l10 50h99l119 598h-98l10 50h255l-10 -50h-99l-119 -598h98z" />
    <glyph glyph-name="uni0407" unicode="&#x407;" horiz-adv-x="380" 
d="M204 800c-25 0 -34 13 -34 28c0 4 0 8 3 22c4 20 17 32 43 32c25 0 34 -13 34 -28c0 -4 0 -8 -3 -22c-4 -20 -17 -32 -43 -32zM386 800c-25 0 -34 13 -34 28c0 4 0 8 3 22c4 20 17 32 43 32c25 0 34 -13 34 -28c0 -4 0 -8 -3 -22c-4 -20 -17 -32 -43 -32zM266 0h-255
l10 50h99l119 598h-98l10 50h255l-10 -50h-99l-119 -598h98z" />
    <glyph glyph-name="uni0408" unicode="&#x408;" horiz-adv-x="481" 
d="M179 698h297l-103 -515c-25 -124 -101 -195 -213 -195c-97 0 -159 57 -164 151l53 11c5 -67 44 -110 113 -110c84 0 135 54 155 153l91 453h-239z" />
    <glyph glyph-name="uni0409" unicode="&#x409;" horiz-adv-x="969" 
d="M-39 0l10 52h65c64 49 123 157 182 449l39 197h362l-57 -289h186c117 0 167 -67 167 -167c0 -146 -87 -242 -228 -242h-266l129 646h-247l-30 -148c-58 -284 -110 -395 -168 -453c-32 -33 -63 -45 -106 -45h-38zM490 52h205c82 0 136 46 150 120c8 36 10 65 10 84
c0 59 -30 101 -112 101h-192z" />
    <glyph glyph-name="uni040A" unicode="&#x40a;" horiz-adv-x="1001" 
d="M45 0l140 698h58l-64 -323h350l65 323h58l-59 -296h186c117 0 167 -67 167 -167c0 -145 -85 -235 -226 -235h-266l65 324h-351l-65 -324h-58zM523 52h205c83 0 133 41 148 117c7 33 10 62 10 80c0 60 -29 101 -111 101h-192z" />
    <glyph glyph-name="uni040B" unicode="&#x40b;" horiz-adv-x="767" 
d="M196 0l129 646h-227l10 52h513l-11 -52h-227l-48 -241h3c44 17 101 27 161 27c137 0 201 -63 201 -176c0 -34 -6 -69 -17 -125l-26 -131h-58l30 149c9 44 13 75 13 102c0 87 -47 129 -152 129c-66 0 -119 -9 -166 -26l-70 -354h-58z" />
    <glyph glyph-name="uni040C" unicode="&#x40c;" horiz-adv-x="624" 
d="M526 916l-133 -156l-34 20l119 163zM44 0l140 698h58l-63 -318h135l210 273c28 36 46 45 76 45h50l-10 -52h-58l-193 -250c-20 -25 -34 -35 -55 -39l-1 -4c18 -6 30 -18 40 -43l111 -258h57l-10 -52h-47c-28 0 -44 12 -59 47l-121 282h-136l-66 -329h-58z" />
    <glyph glyph-name="uni040D" unicode="&#x40d;" horiz-adv-x="682" 
d="M439 760l-84 158l49 24l69 -166zM45 0l140 698h56l-95 -473l-34 -138h3l89 117l419 494h51l-140 -698h-56l95 473l35 138h-3l-90 -117l-419 -494h-51z" />
    <glyph glyph-name="uni040E" unicode="&#x40e;" horiz-adv-x="553" 
d="M371 774c-57 0 -89 23 -107 74l-15 43l47 20l22 -76c15 -13 35 -18 58 -18s42 5 61 18l50 76l43 -24l-29 -39c-38 -51 -76 -74 -130 -74zM80 0l11 51h94l61 104l-135 543h59l79 -317l35 -156h4l85 152l186 321h60l-376 -645c-25 -43 -43 -53 -86 -53h-77z" />
    <glyph glyph-name="uni040F" unicode="&#x40f;" horiz-adv-x="669" 
d="M226 -150l30 150h-211l140 698h58l-130 -646h359l130 646h58l-140 -698h-211l-30 -150h-53z" />
    <glyph glyph-name="uni0410" unicode="&#x410;" horiz-adv-x="612" 
d="M536 0h-59l-34 217h-289l-113 -217h-62l370 698h77zM437 268l-58 373h-4l-194 -373h256z" />
    <glyph glyph-name="uni0411" unicode="&#x411;" horiz-adv-x="606" 
d="M45 0l140 698h386l-10 -52h-328l-48 -237h187c117 0 167 -69 167 -167c0 -145 -87 -242 -228 -242h-266zM114 52h205c83 0 135 46 150 120c7 36 10 65 10 84c0 59 -29 101 -112 101h-192z" />
    <glyph glyph-name="uni0412" unicode="&#x412;" horiz-adv-x="619" 
d="M45 0l139 698h243c103 0 159 -54 159 -144c0 -84 -41 -165 -137 -186l-1 -4c64 -15 101 -60 101 -130c0 -135 -91 -234 -221 -234h-283zM113 52h215c83 0 136 45 152 122c7 37 9 53 9 63c0 59 -38 100 -114 100h-205zM180 388h187c82 0 137 35 151 106c7 35 8 50 8 60
c0 57 -34 92 -106 92h-189z" />
    <glyph glyph-name="uni0413" unicode="&#x413;" horiz-adv-x="485" 
d="M45 0l140 698h354l-10 -52h-296l-130 -646h-58z" />
    <glyph glyph-name="uni0414" unicode="&#x414;" horiz-adv-x="680" 
d="M-68 -150l40 202h72c63 64 120 167 179 461l37 185h381l-130 -646h92l-41 -202h-53l30 150h-523l-31 -150h-53zM115 52h338l119 594h-266l-28 -137c-56 -279 -109 -390 -162 -453z" />
    <glyph glyph-name="uni0415" unicode="&#x415;" horiz-adv-x="560" 
d="M453 0h-408l140 698h398l-11 -52h-339l-54 -266h315l-10 -51h-315l-55 -277h349z" />
    <glyph glyph-name="uni0416" unicode="&#x416;" horiz-adv-x="904" 
d="M-17 0l10 52h57l179 253c22 31 40 44 66 47v4c-17 5 -27 18 -38 54l-69 236h-57l10 52h44c31 0 48 -14 59 -51l78 -267h122l64 318h58l-64 -318h122l182 271c24 35 44 47 84 47h43l-11 -52h-57l-162 -240c-22 -33 -38 -45 -61 -49l-1 -4c17 -5 28 -16 40 -53l81 -248h59
l-10 -52h-47c-31 0 -48 13 -59 50l-91 279h-122l-66 -329h-58l66 329h-122l-200 -283c-24 -35 -46 -46 -85 -46h-44z" />
    <glyph glyph-name="uni0417" unicode="&#x417;" horiz-adv-x="565" 
d="M243 -12c-104 0 -183 38 -228 117l46 33c40 -68 102 -98 184 -98c92 0 162 45 179 130c4 20 6 37 6 50c0 69 -45 111 -135 111h-102l10 52h93c102 0 162 47 178 124c3 16 5 31 5 44c0 66 -48 107 -133 107c-83 0 -143 -32 -183 -90l-40 34c48 67 124 108 229 108
c118 0 190 -58 190 -156c0 -102 -63 -172 -160 -195l-1 -4c69 -15 111 -63 111 -136c0 -142 -103 -231 -249 -231z" />
    <glyph glyph-name="uni0418" unicode="&#x418;" horiz-adv-x="682" 
d="M45 0l140 698h56l-95 -473l-34 -138h3l89 117l419 494h51l-140 -698h-56l95 473l35 138h-3l-90 -117l-419 -494h-51z" />
    <glyph glyph-name="uni0419" unicode="&#x419;" horiz-adv-x="682" 
d="M441 774c-57 0 -89 23 -107 74l-15 43l47 20l22 -76c15 -13 35 -18 58 -18s42 5 61 18l50 76l43 -24l-29 -39c-38 -51 -76 -74 -130 -74zM45 0l140 698h56l-95 -473l-34 -138h3l89 117l419 494h51l-140 -698h-56l95 473l35 138h-3l-90 -117l-419 -494h-51z" />
    <glyph glyph-name="uni041A" unicode="&#x41a;" horiz-adv-x="624" 
d="M44 0l140 698h58l-63 -318h135l210 273c28 36 46 45 76 45h50l-10 -52h-58l-193 -250c-20 -25 -34 -35 -55 -39l-1 -4c18 -6 30 -18 40 -43l111 -258h57l-10 -52h-47c-28 0 -44 12 -59 47l-121 282h-136l-66 -329h-58z" />
    <glyph glyph-name="uni041B" unicode="&#x41b;" horiz-adv-x="648" 
d="M-39 0l10 52h65c64 49 124 158 182 450l39 196h383l-140 -698h-58l130 646h-269l-30 -148c-58 -284 -110 -395 -168 -453c-32 -33 -63 -45 -106 -45h-38z" />
    <glyph glyph-name="uni041C" unicode="&#x41c;" horiz-adv-x="781" 
d="M577 0l126 620h-5l-317 -427l-151 426h-4l-124 -619h-57l140 698h76l137 -395h3l291 395h82l-140 -698h-57z" />
    <glyph glyph-name="uni041D" unicode="&#x41d;" horiz-adv-x="682" 
d="M476 0l66 329h-373l-66 -329h-58l140 698h58l-64 -318h373l64 318h58l-140 -698h-58z" />
    <glyph glyph-name="uni041E" unicode="&#x41e;" horiz-adv-x="671" 
d="M295 -12c-136 0 -235 90 -235 256c0 219 116 466 346 466c136 0 235 -90 235 -256c0 -219 -116 -466 -346 -466zM300 40c132 0 225 100 258 261l17 83c6 31 8 61 8 84c0 116 -66 190 -182 190c-132 0 -225 -100 -258 -261l-17 -83c-6 -31 -8 -61 -8 -84
c0 -116 66 -190 182 -190z" />
    <glyph glyph-name="uni041F" unicode="&#x41f;" horiz-adv-x="668" 
d="M45 0l140 698h475l-140 -698h-58l130 646h-359l-130 -646h-58z" />
    <glyph glyph-name="uni0420" unicode="&#x420;" horiz-adv-x="586" 
d="M103 0h-58l140 698h250c112 0 164 -68 164 -160c0 -135 -86 -231 -225 -231h-209zM232 646l-56 -287h207c80 0 131 44 145 116c9 43 11 58 11 72c0 57 -30 99 -109 99h-198z" />
    <glyph glyph-name="uni0421" unicode="&#x421;" horiz-adv-x="599" 
d="M290 -12c-134 0 -230 91 -230 260c0 225 117 462 334 462c112 0 182 -52 211 -152l-53 -22c-23 77 -70 122 -164 122c-120 0 -214 -98 -244 -248l-18 -91c-6 -32 -8 -60 -8 -83c0 -118 64 -196 175 -196c96 0 151 49 199 135l49 -24c-61 -114 -137 -163 -251 -163z" />
    <glyph glyph-name="uni0422" unicode="&#x422;" horiz-adv-x="552" 
d="M610 646h-227l-129 -646h-58l129 646h-227l10 52h513z" />
    <glyph glyph-name="uni0423" unicode="&#x423;" horiz-adv-x="553" 
d="M80 0l11 51h94l61 104l-135 543h59l79 -317l35 -156h4l85 152l186 321h60l-376 -645c-25 -43 -43 -53 -86 -53h-77z" />
    <glyph glyph-name="uni0424" unicode="&#x424;" horiz-adv-x="793" 
d="M311 -29l18 90h-35c-144 0 -235 94 -235 225c0 191 123 349 348 349h37l18 90h58l-18 -90h35c144 0 235 -94 235 -225c0 -191 -123 -349 -348 -349h-37l-18 -90h-58zM306 110h34l95 476h-37c-148 0 -242 -91 -265 -197l-11 -51c-5 -25 -5 -41 -5 -58
c0 -100 70 -170 189 -170zM396 110h37c148 0 242 91 265 197l11 51c5 25 5 41 5 58c0 100 -70 170 -189 170h-34z" />
    <glyph glyph-name="uni0425" unicode="&#x425;" horiz-adv-x="579" 
d="M339 348l155 -348h-61l-134 306h-4l-253 -306h-69l296 357l-150 341h61l132 -301h4l249 301h68z" />
    <glyph glyph-name="uni0426" unicode="&#x426;" horiz-adv-x="700" 
d="M526 -150l30 150h-511l140 698h58l-130 -646h359l130 646h58l-130 -646h90l-41 -202h-53z" />
    <glyph glyph-name="uni0427" unicode="&#x427;" horiz-adv-x="616" 
d="M410 0l58 288h-3c-44 -16 -101 -27 -161 -27c-137 0 -201 63 -201 176c0 35 5 69 17 125l27 136h58l-31 -153c-9 -45 -15 -76 -15 -103c0 -87 49 -129 154 -129c66 0 119 9 166 26l71 359h58l-140 -698h-58z" />
    <glyph glyph-name="uni0428" unicode="&#x428;" horiz-adv-x="905" 
d="M45 0l140 698h58l-129 -646h268l130 646h58l-129 -646h268l130 646h58l-140 -698h-712z" />
    <glyph glyph-name="uni0429" unicode="&#x429;" horiz-adv-x="938" 
d="M763 -150l30 150h-748l140 698h58l-129 -646h268l130 646h58l-129 -646h268l130 646h58l-130 -646h90l-40 -202h-54z" />
    <glyph glyph-name="uni042A" unicode="&#x42a;" horiz-adv-x="713" 
d="M155 0l130 646h-186l11 52h243l-57 -289h196c117 0 167 -67 167 -167c0 -146 -87 -242 -228 -242h-276zM224 52h215c83 0 135 46 150 120c7 36 10 65 10 84c0 59 -29 101 -112 101h-202z" />
    <glyph glyph-name="uni042B" unicode="&#x42b;" horiz-adv-x="828" 
d="M45 0l140 698h58l-57 -289h186c117 0 167 -67 167 -167c0 -146 -87 -242 -228 -242h-266zM114 52h205c82 0 135 46 149 120c8 36 11 65 11 84c0 59 -30 101 -112 101h-192zM622 0l140 698h58l-140 -698h-58z" />
    <glyph glyph-name="uni042C" unicode="&#x42c;" horiz-adv-x="603" 
d="M45 0l140 698h58l-57 -289h196c117 0 167 -67 167 -167c0 -146 -87 -242 -228 -242h-276zM114 52h215c83 0 135 46 150 120c7 36 10 65 10 84c0 59 -29 101 -112 101h-202z" />
    <glyph glyph-name="uni042D" unicode="&#x42d;" horiz-adv-x="606" 
d="M199 328l10 52h301c6 31 7 59 7 82c0 118 -62 196 -177 196c-91 0 -145 -41 -195 -124l-48 24c57 100 130 152 246 152c138 0 232 -91 232 -260c0 -229 -119 -462 -335 -462c-117 0 -187 49 -219 166l53 22c25 -93 73 -136 171 -136c120 0 215 95 246 248l8 40h-300z" />
    <glyph glyph-name="uni042E" unicode="&#x42e;" horiz-adv-x="906" 
d="M542 -12c-136 0 -224 90 -224 256c0 30 2 62 5 85h-154l-66 -329h-58l140 698h58l-64 -318h153c38 178 149 330 320 330c136 0 224 -90 224 -256c0 -219 -115 -466 -334 -466zM547 40c120 0 215 99 247 261l16 83c6 31 8 61 8 84c0 120 -60 190 -171 190
c-120 0 -215 -99 -247 -261l-16 -83c-6 -31 -8 -61 -8 -84c0 -120 60 -190 171 -190z" />
    <glyph glyph-name="uni042F" unicode="&#x42f;" horiz-adv-x="618" 
d="M-11 0l11 52h57l147 212c22 31 40 45 64 48l1 5h-2c-100 0 -149 62 -149 150c0 135 86 231 224 231h268l-140 -698h-58l62 309h-173l-182 -263c-25 -35 -46 -46 -85 -46h-45zM542 646h-208c-80 0 -132 -44 -146 -117c-6 -31 -10 -55 -10 -71c0 -58 29 -99 109 -99h197z
" />
    <glyph glyph-name="uni0430" unicode="&#x430;" horiz-adv-x="577" 
d="M500 0h-72c-34 0 -50 18 -50 45c0 7 1 16 3 25l8 42h-3c-42 -82 -93 -124 -172 -124c-98 0 -159 77 -159 193c0 165 84 343 250 343c71 0 127 -36 144 -99h3l17 87h55l-92 -463h78zM227 38c43 0 76 17 108 47c36 32 65 78 76 137l24 119c13 65 -23 133 -125 133
c-96 0 -159 -68 -182 -180l-12 -60c-3 -19 -5 -37 -5 -59c0 -77 35 -137 116 -137z" />
    <glyph glyph-name="uni0431" unicode="&#x431;" horiz-adv-x="544" 
d="M233 -12c-108 0 -178 76 -178 200c0 125 63 371 159 467c44 44 97 67 183 76l148 15l-11 -55l-149 -15c-115 -11 -175 -60 -241 -279h4c37 77 91 115 177 115c96 0 166 -74 166 -188c0 -183 -97 -336 -258 -336zM240 37c89 0 160 64 181 180l10 55c3 18 5 37 5 56
c0 78 -43 135 -130 135c-89 0 -158 -66 -181 -180l-11 -54c-4 -18 -5 -36 -5 -56c0 -78 44 -136 131 -136z" />
    <glyph glyph-name="uni0432" unicode="&#x432;" horiz-adv-x="525" 
d="M43 0l103 512h209c76 0 121 -40 121 -106c0 -74 -45 -121 -112 -137l-1 -2c53 -11 85 -45 85 -95c0 -94 -63 -172 -166 -172h-239zM107 48h169c64 0 100 34 111 85c4 19 6 32 6 39c0 42 -26 69 -80 69h-167zM156 288h156c51 0 94 30 105 81c3 17 4 29 4 37
c0 35 -27 58 -75 58h-155z" />
    <glyph glyph-name="uni0433" unicode="&#x433;" horiz-adv-x="417" 
d="M43 0l102 512h296l-10 -49h-240l-93 -463h-55z" />
    <glyph glyph-name="uni0434" unicode="&#x434;" horiz-adv-x="554" 
d="M230 -12c-108 0 -178 76 -178 200c0 168 94 324 246 324c78 0 128 -46 142 -104h3v48c0 101 -17 161 -50 195c-35 34 -78 49 -132 49c-32 0 -52 -1 -73 -4l11 52c15 2 36 4 63 4c76 0 129 -22 169 -61c46 -46 68 -111 68 -248c0 -251 -75 -455 -269 -455zM237 37
c91 0 156 63 181 190l7 35c5 26 8 46 8 63c0 82 -42 138 -129 138c-85 0 -158 -66 -181 -182l-10 -51c-4 -18 -6 -36 -6 -56c0 -79 44 -137 130 -137z" />
    <glyph glyph-name="uni0435" unicode="&#x435;" horiz-adv-x="508" 
d="M240 -12c-119 0 -187 71 -187 209c0 176 105 327 261 327c90 0 163 -46 163 -132c0 -94 -87 -162 -365 -166c-2 -13 -3 -32 -3 -43c0 -95 45 -146 134 -146c72 0 130 39 170 99l38 -30c-59 -85 -133 -118 -211 -118zM308 476c-93 0 -162 -74 -184 -182l-5 -24
c252 7 301 53 301 123c0 57 -44 83 -112 83z" />
    <glyph glyph-name="uni0436" unicode="&#x436;" horiz-adv-x="739" 
d="M-10 0l10 49h85c25 25 54 82 78 200c10 55 16 98 16 135c0 38 -5 63 -14 79h-72l10 49h40c58 0 88 -34 88 -130c0 -25 -4 -59 -9 -93h126l44 223h55l-44 -223h126c38 171 82 223 159 223h51l-10 -49h-77c-24 -24 -51 -74 -73 -188c-11 -55 -17 -104 -17 -139
c0 -44 7 -71 16 -87h78l-10 -49h-46c-59 0 -89 34 -89 138c0 27 4 73 10 105h-127l-49 -243h-55l49 243h-126c-38 -184 -86 -243 -163 -243h-60z" />
    <glyph glyph-name="uni0437" unicode="&#x437;" horiz-adv-x="474" 
d="M192 -12c-98 0 -158 44 -182 111l42 28c22 -59 69 -90 141 -90c80 0 130 34 144 91c3 13 4 27 4 37c0 47 -37 76 -108 76h-94l9 47h94c63 0 116 30 127 82c3 17 4 27 4 34c0 42 -35 71 -105 71c-69 0 -112 -22 -157 -73l-33 32c43 57 102 90 191 90
c105 0 159 -50 159 -120c0 -75 -49 -123 -127 -135v-3c59 -9 95 -42 95 -101c0 -102 -80 -177 -204 -177z" />
    <glyph glyph-name="uni0438" unicode="&#x438;" horiz-adv-x="557" 
d="M138 512h55l-64 -319c-4 -20 -5 -44 -5 -57c0 -64 28 -98 91 -98c40 0 77 14 109 49c31 34 56 81 66 128l59 297h55l-92 -463h77l-9 -49h-73c-33 0 -49 18 -49 46c0 6 1 13 3 24l6 33h-4c-37 -77 -88 -115 -164 -115c-87 0 -132 52 -132 139c0 19 3 43 7 66z" />
    <glyph glyph-name="uni0439" unicode="&#x439;" horiz-adv-x="557" 
d="M338 600c-57 0 -89 23 -107 74l-15 43l47 20l22 -76c15 -13 35 -18 58 -18s42 5 61 18l50 76l43 -24l-29 -39c-38 -51 -76 -74 -130 -74zM138 512h55l-64 -319c-4 -20 -5 -44 -5 -57c0 -64 28 -98 91 -98c40 0 77 14 109 49c31 34 56 81 66 128l59 297h55l-92 -463h77
l-9 -49h-73c-33 0 -49 18 -49 46c0 6 1 13 3 24l6 33h-4c-37 -77 -88 -115 -164 -115c-87 0 -132 52 -132 139c0 19 3 43 7 66z" />
    <glyph glyph-name="uni043A" unicode="&#x43a;" horiz-adv-x="520" 
d="M43 0l102 512h55l-44 -222h96l156 186c22 27 41 36 70 36h47l-10 -49h-58l-136 -162c-18 -23 -30 -30 -50 -33l-1 -4c20 -4 30 -15 43 -46l71 -169h56l-10 -49h-38c-37 0 -54 17 -69 55l-80 188h-97l-48 -243h-55z" />
    <glyph glyph-name="uni043B" unicode="&#x43b;" horiz-adv-x="532" 
d="M-47 0l10 49h61c50 57 95 153 129 320l29 143h308l-103 -512h-55l93 463h-200l-18 -91c-38 -189 -87 -292 -134 -339c-26 -26 -51 -33 -85 -33h-35z" />
    <glyph glyph-name="uni043C" unicode="&#x43c;" horiz-adv-x="670" 
d="M43 0l102 512h72l108 -294h3l228 294h72l-103 -512h-53l89 443h-4l-52 -70l-197 -253l-92 251l-27 72h-4l-89 -443h-53z" />
    <glyph glyph-name="uni043D" unicode="&#x43d;" horiz-adv-x="556" 
d="M43 0l102 512h55l-44 -222h258l44 222h55l-102 -512h-55l49 241h-259l-48 -241h-55z" />
    <glyph glyph-name="uni043E" unicode="&#x43e;" horiz-adv-x="544" 
d="M231 -12c-107 0 -178 75 -178 200c0 178 99 336 260 336c107 0 178 -75 178 -200c0 -178 -99 -336 -260 -336zM238 37c89 0 157 67 180 184l12 61c4 18 5 36 5 56c0 78 -42 137 -129 137c-89 0 -157 -67 -180 -184l-12 -61c-4 -18 -5 -36 -5 -56c0 -78 42 -137 129 -137z
" />
    <glyph glyph-name="uni043F" unicode="&#x43f;" horiz-adv-x="558" 
d="M98 0h-55l102 512h56l-21 -103h4c37 77 88 115 166 115c87 0 132 -52 132 -139c0 -19 -2 -43 -7 -66l-54 -270h78l-10 -49h-74c-30 0 -49 14 -49 42c0 9 2 17 4 28l50 249c4 21 6 44 6 57c0 65 -30 98 -93 98c-40 0 -77 -14 -110 -49c-29 -31 -56 -79 -66 -128z" />
    <glyph glyph-name="uni0440" unicode="&#x440;" horiz-adv-x="566" 
d="M2 -200l143 712h55l-23 -112h3c42 82 93 124 172 124c98 0 159 -77 159 -193c0 -165 -84 -343 -250 -343c-71 0 -127 36 -144 99h-3l-57 -287h-55zM256 38c96 0 159 68 182 180l12 60c3 19 5 37 5 59c0 77 -35 137 -116 137c-43 0 -76 -17 -108 -47
c-36 -32 -65 -78 -76 -137l-24 -119c-13 -65 23 -133 125 -133z" />
    <glyph glyph-name="uni0441" unicode="&#x441;" horiz-adv-x="484" 
d="M231 -12c-114 0 -177 84 -177 206c0 182 92 330 248 330c86 0 145 -49 162 -119l-46 -19c-16 58 -57 89 -118 89c-90 0 -151 -65 -171 -169l-14 -70c-3 -19 -5 -35 -5 -52c0 -84 39 -147 126 -147c61 0 108 33 151 107l44 -21c-45 -84 -112 -135 -200 -135z" />
    <glyph glyph-name="uni0442" unicode="&#x442;" horiz-adv-x="449" 
d="M146 0l92 463h-175l10 49h405l-10 -49h-175l-92 -463h-55z" />
    <glyph glyph-name="uni0443" unicode="&#x443;" horiz-adv-x="475" 
d="M199 61l245 451h59l-364 -652c-24 -44 -43 -60 -83 -60h-78l10 48h89l78 141l-85 523h54l71 -451h4z" />
    <glyph glyph-name="uni0444" unicode="&#x444;" horiz-adv-x="760" 
d="M261 -200l55 273h-3c-32 -54 -72 -85 -129 -85c-80 0 -128 63 -128 156c0 172 79 380 224 380c55 0 94 -29 106 -85h3l55 271h55l-55 -271h3c32 54 72 85 129 85c80 0 128 -63 128 -156c0 -172 -79 -380 -224 -380c-55 0 -94 29 -106 85h-3l-55 -273h-55zM198 38
c35 0 63 13 89 39c25 25 40 50 47 86l39 194c13 64 -20 117 -83 117c-72 0 -130 -62 -155 -183l-12 -59c-7 -35 -10 -69 -10 -98c0 -58 27 -96 85 -96zM470 38c72 0 130 62 155 183l12 59c7 35 10 69 10 98c0 58 -27 96 -85 96c-35 0 -63 -13 -89 -39
c-25 -25 -40 -50 -47 -86l-39 -194c-13 -64 20 -117 83 -117z" />
    <glyph glyph-name="uni0445" unicode="&#x445;" horiz-adv-x="486" 
d="M46 0h-66l231 263l-128 249h59l107 -212h4l183 212h65l-224 -255l134 -257h-59l-113 221h-4z" />
    <glyph glyph-name="uni0446" unicode="&#x446;" horiz-adv-x="568" 
d="M408 -140l28 140h-29c-33 0 -49 18 -49 46c0 6 1 13 3 24l6 33h-4c-37 -77 -88 -115 -164 -115c-87 0 -132 52 -132 139c0 19 3 43 7 66l64 319h55l-64 -319c-4 -20 -5 -44 -5 -57c0 -64 28 -98 91 -98c40 0 77 14 109 49c31 34 56 81 66 128l59 297h55l-92 -463h85
l-38 -189h-51z" />
    <glyph glyph-name="uni0447" unicode="&#x447;" horiz-adv-x="513" 
d="M313 0l57 281h-5c-39 -66 -89 -97 -164 -97c-85 0 -133 51 -133 112c0 21 2 44 7 67l30 149h55l-30 -148c-4 -21 -6 -41 -6 -57c0 -45 33 -73 93 -73c106 0 160 83 171 141l28 137h55l-103 -512h-55z" />
    <glyph glyph-name="uni0448" unicode="&#x448;" horiz-adv-x="823" 
d="M190 -12c-82 0 -123 51 -123 138c0 20 3 43 7 66l64 320h55l-64 -319c-4 -21 -6 -44 -6 -58c0 -64 26 -97 85 -97c35 0 67 13 98 47c29 31 52 79 61 127l60 300h55l-64 -319c-4 -20 -6 -44 -6 -60c0 -62 24 -95 80 -95c36 0 68 16 97 47c30 33 58 82 68 130l59 297h55
l-92 -463h77l-9 -49h-73c-33 0 -49 18 -49 46c0 6 1 13 3 24l6 33h-4c-36 -74 -82 -115 -157 -115c-73 0 -110 46 -116 118h-4c-35 -76 -86 -118 -163 -118z" />
    <glyph glyph-name="uni0449" unicode="&#x449;" horiz-adv-x="835" 
d="M675 -140l28 140h-29c-33 0 -49 18 -49 46c0 6 1 13 3 24l6 33h-4c-36 -74 -82 -115 -157 -115c-73 0 -110 46 -116 118h-4c-35 -76 -86 -118 -163 -118c-82 0 -123 51 -123 138c0 20 3 43 7 66l64 320h55l-64 -319c-4 -21 -6 -44 -6 -58c0 -64 26 -97 85 -97
c35 0 67 13 98 47c29 31 52 79 61 127l60 300h55l-64 -319c-4 -20 -6 -44 -6 -60c0 -62 24 -95 80 -95c36 0 68 16 97 47c30 33 58 82 68 130l59 297h55l-92 -463h85l-38 -189h-51z" />
    <glyph glyph-name="uni044A" unicode="&#x44a;" horiz-adv-x="555" 
d="M106 0l92 463h-134l10 49h189l-39 -197h130c101 0 142 -45 142 -123c0 -93 -55 -192 -188 -192h-202zM170 49h138c75 0 114 36 126 93c5 19 7 36 7 51c0 49 -26 73 -95 73h-132z" />
    <glyph glyph-name="uni044B" unicode="&#x44b;" horiz-adv-x="683" 
d="M43 0l102 512h55l-39 -197h122c101 0 142 -45 142 -123c0 -93 -55 -192 -188 -192h-194zM107 49h130c75 0 114 36 126 93c5 19 7 36 7 51c0 49 -26 73 -95 73h-124zM482 0l103 512h55l-103 -512h-55z" />
    <glyph glyph-name="uni044C" unicode="&#x44c;" horiz-adv-x="491" 
d="M43 0l102 512h55l-39 -197h130c101 0 142 -45 142 -123c0 -93 -55 -192 -188 -192h-202zM107 49h138c75 0 114 36 126 93c5 19 7 36 7 51c0 49 -26 73 -95 73h-132z" />
    <glyph glyph-name="uni044D" unicode="&#x44d;" horiz-adv-x="495" 
d="M144 235l10 47h228c3 17 4 32 4 47c0 84 -40 146 -133 146c-65 0 -109 -26 -150 -82l-35 30c43 61 102 101 191 101c117 0 181 -84 181 -206c0 -182 -93 -330 -252 -330c-90 0 -154 53 -173 129l46 20c17 -65 65 -100 129 -100c93 0 156 65 177 169l6 29h-229z" />
    <glyph glyph-name="uni044E" unicode="&#x44e;" horiz-adv-x="747" 
d="M437 -12c-108 0 -176 76 -176 200c0 18 1 38 3 54h-118l-48 -242h-55l102 512h55l-44 -222h116c30 132 117 234 246 234c108 0 176 -75 176 -200c0 -178 -97 -336 -257 -336zM444 37c88 0 155 67 178 184l12 61c4 18 5 36 5 56c0 79 -40 137 -128 137s-155 -67 -178 -184
l-12 -61c-4 -18 -5 -36 -5 -56c0 -79 40 -137 128 -137z" />
    <glyph glyph-name="uni044F" unicode="&#x44f;" horiz-adv-x="509" 
d="M-8 0l10 49h56l92 125c15 21 30 31 51 33l1 4c-81 7 -123 49 -123 119c0 85 54 182 187 182h202l-103 -512h-55l42 205h-117l-117 -160c-22 -32 -47 -45 -78 -45h-48zM404 463h-139c-80 0 -117 -43 -126 -89c-3 -13 -5 -29 -5 -43c0 -54 26 -78 96 -78h131z" />
    <glyph glyph-name="uni0450" unicode="&#x450;" horiz-adv-x="508" 
d="M327 586l-84 156l49 24l68 -164zM240 -12c-119 0 -187 71 -187 209c0 176 105 327 261 327c90 0 163 -46 163 -132c0 -94 -87 -162 -365 -166c-2 -13 -3 -32 -3 -43c0 -95 45 -146 134 -146c72 0 130 39 170 99l38 -30c-59 -85 -133 -118 -211 -118zM308 476
c-93 0 -162 -74 -184 -182l-5 -24c252 7 301 53 301 123c0 57 -44 83 -112 83z" />
    <glyph glyph-name="uni0451" unicode="&#x451;" horiz-adv-x="508" 
d="M247 626c-25 0 -34 13 -34 28c0 4 0 8 3 22c4 20 17 32 43 32c25 0 34 -13 34 -28c0 -4 0 -8 -3 -22c-4 -20 -17 -32 -43 -32zM429 626c-25 0 -34 13 -34 28c0 4 0 8 3 22c4 20 17 32 43 32c25 0 34 -13 34 -28c0 -4 0 -8 -3 -22c-4 -20 -17 -32 -43 -32zM240 -12
c-119 0 -187 71 -187 209c0 176 105 327 261 327c90 0 163 -46 163 -132c0 -94 -87 -162 -365 -166c-2 -13 -3 -32 -3 -43c0 -95 45 -146 134 -146c72 0 130 39 170 99l38 -30c-59 -85 -133 -118 -211 -118zM308 476c-93 0 -162 -74 -184 -182l-5 -24c252 7 301 53 301 123
c0 57 -44 83 -112 83z" />
    <glyph glyph-name="uni0452" unicode="&#x452;" horiz-adv-x="559" 
d="M234 -200l10 49h84l94 470c4 21 5 44 5 57c0 65 -29 98 -92 98c-40 0 -77 -14 -110 -49c-29 -31 -57 -79 -66 -128l-60 -297h-55l124 617h-64l9 44h64l15 79h56l-16 -79h151l-9 -44h-151l-42 -208h4c38 77 89 115 166 115c88 0 133 -52 133 -139c0 -19 -3 -43 -7 -66
l-89 -444c-10 -53 -33 -75 -85 -75h-69z" />
    <glyph glyph-name="uni0453" unicode="&#x453;" horiz-adv-x="417" 
d="M425 742l-133 -156l-35 19l120 164zM43 0l102 512h296l-10 -49h-240l-93 -463h-55z" />
    <glyph glyph-name="uni0454" unicode="&#x454;" horiz-adv-x="493" 
d="M233 -12c-117 0 -179 84 -179 206c0 182 91 330 250 330c90 0 148 -49 165 -119l-46 -19c-16 58 -56 89 -121 89c-93 0 -154 -64 -175 -168l-5 -25h231l-10 -47h-230c-3 -19 -4 -36 -4 -51c0 -84 38 -147 129 -147c64 0 109 32 152 104l45 -22
c-46 -80 -110 -131 -202 -131z" />
    <glyph glyph-name="uni0455" unicode="&#x455;" horiz-adv-x="462" 
d="M205 -12c-81 0 -150 34 -191 96l39 33c37 -54 87 -81 152 -81c78 0 132 39 132 111c0 45 -24 70 -87 84l-43 10c-74 16 -129 47 -129 129c0 89 67 154 181 154c81 0 130 -31 166 -77l-39 -34c-25 35 -62 63 -131 63c-79 0 -123 -40 -123 -102c0 -46 24 -70 85 -84l43 -10
c77 -17 130 -48 130 -130c0 -102 -80 -162 -185 -162z" />
    <glyph glyph-name="uni0456" unicode="&#x456;" horiz-adv-x="254" 
d="M204 651c-25 0 -34 13 -34 28c0 4 0 8 3 22c4 20 17 32 43 32c25 0 34 -13 34 -28c0 -4 0 -8 -3 -22c-4 -20 -17 -32 -43 -32zM176 0h-71c-34 0 -51 18 -51 46c0 6 0 11 2 20l90 446h55l-93 -463h78z" />
    <glyph glyph-name="uni0457" unicode="&#x457;" horiz-adv-x="253" 
d="M108 626c-25 0 -34 13 -34 28c0 4 0 8 3 22c4 20 17 32 43 32c25 0 34 -13 34 -28c0 -4 0 -8 -3 -22c-4 -20 -17 -32 -43 -32zM290 626c-25 0 -34 13 -34 28c0 4 0 8 3 22c4 20 17 32 43 32c25 0 34 -13 34 -28c0 -4 0 -8 -3 -22c-4 -20 -17 -32 -43 -32zM176 0h-71
c-34 0 -51 18 -51 46c0 6 0 11 2 20l90 446h55l-93 -463h78z" />
    <glyph glyph-name="uni0458" unicode="&#x458;" horiz-adv-x="244" 
d="M13 -151l132 663h55l-127 -637c-11 -53 -32 -75 -85 -75h-69l10 49h84zM203 651c-24 0 -33 13 -33 28c0 4 0 8 3 22c4 20 17 32 44 32c24 0 33 -13 33 -28c0 -4 0 -8 -3 -22c-4 -20 -17 -32 -44 -32z" />
    <glyph glyph-name="uni0459" unicode="&#x459;" horiz-adv-x="748" 
d="M-47 0l10 49h61c50 57 95 153 129 320l29 143h282l-39 -197h122c101 0 143 -45 143 -123c0 -93 -56 -192 -189 -192h-194l92 463h-174l-18 -91c-38 -189 -87 -292 -134 -339c-26 -26 -51 -33 -85 -33h-35zM371 49h130c76 0 115 36 127 93c5 19 7 36 7 51
c0 49 -26 73 -96 73h-124z" />
    <glyph glyph-name="uni045A" unicode="&#x45a;" horiz-adv-x="774" 
d="M43 0l102 512h55l-45 -228h234l46 228h55l-40 -201h123c100 0 143 -45 143 -121c0 -91 -57 -190 -190 -190h-193l47 235h-235l-47 -235h-55zM397 49h130c75 0 114 36 127 93c5 21 6 36 6 49c0 46 -25 71 -95 71h-125z" />
    <glyph glyph-name="uni045B" unicode="&#x45b;" horiz-adv-x="560" 
d="M44 0l124 617h-64l9 44h64l15 79h56l-16 -79h151l-9 -44h-151l-41 -208h4c37 77 88 115 166 115c87 0 132 -52 132 -139c0 -19 -2 -43 -7 -66l-54 -270h78l-9 -49h-75c-29 0 -48 13 -48 43c0 6 0 10 2 19l51 257c4 21 6 44 6 57c0 65 -30 98 -93 98
c-40 0 -77 -14 -110 -49c-29 -31 -56 -79 -66 -128l-60 -297h-55z" />
    <glyph glyph-name="uni045C" unicode="&#x45c;" horiz-adv-x="520" 
d="M453 742l-133 -156l-35 19l120 164zM43 0l102 512h55l-44 -222h96l156 186c22 27 41 36 70 36h47l-10 -49h-58l-136 -162c-18 -23 -30 -30 -50 -33l-1 -4c20 -4 30 -15 43 -46l71 -169h56l-10 -49h-38c-37 0 -54 17 -69 55l-80 188h-97l-48 -243h-55z" />
    <glyph glyph-name="uni045D" unicode="&#x45d;" horiz-adv-x="557" 
d="M333 586l-84 156l49 24l68 -164zM138 512h55l-64 -319c-4 -20 -5 -44 -5 -57c0 -64 28 -98 91 -98c40 0 77 14 109 49c31 34 56 81 66 128l59 297h55l-92 -463h77l-9 -49h-73c-33 0 -49 18 -49 46c0 6 1 13 3 24l6 33h-4c-37 -77 -88 -115 -164 -115
c-87 0 -132 52 -132 139c0 19 3 43 7 66z" />
    <glyph glyph-name="uni045E" unicode="&#x45e;" horiz-adv-x="475" 
d="M301 600c-57 0 -89 23 -107 74l-15 43l47 20l22 -76c15 -13 35 -18 58 -18s42 5 61 18l50 76l43 -24l-29 -39c-38 -51 -76 -74 -130 -74zM199 61l245 451h59l-364 -652c-24 -44 -43 -60 -83 -60h-78l10 48h89l78 141l-85 523h54l71 -451h4z" />
    <glyph glyph-name="uni045F" unicode="&#x45f;" horiz-adv-x="557" 
d="M199 -12c-87 0 -132 52 -132 139c0 19 3 43 7 66l64 319h55l-64 -319c-4 -20 -5 -44 -5 -57c0 -64 28 -98 91 -98c40 0 77 14 109 49c31 34 56 81 66 128l59 297h55l-92 -463h77l-9 -49h-73c-33 0 -49 18 -49 46c0 6 1 13 3 24l6 33h-4c-37 -77 -88 -115 -164 -115z
M151 -200l30 150h51l-30 -150h-51z" />
    <glyph glyph-name="uni0472" unicode="&#x472;" horiz-adv-x="671" 
d="M295 -12c-136 0 -235 90 -235 256c0 219 116 466 346 466c136 0 235 -90 235 -256c0 -219 -116 -466 -346 -466zM300 40c132 0 225 98 258 259l6 29h-435l-3 -15c-6 -31 -8 -60 -8 -83c0 -116 66 -190 182 -190zM143 399l-4 -19h435l1 5c6 31 8 60 8 83
c0 116 -66 190 -182 190c-132 0 -224 -98 -258 -259z" />
    <glyph glyph-name="uni0473" unicode="&#x473;" horiz-adv-x="544" 
d="M231 -12c-108 0 -178 76 -178 200c0 178 99 336 260 336c108 0 178 -76 178 -200c0 -178 -99 -336 -260 -336zM238 37c89 0 155 67 181 184l4 18h-309l-2 -10c-4 -18 -5 -35 -5 -55c0 -79 44 -137 131 -137zM125 292l-2 -9h309c3 17 5 35 5 55c0 79 -44 137 -131 137
c-89 0 -155 -66 -181 -183z" />
    <glyph glyph-name="uni0490" unicode="&#x490;" horiz-adv-x="486" 
d="M45 0l140 698h301l30 150h53l-40 -202h-296l-130 -646h-58z" />
    <glyph glyph-name="uni0491" unicode="&#x491;" horiz-adv-x="417" 
d="M43 0l102 512h245l28 140h51l-38 -189h-240l-93 -463h-55z" />
    <glyph glyph-name="uni0492" unicode="&#x492;" horiz-adv-x="508" 
d="M67 0l70 348h-98l10 47h97l61 303h354l-10 -52h-296l-51 -251h200l-10 -47h-199l-70 -348h-58z" />
    <glyph glyph-name="uni0493" unicode="&#x493;" horiz-adv-x="429" 
d="M55 0l48 241h-74l9 44h74l45 227h296l-10 -49h-240l-36 -178h165l-8 -44h-166l-48 -241h-55z" />
    <glyph glyph-name="uni0494" unicode="&#x494;" horiz-adv-x="606" 
d="M251 -164l9 52h85c47 25 85 77 106 176l10 48c9 44 14 75 14 102c0 87 -48 129 -148 129c-61 0 -114 -8 -160 -26l-64 -317h-58l140 698h354l-10 -52h-296l-56 -278h3c44 17 101 27 156 27c133 0 197 -63 197 -176c0 -28 -5 -59 -15 -109l-9 -47
c-31 -160 -110 -227 -205 -227h-53z" />
    <glyph glyph-name="uni0495" unicode="&#x495;" horiz-adv-x="517" 
d="M194 -200l10 49h84c27 23 50 72 67 156l21 105c4 21 7 41 7 57c0 45 -34 73 -94 73c-102 0 -159 -78 -170 -135l-21 -105h-55l102 512h296l-10 -49h-240l-53 -264h4c42 61 90 91 163 91c85 0 133 -51 133 -112c0 -21 -2 -42 -7 -67l-23 -116c-30 -149 -84 -195 -157 -195
h-57z" />
    <glyph glyph-name="uni0496" unicode="&#x496;" horiz-adv-x="912" 
d="M755 -150l30 150h-21c-31 0 -48 13 -59 50l-91 279h-122l-66 -329h-58l66 329h-122l-200 -283c-24 -35 -46 -46 -85 -46h-44l10 52h57l179 253c22 31 40 44 66 47v4c-17 5 -27 18 -38 54l-69 236h-57l10 52h44c31 0 48 -14 59 -51l78 -267h122l64 318h58l-64 -318h122
l182 271c24 35 44 47 84 47h43l-11 -52h-57l-162 -240c-22 -33 -38 -45 -61 -49l-1 -4c17 -5 28 -16 40 -53l81 -248h87l-41 -202h-53z" />
    <glyph glyph-name="uni0497" unicode="&#x497;" horiz-adv-x="744" 
d="M584 -140l28 140h-12c-59 0 -89 34 -89 138c0 27 4 73 10 105h-127l-49 -243h-55l49 243h-126c-38 -184 -86 -243 -163 -243h-60l10 49h85c25 25 54 82 78 200c10 55 16 98 16 135c0 38 -5 63 -14 79h-72l10 49h40c58 0 88 -34 88 -130c0 -25 -4 -59 -9 -93h126l44 223
h55l-44 -223h126c38 171 82 223 159 223h51l-10 -49h-77c-24 -24 -51 -74 -73 -188c-11 -55 -17 -104 -17 -139c0 -44 7 -71 16 -87h96l-39 -189h-51z" />
    <glyph glyph-name="uni0498" unicode="&#x498;" horiz-adv-x="565" 
d="M176 -150l27 140c-84 9 -149 47 -188 115l46 33c40 -68 102 -98 184 -98c92 0 162 45 179 130c4 20 6 37 6 50c0 69 -45 111 -135 111h-102l10 52h93c102 0 162 47 178 124c3 16 5 31 5 44c0 66 -48 107 -133 107c-83 0 -143 -32 -183 -90l-40 34c48 67 124 108 229 108
c118 0 190 -58 190 -156c0 -102 -63 -172 -160 -195l-1 -4c69 -15 111 -63 111 -136c0 -137 -97 -225 -235 -231l-27 -138h-54z" />
    <glyph glyph-name="uni0499" unicode="&#x499;" horiz-adv-x="474" 
d="M134 -140l26 130c-79 8 -129 50 -150 109l42 28c22 -59 69 -90 141 -90c80 0 130 34 144 91c3 13 4 27 4 37c0 47 -37 76 -108 76h-94l9 47h94c63 0 116 30 127 82c3 17 4 27 4 34c0 42 -35 71 -105 71c-69 0 -112 -22 -157 -73l-33 32c43 57 102 90 191 90
c105 0 159 -50 159 -120c0 -75 -49 -123 -127 -135v-3c59 -9 95 -42 95 -101c0 -97 -72 -169 -185 -176l-26 -129h-51z" />
    <glyph glyph-name="uni049A" unicode="&#x49a;" horiz-adv-x="632" 
d="M476 -150l30 150h-22c-28 0 -44 12 -59 47l-121 282h-136l-66 -329h-58l140 698h58l-63 -318h135l210 273c28 36 46 45 76 45h50l-10 -52h-58l-193 -250c-20 -25 -34 -35 -55 -39l-1 -4c18 -6 30 -18 40 -43l111 -258h87l-41 -202h-54z" />
    <glyph glyph-name="uni049B" unicode="&#x49b;" horiz-adv-x="527" 
d="M374 -140l28 140h-10c-37 0 -54 17 -69 55l-80 188h-97l-48 -243h-55l102 512h55l-44 -222h96l156 186c22 27 41 36 70 36h47l-10 -49h-58l-136 -162c-18 -23 -30 -30 -50 -33l-1 -4c20 -4 30 -15 43 -46l71 -169h79l-38 -189h-51z" />
    <glyph glyph-name="uni049C" unicode="&#x49c;" horiz-adv-x="646" 
d="M44 0l140 698h58l-64 -318h67l32 161h44l-32 -161h53l204 273c26 35 46 45 76 45h50l-10 -52h-58l-188 -251c-20 -27 -33 -35 -54 -39l-1 -4c18 -6 29 -17 39 -42l106 -258h57l-10 -52h-47c-28 0 -44 12 -59 47l-115 282h-53l-32 -160h-44l32 160h-68l-65 -329h-58z" />
    <glyph glyph-name="uni049D" unicode="&#x49d;" horiz-adv-x="547" 
d="M43 0l102 512h55l-44 -222h47l25 123h43l-25 -123h38l149 184c23 29 42 38 71 38h48l-10 -49h-58l-129 -158c-20 -27 -33 -34 -52 -37l-1 -4c17 -3 29 -13 41 -47l67 -168h56l-10 -49h-38c-36 0 -54 17 -68 55l-75 188h-38l-25 -124h-43l25 124h-48l-48 -243h-55z" />
    <glyph glyph-name="uni04A0" unicode="&#x4a0;" horiz-adv-x="736" 
d="M156 0l129 646h-186l11 52h244l-64 -318h136l210 273c28 36 46 45 76 45h50l-10 -52h-58l-193 -250c-20 -26 -34 -35 -55 -39l-1 -4c18 -6 29 -18 40 -43l111 -258h57l-10 -52h-47c-28 0 -44 12 -59 47l-121 282h-136l-66 -329h-58z" />
    <glyph glyph-name="uni04A1" unicode="&#x4a1;" horiz-adv-x="583" 
d="M106 0l92 463h-134l10 49h189l-44 -222h96l156 186c23 27 41 36 71 36h46l-10 -49h-58l-135 -161c-19 -23 -31 -31 -51 -34l-1 -4c20 -4 30 -15 43 -46l71 -169h56l-10 -49h-37c-37 0 -53 14 -70 55l-80 188h-97l-48 -243h-55z" />
    <glyph glyph-name="uni04A2" unicode="&#x4a2;" horiz-adv-x="714" 
d="M540 -150l30 150h-94l66 329h-373l-66 -329h-58l140 698h58l-64 -318h373l64 318h58l-130 -646h90l-41 -202h-53z" />
    <glyph glyph-name="uni04A3" unicode="&#x4a3;" horiz-adv-x="578" 
d="M417 -140l28 140h-89l49 241h-259l-48 -241h-55l102 512h55l-44 -222h258l45 222h55l-93 -463h85l-38 -189h-51z" />
    <glyph glyph-name="uni04A4" unicode="&#x4a4;" horiz-adv-x="894" 
d="M45 0l140 698h58l-64 -318h351l64 318h354l-10 -52h-296l-130 -646h-58l66 329h-351l-66 -329h-58z" />
    <glyph glyph-name="uni04A5" unicode="&#x4a5;" horiz-adv-x="707" 
d="M43 0l102 512h55l-44 -222h235l44 222h296l-10 -49h-241l-92 -463h-55l49 241h-236l-48 -241h-55z" />
    <glyph glyph-name="uni04AA" unicode="&#x4aa;" horiz-adv-x="599" 
d="M214 -150l29 142c-108 20 -183 107 -183 256c0 225 117 462 334 462c112 0 182 -52 211 -152l-53 -22c-23 77 -70 122 -164 122c-120 0 -214 -98 -244 -248l-18 -91c-6 -32 -8 -60 -8 -83c0 -118 64 -196 175 -196c96 0 151 49 199 135l49 -24
c-60 -109 -130 -159 -236 -162h-9l-28 -139h-54z" />
    <glyph glyph-name="uni04AB" unicode="&#x4ab;" horiz-adv-x="484" 
d="M176 -140l26 130c-96 13 -148 93 -148 204c0 182 92 330 248 330c86 0 145 -49 162 -119l-46 -19c-16 58 -57 89 -118 89c-90 0 -153 -65 -173 -169l-14 -70c-3 -19 -5 -35 -5 -52c0 -84 41 -147 128 -147c61 0 108 33 151 107l44 -21c-41 -77 -101 -126 -178 -134
l-26 -129h-51z" />
    <glyph glyph-name="uni04AE" unicode="&#x4ae;" horiz-adv-x="563" 
d="M259 0h-58l56 281l-150 417h59l128 -355h4l270 355h67l-320 -417z" />
    <glyph glyph-name="uni04AF" unicode="&#x4af;" horiz-adv-x="475" 
d="M117 -200l40 200l-88 512h54l47 -281l24 -165h4l87 165l159 281h59l-291 -512l-40 -200h-55z" />
    <glyph glyph-name="uni04B0" unicode="&#x4b0;" horiz-adv-x="563" 
d="M201 0l46 233h-166l9 48h167l-150 417h59l128 -355h4l270 355h67l-320 -417h165l-9 -48h-166l-46 -233h-58z" />
    <glyph glyph-name="uni04B1" unicode="&#x4b1;" horiz-adv-x="475" 
d="M27 -44l9 44h121l-88 512h54l42 -253l29 -193h4l103 193l143 253h59l-291 -512h121l-9 -44h-121l-31 -156h-55l31 156h-121z" />
    <glyph glyph-name="uni04B2" unicode="&#x4b2;" horiz-adv-x="608" 
d="M464 -150l30 150h-61l-134 306h-4l-253 -306h-69l296 357l-150 341h61l132 -301h4l249 301h68l-294 -350l133 -296h86l-41 -202h-53z" />
    <glyph glyph-name="uni04B3" unicode="&#x4b3;" horiz-adv-x="509" 
d="M377 -140l28 140h-54l-112 221h-4l-189 -221h-65l231 263l-129 249h60l106 -212h4l183 212h64l-224 -255l110 -208h80l-38 -189h-51z" />
    <glyph glyph-name="uni04B6" unicode="&#x4b6;" horiz-adv-x="648" 
d="M474 -150l30 150h-94l58 288h-3c-44 -16 -101 -27 -161 -27c-137 0 -201 63 -201 176c0 35 5 69 17 125l27 136h58l-31 -153c-9 -45 -15 -76 -15 -103c0 -87 49 -129 154 -129c66 0 119 9 166 26l71 359h58l-130 -646h90l-41 -202h-53z" />
    <glyph glyph-name="uni04B7" unicode="&#x4b7;" horiz-adv-x="535" 
d="M374 -140l28 140h-89l57 281h-5c-39 -66 -89 -97 -164 -97c-85 0 -133 51 -133 112c0 21 2 44 7 67l30 149h55l-30 -148c-4 -21 -6 -41 -6 -57c0 -45 33 -73 93 -73c106 0 160 83 171 141l28 137h55l-93 -463h85l-38 -189h-51z" />
    <glyph glyph-name="uni04B8" unicode="&#x4b8;" horiz-adv-x="616" 
d="M410 0l58 288h-3c-40 -15 -91 -25 -148 -26l-30 -148h-44l30 148c-112 10 -170 68 -170 175c0 35 5 69 17 125l27 136h58l-31 -153c-9 -45 -15 -76 -15 -103c0 -80 42 -120 124 -128l35 175h44l-35 -176c60 2 109 10 152 26l71 359h58l-140 -698h-58z" />
    <glyph glyph-name="uni04B9" unicode="&#x4b9;" horiz-adv-x="514" 
d="M313 0l57 281h-5c-32 -55 -73 -86 -128 -94l-19 -96h-43l19 93c-81 3 -126 53 -126 112c0 21 2 44 7 67l30 149h55l-30 -148c-4 -21 -6 -41 -6 -57c0 -42 29 -69 80 -72l30 150h43l-30 -148c83 11 129 82 140 135l29 140h55l-103 -512h-55z" />
    <glyph glyph-name="uni04BA" unicode="&#x4ba;" horiz-adv-x="616" 
d="M45 0l140 698h58l-58 -288h3c44 16 101 27 160 27c138 0 201 -63 201 -176c0 -35 -5 -69 -16 -125l-27 -136h-58l31 153c9 45 12 76 12 103c0 87 -46 129 -151 129c-66 0 -119 -9 -166 -26l-71 -359h-58z" />
    <glyph glyph-name="uni04BB" unicode="&#x4bb;" horiz-adv-x="558" 
d="M43 0l148 740h55l-66 -331h4c37 77 88 115 166 115c87 0 132 -52 132 -139c0 -19 -2 -43 -7 -66l-54 -270h78l-9 -49h-75c-29 0 -48 13 -48 43c0 6 0 10 2 19l51 257c4 21 6 44 6 57c0 65 -30 98 -93 98c-40 0 -77 -14 -110 -49c-29 -31 -56 -79 -66 -128l-59 -297h-55z
" />
    <glyph glyph-name="uni04C0" unicode="&#x4c0;" horiz-adv-x="380" 
d="M266 0h-255l10 50h99l119 598h-98l10 50h255l-10 -50h-99l-119 -598h98z" />
    <glyph glyph-name="uni04C1" unicode="&#x4c1;" horiz-adv-x="904" 
d="M554 774c-57 0 -89 23 -107 74l-15 43l47 20l22 -76c15 -13 35 -18 58 -18s42 5 61 18l50 76l43 -24l-29 -39c-38 -51 -76 -74 -130 -74zM-17 0l10 52h57l179 253c22 31 40 44 66 47v4c-17 5 -27 18 -38 54l-69 236h-57l10 52h44c31 0 48 -14 59 -51l78 -267h122l64 318
h58l-64 -318h122l182 271c24 35 44 47 84 47h43l-11 -52h-57l-162 -240c-22 -33 -38 -45 -61 -49l-1 -4c17 -5 28 -16 40 -53l81 -248h59l-10 -52h-47c-31 0 -48 13 -59 50l-91 279h-122l-66 -329h-58l66 329h-122l-200 -283c-24 -35 -46 -46 -85 -46h-44z" />
    <glyph glyph-name="uni04C2" unicode="&#x4c2;" horiz-adv-x="739" 
d="M440 600c-57 0 -89 23 -107 74l-15 43l47 20l22 -76c15 -13 35 -18 58 -18s42 5 61 18l50 76l43 -24l-29 -39c-38 -51 -76 -74 -130 -74zM-10 0l10 49h85c25 25 54 82 78 200c10 55 16 98 16 135c0 38 -5 63 -14 79h-72l10 49h40c58 0 88 -34 88 -130
c0 -25 -4 -59 -9 -93h126l44 223h55l-44 -223h126c38 171 82 223 159 223h51l-10 -49h-77c-24 -24 -51 -74 -73 -188c-11 -55 -17 -104 -17 -139c0 -44 7 -71 16 -87h78l-10 -49h-46c-59 0 -89 34 -89 138c0 27 4 73 10 105h-127l-49 -243h-55l49 243h-126
c-38 -184 -86 -243 -163 -243h-60z" />
    <glyph glyph-name="uni04CF" unicode="&#x4cf;" horiz-adv-x="243" 
d="M43 0l148 740h55l-148 -740h-55z" />
    <glyph glyph-name="uni04D0" unicode="&#x4d0;" horiz-adv-x="612" 
d="M402 774c-57 0 -89 23 -107 74l-15 43l47 20l22 -76c15 -13 35 -18 58 -18s42 5 61 18l50 76l43 -24l-29 -39c-38 -51 -76 -74 -130 -74zM536 0h-59l-34 217h-289l-113 -217h-62l370 698h77zM437 268l-58 373h-4l-194 -373h256z" />
    <glyph glyph-name="uni04D1" unicode="&#x4d1;" horiz-adv-x="577" 
d="M345 600c-57 0 -89 23 -107 74l-15 43l47 20l22 -76c15 -13 35 -18 58 -18s42 5 61 18l50 76l43 -24l-29 -39c-38 -51 -76 -74 -130 -74zM500 0h-72c-34 0 -50 18 -50 45c0 7 1 16 3 25l8 42h-3c-42 -82 -93 -124 -172 -124c-98 0 -159 77 -159 193c0 165 84 343 250 343
c71 0 127 -36 144 -99h3l17 87h55l-92 -463h78zM227 38c43 0 76 17 108 47c36 32 65 78 76 137l24 119c13 65 -23 133 -125 133c-96 0 -159 -68 -182 -180l-12 -60c-3 -19 -5 -37 -5 -59c0 -77 35 -137 116 -137z" />
    <glyph glyph-name="uni04D2" unicode="&#x4d2;" horiz-adv-x="612" 
d="M315 800c-25 0 -34 13 -34 28c0 4 0 8 3 22c4 20 17 32 43 32c25 0 34 -13 34 -28c0 -4 0 -8 -3 -22c-4 -20 -17 -32 -43 -32zM497 800c-25 0 -34 13 -34 28c0 4 0 8 3 22c4 20 17 32 43 32c25 0 34 -13 34 -28c0 -4 0 -8 -3 -22c-4 -20 -17 -32 -43 -32zM536 0h-59
l-34 217h-289l-113 -217h-62l370 698h77zM437 268l-58 373h-4l-194 -373h256z" />
    <glyph glyph-name="uni04D3" unicode="&#x4d3;" horiz-adv-x="577" 
d="M260 626c-25 0 -34 13 -34 28c0 4 0 8 3 22c4 20 17 32 43 32c25 0 34 -13 34 -28c0 -4 0 -8 -3 -22c-4 -20 -17 -32 -43 -32zM442 626c-25 0 -34 13 -34 28c0 4 0 8 3 22c4 20 17 32 43 32c25 0 34 -13 34 -28c0 -4 0 -8 -3 -22c-4 -20 -17 -32 -43 -32zM500 0h-72
c-34 0 -50 18 -50 45c0 7 1 16 3 25l8 42h-3c-42 -82 -93 -124 -172 -124c-98 0 -159 77 -159 193c0 165 84 343 250 343c71 0 127 -36 144 -99h3l17 87h55l-92 -463h78zM227 38c43 0 76 17 108 47c36 32 65 78 76 137l24 119c13 65 -23 133 -125 133
c-96 0 -159 -68 -182 -180l-12 -60c-3 -19 -5 -37 -5 -59c0 -77 35 -137 116 -137z" />
    <glyph glyph-name="uni04D4" unicode="&#x4d4;" horiz-adv-x="885" 
d="M370 0l43 216h-228l-153 -216h-66l498 698h444l-11 -52h-339l-54 -266h315l-10 -51h-315l-55 -277h349l-10 -52h-408zM500 649h-10l-269 -382h203z" />
    <glyph glyph-name="uni04D5" unicode="&#x4d5;" horiz-adv-x="827" 
d="M192 37c79 0 156 44 169 118l16 79l-131 -5c-90 -5 -143 -25 -153 -77c-5 -24 -5 -32 -5 -40c0 -47 37 -75 104 -75zM631 476c-98 0 -168 -74 -189 -180l-3 -19c250 6 300 51 300 113s-44 86 -108 86zM181 -12c-94 0 -149 45 -149 127c0 99 68 149 217 155l137 6l11 63
c3 13 4 25 4 37c0 58 -35 98 -117 98c-72 0 -112 -27 -150 -82l-36 31c37 60 100 101 194 101c92 0 137 -46 149 -109h5c43 67 107 109 188 109c87 0 162 -44 162 -130c0 -99 -94 -156 -364 -160c-2 -16 -5 -36 -5 -54c0 -83 47 -143 136 -143c71 0 129 39 170 99l38 -30
c-60 -85 -133 -118 -212 -118c-90 0 -152 45 -173 123h-6c-32 -78 -109 -123 -199 -123z" />
    <glyph glyph-name="uni04D6" unicode="&#x4d6;" horiz-adv-x="560" 
d="M395 774c-57 0 -89 23 -107 74l-15 43l47 20l22 -76c15 -13 35 -18 58 -18s42 5 61 18l50 76l43 -24l-29 -39c-38 -51 -76 -74 -130 -74zM453 0h-408l140 698h398l-11 -52h-339l-54 -266h315l-10 -51h-315l-55 -277h349z" />
    <glyph glyph-name="uni04D7" unicode="&#x4d7;" horiz-adv-x="508" 
d="M332 600c-57 0 -89 23 -107 74l-15 43l47 20l22 -76c15 -13 35 -18 58 -18s42 5 61 18l50 76l43 -24l-29 -39c-38 -51 -76 -74 -130 -74zM240 -12c-119 0 -187 71 -187 209c0 176 105 327 261 327c90 0 163 -46 163 -132c0 -94 -87 -162 -365 -166c-2 -13 -3 -32 -3 -43
c0 -95 45 -146 134 -146c72 0 130 39 170 99l38 -30c-59 -85 -133 -118 -211 -118zM308 476c-93 0 -162 -74 -184 -182l-5 -24c252 7 301 53 301 123c0 57 -44 83 -112 83z" />
    <glyph glyph-name="uni04D8" unicode="&#x4d8;" horiz-adv-x="671" 
d="M293 -12c-137 0 -233 95 -233 253c0 32 4 65 10 101l4 21h497c10 47 11 80 11 103c0 116 -65 192 -183 192c-88 0 -172 -45 -229 -155l-44 25c52 108 150 182 277 182c149 0 238 -100 238 -256c0 -215 -111 -466 -348 -466zM297 40c135 0 230 101 263 274h-433
c-6 -29 -9 -62 -9 -85c0 -115 64 -189 179 -189z" />
    <glyph glyph-name="uni04D9" unicode="&#x4d9;" horiz-adv-x="509" 
d="M194 -12c-91 0 -163 46 -163 132c0 94 87 162 366 166c1 13 3 32 3 43c0 95 -47 146 -136 146c-71 0 -129 -39 -170 -99l-38 30c59 85 133 118 211 118c119 0 188 -71 188 -209c0 -176 -105 -327 -261 -327zM200 36c93 0 165 74 185 182l5 24c-252 -6 -302 -53 -302 -122
c0 -58 44 -84 112 -84z" />
    <glyph glyph-name="uni04DC" unicode="&#x4dc;" horiz-adv-x="904" 
d="M467 800c-25 0 -34 13 -34 28c0 4 0 8 3 22c4 20 17 32 43 32c25 0 34 -13 34 -28c0 -4 0 -8 -3 -22c-4 -20 -17 -32 -43 -32zM649 800c-25 0 -34 13 -34 28c0 4 0 8 3 22c4 20 17 32 43 32c25 0 34 -13 34 -28c0 -4 0 -8 -3 -22c-4 -20 -17 -32 -43 -32zM-17 0l10 52h57
l179 253c22 31 40 44 66 47v4c-17 5 -27 18 -38 54l-69 236h-57l10 52h44c31 0 48 -14 59 -51l78 -267h122l64 318h58l-64 -318h122l182 271c24 35 44 47 84 47h43l-11 -52h-57l-162 -240c-22 -33 -38 -45 -61 -49l-1 -4c17 -5 28 -16 40 -53l81 -248h59l-10 -52h-47
c-31 0 -48 13 -59 50l-91 279h-122l-66 -329h-58l66 329h-122l-200 -283c-24 -35 -46 -46 -85 -46h-44z" />
    <glyph glyph-name="uni04DD" unicode="&#x4dd;" horiz-adv-x="739" 
d="M355 626c-25 0 -34 13 -34 28c0 4 0 8 3 22c4 20 17 32 43 32c25 0 34 -13 34 -28c0 -4 0 -8 -3 -22c-4 -20 -17 -32 -43 -32zM537 626c-25 0 -34 13 -34 28c0 4 0 8 3 22c4 20 17 32 43 32c25 0 34 -13 34 -28c0 -4 0 -8 -3 -22c-4 -20 -17 -32 -43 -32zM-10 0l10 49h85
c25 25 54 82 78 200c10 55 16 98 16 135c0 38 -5 63 -14 79h-72l10 49h40c58 0 88 -34 88 -130c0 -25 -4 -59 -9 -93h126l44 223h55l-44 -223h126c38 171 82 223 159 223h51l-10 -49h-77c-24 -24 -51 -74 -73 -188c-11 -55 -17 -104 -17 -139c0 -44 7 -71 16 -87h78l-10 -49
h-46c-59 0 -89 34 -89 138c0 27 4 73 10 105h-127l-49 -243h-55l49 243h-126c-38 -184 -86 -243 -163 -243h-60z" />
    <glyph glyph-name="uni04DE" unicode="&#x4de;" horiz-adv-x="565" 
d="M284 800c-25 0 -34 13 -34 28c0 4 0 8 3 22c4 20 17 32 43 32c25 0 34 -13 34 -28c0 -4 0 -8 -3 -22c-4 -20 -17 -32 -43 -32zM466 800c-25 0 -34 13 -34 28c0 4 0 8 3 22c4 20 17 32 43 32c25 0 34 -13 34 -28c0 -4 0 -8 -3 -22c-4 -20 -17 -32 -43 -32zM243 -12
c-104 0 -183 38 -228 117l46 33c40 -68 102 -98 184 -98c92 0 162 45 179 130c4 20 6 37 6 50c0 69 -45 111 -135 111h-102l10 52h93c102 0 162 47 178 124c3 16 5 31 5 44c0 66 -48 107 -133 107c-83 0 -143 -32 -183 -90l-40 34c48 67 124 108 229 108
c118 0 190 -58 190 -156c0 -102 -63 -172 -160 -195l-1 -4c69 -15 111 -63 111 -136c0 -142 -103 -231 -249 -231z" />
    <glyph glyph-name="uni04DF" unicode="&#x4df;" horiz-adv-x="474" 
d="M199 626c-25 0 -34 13 -34 28c0 4 0 8 3 22c4 20 17 32 43 32c25 0 34 -13 34 -28c0 -4 0 -8 -3 -22c-4 -20 -17 -32 -43 -32zM381 626c-25 0 -34 13 -34 28c0 4 0 8 3 22c4 20 17 32 43 32c25 0 34 -13 34 -28c0 -4 0 -8 -3 -22c-4 -20 -17 -32 -43 -32zM192 -12
c-98 0 -158 44 -182 111l42 28c22 -59 69 -90 141 -90c80 0 130 34 144 91c3 13 4 27 4 37c0 47 -37 76 -108 76h-94l9 47h94c63 0 116 30 127 82c3 17 4 27 4 34c0 42 -35 71 -105 71c-69 0 -112 -22 -157 -73l-33 32c43 57 102 90 191 90c105 0 159 -50 159 -120
c0 -75 -49 -123 -127 -135v-3c59 -9 95 -42 95 -101c0 -102 -80 -177 -204 -177z" />
    <glyph glyph-name="uni04E2" unicode="&#x4e2;" horiz-adv-x="682" 
d="M314 820l10 48h266l-9 -48h-267zM45 0l140 698h56l-95 -473l-34 -138h3l89 117l419 494h51l-140 -698h-56l95 473l35 138h-3l-90 -117l-419 -494h-51z" />
    <glyph glyph-name="uni04E3" unicode="&#x4e3;" horiz-adv-x="557" 
d="M211 646l10 48h267l-10 -48h-267zM138 512h55l-64 -319c-4 -20 -5 -44 -5 -57c0 -64 28 -98 91 -98c40 0 77 14 109 49c31 34 56 81 66 128l59 297h55l-92 -463h77l-9 -49h-73c-33 0 -49 18 -49 46c0 6 1 13 3 24l6 33h-4c-37 -77 -88 -115 -164 -115
c-87 0 -132 52 -132 139c0 19 3 43 7 66z" />
    <glyph glyph-name="uni04E4" unicode="&#x4e4;" horiz-adv-x="682" 
d="M354 800c-25 0 -34 13 -34 28c0 4 0 8 3 22c4 20 17 32 43 32c25 0 34 -13 34 -28c0 -4 0 -8 -3 -22c-4 -20 -17 -32 -43 -32zM536 800c-25 0 -34 13 -34 28c0 4 0 8 3 22c4 20 17 32 43 32c25 0 34 -13 34 -28c0 -4 0 -8 -3 -22c-4 -20 -17 -32 -43 -32zM45 0l140 698
h56l-95 -473l-34 -138h3l89 117l419 494h51l-140 -698h-56l95 473l35 138h-3l-90 -117l-419 -494h-51z" />
    <glyph glyph-name="uni04E5" unicode="&#x4e5;" horiz-adv-x="557" 
d="M253 626c-25 0 -34 13 -34 28c0 4 0 8 3 22c4 20 17 32 43 32c25 0 34 -13 34 -28c0 -4 0 -8 -3 -22c-4 -20 -17 -32 -43 -32zM435 626c-25 0 -34 13 -34 28c0 4 0 8 3 22c4 20 17 32 43 32c25 0 34 -13 34 -28c0 -4 0 -8 -3 -22c-4 -20 -17 -32 -43 -32zM138 512h55
l-64 -319c-4 -20 -5 -44 -5 -57c0 -64 28 -98 91 -98c40 0 77 14 109 49c31 34 56 81 66 128l59 297h55l-92 -463h77l-9 -49h-73c-33 0 -49 18 -49 46c0 6 1 13 3 24l6 33h-4c-37 -77 -88 -115 -164 -115c-87 0 -132 52 -132 139c0 19 3 43 7 66z" />
    <glyph glyph-name="uni04E6" unicode="&#x4e6;" horiz-adv-x="671" 
d="M341 800c-25 0 -34 13 -34 28c0 4 0 8 3 22c4 20 17 32 43 32c25 0 34 -13 34 -28c0 -4 0 -8 -3 -22c-4 -20 -17 -32 -43 -32zM523 800c-25 0 -34 13 -34 28c0 4 0 8 3 22c4 20 17 32 43 32c25 0 34 -13 34 -28c0 -4 0 -8 -3 -22c-4 -20 -17 -32 -43 -32zM295 -12
c-136 0 -235 90 -235 256c0 219 116 466 346 466c136 0 235 -90 235 -256c0 -219 -116 -466 -346 -466zM300 40c132 0 225 100 258 261l17 83c6 31 8 61 8 84c0 116 -66 190 -182 190c-132 0 -225 -100 -258 -261l-17 -83c-6 -31 -8 -61 -8 -84c0 -116 66 -190 182 -190z
" />
    <glyph glyph-name="uni04E7" unicode="&#x4e7;" horiz-adv-x="544" 
d="M245 626c-25 0 -34 13 -34 28c0 4 0 8 3 22c4 20 17 32 43 32c25 0 34 -13 34 -28c0 -4 0 -8 -3 -22c-4 -20 -17 -32 -43 -32zM427 626c-25 0 -34 13 -34 28c0 4 0 8 3 22c4 20 17 32 43 32c25 0 34 -13 34 -28c0 -4 0 -8 -3 -22c-4 -20 -17 -32 -43 -32zM231 -12
c-107 0 -178 75 -178 200c0 178 99 336 260 336c107 0 178 -75 178 -200c0 -178 -99 -336 -260 -336zM238 37c89 0 157 67 180 184l12 61c4 18 5 36 5 56c0 78 -42 137 -129 137c-89 0 -157 -67 -180 -184l-12 -61c-4 -18 -5 -36 -5 -56c0 -78 42 -137 129 -137z" />
    <glyph glyph-name="uni04E8" unicode="&#x4e8;" horiz-adv-x="671" 
d="M295 -12c-136 0 -235 90 -235 256c0 219 116 466 346 466c136 0 235 -90 235 -256c0 -219 -116 -466 -346 -466zM300 40c132 0 225 98 258 259l6 29h-435l-3 -15c-6 -31 -8 -60 -8 -83c0 -116 66 -190 182 -190zM143 399l-4 -19h435l1 5c6 31 8 60 8 83
c0 116 -66 190 -182 190c-132 0 -224 -98 -258 -259z" />
    <glyph glyph-name="uni04E9" unicode="&#x4e9;" horiz-adv-x="544" 
d="M231 -12c-108 0 -178 76 -178 200c0 178 99 336 260 336c108 0 178 -76 178 -200c0 -178 -99 -336 -260 -336zM238 37c89 0 155 67 181 184l4 18h-309l-2 -10c-4 -18 -5 -35 -5 -55c0 -79 44 -137 131 -137zM125 292l-2 -9h309c3 17 5 35 5 55c0 79 -44 137 -131 137
c-89 0 -155 -66 -181 -183z" />
    <glyph glyph-name="uni04EE" unicode="&#x4ee;" horiz-adv-x="553" 
d="M244 820l10 48h266l-9 -48h-267zM80 0l11 51h94l61 104l-135 543h59l79 -317l35 -156h4l85 152l186 321h60l-376 -645c-25 -43 -43 -53 -86 -53h-77z" />
    <glyph glyph-name="uni04EF" unicode="&#x4ef;" horiz-adv-x="475" 
d="M174 646l10 48h267l-10 -48h-267zM199 61l245 451h59l-364 -652c-24 -44 -43 -60 -83 -60h-78l10 48h89l78 141l-85 523h54l71 -451h4z" />
    <glyph glyph-name="uni04F0" unicode="&#x4f0;" horiz-adv-x="553" 
d="M284 800c-25 0 -34 13 -34 28c0 4 0 8 3 22c4 20 17 32 43 32c25 0 34 -13 34 -28c0 -4 0 -8 -3 -22c-4 -20 -17 -32 -43 -32zM466 800c-25 0 -34 13 -34 28c0 4 0 8 3 22c4 20 17 32 43 32c25 0 34 -13 34 -28c0 -4 0 -8 -3 -22c-4 -20 -17 -32 -43 -32zM80 0l11 51h94
l61 104l-135 543h59l79 -317l35 -156h4l85 152l186 321h60l-376 -645c-25 -43 -43 -53 -86 -53h-77z" />
    <glyph glyph-name="uni04F1" unicode="&#x4f1;" horiz-adv-x="475" 
d="M216 626c-25 0 -34 13 -34 28c0 4 0 8 3 22c4 20 17 32 43 32c25 0 34 -13 34 -28c0 -4 0 -8 -3 -22c-4 -20 -17 -32 -43 -32zM398 626c-25 0 -34 13 -34 28c0 4 0 8 3 22c4 20 17 32 43 32c25 0 34 -13 34 -28c0 -4 0 -8 -3 -22c-4 -20 -17 -32 -43 -32zM199 61l245 451
h59l-364 -652c-24 -44 -43 -60 -83 -60h-78l10 48h89l78 141l-85 523h54l71 -451h4z" />
    <glyph glyph-name="uni04F2" unicode="&#x4f2;" horiz-adv-x="553" 
d="M410 916l-133 -156l-32 19l119 162zM567 916l-131 -156l-33 19l119 162zM80 0l11 51h94l61 104l-135 543h59l79 -317l35 -156h4l85 152l186 321h60l-376 -645c-25 -43 -43 -53 -86 -53h-77z" />
    <glyph glyph-name="uni04F3" unicode="&#x4f3;" horiz-adv-x="475" 
d="M357 742l-132 -156l-32 18l119 164zM516 742l-133 -156l-32 18l119 164zM199 61l245 451h59l-364 -652c-24 -44 -43 -60 -83 -60h-78l10 48h89l78 141l-85 523h54l71 -451h4z" />
    <glyph glyph-name="uni04F4" unicode="&#x4f4;" horiz-adv-x="616" 
d="M307 800c-25 0 -34 13 -34 28c0 4 0 8 3 22c4 20 17 32 43 32c25 0 34 -13 34 -28c0 -4 0 -8 -3 -22c-4 -20 -17 -32 -43 -32zM489 800c-25 0 -34 13 -34 28c0 4 0 8 3 22c4 20 17 32 43 32c25 0 34 -13 34 -28c0 -4 0 -8 -3 -22c-4 -20 -17 -32 -43 -32zM410 0l58 288
h-3c-44 -16 -101 -27 -161 -27c-137 0 -201 63 -201 176c0 35 5 69 17 125l27 136h58l-31 -153c-9 -45 -15 -76 -15 -103c0 -87 49 -129 154 -129c66 0 119 9 166 26l71 359h58l-140 -698h-58z" />
    <glyph glyph-name="uni04F5" unicode="&#x4f5;" horiz-adv-x="513" 
d="M220 626c-25 0 -34 13 -34 28c0 4 0 8 3 22c4 20 17 32 43 32c25 0 34 -13 34 -28c0 -4 0 -8 -3 -22c-4 -20 -17 -32 -43 -32zM402 626c-25 0 -34 13 -34 28c0 4 0 8 3 22c4 20 17 32 43 32c25 0 34 -13 34 -28c0 -4 0 -8 -3 -22c-4 -20 -17 -32 -43 -32zM313 0l57 281
h-5c-39 -66 -89 -97 -164 -97c-85 0 -133 51 -133 112c0 21 2 44 7 67l30 149h55l-30 -148c-4 -21 -6 -41 -6 -57c0 -45 33 -73 93 -73c106 0 160 83 171 141l28 137h55l-103 -512h-55z" />
    <glyph glyph-name="uni04F8" unicode="&#x4f8;" horiz-adv-x="828" 
d="M433 800c-25 0 -34 13 -34 28c0 4 0 8 3 22c4 20 17 32 43 32c25 0 34 -13 34 -28c0 -4 0 -8 -3 -22c-4 -20 -17 -32 -43 -32zM615 800c-25 0 -34 13 -34 28c0 4 0 8 3 22c4 20 17 32 43 32c25 0 34 -13 34 -28c0 -4 0 -8 -3 -22c-4 -20 -17 -32 -43 -32zM45 0l140 698
h58l-57 -289h186c117 0 167 -67 167 -167c0 -146 -87 -242 -228 -242h-266zM114 52h205c82 0 135 46 149 120c8 36 11 65 11 84c0 59 -30 101 -112 101h-192zM622 0l140 698h58l-140 -698h-58z" />
    <glyph glyph-name="uni04F9" unicode="&#x4f9;" horiz-adv-x="683" 
d="M323 626c-25 0 -34 13 -34 28c0 4 0 8 3 22c4 20 17 32 43 32c25 0 34 -13 34 -28c0 -4 0 -8 -3 -22c-4 -20 -17 -32 -43 -32zM505 626c-25 0 -34 13 -34 28c0 4 0 8 3 22c4 20 17 32 43 32c25 0 34 -13 34 -28c0 -4 0 -8 -3 -22c-4 -20 -17 -32 -43 -32zM43 0l102 512
h55l-39 -197h122c101 0 142 -45 142 -123c0 -93 -55 -192 -188 -192h-194zM107 49h130c75 0 114 36 126 93c5 19 7 36 7 51c0 49 -26 73 -95 73h-124zM482 0l103 512h55l-103 -512h-55z" />
    <glyph glyph-name="uni0E3F" unicode="&#xe3f;" horiz-adv-x="607" 
d="M272 20l-21 -102h-44l21 102h-179l132 657h178l21 103h44l-21 -103h9c105 0 163 -51 163 -135c0 -86 -46 -152 -136 -173v-4c63 -16 98 -63 98 -134c0 -107 -69 -211 -220 -211h-45zM180 386h121l47 239h-120zM392 625l-47 -239h8c83 1 138 34 151 96c5 28 9 45 9 59
c0 59 -43 84 -110 84h-11zM117 72h121l53 264h-121zM335 336l-54 -264h39c81 0 134 34 148 105c7 32 10 50 10 65c0 57 -38 94 -115 94h-28z" />
    <glyph glyph-name="Wgrave" unicode="&#x1e80;" horiz-adv-x="863" 
d="M529 760l-84 158l49 24l69 -166zM213 0h-70l-33 698h58l25 -622h3l286 622h71l38 -622h3l278 622h61l-320 -698h-68l-38 628h-4z" />
    <glyph glyph-name="wgrave" unicode="&#x1e81;" horiz-adv-x="731" 
d="M423 586l-84 156l49 24l68 -164zM115 0l-38 512h53l29 -452h4l221 452h55l41 -450h4l211 450h54l-243 -512h-67l-40 429h-4l-210 -429h-70z" />
    <glyph glyph-name="Wacute" unicode="&#x1e82;" horiz-adv-x="863" 
d="M663 916l-133 -156l-34 20l119 163zM213 0h-70l-33 698h58l25 -622h3l286 622h71l38 -622h3l278 622h61l-320 -698h-68l-38 628h-4z" />
    <glyph glyph-name="wacute" unicode="&#x1e83;" horiz-adv-x="731" 
d="M559 742l-133 -156l-35 19l120 164zM115 0l-38 512h53l29 -452h4l221 452h55l41 -450h4l211 450h54l-243 -512h-67l-40 429h-4l-210 -429h-70z" />
    <glyph glyph-name="Wdieresis" unicode="&#x1e84;" horiz-adv-x="863" 
d="M444 800c-25 0 -34 13 -34 28c0 4 0 8 3 22c4 20 17 32 43 32c25 0 34 -13 34 -28c0 -4 0 -8 -3 -22c-4 -20 -17 -32 -43 -32zM626 800c-25 0 -34 13 -34 28c0 4 0 8 3 22c4 20 17 32 43 32c25 0 34 -13 34 -28c0 -4 0 -8 -3 -22c-4 -20 -17 -32 -43 -32zM213 0h-70
l-33 698h58l25 -622h3l286 622h71l38 -622h3l278 622h61l-320 -698h-68l-38 628h-4z" />
    <glyph glyph-name="wdieresis" unicode="&#x1e85;" horiz-adv-x="731" 
d="M343 626c-25 0 -34 13 -34 28c0 4 0 8 3 22c4 20 17 32 43 32c25 0 34 -13 34 -28c0 -4 0 -8 -3 -22c-4 -20 -17 -32 -43 -32zM525 626c-25 0 -34 13 -34 28c0 4 0 8 3 22c4 20 17 32 43 32c25 0 34 -13 34 -28c0 -4 0 -8 -3 -22c-4 -20 -17 -32 -43 -32zM115 0l-38 512
h53l29 -452h4l221 452h55l41 -450h4l211 450h54l-243 -512h-67l-40 429h-4l-210 -429h-70z" />
    <glyph glyph-name="uni1E9E" unicode="&#x1e9e;" horiz-adv-x="697" 
d="M385 39c87 0 150 55 167 133c10 48 11 62 11 74c0 68 -50 107 -136 107h-71l10 52l238 241h-371l-130 -646h-58l140 698h490l-11 -59l-232 -235l-1 -4h3c117 0 190 -52 190 -154c0 -144 -101 -258 -242 -258c-93 0 -158 35 -195 103l45 33c33 -57 80 -85 153 -85z" />
    <glyph glyph-name="uni1EA0" unicode="&#x1ea0;" horiz-adv-x="612" 
d="M230 -155c-22 0 -34 10 -34 28c0 5 1 9 3 18c5 22 17 36 44 36c22 0 34 -10 34 -28c0 -5 -1 -9 -3 -18c-5 -22 -17 -36 -44 -36zM536 0h-59l-34 217h-289l-113 -217h-62l370 698h77zM437 268l-58 373h-4l-194 -373h256z" />
    <glyph glyph-name="uni1EA1" unicode="&#x1ea1;" horiz-adv-x="577" 
d="M217 -155c-22 0 -34 10 -34 28c0 5 1 9 3 18c5 22 17 36 44 36c22 0 34 -10 34 -28c0 -5 -1 -9 -3 -18c-5 -22 -17 -36 -44 -36zM500 0h-72c-34 0 -50 18 -50 45c0 7 1 16 3 25l8 42h-3c-42 -82 -93 -124 -172 -124c-98 0 -159 77 -159 193c0 165 84 343 250 343
c71 0 127 -36 144 -99h3l17 87h55l-92 -463h78zM227 38c43 0 76 17 108 47c36 32 65 78 76 137l24 119c13 65 -23 133 -125 133c-96 0 -159 -68 -182 -180l-12 -60c-3 -19 -5 -37 -5 -59c0 -77 35 -137 116 -137z" />
    <glyph glyph-name="uni1EA2" unicode="&#x1ea2;" horiz-adv-x="612" 
d="M332 884l6 44h117c38 0 47 -18 47 -36c0 -25 -17 -46 -52 -86l-44 -52l-31 18l82 112h-125zM536 0h-59l-34 217h-289l-113 -217h-62l370 698h77zM437 268l-58 373h-4l-194 -373h256z" />
    <glyph glyph-name="uni1EA3" unicode="&#x1ea3;" horiz-adv-x="577" 
d="M283 711l6 43h117c37 0 47 -18 47 -36c0 -24 -17 -47 -52 -87l-44 -51l-31 17l82 114h-125zM500 0h-72c-34 0 -50 18 -50 45c0 7 1 16 3 25l8 42h-3c-42 -82 -93 -124 -172 -124c-98 0 -159 77 -159 193c0 165 84 343 250 343c71 0 127 -36 144 -99h3l17 87h55l-92 -463
h78zM227 38c43 0 76 17 108 47c36 32 65 78 76 137l24 119c13 65 -23 133 -125 133c-96 0 -159 -68 -182 -180l-12 -60c-3 -19 -5 -37 -5 -59c0 -77 35 -137 116 -137z" />
    <glyph glyph-name="uni1EA4" unicode="&#x1ea4;" horiz-adv-x="612" 
d="M687 1027l-132 -156l-35 19l119 164zM392 915h67l93 -133l-31 -24l-98 119l-138 -119l-30 24zM536 0h-59l-34 217h-289l-113 -217h-62l370 698h77zM437 268l-58 373h-4l-194 -373h256z" />
    <glyph glyph-name="uni1EA5" unicode="&#x1ea5;" horiz-adv-x="577" 
d="M626 859l-132 -157l-34 20l118 163zM336 741h67l92 -133l-31 -23l-98 118l-137 -118l-30 24zM500 0h-72c-34 0 -50 18 -50 45c0 7 1 16 3 25l8 42h-3c-42 -82 -93 -124 -172 -124c-98 0 -159 77 -159 193c0 165 84 343 250 343c71 0 127 -36 144 -99h3l17 87h55l-92 -463
h78zM227 38c43 0 76 17 108 47c36 32 65 78 76 137l24 119c13 65 -23 133 -125 133c-96 0 -159 -68 -182 -180l-12 -60c-3 -19 -5 -37 -5 -59c0 -77 35 -137 116 -137z" />
    <glyph glyph-name="uni1EA6" unicode="&#x1ea6;" horiz-adv-x="612" 
d="M273 873l-84 157l49 23l69 -164zM391 915h67l93 -133l-31 -24l-98 119l-138 -119l-29 24zM536 0h-59l-34 217h-289l-113 -217h-62l370 698h77zM437 268l-58 373h-4l-194 -373h256z" />
    <glyph glyph-name="uni1EA7" unicode="&#x1ea7;" horiz-adv-x="577" 
d="M222 699l-85 157l49 23l69 -164zM335 741h67l93 -133l-31 -23l-99 118l-137 -118l-30 24zM500 0h-72c-34 0 -50 18 -50 45c0 7 1 16 3 25l8 42h-3c-42 -82 -93 -124 -172 -124c-98 0 -159 77 -159 193c0 165 84 343 250 343c71 0 127 -36 144 -99h3l17 87h55l-92 -463h78
zM227 38c43 0 76 17 108 47c36 32 65 78 76 137l24 119c13 65 -23 133 -125 133c-96 0 -159 -68 -182 -180l-12 -60c-3 -19 -5 -37 -5 -59c0 -77 35 -137 116 -137z" />
    <glyph glyph-name="uni1EA8" unicode="&#x1ea8;" horiz-adv-x="612" 
d="M472 1000l7 41h117c37 0 46 -18 46 -36c0 -24 -16 -47 -52 -88l-43 -50l-31 18l81 115h-125zM391 915h67l93 -133l-31 -24l-98 119l-138 -119l-29 24zM536 0h-59l-34 217h-289l-113 -217h-62l370 698h77zM437 268l-58 373h-4l-194 -373h256z" />
    <glyph glyph-name="uni1EA9" unicode="&#x1ea9;" horiz-adv-x="577" 
d="M416 826l7 41h117c36 0 46 -17 46 -36c0 -24 -19 -46 -52 -87l-42 -51l-31 18l83 115h-128zM335 741h67l93 -133l-31 -23l-99 118l-137 -118l-30 24zM500 0h-72c-34 0 -50 18 -50 45c0 7 1 16 3 25l8 42h-3c-42 -82 -93 -124 -172 -124c-98 0 -159 77 -159 193
c0 165 84 343 250 343c71 0 127 -36 144 -99h3l17 87h55l-92 -463h78zM227 38c43 0 76 17 108 47c36 32 65 78 76 137l24 119c13 65 -23 133 -125 133c-96 0 -159 -68 -182 -180l-12 -60c-3 -19 -5 -37 -5 -59c0 -77 35 -137 116 -137z" />
    <glyph glyph-name="uni1EAA" unicode="&#x1eaa;" horiz-adv-x="612" 
d="M370 1043c31 0 50 -12 74 -28c27 -18 45 -24 64 -24c23 0 41 10 64 29l21 -27c-25 -28 -55 -48 -93 -48c-31 0 -50 12 -74 28c-27 18 -45 24 -64 24c-23 0 -41 -10 -64 -29l-21 27c25 28 55 48 93 48zM393 915h67l93 -133l-31 -23l-99 118l-137 -118l-30 24zM536 0h-59
l-34 217h-289l-113 -217h-62l370 698h77zM437 268l-58 373h-4l-194 -373h256z" />
    <glyph glyph-name="uni1EAB" unicode="&#x1eab;" horiz-adv-x="577" 
d="M312 869c31 0 50 -12 74 -28c27 -18 45 -24 64 -24c23 0 41 10 64 29l21 -27c-25 -28 -55 -48 -93 -48c-31 0 -50 12 -74 28c-27 18 -45 24 -64 24c-23 0 -41 -10 -64 -29l-21 27c25 28 55 48 93 48zM335 741h67l93 -133l-31 -23l-99 118l-137 -118l-30 24zM500 0h-72
c-34 0 -50 18 -50 45c0 7 1 16 3 25l8 42h-3c-42 -82 -93 -124 -172 -124c-98 0 -159 77 -159 193c0 165 84 343 250 343c71 0 127 -36 144 -99h3l17 87h55l-92 -463h78zM227 38c43 0 76 17 108 47c36 32 65 78 76 137l24 119c13 65 -23 133 -125 133
c-96 0 -159 -68 -182 -180l-12 -60c-3 -19 -5 -37 -5 -59c0 -77 35 -137 116 -137z" />
    <glyph glyph-name="uni1EAC" unicode="&#x1eac;" horiz-adv-x="612" 
d="M230 -155c-22 0 -34 10 -34 28c0 5 1 9 3 18c5 22 17 36 44 36c22 0 34 -10 34 -28c0 -5 -1 -9 -3 -18c-5 -22 -17 -36 -44 -36zM396 930h66l92 -139l-32 -22l-98 119l-142 -120l-30 24zM536 0h-59l-34 217h-289l-113 -217h-62l370 698h77zM437 268l-58 373h-4l-194 -373
h256z" />
    <glyph glyph-name="uni1EAD" unicode="&#x1ead;" horiz-adv-x="577" 
d="M217 -155c-22 0 -34 10 -34 28c0 5 1 9 3 18c5 22 17 36 44 36c22 0 34 -10 34 -28c0 -5 -1 -9 -3 -18c-5 -22 -17 -36 -44 -36zM338 756h66l92 -139l-32 -23l-98 120l-142 -120l-29 24zM500 0h-72c-34 0 -50 18 -50 45c0 7 1 16 3 25l8 42h-3
c-42 -82 -93 -124 -172 -124c-98 0 -159 77 -159 193c0 165 84 343 250 343c71 0 127 -36 144 -99h3l17 87h55l-92 -463h78zM227 38c43 0 76 17 108 47c36 32 65 78 76 137l24 119c13 65 -23 133 -125 133c-96 0 -159 -68 -182 -180l-12 -60c-3 -19 -5 -37 -5 -59
c0 -77 35 -137 116 -137z" />
    <glyph glyph-name="uni1EAE" unicode="&#x1eae;" horiz-adv-x="612" 
d="M402 764c-85 0 -111 64 -124 124l34 15l11 -27c18 -48 40 -69 81 -69c40 0 69 14 103 67l19 29l36 -15c-33 -61 -73 -124 -160 -124zM549 1029l-133 -156l-34 19l119 163zM536 0h-59l-34 217h-289l-113 -217h-62l370 698h77zM437 268l-58 373h-4l-194 -373h256z" />
    <glyph glyph-name="uni1EAF" unicode="&#x1eaf;" horiz-adv-x="577" 
d="M344 589c-86 0 -111 64 -125 123l35 15l10 -27c18 -47 41 -69 81 -69s70 15 104 67l19 29l36 -15c-33 -60 -74 -123 -160 -123zM490 853l-132 -156l-35 20l120 163zM500 0h-72c-34 0 -50 18 -50 45c0 7 1 16 3 25l8 42h-3c-42 -82 -93 -124 -172 -124
c-98 0 -159 77 -159 193c0 165 84 343 250 343c71 0 127 -36 144 -99h3l17 87h55l-92 -463h78zM227 38c43 0 76 17 108 47c36 32 65 78 76 137l24 119c13 65 -23 133 -125 133c-96 0 -159 -68 -182 -180l-12 -60c-3 -19 -5 -37 -5 -59c0 -77 35 -137 116 -137z" />
    <glyph glyph-name="uni1EB0" unicode="&#x1eb0;" horiz-adv-x="612" 
d="M402 764c-85 0 -111 64 -124 124l34 15l11 -27c18 -48 40 -69 81 -69c40 0 69 14 103 67l19 29l36 -15c-33 -61 -73 -124 -160 -124zM406 874l-84 157l50 23l69 -164zM536 0h-59l-34 217h-289l-113 -217h-62l370 698h77zM437 268l-58 373h-4l-194 -373h256z" />
    <glyph glyph-name="uni1EB1" unicode="&#x1eb1;" horiz-adv-x="577" 
d="M344 589c-86 0 -111 64 -125 123l35 15l10 -27c18 -47 41 -69 81 -69s70 15 104 67l19 29l36 -15c-33 -60 -74 -123 -160 -123zM349 699l-84 157l50 23l68 -164zM500 0h-72c-34 0 -50 18 -50 45c0 7 1 16 3 25l8 42h-3c-42 -82 -93 -124 -172 -124
c-98 0 -159 77 -159 193c0 165 84 343 250 343c71 0 127 -36 144 -99h3l17 87h55l-92 -463h78zM227 38c43 0 76 17 108 47c36 32 65 78 76 137l24 119c13 65 -23 133 -125 133c-96 0 -159 -68 -182 -180l-12 -60c-3 -19 -5 -37 -5 -59c0 -77 35 -137 116 -137z" />
    <glyph glyph-name="uni1EB2" unicode="&#x1eb2;" horiz-adv-x="612" 
d="M346 999l6 42h117c37 0 47 -18 47 -36c0 -23 -17 -46 -52 -86l-44 -52l-31 18l82 114h-125zM402 764c-85 0 -111 64 -124 124l34 15l11 -27c18 -48 40 -69 81 -69c40 0 69 14 103 67l19 29l36 -15c-33 -61 -73 -124 -160 -124zM536 0h-59l-34 217h-289l-113 -217h-62
l370 698h77zM437 268l-58 373h-4l-194 -373h256z" />
    <glyph glyph-name="uni1EB3" unicode="&#x1eb3;" horiz-adv-x="577" 
d="M344 589c-86 0 -111 64 -125 123l35 15l10 -27c18 -47 41 -69 81 -69s70 15 104 67l19 29l36 -15c-33 -60 -74 -123 -160 -123zM285 825l6 42h117c37 0 48 -18 48 -36c0 -23 -18 -46 -52 -86l-44 -52l-31 18l82 114h-126zM500 0h-72c-34 0 -50 18 -50 45c0 7 1 16 3 25
l8 42h-3c-42 -82 -93 -124 -172 -124c-98 0 -159 77 -159 193c0 165 84 343 250 343c71 0 127 -36 144 -99h3l17 87h55l-92 -463h78zM227 38c43 0 76 17 108 47c36 32 65 78 76 137l24 119c13 65 -23 133 -125 133c-96 0 -159 -68 -182 -180l-12 -60c-3 -19 -5 -37 -5 -59
c0 -77 35 -137 116 -137z" />
    <glyph glyph-name="uni1EB4" unicode="&#x1eb4;" horiz-adv-x="612" 
d="M499 943c-31 0 -50 12 -74 28c-27 18 -45 24 -64 24c-23 0 -41 -10 -64 -29l-21 27c25 28 55 48 93 48c31 0 50 -12 74 -28c27 -18 45 -24 64 -24c23 0 41 10 64 29l21 -27c-25 -28 -55 -48 -93 -48zM402 763c-86 0 -111 64 -125 123l35 15l10 -27c18 -47 41 -69 81 -69
s70 15 104 67l19 29l36 -15c-33 -60 -74 -123 -160 -123zM536 0h-59l-34 217h-289l-113 -217h-62l370 698h77zM437 268l-58 373h-4l-194 -373h256z" />
    <glyph glyph-name="uni1EB5" unicode="&#x1eb5;" horiz-adv-x="577" 
d="M344 589c-86 0 -111 64 -125 123l35 15l10 -27c18 -47 41 -69 81 -69s70 15 104 67l19 29l36 -15c-33 -60 -74 -123 -160 -123zM441 769c-31 0 -50 12 -74 28c-27 18 -45 24 -64 24c-23 0 -41 -10 -64 -29l-21 27c25 28 55 48 93 48c31 0 50 -12 74 -28
c27 -18 45 -24 64 -24c23 0 41 10 64 29l21 -27c-25 -28 -55 -48 -93 -48zM500 0h-72c-34 0 -50 18 -50 45c0 7 1 16 3 25l8 42h-3c-42 -82 -93 -124 -172 -124c-98 0 -159 77 -159 193c0 165 84 343 250 343c71 0 127 -36 144 -99h3l17 87h55l-92 -463h78zM227 38
c43 0 76 17 108 47c36 32 65 78 76 137l24 119c13 65 -23 133 -125 133c-96 0 -159 -68 -182 -180l-12 -60c-3 -19 -5 -37 -5 -59c0 -77 35 -137 116 -137z" />
    <glyph glyph-name="uni1EB6" unicode="&#x1eb6;" horiz-adv-x="612" 
d="M230 -155c-22 0 -34 10 -34 28c0 5 1 9 3 18c5 22 17 36 44 36c22 0 34 -10 34 -28c0 -5 -1 -9 -3 -18c-5 -22 -17 -36 -44 -36zM404 774c-85 0 -110 65 -125 127l35 15l12 -28c20 -47 40 -70 79 -70c40 0 65 19 103 71l20 27l36 -15c-34 -61 -73 -127 -160 -127zM536 0
h-59l-34 217h-289l-113 -217h-62l370 698h77zM437 268l-58 373h-4l-194 -373h256z" />
    </font>
</defs>
</svg>
