<?xml version="1.0" standalone="no"?>
<!DOCTYPE svg PUBLIC "-//W3C//DTD SVG 1.1//EN" "http://www.w3.org/Graphics/SVG/1.1/DTD/svg11.dtd" >
<svg xmlns="http://www.w3.org/2000/svg" xmlns:xlink="http://www.w3.org/1999/xlink" version="1.1">
<metadata>
Created by FontForge 20180714 at Tue Aug 14 16:15:08 2018
 By Gisle,,,,
Copyright 2018 IBM Corp. All rights reserved.
</metadata>
<defs>
<font id="Aneliza-ThinItalic" horiz-adv-x="600" >
  <font-face 
    font-family="Aneliza Thin"
    font-weight="100"
    font-style="italic"
    font-stretch="normal"
    units-per-em="1000"
    panose-1="2 11 2 3 5 2 3 0 2 3"
    ascent="780"
    descent="-220"
    x-height="506"
    cap-height="698"
    bbox="-218 -220 1147 1089"
    underline-thickness="16"
    underline-position="-192"
    slope="-11.31"
    stemh="19"
    stemv="21"
    unicode-range="U+0020-FB02"
  />
<missing-glyph horiz-adv-x="472" 
d="M32 0v780h408v-780h-408zM48 16h376v748h-376v-748z" />
    <glyph glyph-name="fi" unicode="fi" horiz-adv-x="514" 
d="M69 487l4 19h100l39 201c5 26 13 33 41 33h92l-4 -19h-105l-42 -215h261l-98 -487h85l-4 -19h-76c-15 0 -24 4 -24 21c0 8 5 34 8 49l84 417h-240l-129 -654c-5 -26 -13 -33 -41 -33h-82l4 19h95l132 668h-100zM479 673c-15 0 -20 8 -20 16c0 4 1 8 2 14
c3 12 10 19 27 19c15 0 20 -8 20 -16c0 -4 -1 -8 -2 -14c-3 -12 -10 -19 -27 -19z" />
    <glyph glyph-name=".notdef" horiz-adv-x="472" 
d="M32 0v780h408v-780h-408zM48 16h376v748h-376v-748z" />
    <glyph glyph-name="space" unicode=" " horiz-adv-x="236" 
 />
    <glyph glyph-name="exclam" unicode="!" horiz-adv-x="247" 
d="M114 176h-12l43 239l56 283h22l-56 -283zM75 -5c-20 0 -26 10 -26 19c0 5 2 14 3 18c3 11 9 21 29 21c19 0 25 -10 25 -19c0 -5 -2 -14 -3 -18c-3 -11 -8 -21 -28 -21z" />
    <glyph glyph-name="quotedbl" unicode="&#x22;" horiz-adv-x="373" 
d="M320 490h-20l50 250h20zM167 490h-20l50 250h20z" />
    <glyph glyph-name="numbersign" unicode="#" horiz-adv-x="710" 
d="M318 0l82 220h-186l-82 -220h-21l82 220h-149l4 19h153l81 220h-151l4 19h154l82 220h21l-82 -220h186l82 220h21l-82 -220h149l-4 -19h-153l-81 -220h151l-4 -19h-154l-82 -220h-21zM221 239h186l82 220h-186z" />
    <glyph glyph-name="dollar" unicode="$" horiz-adv-x="536" 
d="M193 -82l17 83c-99 6 -158 49 -196 112l18 13c36 -61 89 -100 181 -105l66 327l-37 10c-90 24 -132 74 -132 155c0 100 72 185 221 185h18l16 82h20l-17 -83c90 -7 130 -41 160 -97l-18 -11c-32 58 -68 83 -146 88l-62 -315l31 -8c92 -24 136 -73 136 -153
c0 -109 -70 -201 -231 -201h-9l-16 -82h-20zM328 336l-30 8l-65 -324h6c150 0 208 84 208 181c0 73 -36 113 -119 135zM132 513c0 -74 35 -116 116 -137l35 -9l62 311h-15c-137 0 -198 -76 -198 -165z" />
    <glyph glyph-name="percent" unicode="%" horiz-adv-x="883" 
d="M171 0h-24l605 698h24zM240 327c-74 0 -116 58 -116 132c0 103 41 251 178 251c74 0 116 -58 116 -132c0 -103 -41 -251 -178 -251zM241 344c77 0 127 55 147 151l7 33c3 16 4 33 4 49c0 63 -30 116 -98 116c-77 0 -127 -55 -147 -151l-7 -33c-3 -16 -4 -33 -4 -49
c0 -63 30 -116 98 -116zM619 -12c-74 0 -116 58 -116 132c0 103 41 251 178 251c74 0 116 -58 116 -132c0 -103 -41 -251 -178 -251zM620 5c77 0 127 55 147 151l7 33c3 16 4 33 4 49c0 63 -30 116 -98 116c-77 0 -127 -55 -147 -151l-7 -33c-3 -16 -4 -33 -4 -49
c0 -63 30 -116 98 -116z" />
    <glyph glyph-name="ampersand" unicode="&#x26;" horiz-adv-x="677" 
d="M563 0l-92 115c-56 -73 -145 -127 -242 -127c-106 0 -180 48 -180 148c0 81 47 157 215 238c-53 69 -66 116 -66 150c0 102 70 186 193 186c93 0 144 -49 144 -117c0 -88 -52 -131 -241 -225l177 -221c34 54 60 133 74 204h109l-4 -20h-90c-15 -71 -41 -144 -77 -199
l106 -132h-26zM387 691c-86 0 -146 -50 -160 -122c-5 -25 -7 -36 -7 -45c0 -30 10 -73 62 -141c178 85 231 130 231 209c0 63 -45 99 -126 99zM459 130l-183 229c-140 -70 -188 -119 -202 -197c-2 -11 -3 -19 -3 -29c0 -87 65 -125 162 -125c93 0 174 51 226 122z" />
    <glyph glyph-name="quotesingle" unicode="'" horiz-adv-x="220" 
d="M167 490h-20l50 250h20z" />
    <glyph glyph-name="parenleft" unicode="(" horiz-adv-x="330" 
d="M108 232c0 221 120 427 264 528h26c-125 -87 -228 -238 -258 -407l-6 -34c-5 -30 -7 -58 -7 -87c0 -149 37 -270 120 -370h-21c-71 86 -118 214 -118 370z" />
    <glyph glyph-name="parenright" unicode=")" horiz-adv-x="330" 
d="M241 390c0 -221 -120 -427 -264 -528h-26c125 87 228 238 258 407l6 34c5 30 7 58 7 87c0 149 -37 270 -120 370h21c71 -86 118 -214 118 -370z" />
    <glyph glyph-name="asterisk" unicode="*" horiz-adv-x="363" 
d="M244 565l-118 -129l-15 11l119 129l-138 45l8 19l139 -49l29 156h20l-31 -157l156 50l5 -19l-158 -47l68 -128l-16 -10z" />
    <glyph glyph-name="plus" unicode="+" 
d="M272 62h-21l47 234h-228l4 19h228l47 234h21l-47 -234h228l-4 -19h-228z" />
    <glyph glyph-name="comma" unicode="," horiz-adv-x="240" 
d="M77 53c19 0 25 -10 25 -19c0 -5 -2 -15 -3 -19c-13 -54 -57 -122 -107 -162h-21c60 50 90 105 101 142c-22 0 -27 10 -27 19c0 5 2 14 3 18c3 11 9 21 29 21z" />
    <glyph glyph-name="hyphen" unicode="-" horiz-adv-x="388" 
d="M317 295h-229l4 20h229z" />
    <glyph glyph-name="period" unicode="." horiz-adv-x="240" 
d="M71 -5c-20 0 -26 10 -26 19c0 5 2 14 3 18c3 11 9 21 29 21c19 0 25 -10 25 -19c0 -5 -2 -14 -3 -18c-3 -11 -8 -21 -28 -21z" />
    <glyph glyph-name="slash" unicode="/" horiz-adv-x="301" 
d="M-57 -151h-20l426 891h20z" />
    <glyph glyph-name="zero" unicode="0" 
d="M254 -12c-121 0 -179 77 -179 231c0 199 82 491 303 491c121 0 179 -77 179 -231c0 -199 -82 -491 -303 -491zM254 8c127 0 220 108 259 300l12 59c8 40 11 78 11 112c0 133 -42 211 -158 211c-127 0 -220 -108 -259 -300l-12 -59c-8 -40 -11 -78 -11 -112
c0 -133 42 -211 158 -211z" />
    <glyph glyph-name="one" unicode="1" 
d="M500 0h-452l4 20h219l131 662h-3l-250 -181l-11 16l251 181h39l-135 -678h211z" />
    <glyph glyph-name="two" unicode="2" 
d="M470 20l-3 -20h-434l5 24l329 278c74 61 128 124 141 188c9 41 9 55 9 66c0 79 -46 134 -149 134c-97 0 -163 -42 -203 -139l-19 6c41 105 117 153 224 153c115 0 168 -67 168 -154c0 -103 -47 -176 -155 -267l-320 -269h407z" />
    <glyph glyph-name="three" unicode="3" 
d="M211 376h94c108 0 180 49 199 136c6 27 7 35 7 46c0 82 -58 132 -151 132s-148 -31 -188 -100l-18 9c39 70 104 111 209 111c97 0 170 -55 170 -150c0 -107 -66 -178 -171 -194l-1 -3c69 -9 120 -66 120 -147c0 -140 -97 -228 -236 -228c-98 0 -173 33 -205 107l17 10
c31 -69 94 -97 189 -97c109 0 187 59 205 152c7 35 8 47 8 56c0 84 -52 140 -157 140h-95z" />
    <glyph glyph-name="four" unicode="4" 
d="M379 0h-21l32 160h-365l4 21l461 517h29l-104 -519h117l-4 -19h-117zM489 670l-436 -491h341l98 491h-3z" />
    <glyph glyph-name="five" unicode="5" 
d="M575 698l-3 -20h-324l-90 -334l3 -1c45 50 97 70 168 70c117 0 176 -63 176 -168c0 -161 -99 -257 -245 -257c-88 0 -168 33 -199 107l17 10c31 -72 105 -97 181 -97c125 0 195 67 215 170c8 40 9 55 9 67c0 92 -49 148 -155 148c-79 0 -121 -23 -171 -70l-24 3l100 372
h342z" />
    <glyph glyph-name="six" unicode="6" 
d="M267 -12c-127 0 -182 74 -182 180c0 215 163 416 375 530h34c-199 -113 -309 -233 -369 -401l3 -1c46 88 126 120 211 120c109 0 179 -65 179 -171c0 -144 -104 -257 -251 -257zM266 8c118 0 205 76 222 175c7 40 8 52 8 62c0 89 -51 151 -160 151
c-118 0 -202 -76 -222 -175c-7 -39 -8 -51 -8 -61c0 -89 51 -152 160 -152z" />
    <glyph glyph-name="seven" unicode="7" 
d="M169 0h-25l435 678h-389l-33 -166h-21l37 186h435l-4 -20z" />
    <glyph glyph-name="eight" unicode="8" 
d="M245 -12c-127 0 -198 66 -198 166c0 112 79 195 195 213v4c-67 17 -103 63 -103 135c0 123 98 204 233 204c115 0 181 -58 181 -149c0 -102 -69 -176 -164 -195l-1 -4c78 -21 118 -72 118 -153c0 -131 -110 -221 -261 -221zM246 8c121 0 214 62 231 156c6 33 7 41 7 50
c0 84 -63 142 -177 142c-121 0 -213 -63 -231 -156c-6 -34 -6 -41 -6 -50c0 -84 62 -142 176 -142zM322 376c109 0 185 54 201 140c6 32 7 41 7 49c0 77 -57 125 -160 125c-109 0 -185 -54 -202 -140c-6 -32 -6 -41 -6 -49c0 -77 57 -125 160 -125z" />
    <glyph glyph-name="nine" unicode="9" 
d="M547 530c0 -215 -163 -416 -375 -530h-34c199 113 309 233 369 401l-3 1c-46 -88 -126 -120 -211 -120c-109 0 -179 65 -179 171c0 144 104 257 251 257c127 0 182 -74 182 -180zM296 302c118 0 204 76 222 175c7 38 8 52 8 62c0 89 -51 151 -160 151
c-118 0 -206 -75 -222 -175c-6 -38 -8 -52 -8 -62c0 -89 51 -151 160 -151z" />
    <glyph glyph-name="colon" unicode=":" horiz-adv-x="260" 
d="M174 453c-20 0 -26 10 -26 19c0 5 2 14 3 18c3 11 9 21 29 21c19 0 25 -10 25 -19c0 -5 -2 -14 -3 -18c-3 -11 -8 -21 -28 -21zM81 -5c-20 0 -26 10 -26 19c0 5 2 14 3 18c3 11 9 21 29 21c19 0 25 -10 25 -19c0 -5 -2 -14 -3 -18c-3 -11 -8 -21 -28 -21z" />
    <glyph glyph-name="semicolon" unicode=";" horiz-adv-x="260" 
d="M174 453c-20 0 -26 10 -26 19c0 5 2 14 3 18c3 11 9 21 29 21c19 0 25 -10 25 -19c0 -5 -2 -14 -3 -18c-3 -11 -8 -21 -28 -21zM87 53c19 0 25 -10 25 -19c0 -5 -2 -15 -3 -19c-13 -54 -57 -122 -107 -162h-21c60 50 90 105 101 142c-22 0 -27 10 -27 19c0 5 2 14 3 18
c3 11 9 21 29 21z" />
    <glyph glyph-name="less" unicode="&#x3c;" 
d="M475 38l-379 258l4 18l481 258l-4 -25l-456 -243v-2l358 -243z" />
    <glyph glyph-name="equal" unicode="=" 
d="M554 385h-476l4 19h476zM518 207h-476l4 19h476z" />
    <glyph glyph-name="greater" unicode="&#x3e;" 
d="M39 38l4 25l456 243v2l-358 243l4 21l379 -258l-4 -18z" />
    <glyph glyph-name="question" unicode="?" horiz-adv-x="453" 
d="M201 176h-22l33 173c144 11 216 62 230 159c2 14 5 37 5 46c0 85 -52 137 -148 137c-100 0 -153 -52 -189 -137l-19 6c36 91 101 150 209 150c104 0 169 -62 169 -156c0 -126 -74 -208 -238 -223zM157 -5c-20 0 -26 10 -26 19c0 5 2 14 3 18c3 11 9 21 29 21
c19 0 25 -10 25 -19c0 -5 -2 -14 -3 -18c-3 -11 -8 -21 -28 -21z" />
    <glyph glyph-name="at" unicode="@" horiz-adv-x="880" 
d="M600 -121h-236c-183 0 -298 111 -298 307c0 35 4 73 12 114c50 247 230 410 454 410c174 0 302 -103 302 -296c0 -29 -4 -60 -10 -94c-25 -143 -93 -251 -194 -251c-48 0 -78 28 -78 69v12h-3c-27 -38 -78 -81 -151 -81c-87 0 -137 54 -137 141c0 22 3 49 8 77
c27 150 106 221 217 221c63 0 110 -40 119 -82h3l13 70h20l-66 -333c-2 -9 -2 -17 -2 -25c0 -32 21 -51 60 -51c71 0 139 76 164 208l9 47c5 26 8 48 8 72c0 178 -116 278 -286 278c-203 0 -378 -159 -422 -366l-11 -52c-7 -32 -10 -59 -10 -88c0 -182 111 -289 282 -289
h236zM401 87c73 0 150 59 163 125l30 150c15 76 -37 128 -112 128c-97 0 -164 -70 -187 -184l-7 -38c-4 -21 -6 -40 -6 -58c0 -76 40 -123 119 -123z" />
    <glyph glyph-name="A" unicode="A" horiz-adv-x="594" 
d="M519 0h-22l-45 234h-318l-122 -234h-24l366 698h30zM448 253l-81 420h-3l-220 -420h304z" />
    <glyph glyph-name="B" unicode="B" horiz-adv-x="606" 
d="M55 0l138 698h221c96 0 150 -49 150 -137c0 -82 -29 -170 -135 -191v-3c66 -15 102 -72 102 -139c0 -144 -80 -228 -210 -228h-266zM81 20h242c103 0 161 59 177 139c8 39 9 58 9 69c0 70 -40 130 -132 130h-229zM152 378h215c94 0 152 44 166 117c8 43 9 56 9 67
c0 70 -37 116 -129 116h-202z" />
    <glyph glyph-name="C" unicode="C" horiz-adv-x="595" 
d="M291 -12c-132 0 -222 81 -222 232c0 198 89 490 329 490c112 0 169 -54 191 -141l-21 -5c-21 76 -67 126 -171 126c-142 0 -248 -120 -285 -306l-11 -55c-8 -42 -10 -81 -10 -109c0 -130 71 -212 200 -212c93 0 156 47 209 143l19 -10c-62 -109 -131 -153 -228 -153z" />
    <glyph glyph-name="D" unicode="D" horiz-adv-x="648" 
d="M55 0l138 698h185c152 0 232 -86 232 -230c0 -227 -100 -468 -328 -468h-227zM81 20h201c158 0 254 130 285 283l11 55c8 42 10 82 10 110c0 130 -69 210 -213 210h-164z" />
    <glyph glyph-name="E" unicode="E" horiz-adv-x="553" 
d="M432 0h-378l140 698h378l-4 -20h-356l-63 -314h344l-4 -20h-344l-65 -324h356z" />
    <glyph glyph-name="F" unicode="F" horiz-adv-x="528" 
d="M76 0h-22l140 698h370l-4 -20h-348l-63 -314h334l-4 -20h-334z" />
    <glyph glyph-name="G" unicode="G" horiz-adv-x="660" 
d="M502 0l23 114h-3c-52 -88 -132 -126 -227 -126c-134 0 -226 81 -226 232c0 198 87 490 334 490c121 0 183 -53 207 -141l-21 -5c-23 77 -73 126 -187 126c-147 0 -253 -120 -290 -306l-11 -55c-8 -42 -10 -81 -10 -109c0 -130 72 -212 204 -212c106 0 218 59 246 197
l22 107h-176l4 20h198l-66 -332h-21z" />
    <glyph glyph-name="H" unicode="H" horiz-adv-x="680" 
d="M502 0l69 344h-426l-69 -344h-22l140 698h22l-67 -334h426l67 334h22l-140 -698h-22z" />
    <glyph glyph-name="I" unicode="I" horiz-adv-x="368" 
d="M251 0h-236l4 19h107l132 660h-107l4 19h236l-4 -19h-107l-132 -660h107z" />
    <glyph glyph-name="J" unicode="J" horiz-adv-x="455" 
d="M178 698h268l-103 -520c-24 -122 -97 -190 -201 -190c-97 0 -150 55 -156 130l20 5c8 -77 58 -115 136 -115c95 0 158 64 180 176l99 494h-246z" />
    <glyph glyph-name="K" unicode="K" horiz-adv-x="564" 
d="M474 0l-184 388l-165 -151l-49 -237h-22l140 698h22l-85 -427h3l166 152l304 275h29l-326 -296l190 -402h-23z" />
    <glyph glyph-name="L" unicode="L" horiz-adv-x="468" 
d="M401 0h-347l140 698h22l-136 -678h325z" />
    <glyph glyph-name="M" unicode="M" horiz-adv-x="780" 
d="M603 0l135 673h-3l-349 -437l-173 437h-3l-135 -673h-21l140 698h32l166 -420h3l334 420h35l-140 -698h-21z" />
    <glyph glyph-name="N" unicode="N" horiz-adv-x="680" 
d="M494 0l-282 671h-3l-134 -671h-21l140 698h30l282 -671h3l134 671h21l-140 -698h-30z" />
    <glyph glyph-name="O" unicode="O" horiz-adv-x="658" 
d="M291 -12c-132 0 -222 81 -222 232c0 198 88 490 332 490c132 0 222 -81 222 -232c0 -198 -88 -490 -332 -490zM291 8c145 0 252 120 289 306l11 55c8 42 10 81 10 109c0 130 -71 212 -200 212c-145 0 -252 -120 -289 -306l-11 -55c-8 -42 -10 -81 -10 -109
c0 -130 71 -212 200 -212z" />
    <glyph glyph-name="P" unicode="P" horiz-adv-x="582" 
d="M76 0h-22l140 698h251c97 0 151 -63 151 -148c0 -144 -80 -228 -210 -228h-245zM211 678l-66 -336h243c103 0 161 59 177 139c8 39 9 58 9 69c0 70 -39 128 -131 128h-232z" />
    <glyph glyph-name="Q" unicode="Q" horiz-adv-x="658" 
d="M236 -128c0 6 2 16 5 29l20 89c-116 11 -192 90 -192 230c0 198 88 490 332 490c132 0 222 -81 222 -232c0 -198 -88 -490 -332 -490h-8l-26 -114h104l-4 -20h-98c-17 0 -23 8 -23 18zM291 8c145 0 252 120 289 306l11 55c8 42 10 81 10 109c0 130 -71 212 -200 212
c-145 0 -252 -120 -289 -306l-11 -55c-8 -42 -10 -81 -10 -109c0 -130 71 -212 200 -212z" />
    <glyph glyph-name="R" unicode="R" horiz-adv-x="630" 
d="M141 322l-65 -322h-22l140 698h251c97 0 151 -63 151 -148c0 -144 -79 -228 -214 -228l125 -322h-23l-125 322h-218zM145 342h243c103 0 161 59 177 139c8 39 9 58 9 69c0 70 -39 128 -131 128h-232z" />
    <glyph glyph-name="S" unicode="S" horiz-adv-x="536" 
d="M235 -12c-121 0 -181 44 -221 111l18 13c38 -65 90 -104 204 -104c150 0 207 91 207 196c0 72 -36 111 -121 133l-86 22c-90 23 -129 74 -129 154c0 107 71 197 217 197c114 0 170 -35 204 -98l-18 -11c-36 65 -88 89 -187 89c-134 0 -194 -82 -194 -177
c0 -73 34 -113 115 -134l83 -22c94 -25 139 -74 139 -153c0 -118 -70 -216 -231 -216z" />
    <glyph glyph-name="T" unicode="T" horiz-adv-x="548" 
d="M619 678h-249l-136 -678h-22l136 678h-249l4 20h520z" />
    <glyph glyph-name="U" unicode="U" horiz-adv-x="639" 
d="M185 698h22l-85 -427c-12 -59 -18 -93 -18 -123c0 -88 53 -140 169 -140c152 0 210 64 250 263l86 427h22l-86 -428c-43 -214 -107 -282 -272 -282c-120 0 -191 54 -191 160c0 37 8 72 19 128z" />
    <glyph glyph-name="V" unicode="V" horiz-adv-x="566" 
d="M247 0h-30l-100 698h22l96 -673h3l365 673h24z" />
    <glyph glyph-name="W" unicode="W" horiz-adv-x="864" 
d="M192 0h-31l-40 698h22l38 -667h3l323 667h31l51 -667h3l313 667h24l-329 -698h-31l-50 668h-3z" />
    <glyph glyph-name="X" unicode="X" horiz-adv-x="552" 
d="M306 355l167 -355h-24l-157 336h-3l-290 -336h-28l308 356l-161 342h24l152 -323h3l277 323h28z" />
    <glyph glyph-name="Y" unicode="Y" horiz-adv-x="540" 
d="M230 0h-22l59 294l-158 404h23l148 -378h3l300 378h26l-320 -404z" />
    <glyph glyph-name="Z" unicode="Z" horiz-adv-x="543" 
d="M466 20l-4 -20h-484l5 22l567 656h-413l4 20h440l-5 -22l-567 -656h457z" />
    <glyph glyph-name="bracketleft" unicode="[" horiz-adv-x="302" 
d="M156 -138h-124l180 898h124l-4 -18h-104l-172 -862h104z" />
    <glyph glyph-name="backslash" unicode="\" horiz-adv-x="301" 
d="M217 -151h-19l-72 891h19z" />
    <glyph glyph-name="bracketright" unicode="]" horiz-adv-x="302" 
d="M169 760h124l-180 -898h-124l4 18h104l172 862h-104z" />
    <glyph glyph-name="asciicircum" unicode="^" 
d="M538 332l-18 -10l-142 354h-2l-284 -354l-18 10l295 366h22z" />
    <glyph glyph-name="underscore" unicode="_" horiz-adv-x="559" 
d="M454 -141h-509l4 18h509z" />
    <glyph glyph-name="grave" unicode="`" 
d="M319 587l-84 153l19 11l81 -155z" />
    <glyph glyph-name="a" unicode="a" horiz-adv-x="567" 
d="M491 0h-78c-15 0 -23 6 -23 19c0 6 1 10 2 16l15 76h-3c-42 -74 -96 -123 -181 -123c-105 0 -163 81 -163 188c0 184 89 342 249 342c85 0 138 -43 156 -105h3l18 93h21l-97 -487h85zM223 7c42 0 75 11 110 40c39 32 79 87 93 157l28 142c13 67 -26 153 -145 153
c-115 0 -189 -85 -215 -217l-7 -35c-4 -22 -6 -43 -6 -71c0 -93 44 -169 142 -169z" />
    <glyph glyph-name="b" unicode="b" horiz-adv-x="560" 
d="M53 0l148 740h21l-69 -345h3c42 74 96 123 181 123c105 0 163 -81 163 -188c0 -184 -89 -342 -249 -342c-85 0 -138 43 -156 105h-3l-18 -93h-21zM251 7c115 0 189 85 215 217l7 35c4 22 6 43 6 71c0 93 -44 169 -142 169c-42 0 -75 -11 -110 -40
c-39 -32 -79 -87 -93 -157l-28 -142c-13 -67 26 -153 145 -153z" />
    <glyph glyph-name="c" unicode="c" horiz-adv-x="479" 
d="M223 -12c-108 0 -162 84 -162 198c0 187 85 332 240 332c79 0 136 -47 150 -115l-19 -5c-15 65 -66 101 -133 101c-102 0 -180 -78 -203 -202l-9 -49c-4 -24 -6 -37 -6 -62c0 -99 42 -179 142 -179c78 0 136 46 182 116l17 -9c-49 -76 -112 -126 -199 -126z" />
    <glyph glyph-name="d" unicode="d" horiz-adv-x="567" 
d="M491 0h-78c-15 0 -23 6 -23 19c0 6 1 10 2 16l15 76h-3c-42 -74 -96 -123 -181 -123c-105 0 -163 81 -163 188c0 184 89 342 249 342c85 0 138 -43 156 -105h3l65 327h21l-144 -721h85zM223 7c42 0 75 11 110 40c39 32 79 87 93 157l28 142c13 67 -26 153 -145 153
c-115 0 -189 -85 -215 -217l-7 -35c-4 -22 -6 -43 -6 -71c0 -93 44 -169 142 -169z" />
    <glyph glyph-name="e" unicode="e" horiz-adv-x="505" 
d="M237 -12c-113 0 -176 63 -176 199c0 184 101 331 247 331c95 0 158 -47 158 -123c0 -64 -42 -155 -381 -162c-1 -10 -3 -33 -3 -44c0 -128 52 -182 155 -182c82 0 148 47 189 125l19 -8c-51 -94 -124 -136 -208 -136zM306 499c-112 0 -193 -97 -216 -230l-3 -17
c300 5 357 76 357 143c0 61 -41 104 -138 104z" />
    <glyph glyph-name="f" unicode="f" horiz-adv-x="282" 
d="M190 487l-129 -654c-5 -26 -11 -33 -39 -33h-84l4 19h95l132 668h-100l4 19h100l39 201c5 26 11 33 39 33h94l-4 -19h-105l-42 -215h104l-4 -19h-104z" />
    <glyph glyph-name="g" unicode="g" horiz-adv-x="561" 
d="M223 -12c-105 0 -163 81 -163 188c0 184 89 342 249 342c85 0 138 -43 156 -105h3l19 93h21l-105 -524c-26 -132 -106 -194 -229 -194c-75 0 -124 26 -156 67l16 14c28 -38 70 -62 140 -62c110 0 184 53 209 180l24 124h-3c-42 -74 -96 -123 -181 -123zM223 7
c42 0 75 11 110 40c39 32 79 87 93 157l28 142c13 67 -26 153 -145 153c-115 0 -189 -85 -215 -217l-7 -35c-4 -22 -6 -43 -6 -71c0 -93 44 -169 142 -169z" />
    <glyph glyph-name="h" unicode="h" horiz-adv-x="549" 
d="M54 0l147 740h21l-67 -339h3c40 76 95 117 178 117c85 0 132 -49 132 -132c0 -20 -3 -45 -7 -65l-60 -302h85l-4 -19h-78c-15 0 -23 6 -23 19c0 6 1 10 2 16l57 285c4 22 7 50 7 63c0 77 -39 116 -114 116c-45 0 -93 -15 -133 -62c-22 -26 -51 -65 -63 -125l-62 -312h-21
z" />
    <glyph glyph-name="i" unicode="i" horiz-adv-x="235" 
d="M200 673c-15 0 -20 8 -20 16c0 4 1 8 2 14c3 12 10 19 27 19c15 0 20 -8 20 -16c0 -4 -1 -8 -2 -14c-3 -12 -10 -19 -27 -19zM159 0h-78c-15 0 -23 6 -23 19c0 6 1 10 2 16l95 471h21l-98 -487h85z" />
    <glyph glyph-name="j" unicode="j" horiz-adv-x="229" 
d="M17 -181l137 687h21l-134 -673c-5 -26 -13 -33 -41 -33h-72l4 19h85zM199 673c-15 0 -20 8 -20 16c0 4 1 8 2 14c3 12 10 19 27 19c15 0 20 -8 20 -16c0 -4 -1 -8 -2 -14c-3 -12 -10 -19 -27 -19z" />
    <glyph glyph-name="k" unicode="k" horiz-adv-x="479" 
d="M53 0l148 740h21l-104 -519h4l112 94l219 191h27l-243 -214l141 -273h57l-4 -19h-48c-15 0 -21 6 -29 21l-133 259l-109 -91l-38 -189h-21z" />
    <glyph glyph-name="l" unicode="l" horiz-adv-x="235" 
d="M159 0h-78c-15 0 -23 6 -23 19c0 6 1 10 2 16l141 705h21l-144 -721h85z" />
    <glyph glyph-name="m" unicode="m" horiz-adv-x="843" 
d="M74 0h-21l101 506h21l-21 -105h3c36 70 91 117 170 117c82 0 125 -55 126 -124h3c35 75 97 124 180 124c81 0 126 -49 126 -132c0 -20 -3 -45 -7 -65l-60 -302h85l-4 -19h-78c-15 0 -23 6 -23 19c0 6 1 10 2 16l57 285c4 22 7 50 7 63c0 77 -38 116 -108 116
c-44 0 -92 -18 -129 -62c-25 -29 -47 -62 -58 -118l-64 -319h-21l64 320c4 22 7 50 7 63c0 77 -37 116 -108 116c-43 0 -86 -18 -125 -62c-24 -27 -52 -71 -63 -125z" />
    <glyph glyph-name="n" unicode="n" horiz-adv-x="548" 
d="M74 0h-21l101 506h21l-21 -105h3c40 76 95 117 178 117c85 0 132 -49 132 -132c0 -20 -3 -45 -7 -65l-60 -302h85l-4 -19h-78c-15 0 -23 6 -23 19c0 6 1 10 2 16l57 285c4 22 7 50 7 63c0 77 -39 116 -114 116c-45 0 -93 -15 -133 -62c-22 -26 -51 -65 -63 -125z" />
    <glyph glyph-name="o" unicode="o" horiz-adv-x="534" 
d="M225 -12c-107 0 -166 81 -166 181c0 187 85 349 250 349c107 0 166 -81 166 -181c0 -187 -85 -349 -250 -349zM227 7c112 0 187 83 214 218l8 40c4 22 5 46 5 72c0 88 -45 162 -147 162c-112 0 -187 -83 -214 -218l-8 -40c-4 -22 -5 -46 -5 -72c0 -88 45 -162 147 -162z
" />
    <glyph glyph-name="p" unicode="p" horiz-adv-x="561" 
d="M14 -200l141 706h21l-22 -111h3c42 74 96 123 181 123c105 0 163 -81 163 -188c0 -184 -89 -342 -249 -342c-85 0 -138 43 -156 105h-3l-58 -293h-21zM252 7c115 0 189 85 215 217l7 35c4 22 6 43 6 71c0 93 -44 169 -142 169c-42 0 -75 -11 -110 -40
c-39 -32 -79 -87 -93 -157l-28 -142c-13 -67 26 -153 145 -153z" />
    <glyph glyph-name="q" unicode="q" horiz-adv-x="560" 
d="M345 -200l62 311h-3c-42 -74 -96 -123 -181 -123c-105 0 -163 81 -163 188c0 184 89 342 249 342c85 0 138 -43 156 -105h3l18 93h21l-141 -706h-21zM223 7c42 0 75 11 110 40c39 32 79 87 93 157l28 142c13 67 -26 153 -145 153c-115 0 -189 -85 -215 -217l-7 -35
c-4 -22 -6 -43 -6 -71c0 -93 44 -169 142 -169z" />
    <glyph glyph-name="r" unicode="r" horiz-adv-x="338" 
d="M74 0h-21l101 506h21l-23 -114h3c34 66 81 114 173 114h30l-4 -19h-29c-99 0 -172 -86 -193 -194z" />
    <glyph glyph-name="s" unicode="s" horiz-adv-x="448" 
d="M199 -12c-84 0 -144 35 -186 98l18 12c39 -62 94 -91 168 -91c93 0 155 47 155 131c0 63 -37 86 -103 103l-50 13c-68 18 -116 47 -116 124c0 93 76 140 167 140c87 0 132 -38 162 -79l-16 -14c-28 40 -67 74 -147 74c-87 0 -145 -43 -145 -121c0 -62 35 -88 101 -105
l50 -13c68 -18 118 -44 118 -121c0 -100 -78 -151 -176 -151z" />
    <glyph glyph-name="t" unicode="t" horiz-adv-x="302" 
d="M206 0h-106c-15 0 -23 6 -23 19c0 6 1 10 2 16l90 452h-95l4 19h72c18 0 25 7 28 25l24 119h21l-29 -144h121l-4 -19h-121l-93 -468h113z" />
    <glyph glyph-name="u" unicode="u" horiz-adv-x="548" 
d="M145 506h21l-64 -320c-4 -22 -7 -50 -7 -63c0 -77 39 -116 114 -116c45 0 93 15 133 62c22 26 51 65 63 125l62 312h21l-97 -487h85l-4 -19h-78c-15 0 -23 6 -23 19c0 6 1 10 2 16l14 70h-3c-40 -76 -95 -117 -178 -117c-85 0 -132 49 -132 132c0 20 3 45 7 65z" />
    <glyph glyph-name="v" unicode="v" horiz-adv-x="460" 
d="M189 0h-26l-90 506h20l85 -482h3l273 482h23z" />
    <glyph glyph-name="w" unicode="w" horiz-adv-x="718" 
d="M130 0l-52 506h20l48 -479h3l245 479h22l51 -479h2l241 479h22l-256 -506h-26l-49 472h-3l-242 -472h-26z" />
    <glyph glyph-name="x" unicode="x" horiz-adv-x="473" 
d="M23 0h-27l225 257l-133 249h22l127 -235h3l206 235h27l-224 -253l132 -253h-22l-126 239h-3z" />
    <glyph glyph-name="y" unicode="y" horiz-adv-x="460" 
d="M181 24l273 482h23l-388 -681c-11 -19 -19 -25 -38 -25h-75l4 19h84l100 178l-91 509h20l85 -482h3z" />
    <glyph glyph-name="z" unicode="z" horiz-adv-x="430" 
d="M346 0h-347l4 20l399 467h-310l4 19h334l-4 -20l-398 -467h322z" />
    <glyph glyph-name="braceleft" unicode="{" horiz-adv-x="316" 
d="M171 -138h-100c-14 0 -21 5 -21 18c0 3 1 8 4 23l60 298c2 10 3 19 3 27c0 45 -32 59 -83 59l10 48c63 0 103 30 114 86l63 313c3 19 13 26 30 26h100l-4 -18h-105l-64 -321c-13 -66 -59 -102 -119 -102l-4 -16c51 0 82 -24 82 -73c0 -9 -1 -18 -3 -29l-64 -321h105z" />
    <glyph glyph-name="bar" unicode="|" horiz-adv-x="231" 
d="M47 -138h-20l180 898h20z" />
    <glyph glyph-name="braceright" unicode="}" horiz-adv-x="316" 
d="M-12 -138l4 18h105l64 321c13 66 59 102 119 102l4 16c-51 0 -82 24 -82 73c0 9 1 18 3 29l64 321h-105l4 18h100c14 0 21 -5 21 -18c0 -3 -1 -8 -4 -23l-60 -298c-2 -10 -3 -19 -3 -27c0 -45 32 -59 83 -59l-10 -48c-63 0 -103 -30 -114 -86l-63 -313
c-3 -19 -13 -26 -30 -26h-100z" />
    <glyph glyph-name="asciitilde" unicode="~" 
d="M425 256c-39 0 -64 12 -121 40c-53 26 -77 36 -113 36c-39 0 -67 -12 -105 -42l-12 14c40 33 78 48 121 48c39 0 64 -12 121 -40c53 -26 77 -36 113 -36c39 0 67 12 105 42l12 -14c-40 -33 -78 -48 -121 -48z" />
    <glyph glyph-name="uni00A0" unicode="&#xa0;" horiz-adv-x="236" 
 />
    <glyph glyph-name="exclamdown" unicode="&#xa1;" horiz-adv-x="247" 
d="M46 -192h-22l56 283l53 239h12l-43 -239zM166 453c-19 0 -25 10 -25 19c0 5 2 14 3 18c3 11 8 21 28 21s26 -10 26 -19c0 -5 -2 -14 -3 -18c-3 -11 -9 -21 -29 -21z" />
    <glyph glyph-name="cent" unicode="&#xa2;" horiz-adv-x="488" 
d="M178 -114l21 103c-93 12 -138 92 -138 197c0 187 83 332 243 332l20 102h20l-21 -103c68 -9 115 -53 128 -114l-19 -5c-13 58 -56 93 -112 100l-98 -491c78 0 133 41 183 116l17 -9c-59 -89 -121 -126 -204 -126l-20 -102h-20zM81 186c0 -92 36 -168 121 -178l98 491
c-104 0 -181 -78 -204 -202l-9 -49c-4 -24 -6 -37 -6 -62z" />
    <glyph glyph-name="sterling" unicode="&#xa3;" horiz-adv-x="579" 
d="M463 0h-430l5 25c94 44 148 127 148 235c0 17 -1 34 -3 51h-97l4 20h91c-7 57 -14 114 -14 166c0 134 101 213 223 213c87 0 154 -38 187 -118l-20 -10c-30 77 -87 108 -168 108c-111 0 -200 -70 -200 -193c0 -52 7 -109 14 -166h213l-4 -20h-207c2 -17 3 -34 3 -51
c0 -108 -55 -197 -144 -238l-1 -2h404z" />
    <glyph glyph-name="currency" unicode="&#xa4;" horiz-adv-x="582" 
d="M267 129c-60 0 -103 21 -128 59l-122 -102l-14 16l126 105c-9 21 -14 45 -14 74c0 22 3 45 8 71c12 61 33 109 63 144l-92 115l16 13l90 -113c40 38 92 58 154 58c60 0 103 -21 128 -59l122 102l14 -16l-126 -105c9 -21 14 -45 14 -74c0 -22 -3 -45 -8 -71
c-12 -61 -33 -109 -63 -144l92 -115l-16 -13l-90 113c-40 -38 -92 -58 -154 -58zM270 148c108 0 180 68 202 178l9 46c3 17 5 34 5 49c0 81 -44 129 -135 129c-108 0 -180 -68 -202 -178l-9 -46c-3 -17 -5 -34 -5 -49c0 -81 44 -129 135 -129z" />
    <glyph glyph-name="yen" unicode="&#xa5;" horiz-adv-x="566" 
d="M475 168h-198l-34 -168h-22l34 168h-198l4 19h198l28 138h-198l4 19h186l-147 354h23l144 -350h3l284 350h26l-287 -354h186l-4 -19h-198l-28 -138h198z" />
    <glyph glyph-name="brokenbar" unicode="&#xa6;" horiz-adv-x="231" 
d="M155 401h-20l72 359h20zM47 -138h-20l72 359h20z" />
    <glyph glyph-name="section" unicode="&#xa7;" horiz-adv-x="564" 
d="M390 3c0 -102 -78 -157 -190 -157c-67 0 -113 21 -146 53l14 14c32 -30 73 -48 133 -48c103 0 168 48 168 138c0 67 -35 100 -96 120l-76 25c-73 24 -108 55 -108 125c0 82 57 131 148 160v3c-41 26 -61 65 -61 117c0 102 78 157 190 157c67 0 113 -21 146 -53l-14 -14
c-32 30 -73 48 -133 48c-103 0 -168 -48 -168 -138c0 -67 35 -100 96 -120l76 -25c73 -24 108 -55 108 -125c0 -82 -57 -131 -148 -160v-3c41 -26 61 -65 61 -117zM456 283c0 58 -25 85 -95 108l-77 25c-10 3 -19 6 -28 10c-89 -31 -146 -75 -146 -153c0 -58 25 -85 95 -108
l77 -25c10 -3 19 -6 28 -10c89 31 146 75 146 153z" />
    <glyph glyph-name="dieresis" unicode="&#xa8;" 
d="M231 642c-16 0 -20 9 -20 17c0 5 1 9 3 15c3 9 7 17 23 17s20 -9 20 -17c0 -5 -1 -9 -3 -15c-3 -9 -7 -17 -23 -17zM413 642c-16 0 -20 9 -20 17c0 5 1 9 3 15c3 9 7 17 23 17s20 -9 20 -17c0 -5 -1 -9 -3 -15c-3 -9 -7 -17 -23 -17z" />
    <glyph glyph-name="copyright" unicode="&#xa9;" horiz-adv-x="701" 
d="M317 -12c-173 0 -285 114 -285 295c0 255 167 427 377 427c173 0 285 -114 285 -295c0 -255 -167 -427 -377 -427zM317 6c181 0 308 131 341 289c14 68 16 93 16 120c0 162 -95 277 -265 277c-181 0 -307 -131 -341 -289c-14 -66 -16 -93 -16 -120
c0 -162 95 -277 265 -277zM338 149c-76 0 -132 52 -132 152c0 144 79 242 191 242c62 0 100 -37 116 -79l-17 -6c-16 39 -44 68 -100 68c-76 0 -143 -53 -162 -157l-4 -22c-3 -19 -4 -35 -4 -46c0 -83 42 -134 113 -134c50 0 92 27 117 71l15 -8c-25 -44 -74 -81 -133 -81z
" />
    <glyph glyph-name="ordfeminine" unicode="&#xaa;" horiz-adv-x="354" 
d="M352 383l-4 -17h-48c-10 0 -15 4 -15 12c0 2 1 7 2 11l6 27h-2c-21 -28 -59 -56 -122 -56c-61 0 -94 30 -94 77c0 58 36 105 146 105h97l11 56c1 7 2 15 2 21c0 48 -30 68 -83 68c-46 0 -84 -16 -110 -58l-15 8c26 43 69 67 126 67c66 0 100 -30 100 -85
c0 -5 -1 -14 -2 -20l-43 -216h48zM315 525h-96c-82 0 -110 -28 -119 -63c-3 -12 -4 -20 -4 -25c0 -39 25 -60 73 -60c62 0 122 30 134 90z" />
    <glyph glyph-name="guillemotleft" unicode="&#xab;" horiz-adv-x="463" 
d="M393 118l-12 -12l-162 178l4 20l234 178l6 -17l-219 -174zM216 118l-12 -12l-162 178l4 20l234 178l6 -17l-219 -174z" />
    <glyph glyph-name="logicalnot" unicode="&#xac;" horiz-adv-x="601" 
d="M489 104h-21l38 192h-439l4 19h460z" />
    <glyph glyph-name="uni00AD" unicode="&#xad;" horiz-adv-x="388" 
d="M317 295h-229l4 20h229z" />
    <glyph glyph-name="registered" unicode="&#xae;" horiz-adv-x="466" 
d="M251 298c-103 0 -172 67 -172 166c0 101 63 246 234 246c103 0 172 -67 172 -166c0 -101 -63 -246 -234 -246zM254 314c108 0 185 72 205 170c7 34 8 47 8 60c0 89 -62 150 -157 150c-108 0 -185 -72 -205 -170c-7 -34 -8 -47 -8 -60c0 -89 62 -150 157 -150zM231 488
l-18 -91h-16l42 212h79c33 0 54 -16 54 -47c0 -48 -29 -72 -61 -73l36 -92h-17l-35 91h-64zM234 503h61c33 0 51 8 57 39c2 9 3 16 3 20c0 21 -14 32 -41 32h-62z" />
    <glyph glyph-name="macron" unicode="&#xaf;" 
d="M193 658l3 18h258l-3 -18h-258z" />
    <glyph glyph-name="degree" unicode="&#xb0;" horiz-adv-x="466" 
d="M271 374c-85 0 -141 63 -141 150c0 108 79 186 179 186c85 0 141 -63 141 -150c0 -108 -79 -186 -179 -186zM273 393c88 0 156 70 156 166c0 76 -43 132 -122 132c-88 0 -156 -70 -156 -166c0 -76 43 -132 122 -132z" />
    <glyph glyph-name="plusminus" unicode="&#xb1;" 
d="M283 115h-21l47 234h-228l3 19h228l47 234h21l-47 -234h228l-3 -19h-228zM487 0h-476l4 19h476z" />
    <glyph glyph-name="twosuperior" unicode="&#xb2;" horiz-adv-x="338" 
d="M314 346l-4 -17h-256l4 20l162 114c66 46 103 83 110 120c3 14 3 20 3 25c0 46 -31 79 -90 79c-62 0 -98 -31 -119 -78l-17 6c25 52 66 89 139 89c68 0 107 -43 107 -96c0 -57 -38 -98 -121 -156l-152 -106h234z" />
    <glyph glyph-name="threesuperior" unicode="&#xb3;" horiz-adv-x="345" 
d="M172 529h46c74 0 109 27 117 69c2 11 2 14 2 19c0 43 -27 70 -85 70c-53 0 -82 -17 -109 -46l-13 10c27 33 68 53 124 53c68 0 103 -34 103 -87c0 -52 -33 -87 -91 -95v-2c44 -7 63 -34 63 -75c0 -75 -53 -122 -137 -122c-65 0 -101 25 -118 57l14 10
c18 -31 45 -50 105 -50c68 0 103 30 114 80c2 12 3 17 3 24c0 44 -23 68 -88 68h-53z" />
    <glyph glyph-name="acute" unicode="&#xb4;" 
d="M435 738l-147 -151l-13 11l143 153z" />
    <glyph glyph-name="mu" unicode="&#xb5;" horiz-adv-x="558" 
d="M35 -200h-21l141 706h21l-64 -320c-4 -22 -7 -50 -7 -63c0 -77 39 -116 114 -116c45 0 93 15 133 62c22 26 51 65 63 125l62 312h21l-97 -487h85l-4 -19h-78c-15 0 -23 6 -23 19c0 6 1 10 2 16l14 70h-3c-40 -76 -95 -117 -178 -117c-72 0 -115 35 -128 92h-2l-20 -124z
" />
    <glyph glyph-name="paragraph" unicode="&#xb6;" horiz-adv-x="590" 
d="M169 -149l96 479c-95 0 -166 57 -166 156c0 130 106 212 250 212h233l-4 -18h-69l-166 -829h-21l166 829h-132l-166 -829h-21z" />
    <glyph glyph-name="periodcentered" unicode="&#xb7;" horiz-adv-x="298" 
d="M157 277c-20 0 -26 10 -26 19c0 5 2 14 3 18c3 11 9 21 29 21c19 0 25 -10 25 -19c0 -5 -2 -14 -3 -18c-3 -11 -8 -21 -28 -21z" />
    <glyph glyph-name="cedilla" unicode="&#xb8;" 
d="M273 -202c-37 0 -64 15 -75 32l14 13c13 -17 33 -27 61 -27c43 0 73 24 73 58c0 23 -13 38 -52 40l-37 2l38 87h18l-34 -76l2 -2c9 2 21 3 29 3c36 0 57 -20 57 -53c0 -42 -37 -77 -94 -77z" />
    <glyph glyph-name="onesuperior" unicode="&#xb9;" horiz-adv-x="334" 
d="M322 329h-266l4 17h129l66 338h-2l-147 -107l-10 13l149 108h32l-69 -352h118z" />
    <glyph glyph-name="ordmasculine" unicode="&#xba;" horiz-adv-x="364" 
d="M207 360c-68 0 -113 51 -113 128c0 19 2 39 6 58c18 85 75 158 165 158c68 0 113 -51 113 -128c0 -19 -2 -39 -6 -58c-18 -85 -75 -158 -165 -158zM208 377c75 0 125 56 140 131l7 35c2 11 4 22 4 33c0 62 -29 111 -95 111c-75 0 -125 -56 -140 -131l-7 -35
c-2 -11 -4 -22 -4 -33c0 -62 29 -111 95 -111z" />
    <glyph glyph-name="guillemotright" unicode="&#xbb;" horiz-adv-x="463" 
d="M21 106l-6 17l219 174l-149 173l12 12l162 -178l-4 -20zM198 106l-6 17l219 174l-149 173l12 12l162 -178l-4 -20z" />
    <glyph glyph-name="onequarter" unicode="&#xbc;" horiz-adv-x="843" 
d="M710 0h-19l18 89h-213l4 19l256 261h28l-52 -263h66l-4 -17h-66zM713 106l48 243h-3l-237 -243h192zM183 0h-22l605 698h23zM322 329h-266l4 17h129l66 338h-2l-147 -107l-10 13l149 108h32l-69 -352h118z" />
    <glyph glyph-name="onehalf" unicode="&#xbd;" horiz-adv-x="866" 
d="M776 17l-4 -17h-256l4 20l162 114c66 46 103 83 110 120c3 14 3 20 3 25c0 46 -31 79 -90 79c-62 0 -98 -31 -119 -78l-17 6c25 52 66 89 139 89c68 0 107 -43 107 -96c0 -57 -38 -98 -121 -156l-152 -106h234zM183 0h-22l605 698h23zM322 329h-266l4 17h129l66 338h-2
l-147 -107l-10 13l149 108h32l-69 -352h118z" />
    <glyph glyph-name="threequarters" unicode="&#xbe;" horiz-adv-x="809" 
d="M676 0h-19l18 89h-213l4 19l256 261h28l-52 -263h66l-4 -17h-66zM679 106l48 243h-3l-237 -243h192zM149 0h-22l605 698h23zM172 529h46c74 0 109 27 117 69c2 11 2 14 2 19c0 43 -27 70 -85 70c-53 0 -82 -17 -109 -46l-13 10c27 33 68 53 124 53c68 0 103 -34 103 -87
c0 -52 -33 -87 -91 -95v-2c44 -7 63 -34 63 -75c0 -75 -53 -122 -137 -122c-65 0 -101 25 -118 57l14 10c18 -31 45 -50 105 -50c68 0 103 30 114 80c2 12 3 17 3 24c0 44 -23 68 -88 68h-53z" />
    <glyph glyph-name="questiondown" unicode="&#xbf;" horiz-adv-x="453" 
d="M160 -204c-104 0 -169 62 -169 156c0 126 74 208 238 223l30 155h22l-33 -173c-144 -11 -216 -62 -230 -159c-2 -14 -5 -37 -5 -46c0 -85 52 -137 148 -137c100 0 153 52 189 137l19 -6c-36 -91 -101 -150 -209 -150zM297 453c-19 0 -25 10 -25 19c0 5 2 14 3 18
c3 11 8 21 28 21s26 -10 26 -19c0 -5 -2 -14 -3 -18c-3 -11 -9 -21 -29 -21z" />
    <glyph glyph-name="Agrave" unicode="&#xc0;" horiz-adv-x="594" 
d="M387 768l-84 153l19 11l81 -155zM519 0h-22l-45 234h-318l-122 -234h-24l366 698h30zM448 253l-81 420h-3l-220 -420h304z" />
    <glyph glyph-name="Aacute" unicode="&#xc1;" horiz-adv-x="594" 
d="M523 918l-147 -151l-13 11l143 153zM519 0h-22l-45 234h-318l-122 -234h-24l366 698h30zM448 253l-81 420h-3l-220 -420h304z" />
    <glyph glyph-name="Acircumflex" unicode="&#xc2;" horiz-adv-x="594" 
d="M401 923h24l106 -134l-15 -10l-104 127l-148 -127l-13 12zM519 0h-22l-45 234h-318l-122 -234h-24l366 698h30zM448 253l-81 420h-3l-220 -420h304z" />
    <glyph glyph-name="Atilde" unicode="&#xc3;" horiz-adv-x="594" 
d="M452 808c-26 0 -42 10 -72 31c-25 17 -41 25 -64 25s-44 -11 -69 -33l-11 12c30 29 57 39 85 39c26 0 42 -9 72 -30c25 -17 41 -26 64 -26s44 11 69 33l11 -12c-30 -29 -57 -39 -85 -39zM519 0h-22l-45 234h-318l-122 -234h-24l366 698h30zM448 253l-81 420h-3l-220 -420
h304z" />
    <glyph glyph-name="Adieresis" unicode="&#xc4;" horiz-adv-x="594" 
d="M304 819c-16 0 -20 9 -20 17c0 5 1 9 3 15c3 9 7 17 23 17s20 -9 20 -17c0 -5 -1 -9 -3 -15c-3 -9 -7 -17 -23 -17zM486 819c-16 0 -20 9 -20 17c0 5 1 9 3 15c3 9 7 17 23 17s20 -9 20 -17c0 -5 -1 -9 -3 -15c-3 -9 -7 -17 -23 -17zM519 0h-22l-45 234h-318l-122 -234
h-24l366 698h30zM448 253l-81 420h-3l-220 -420h304z" />
    <glyph glyph-name="Aring" unicode="&#xc5;" horiz-adv-x="594" 
d="M388 769c-59 0 -76 39 -76 72c0 66 42 110 105 110c59 0 77 -39 77 -72c0 -66 -42 -110 -106 -110zM392 787c41 0 72 23 80 66c3 17 4 21 4 27c0 32 -21 53 -63 53c-40 0 -71 -23 -79 -66c-3 -17 -4 -21 -4 -27c0 -32 21 -53 62 -53zM519 0h-22l-45 234h-318l-122 -234
h-24l366 698h30zM448 253l-81 420h-3l-220 -420h304z" />
    <glyph glyph-name="AE" unicode="&#xc6;" horiz-adv-x="884" 
d="M385 0l47 234h-252l-176 -234h-25l523 698h401l-4 -20h-356l-63 -314h344l-4 -20h-344l-65 -324h356l-4 -20h-378zM521 678h-10l-317 -425h242z" />
    <glyph glyph-name="Ccedilla" unicode="&#xc7;" horiz-adv-x="595" 
d="M397 690c-142 0 -248 -120 -285 -306l-11 -55c-8 -42 -10 -81 -10 -109c0 -130 71 -212 200 -212c93 0 156 47 209 143l19 -10c-61 -107 -128 -151 -223 -153l-27 -61l2 -2c9 2 21 3 29 3c36 0 57 -20 57 -53c0 -42 -37 -77 -94 -77c-37 0 -64 15 -75 32l14 13
c13 -17 33 -27 61 -27c43 0 73 24 73 58c0 23 -13 38 -52 40l-37 2l32 72c-126 5 -210 86 -210 232c0 198 89 490 329 490c112 0 169 -54 191 -141l-21 -5c-21 76 -67 126 -171 126z" />
    <glyph glyph-name="Egrave" unicode="&#xc8;" horiz-adv-x="553" 
d="M398 768l-84 153l19 11l81 -155zM432 0h-378l140 698h378l-4 -20h-356l-63 -314h344l-4 -20h-344l-65 -324h356z" />
    <glyph glyph-name="Eacute" unicode="&#xc9;" horiz-adv-x="553" 
d="M534 918l-147 -151l-13 11l143 153zM432 0h-378l140 698h378l-4 -20h-356l-63 -314h344l-4 -20h-344l-65 -324h356z" />
    <glyph glyph-name="Ecircumflex" unicode="&#xca;" horiz-adv-x="553" 
d="M412 923h24l106 -134l-15 -10l-104 127l-148 -127l-13 12zM432 0h-378l140 698h378l-4 -20h-356l-63 -314h344l-4 -20h-344l-65 -324h356z" />
    <glyph glyph-name="Edieresis" unicode="&#xcb;" horiz-adv-x="553" 
d="M315 819c-16 0 -20 9 -20 17c0 5 1 9 3 15c3 9 7 17 23 17s20 -9 20 -17c0 -5 -1 -9 -3 -15c-3 -9 -7 -17 -23 -17zM497 819c-16 0 -20 9 -20 17c0 5 1 9 3 15c3 9 7 17 23 17s20 -9 20 -17c0 -5 -1 -9 -3 -15c-3 -9 -7 -17 -23 -17zM432 0h-378l140 698h378l-4 -20h-356
l-63 -314h344l-4 -20h-344l-65 -324h356z" />
    <glyph glyph-name="Igrave" unicode="&#xcc;" horiz-adv-x="368" 
d="M290 768l-84 153l19 11l81 -155zM251 0h-236l4 19h107l132 660h-107l4 19h236l-4 -19h-107l-132 -660h107z" />
    <glyph glyph-name="Iacute" unicode="&#xcd;" horiz-adv-x="368" 
d="M426 918l-147 -151l-13 11l143 153zM251 0h-236l4 19h107l132 660h-107l4 19h236l-4 -19h-107l-132 -660h107z" />
    <glyph glyph-name="Icircumflex" unicode="&#xce;" horiz-adv-x="368" 
d="M319 923h24l106 -134l-15 -10l-104 127l-148 -127l-13 12zM251 0h-236l4 19h107l132 660h-107l4 19h236l-4 -19h-107l-132 -660h107z" />
    <glyph glyph-name="Idieresis" unicode="&#xcf;" horiz-adv-x="368" 
d="M207 819c-16 0 -20 9 -20 17c0 5 1 9 3 15c3 9 7 17 23 17s20 -9 20 -17c0 -5 -1 -9 -3 -15c-3 -9 -7 -17 -23 -17zM389 819c-16 0 -20 9 -20 17c0 5 1 9 3 15c3 9 7 17 23 17s20 -9 20 -17c0 -5 -1 -9 -3 -15c-3 -9 -7 -17 -23 -17zM251 0h-236l4 19h107l132 660h-107
l4 19h236l-4 -19h-107l-132 -660h107z" />
    <glyph glyph-name="Eth" unicode="&#xd0;" horiz-adv-x="651" 
d="M58 0l71 359h-88l4 19h88l63 320h185c152 0 232 -86 232 -230c0 -227 -100 -468 -328 -468h-227zM84 20h201c158 0 254 130 285 283l11 55c8 42 10 82 10 110c0 130 -69 210 -213 210h-164l-59 -300h167l-4 -19h-167z" />
    <glyph glyph-name="Ntilde" unicode="&#xd1;" horiz-adv-x="680" 
d="M521 808c-26 0 -42 10 -72 31c-25 17 -41 25 -64 25s-44 -11 -69 -33l-11 12c30 29 57 39 85 39c26 0 42 -9 72 -30c25 -17 41 -26 64 -26s44 11 69 33l11 -12c-30 -29 -57 -39 -85 -39zM494 0l-282 671h-3l-134 -671h-21l140 698h30l282 -671h3l134 671h21l-140 -698
h-30z" />
    <glyph glyph-name="Ograve" unicode="&#xd2;" horiz-adv-x="658" 
d="M439 768l-84 153l19 11l81 -155zM291 -12c-132 0 -222 81 -222 232c0 198 88 490 332 490c132 0 222 -81 222 -232c0 -198 -88 -490 -332 -490zM291 8c145 0 252 120 289 306l11 55c8 42 10 81 10 109c0 130 -71 212 -200 212c-145 0 -252 -120 -289 -306l-11 -55
c-8 -42 -10 -81 -10 -109c0 -130 71 -212 200 -212z" />
    <glyph glyph-name="Oacute" unicode="&#xd3;" horiz-adv-x="658" 
d="M575 918l-147 -151l-13 11l143 153zM291 -12c-132 0 -222 81 -222 232c0 198 88 490 332 490c132 0 222 -81 222 -232c0 -198 -88 -490 -332 -490zM291 8c145 0 252 120 289 306l11 55c8 42 10 81 10 109c0 130 -71 212 -200 212c-145 0 -252 -120 -289 -306l-11 -55
c-8 -42 -10 -81 -10 -109c0 -130 71 -212 200 -212z" />
    <glyph glyph-name="Ocircumflex" unicode="&#xd4;" horiz-adv-x="658" 
d="M453 923h24l106 -134l-15 -10l-104 127l-148 -127l-13 12zM291 -12c-132 0 -222 81 -222 232c0 198 88 490 332 490c132 0 222 -81 222 -232c0 -198 -88 -490 -332 -490zM291 8c145 0 252 120 289 306l11 55c8 42 10 81 10 109c0 130 -71 212 -200 212
c-145 0 -252 -120 -289 -306l-11 -55c-8 -42 -10 -81 -10 -109c0 -130 71 -212 200 -212z" />
    <glyph glyph-name="Otilde" unicode="&#xd5;" horiz-adv-x="658" 
d="M504 808c-26 0 -42 10 -72 31c-25 17 -41 25 -64 25s-44 -11 -69 -33l-11 12c30 29 57 39 85 39c26 0 42 -9 72 -30c25 -17 41 -26 64 -26s44 11 69 33l11 -12c-30 -29 -57 -39 -85 -39zM291 -12c-132 0 -222 81 -222 232c0 198 88 490 332 490c132 0 222 -81 222 -232
c0 -198 -88 -490 -332 -490zM291 8c145 0 252 120 289 306l11 55c8 42 10 81 10 109c0 130 -71 212 -200 212c-145 0 -252 -120 -289 -306l-11 -55c-8 -42 -10 -81 -10 -109c0 -130 71 -212 200 -212z" />
    <glyph glyph-name="Odieresis" unicode="&#xd6;" horiz-adv-x="658" 
d="M356 819c-16 0 -20 9 -20 17c0 5 1 9 3 15c3 9 7 17 23 17s20 -9 20 -17c0 -5 -1 -9 -3 -15c-3 -9 -7 -17 -23 -17zM538 819c-16 0 -20 9 -20 17c0 5 1 9 3 15c3 9 7 17 23 17s20 -9 20 -17c0 -5 -1 -9 -3 -15c-3 -9 -7 -17 -23 -17zM291 -12c-132 0 -222 81 -222 232
c0 198 88 490 332 490c132 0 222 -81 222 -232c0 -198 -88 -490 -332 -490zM291 8c145 0 252 120 289 306l11 55c8 42 10 81 10 109c0 130 -71 212 -200 212c-145 0 -252 -120 -289 -306l-11 -55c-8 -42 -10 -81 -10 -109c0 -130 71 -212 200 -212z" />
    <glyph glyph-name="multiply" unicode="&#xd7;" 
d="M453 110l-145 182l-219 -183l-12 14l219 183l-144 181l15 12l144 -180l217 181l12 -14l-217 -182l145 -182z" />
    <glyph glyph-name="Oslash" unicode="&#xd8;" horiz-adv-x="658" 
d="M291 -12c-78 0 -142 28 -180 83l-93 -104l-15 12l97 109c-20 35 -31 79 -31 132c0 198 89 490 332 490c78 0 142 -28 180 -83l93 104l15 -12l-97 -109c20 -35 31 -79 31 -132c0 -198 -88 -490 -332 -490zM101 329c-8 -42 -10 -81 -10 -109c0 -44 8 -83 24 -115l452 506
c-33 50 -90 79 -166 79c-145 0 -252 -120 -289 -306zM591 369c8 42 10 81 10 109c0 44 -8 83 -24 115l-452 -506c33 -50 90 -79 166 -79c145 0 252 120 289 306z" />
    <glyph glyph-name="Ugrave" unicode="&#xd9;" horiz-adv-x="639" 
d="M426 768l-84 153l19 11l81 -155zM185 698h22l-85 -427c-12 -59 -18 -93 -18 -123c0 -88 53 -140 169 -140c152 0 210 64 250 263l86 427h22l-86 -428c-43 -214 -107 -282 -272 -282c-120 0 -191 54 -191 160c0 37 8 72 19 128z" />
    <glyph glyph-name="Uacute" unicode="&#xda;" horiz-adv-x="639" 
d="M562 918l-147 -151l-13 11l143 153zM185 698h22l-85 -427c-12 -59 -18 -93 -18 -123c0 -88 53 -140 169 -140c152 0 210 64 250 263l86 427h22l-86 -428c-43 -214 -107 -282 -272 -282c-120 0 -191 54 -191 160c0 37 8 72 19 128z" />
    <glyph glyph-name="Ucircumflex" unicode="&#xdb;" horiz-adv-x="639" 
d="M440 923h24l106 -134l-15 -10l-104 127l-148 -127l-13 12zM185 698h22l-85 -427c-12 -59 -18 -93 -18 -123c0 -88 53 -140 169 -140c152 0 210 64 250 263l86 427h22l-86 -428c-43 -214 -107 -282 -272 -282c-120 0 -191 54 -191 160c0 37 8 72 19 128z" />
    <glyph glyph-name="Udieresis" unicode="&#xdc;" horiz-adv-x="639" 
d="M343 819c-16 0 -20 9 -20 17c0 5 1 9 3 15c3 9 7 17 23 17s20 -9 20 -17c0 -5 -1 -9 -3 -15c-3 -9 -7 -17 -23 -17zM525 819c-16 0 -20 9 -20 17c0 5 1 9 3 15c3 9 7 17 23 17s20 -9 20 -17c0 -5 -1 -9 -3 -15c-3 -9 -7 -17 -23 -17zM185 698h22l-85 -427
c-12 -59 -18 -93 -18 -123c0 -88 53 -140 169 -140c152 0 210 64 250 263l86 427h22l-86 -428c-43 -214 -107 -282 -272 -282c-120 0 -191 54 -191 160c0 37 8 72 19 128z" />
    <glyph glyph-name="Yacute" unicode="&#xdd;" horiz-adv-x="540" 
d="M513 918l-147 -151l-13 11l143 153zM230 0h-22l59 294l-158 404h23l148 -378h3l300 378h26l-320 -404z" />
    <glyph glyph-name="Thorn" unicode="&#xde;" horiz-adv-x="592" 
d="M76 0h-22l140 698h21l-31 -156h230c97 0 151 -63 151 -148c0 -144 -80 -228 -210 -228h-246zM180 522l-67 -336h244c103 0 161 59 177 139c8 39 9 58 9 69c0 70 -39 128 -131 128h-232z" />
    <glyph glyph-name="germandbls" unicode="&#xdf;" horiz-adv-x="628" 
d="M562 140c0 -100 -78 -152 -176 -152c-84 0 -144 35 -186 98l18 12c39 -62 94 -91 168 -91c93 0 155 48 155 132c0 56 -28 79 -83 98l-50 17c-57 19 -96 43 -96 113c0 96 91 138 222 139l3 15c5 25 7 48 7 69c0 90 -44 143 -137 143c-120 0 -185 -88 -210 -212l-104 -521
h-21l97 487h-95l4 19h95l3 15c28 140 103 231 234 231c99 0 155 -62 155 -162c0 -22 -3 -45 -7 -69l-6 -33h-16c-111 0 -203 -30 -203 -121c0 -57 26 -75 81 -94l50 -17c58 -20 98 -46 98 -116z" />
    <glyph glyph-name="agrave" unicode="&#xe0;" horiz-adv-x="567" 
d="M349 587l-84 153l19 11l81 -155zM491 0h-78c-15 0 -23 6 -23 19c0 6 1 10 2 16l15 76h-3c-42 -74 -96 -123 -181 -123c-105 0 -163 81 -163 188c0 184 89 342 249 342c85 0 138 -43 156 -105h3l18 93h21l-97 -487h85zM223 7c42 0 75 11 110 40c39 32 79 87 93 157l28 142
c13 67 -26 153 -145 153c-115 0 -189 -85 -215 -217l-7 -35c-4 -22 -6 -43 -6 -71c0 -93 44 -169 142 -169z" />
    <glyph glyph-name="aacute" unicode="&#xe1;" horiz-adv-x="567" 
d="M465 738l-147 -151l-13 11l143 153zM491 0h-78c-15 0 -23 6 -23 19c0 6 1 10 2 16l15 76h-3c-42 -74 -96 -123 -181 -123c-105 0 -163 81 -163 188c0 184 89 342 249 342c85 0 138 -43 156 -105h3l18 93h21l-97 -487h85zM223 7c42 0 75 11 110 40c39 32 79 87 93 157
l28 142c13 67 -26 153 -145 153c-115 0 -189 -85 -215 -217l-7 -35c-4 -22 -6 -43 -6 -71c0 -93 44 -169 142 -169z" />
    <glyph glyph-name="acircumflex" unicode="&#xe2;" horiz-adv-x="567" 
d="M357 743h24l106 -134l-15 -10l-104 127l-148 -127l-13 12zM491 0h-78c-15 0 -23 6 -23 19c0 6 1 10 2 16l15 76h-3c-42 -74 -96 -123 -181 -123c-105 0 -163 81 -163 188c0 184 89 342 249 342c85 0 138 -43 156 -105h3l18 93h21l-97 -487h85zM223 7c42 0 75 11 110 40
c39 32 79 87 93 157l28 142c13 67 -26 153 -145 153c-115 0 -189 -85 -215 -217l-7 -35c-4 -22 -6 -43 -6 -71c0 -93 44 -169 142 -169z" />
    <glyph glyph-name="atilde" unicode="&#xe3;" horiz-adv-x="567" 
d="M419 628c-26 0 -42 10 -72 31c-25 17 -41 25 -64 25s-44 -11 -69 -33l-11 12c30 29 57 39 85 39c26 0 42 -9 72 -30c25 -17 41 -26 64 -26s44 11 69 33l11 -12c-30 -29 -57 -39 -85 -39zM491 0h-78c-15 0 -23 6 -23 19c0 6 1 10 2 16l15 76h-3
c-42 -74 -96 -123 -181 -123c-105 0 -163 81 -163 188c0 184 89 342 249 342c85 0 138 -43 156 -105h3l18 93h21l-97 -487h85zM223 7c42 0 75 11 110 40c39 32 79 87 93 157l28 142c13 67 -26 153 -145 153c-115 0 -189 -85 -215 -217l-7 -35c-4 -22 -6 -43 -6 -71
c0 -93 44 -169 142 -169z" />
    <glyph glyph-name="adieresis" unicode="&#xe4;" horiz-adv-x="567" 
d="M261 642c-16 0 -20 9 -20 17c0 5 1 9 3 15c3 9 7 17 23 17s20 -9 20 -17c0 -5 -1 -9 -3 -15c-3 -9 -7 -17 -23 -17zM443 642c-16 0 -20 9 -20 17c0 5 1 9 3 15c3 9 7 17 23 17s20 -9 20 -17c0 -5 -1 -9 -3 -15c-3 -9 -7 -17 -23 -17zM491 0h-78c-15 0 -23 6 -23 19
c0 6 1 10 2 16l15 76h-3c-42 -74 -96 -123 -181 -123c-105 0 -163 81 -163 188c0 184 89 342 249 342c85 0 138 -43 156 -105h3l18 93h21l-97 -487h85zM223 7c42 0 75 11 110 40c39 32 79 87 93 157l28 142c13 67 -26 153 -145 153c-115 0 -189 -85 -215 -217l-7 -35
c-4 -22 -6 -43 -6 -71c0 -93 44 -169 142 -169z" />
    <glyph glyph-name="aring" unicode="&#xe5;" horiz-adv-x="567" 
d="M339 589c-59 0 -76 39 -76 72c0 66 42 110 105 110c59 0 77 -39 77 -72c0 -66 -42 -110 -106 -110zM343 607c41 0 72 23 80 66c3 17 4 21 4 27c0 32 -21 53 -63 53c-40 0 -71 -23 -79 -66c-3 -17 -4 -21 -4 -27c0 -32 21 -53 62 -53zM491 0h-78c-15 0 -23 6 -23 19
c0 6 1 10 2 16l15 76h-3c-42 -74 -96 -123 -181 -123c-105 0 -163 81 -163 188c0 184 89 342 249 342c85 0 138 -43 156 -105h3l18 93h21l-97 -487h85zM223 7c42 0 75 11 110 40c39 32 79 87 93 157l28 142c13 67 -26 153 -145 153c-115 0 -189 -85 -215 -217l-7 -35
c-4 -22 -6 -43 -6 -71c0 -93 44 -169 142 -169z" />
    <glyph glyph-name="ae" unicode="&#xe6;" horiz-adv-x="860" 
d="M204 7c90 0 184 51 202 155l14 81l-180 -9c-111 -6 -157 -39 -167 -91c-5 -24 -5 -31 -5 -41c0 -60 48 -95 136 -95zM661 499c-112 0 -192 -97 -215 -226l-2 -11c301 5 355 73 355 137c0 59 -41 100 -138 100zM202 -12c-98 0 -155 41 -155 115c0 100 62 143 194 149
l183 9l13 68c4 19 5 37 5 52c0 65 -31 118 -135 118c-91 0 -133 -29 -175 -97l-17 9c40 67 88 107 194 107c108 0 151 -59 153 -131h3c41 78 108 131 198 131c95 0 158 -45 158 -119c0 -70 -51 -149 -379 -156c-3 -18 -6 -36 -6 -53c0 -111 53 -183 156 -183
c82 0 148 47 189 125l19 -7c-53 -95 -124 -137 -208 -137c-92 0 -158 54 -171 150h-3c-22 -90 -109 -150 -216 -150z" />
    <glyph glyph-name="ccedilla" unicode="&#xe7;" horiz-adv-x="479" 
d="M301 518c79 0 136 -47 150 -115l-19 -5c-15 65 -66 101 -133 101c-102 0 -180 -78 -203 -202l-9 -49c-4 -24 -6 -37 -6 -62c0 -99 42 -179 142 -179c78 0 136 46 182 116l17 -9c-47 -73 -107 -122 -190 -126l-27 -61l2 -2c9 2 21 3 29 3c36 0 57 -20 57 -53
c0 -42 -37 -77 -94 -77c-37 0 -64 15 -75 32l14 13c13 -17 33 -27 61 -27c43 0 73 24 73 58c0 23 -13 38 -52 40l-37 2l32 72c-103 4 -154 87 -154 198c0 187 85 332 240 332z" />
    <glyph glyph-name="egrave" unicode="&#xe8;" horiz-adv-x="505" 
d="M336 587l-84 153l19 11l81 -155zM237 -12c-113 0 -176 63 -176 199c0 184 101 331 247 331c95 0 158 -47 158 -123c0 -64 -42 -155 -381 -162c-1 -10 -3 -33 -3 -44c0 -128 52 -182 155 -182c82 0 148 47 189 125l19 -8c-51 -94 -124 -136 -208 -136zM306 499
c-112 0 -193 -97 -216 -230l-3 -17c300 5 357 76 357 143c0 61 -41 104 -138 104z" />
    <glyph glyph-name="eacute" unicode="&#xe9;" horiz-adv-x="505" 
d="M452 738l-147 -151l-13 11l143 153zM237 -12c-113 0 -176 63 -176 199c0 184 101 331 247 331c95 0 158 -47 158 -123c0 -64 -42 -155 -381 -162c-1 -10 -3 -33 -3 -44c0 -128 52 -182 155 -182c82 0 148 47 189 125l19 -8c-51 -94 -124 -136 -208 -136zM306 499
c-112 0 -193 -97 -216 -230l-3 -17c300 5 357 76 357 143c0 61 -41 104 -138 104z" />
    <glyph glyph-name="ecircumflex" unicode="&#xea;" horiz-adv-x="505" 
d="M344 743h24l106 -134l-15 -10l-104 127l-148 -127l-13 12zM237 -12c-113 0 -176 63 -176 199c0 184 101 331 247 331c95 0 158 -47 158 -123c0 -64 -42 -155 -381 -162c-1 -10 -3 -33 -3 -44c0 -128 52 -182 155 -182c82 0 148 47 189 125l19 -8
c-51 -94 -124 -136 -208 -136zM306 499c-112 0 -193 -97 -216 -230l-3 -17c300 5 357 76 357 143c0 61 -41 104 -138 104z" />
    <glyph glyph-name="edieresis" unicode="&#xeb;" horiz-adv-x="505" 
d="M248 642c-16 0 -20 9 -20 17c0 5 1 9 3 15c3 9 7 17 23 17s20 -9 20 -17c0 -5 -1 -9 -3 -15c-3 -9 -7 -17 -23 -17zM430 642c-16 0 -20 9 -20 17c0 5 1 9 3 15c3 9 7 17 23 17s20 -9 20 -17c0 -5 -1 -9 -3 -15c-3 -9 -7 -17 -23 -17zM237 -12c-113 0 -176 63 -176 199
c0 184 101 331 247 331c95 0 158 -47 158 -123c0 -64 -42 -155 -381 -162c-1 -10 -3 -33 -3 -44c0 -128 52 -182 155 -182c82 0 148 47 189 125l19 -8c-51 -94 -124 -136 -208 -136zM306 499c-112 0 -193 -97 -216 -230l-3 -17c300 5 357 76 357 143c0 61 -41 104 -138 104z
" />
    <glyph glyph-name="igrave" unicode="&#xec;" horiz-adv-x="235" 
d="M191 587l-84 153l19 11l81 -155zM159 0h-78c-15 0 -23 6 -23 19c0 6 1 10 2 16l95 471h21l-98 -487h85z" />
    <glyph glyph-name="iacute" unicode="&#xed;" horiz-adv-x="235" 
d="M307 738l-147 -151l-13 11l143 153zM159 0h-78c-15 0 -23 6 -23 19c0 6 1 10 2 16l95 471h21l-98 -487h85z" />
    <glyph glyph-name="icircumflex" unicode="&#xee;" horiz-adv-x="235" 
d="M199 743h24l106 -134l-15 -10l-104 127l-148 -127l-13 12zM159 0h-78c-15 0 -23 6 -23 19c0 6 1 10 2 16l95 471h21l-98 -487h85z" />
    <glyph glyph-name="idieresis" unicode="&#xef;" horiz-adv-x="235" 
d="M103 642c-16 0 -20 9 -20 17c0 5 1 9 3 15c3 9 7 17 23 17s20 -9 20 -17c0 -5 -1 -9 -3 -15c-3 -9 -7 -17 -23 -17zM285 642c-16 0 -20 9 -20 17c0 5 1 9 3 15c3 9 7 17 23 17s20 -9 20 -17c0 -5 -1 -9 -3 -15c-3 -9 -7 -17 -23 -17zM159 0h-78c-15 0 -23 6 -23 19
c0 6 1 10 2 16l95 471h21l-98 -487h85z" />
    <glyph glyph-name="eth" unicode="&#xf0;" horiz-adv-x="560" 
d="M469 738l-124 -78c81 -72 149 -179 149 -332c0 -224 -109 -340 -255 -340c-110 0 -179 72 -179 190c0 199 105 322 249 322c70 0 126 -30 154 -87l3 2c-18 94 -67 172 -138 234l-122 -77l-7 14l117 74c-38 31 -80 58 -126 80h32c36 -17 74 -40 111 -70l129 82zM240 7
c111 0 196 75 220 206l8 44c4 20 4 40 4 57c0 108 -64 167 -160 167c-109 0 -196 -71 -220 -202l-8 -44c-4 -20 -4 -40 -4 -57c0 -108 64 -171 160 -171z" />
    <glyph glyph-name="ntilde" unicode="&#xf1;" horiz-adv-x="548" 
d="M424 628c-26 0 -42 10 -72 31c-25 17 -41 25 -64 25s-44 -11 -69 -33l-11 12c30 29 57 39 85 39c26 0 42 -9 72 -30c25 -17 41 -26 64 -26s44 11 69 33l11 -12c-30 -29 -57 -39 -85 -39zM74 0h-21l101 506h21l-21 -105h3c40 76 95 117 178 117c85 0 132 -49 132 -132
c0 -20 -3 -45 -7 -65l-60 -302h85l-4 -19h-78c-15 0 -23 6 -23 19c0 6 1 10 2 16l57 285c4 22 7 50 7 63c0 77 -39 116 -114 116c-45 0 -93 -15 -133 -62c-22 -26 -51 -65 -63 -125z" />
    <glyph glyph-name="ograve" unicode="&#xf2;" horiz-adv-x="534" 
d="M333 587l-84 153l19 11l81 -155zM225 -12c-107 0 -166 81 -166 181c0 187 85 349 250 349c107 0 166 -81 166 -181c0 -187 -85 -349 -250 -349zM227 7c112 0 187 83 214 218l8 40c4 22 5 46 5 72c0 88 -45 162 -147 162c-112 0 -187 -83 -214 -218l-8 -40
c-4 -22 -5 -46 -5 -72c0 -88 45 -162 147 -162z" />
    <glyph glyph-name="oacute" unicode="&#xf3;" horiz-adv-x="534" 
d="M449 738l-147 -151l-13 11l143 153zM225 -12c-107 0 -166 81 -166 181c0 187 85 349 250 349c107 0 166 -81 166 -181c0 -187 -85 -349 -250 -349zM227 7c112 0 187 83 214 218l8 40c4 22 5 46 5 72c0 88 -45 162 -147 162c-112 0 -187 -83 -214 -218l-8 -40
c-4 -22 -5 -46 -5 -72c0 -88 45 -162 147 -162z" />
    <glyph glyph-name="ocircumflex" unicode="&#xf4;" horiz-adv-x="534" 
d="M341 743h24l106 -134l-15 -10l-104 127l-148 -127l-13 12zM225 -12c-107 0 -166 81 -166 181c0 187 85 349 250 349c107 0 166 -81 166 -181c0 -187 -85 -349 -250 -349zM227 7c112 0 187 83 214 218l8 40c4 22 5 46 5 72c0 88 -45 162 -147 162
c-112 0 -187 -83 -214 -218l-8 -40c-4 -22 -5 -46 -5 -72c0 -88 45 -162 147 -162z" />
    <glyph glyph-name="otilde" unicode="&#xf5;" horiz-adv-x="534" 
d="M403 628c-26 0 -42 10 -72 31c-25 17 -41 25 -64 25s-44 -11 -69 -33l-11 12c30 29 57 39 85 39c26 0 42 -9 72 -30c25 -17 41 -26 64 -26s44 11 69 33l11 -12c-30 -29 -57 -39 -85 -39zM225 -12c-107 0 -166 81 -166 181c0 187 85 349 250 349c107 0 166 -81 166 -181
c0 -187 -85 -349 -250 -349zM227 7c112 0 187 83 214 218l8 40c4 22 5 46 5 72c0 88 -45 162 -147 162c-112 0 -187 -83 -214 -218l-8 -40c-4 -22 -5 -46 -5 -72c0 -88 45 -162 147 -162z" />
    <glyph glyph-name="odieresis" unicode="&#xf6;" horiz-adv-x="534" 
d="M245 642c-16 0 -20 9 -20 17c0 5 1 9 3 15c3 9 7 17 23 17s20 -9 20 -17c0 -5 -1 -9 -3 -15c-3 -9 -7 -17 -23 -17zM427 642c-16 0 -20 9 -20 17c0 5 1 9 3 15c3 9 7 17 23 17s20 -9 20 -17c0 -5 -1 -9 -3 -15c-3 -9 -7 -17 -23 -17zM225 -12c-107 0 -166 81 -166 181
c0 187 85 349 250 349c107 0 166 -81 166 -181c0 -187 -85 -349 -250 -349zM227 7c112 0 187 83 214 218l8 40c4 22 5 46 5 72c0 88 -45 162 -147 162c-112 0 -187 -83 -214 -218l-8 -40c-4 -22 -5 -46 -5 -72c0 -88 45 -162 147 -162z" />
    <glyph glyph-name="divide" unicode="&#xf7;" 
d="M547 296h-476l4 19h476zM270 81c-22 0 -29 10 -29 19c0 5 2 17 3 22c2 11 10 21 32 21c21 0 28 -10 28 -19c0 -5 -2 -17 -3 -22c-2 -11 -9 -21 -31 -21zM348 468c-22 0 -29 10 -29 19c0 5 2 17 3 22c2 11 10 21 32 21c21 0 28 -10 28 -19c0 -5 -2 -17 -3 -22
c-2 -11 -9 -21 -31 -21z" />
    <glyph glyph-name="oslash" unicode="&#xf8;" horiz-adv-x="534" 
d="M225 -12c-55 0 -96 21 -124 54l-58 -68l-14 11l61 72c-20 31 -31 70 -31 112c0 187 85 349 250 349c54 0 96 -20 124 -54l58 68l14 -11l-61 -72c20 -31 31 -70 31 -112c0 -187 -85 -349 -250 -349zM80 169c0 -36 7 -69 23 -96l318 376c-24 30 -62 50 -114 50
c-112 0 -187 -83 -214 -218l-8 -40c-4 -20 -5 -46 -5 -72zM227 7c112 0 187 83 214 218l8 40c4 20 5 46 5 72c0 35 -8 69 -23 96l-318 -376c24 -31 62 -50 114 -50z" />
    <glyph glyph-name="ugrave" unicode="&#xf9;" horiz-adv-x="548" 
d="M334 587l-84 153l19 11l81 -155zM145 506h21l-64 -320c-4 -22 -7 -50 -7 -63c0 -77 39 -116 114 -116c45 0 93 15 133 62c22 26 51 65 63 125l62 312h21l-97 -487h85l-4 -19h-78c-15 0 -23 6 -23 19c0 6 1 10 2 16l14 70h-3c-40 -76 -95 -117 -178 -117
c-85 0 -132 49 -132 132c0 20 3 45 7 65z" />
    <glyph glyph-name="uacute" unicode="&#xfa;" horiz-adv-x="548" 
d="M450 738l-147 -151l-13 11l143 153zM145 506h21l-64 -320c-4 -22 -7 -50 -7 -63c0 -77 39 -116 114 -116c45 0 93 15 133 62c22 26 51 65 63 125l62 312h21l-97 -487h85l-4 -19h-78c-15 0 -23 6 -23 19c0 6 1 10 2 16l14 70h-3c-40 -76 -95 -117 -178 -117
c-85 0 -132 49 -132 132c0 20 3 45 7 65z" />
    <glyph glyph-name="ucircumflex" unicode="&#xfb;" horiz-adv-x="548" 
d="M342 743h24l106 -134l-15 -10l-104 127l-148 -127l-13 12zM145 506h21l-64 -320c-4 -22 -7 -50 -7 -63c0 -77 39 -116 114 -116c45 0 93 15 133 62c22 26 51 65 63 125l62 312h21l-97 -487h85l-4 -19h-78c-15 0 -23 6 -23 19c0 6 1 10 2 16l14 70h-3
c-40 -76 -95 -117 -178 -117c-85 0 -132 49 -132 132c0 20 3 45 7 65z" />
    <glyph glyph-name="udieresis" unicode="&#xfc;" horiz-adv-x="548" 
d="M246 642c-16 0 -20 9 -20 17c0 5 1 9 3 15c3 9 7 17 23 17s20 -9 20 -17c0 -5 -1 -9 -3 -15c-3 -9 -7 -17 -23 -17zM428 642c-16 0 -20 9 -20 17c0 5 1 9 3 15c3 9 7 17 23 17s20 -9 20 -17c0 -5 -1 -9 -3 -15c-3 -9 -7 -17 -23 -17zM145 506h21l-64 -320
c-4 -22 -7 -50 -7 -63c0 -77 39 -116 114 -116c45 0 93 15 133 62c22 26 51 65 63 125l62 312h21l-97 -487h85l-4 -19h-78c-15 0 -23 6 -23 19c0 6 1 10 2 16l14 70h-3c-40 -76 -95 -117 -178 -117c-85 0 -132 49 -132 132c0 20 3 45 7 65z" />
    <glyph glyph-name="yacute" unicode="&#xfd;" horiz-adv-x="460" 
d="M410 738l-147 -151l-13 11l143 153zM181 24l273 482h23l-388 -681c-11 -19 -19 -25 -38 -25h-75l4 19h84l100 178l-91 509h20l85 -482h3z" />
    <glyph glyph-name="thorn" unicode="&#xfe;" horiz-adv-x="560" 
d="M13 -200l188 940h21l-69 -345h3c42 74 96 123 181 123c105 0 163 -81 163 -188c0 -184 -89 -342 -249 -342c-85 0 -138 43 -156 105h-3l-58 -293h-21zM251 7c115 0 189 85 215 217l7 35c4 22 6 43 6 71c0 93 -44 169 -142 169c-42 0 -75 -11 -110 -40
c-39 -32 -79 -87 -93 -157l-28 -142c-13 -67 26 -153 145 -153z" />
    <glyph glyph-name="ydieresis" unicode="&#xff;" horiz-adv-x="460" 
d="M206 642c-16 0 -20 9 -20 17c0 5 1 9 3 15c3 9 7 17 23 17s20 -9 20 -17c0 -5 -1 -9 -3 -15c-3 -9 -7 -17 -23 -17zM388 642c-16 0 -20 9 -20 17c0 5 1 9 3 15c3 9 7 17 23 17s20 -9 20 -17c0 -5 -1 -9 -3 -15c-3 -9 -7 -17 -23 -17zM181 24l273 482h23l-388 -681
c-11 -19 -19 -25 -38 -25h-75l4 19h84l100 178l-91 509h20l85 -482h3z" />
    <glyph glyph-name="Amacron" unicode="&#x100;" horiz-adv-x="594" 
d="M267 838l3 18h258l-3 -18h-258zM519 0h-22l-45 234h-318l-122 -234h-24l366 698h30zM448 253l-81 420h-3l-220 -420h304z" />
    <glyph glyph-name="amacron" unicode="&#x101;" horiz-adv-x="567" 
d="M223 658l3 18h258l-3 -18h-258zM491 0h-78c-15 0 -23 6 -23 19c0 6 1 10 2 16l15 76h-3c-42 -74 -96 -123 -181 -123c-105 0 -163 81 -163 188c0 184 89 342 249 342c85 0 138 -43 156 -105h3l18 93h21l-97 -487h85zM223 7c42 0 75 11 110 40c39 32 79 87 93 157l28 142
c13 67 -26 153 -145 153c-115 0 -189 -85 -215 -217l-7 -35c-4 -22 -6 -43 -6 -71c0 -93 44 -169 142 -169z" />
    <glyph glyph-name="Abreve" unicode="&#x102;" horiz-adv-x="594" 
d="M387 786c-66 0 -91 43 -115 117l16 7l15 -37c20 -49 43 -68 84 -68c46 0 71 17 107 69l25 36l16 -7c-47 -72 -78 -117 -148 -117zM519 0h-22l-45 234h-318l-122 -234h-24l366 698h30zM448 253l-81 420h-3l-220 -420h304z" />
    <glyph glyph-name="abreve" unicode="&#x103;" horiz-adv-x="567" 
d="M344 606c-66 0 -91 43 -115 117l16 7l15 -37c20 -49 43 -68 84 -68c46 0 71 17 107 69l25 36l16 -7c-47 -72 -78 -117 -148 -117zM491 0h-78c-15 0 -23 6 -23 19c0 6 1 10 2 16l15 76h-3c-42 -74 -96 -123 -181 -123c-105 0 -163 81 -163 188c0 184 89 342 249 342
c85 0 138 -43 156 -105h3l18 93h21l-97 -487h85zM223 7c42 0 75 11 110 40c39 32 79 87 93 157l28 142c13 67 -26 153 -145 153c-115 0 -189 -85 -215 -217l-7 -35c-4 -22 -6 -43 -6 -71c0 -93 44 -169 142 -169z" />
    <glyph glyph-name="Aogonek" unicode="&#x104;" horiz-adv-x="594" 
d="M-12 0l366 698h30l135 -698c-103 -58 -148 -85 -148 -136c0 -32 22 -48 51 -48c32 0 53 13 65 25l13 -11c-16 -18 -44 -32 -78 -32c-41 0 -72 21 -72 66c0 37 27 79 146 136l-44 234h-318l-122 -234h-24zM448 253l-81 420h-3l-220 -420h304z" />
    <glyph glyph-name="aogonek" unicode="&#x105;" horiz-adv-x="567" 
d="M495 19l-4 -19c-103 -58 -148 -85 -148 -136c0 -32 22 -48 51 -48c32 0 53 13 65 25l13 -11c-16 -18 -44 -32 -78 -32c-41 0 -72 21 -72 66c0 36 26 78 139 133l-1 3h-47c-15 0 -23 6 -23 19c0 6 1 10 2 16l15 76h-3c-42 -74 -96 -123 -181 -123c-105 0 -163 81 -163 188
c0 184 89 342 249 342c85 0 138 -43 156 -105h3l18 93h21l-97 -487h85zM223 7c42 0 75 11 110 40c39 32 79 87 93 157l28 142c13 67 -26 153 -145 153c-115 0 -189 -85 -215 -217l-7 -35c-4 -22 -6 -43 -6 -71c0 -93 44 -169 142 -169z" />
    <glyph glyph-name="Cacute" unicode="&#x106;" horiz-adv-x="595" 
d="M552 918l-147 -151l-13 11l143 153zM291 -12c-132 0 -222 81 -222 232c0 198 89 490 329 490c112 0 169 -54 191 -141l-21 -5c-21 76 -67 126 -171 126c-142 0 -248 -120 -285 -306l-11 -55c-8 -42 -10 -81 -10 -109c0 -130 71 -212 200 -212c93 0 156 47 209 143l19 -10
c-62 -109 -131 -153 -228 -153z" />
    <glyph glyph-name="cacute" unicode="&#x107;" horiz-adv-x="479" 
d="M441 738l-147 -151l-13 11l143 153zM223 -12c-108 0 -162 84 -162 198c0 187 85 332 240 332c79 0 136 -47 150 -115l-19 -5c-15 65 -66 101 -133 101c-102 0 -180 -78 -203 -202l-9 -49c-4 -24 -6 -37 -6 -62c0 -99 42 -179 142 -179c78 0 136 46 182 116l17 -9
c-49 -76 -112 -126 -199 -126z" />
    <glyph glyph-name="Ccircumflex" unicode="&#x108;" horiz-adv-x="595" 
d="M430 923h24l106 -134l-15 -10l-104 127l-148 -127l-13 12zM291 -12c-132 0 -222 81 -222 232c0 198 89 490 329 490c112 0 169 -54 191 -141l-21 -5c-21 76 -67 126 -171 126c-142 0 -248 -120 -285 -306l-11 -55c-8 -42 -10 -81 -10 -109c0 -130 71 -212 200 -212
c93 0 156 47 209 143l19 -10c-62 -109 -131 -153 -228 -153z" />
    <glyph glyph-name="ccircumflex" unicode="&#x109;" horiz-adv-x="479" 
d="M333 743h24l106 -134l-15 -10l-104 127l-148 -127l-13 12zM223 -12c-108 0 -162 84 -162 198c0 187 85 332 240 332c79 0 136 -47 150 -115l-19 -5c-15 65 -66 101 -133 101c-102 0 -180 -78 -203 -202l-9 -49c-4 -24 -6 -37 -6 -62c0 -99 42 -179 142 -179
c78 0 136 46 182 116l17 -9c-49 -76 -112 -126 -199 -126z" />
    <glyph glyph-name="Cdotaccent" unicode="&#x10a;" horiz-adv-x="595" 
d="M423 822c-16 0 -20 9 -20 17c0 5 1 9 3 15c3 9 7 17 23 17s20 -9 20 -17c0 -5 -1 -9 -3 -15c-3 -9 -7 -17 -23 -17zM291 -12c-132 0 -222 81 -222 232c0 198 89 490 329 490c112 0 169 -54 191 -141l-21 -5c-21 76 -67 126 -171 126c-142 0 -248 -120 -285 -306l-11 -55
c-8 -42 -10 -81 -10 -109c0 -130 71 -212 200 -212c93 0 156 47 209 143l19 -10c-62 -109 -131 -153 -228 -153z" />
    <glyph glyph-name="cdotaccent" unicode="&#x10b;" horiz-adv-x="479" 
d="M327 642c-16 0 -20 9 -20 17c0 5 1 9 3 15c3 9 7 17 23 17s20 -9 20 -17c0 -5 -1 -9 -3 -15c-3 -9 -7 -17 -23 -17zM223 -12c-108 0 -162 84 -162 198c0 187 85 332 240 332c79 0 136 -47 150 -115l-19 -5c-15 65 -66 101 -133 101c-102 0 -180 -78 -203 -202l-9 -49
c-4 -24 -6 -37 -6 -62c0 -99 42 -179 142 -179c78 0 136 46 182 116l17 -9c-49 -76 -112 -126 -199 -126z" />
    <glyph glyph-name="Ccaron" unicode="&#x10c;" horiz-adv-x="595" 
d="M428 783h-24l-106 134l15 10l104 -127l148 127l13 -12zM291 -12c-132 0 -222 81 -222 232c0 198 89 490 329 490c112 0 169 -54 191 -141l-21 -5c-21 76 -67 126 -171 126c-142 0 -248 -120 -285 -306l-11 -55c-8 -42 -10 -81 -10 -109c0 -130 71 -212 200 -212
c93 0 156 47 209 143l19 -10c-62 -109 -131 -153 -228 -153z" />
    <glyph glyph-name="ccaron" unicode="&#x10d;" horiz-adv-x="479" 
d="M329 603h-24l-106 134l15 10l104 -127l148 127l13 -12zM223 -12c-108 0 -162 84 -162 198c0 187 85 332 240 332c79 0 136 -47 150 -115l-19 -5c-15 65 -66 101 -133 101c-102 0 -180 -78 -203 -202l-9 -49c-4 -24 -6 -37 -6 -62c0 -99 42 -179 142 -179
c78 0 136 46 182 116l17 -9c-49 -76 -112 -126 -199 -126z" />
    <glyph glyph-name="Dcaron" unicode="&#x10e;" horiz-adv-x="648" 
d="M397 783h-24l-106 134l15 10l104 -127l148 127l13 -12zM55 0l138 698h185c152 0 232 -86 232 -230c0 -227 -100 -468 -328 -468h-227zM81 20h201c158 0 254 130 285 283l11 55c8 42 10 82 10 110c0 130 -69 210 -213 210h-164z" />
    <glyph glyph-name="dcaron" unicode="&#x10f;" horiz-adv-x="567" 
d="M659 740l-53 -176h-17l45 176h25zM491 0h-78c-15 0 -23 6 -23 19c0 6 1 10 2 16l15 76h-3c-42 -74 -96 -123 -181 -123c-105 0 -163 81 -163 188c0 184 89 342 249 342c85 0 138 -43 156 -105h3l65 327h21l-144 -721h85zM223 7c42 0 75 11 110 40c39 32 79 87 93 157
l28 142c13 67 -26 153 -145 153c-115 0 -189 -85 -215 -217l-7 -35c-4 -22 -6 -43 -6 -71c0 -93 44 -169 142 -169z" />
    <glyph glyph-name="Dcroat" unicode="&#x110;" horiz-adv-x="651" 
d="M58 0l71 359h-88l4 19h88l63 320h185c152 0 232 -86 232 -230c0 -227 -100 -468 -328 -468h-227zM84 20h201c158 0 254 130 285 283l11 55c8 42 10 82 10 110c0 130 -69 210 -213 210h-164l-59 -300h167l-4 -19h-167z" />
    <glyph glyph-name="dcroat" unicode="&#x111;" horiz-adv-x="570" 
d="M491 0h-78c-15 0 -23 6 -23 19c0 6 1 10 2 16l15 76h-3c-42 -74 -96 -123 -181 -123c-105 0 -163 81 -163 188c0 184 89 342 249 342c85 0 138 -43 156 -105h3l43 216h-163l4 18h163l18 93h21l-19 -93h67l-4 -18h-66l-122 -610h85zM223 7c42 0 75 11 110 40
c39 32 79 87 93 157l28 142c13 67 -26 153 -145 153c-115 0 -189 -85 -215 -217l-7 -35c-4 -22 -6 -43 -6 -71c0 -93 44 -169 142 -169z" />
    <glyph glyph-name="Emacron" unicode="&#x112;" horiz-adv-x="553" 
d="M278 838l3 18h258l-3 -18h-258zM432 0h-378l140 698h378l-4 -20h-356l-63 -314h344l-4 -20h-344l-65 -324h356z" />
    <glyph glyph-name="emacron" unicode="&#x113;" horiz-adv-x="505" 
d="M210 658l3 18h258l-3 -18h-258zM237 -12c-113 0 -176 63 -176 199c0 184 101 331 247 331c95 0 158 -47 158 -123c0 -64 -42 -155 -381 -162c-1 -10 -3 -33 -3 -44c0 -128 52 -182 155 -182c82 0 148 47 189 125l19 -8c-51 -94 -124 -136 -208 -136zM306 499
c-112 0 -193 -97 -216 -230l-3 -17c300 5 357 76 357 143c0 61 -41 104 -138 104z" />
    <glyph glyph-name="Ebreve" unicode="&#x114;" horiz-adv-x="553" 
d="M398 786c-66 0 -91 43 -115 117l16 7l15 -37c20 -49 43 -68 84 -68c46 0 71 17 107 69l25 36l16 -7c-47 -72 -78 -117 -148 -117zM432 0h-378l140 698h378l-4 -20h-356l-63 -314h344l-4 -20h-344l-65 -324h356z" />
    <glyph glyph-name="ebreve" unicode="&#x115;" horiz-adv-x="505" 
d="M331 606c-66 0 -91 43 -115 117l16 7l15 -37c20 -49 43 -68 84 -68c46 0 71 17 107 69l25 36l16 -7c-47 -72 -78 -117 -148 -117zM237 -12c-113 0 -176 63 -176 199c0 184 101 331 247 331c95 0 158 -47 158 -123c0 -64 -42 -155 -381 -162c-1 -10 -3 -33 -3 -44
c0 -128 52 -182 155 -182c82 0 148 47 189 125l19 -8c-51 -94 -124 -136 -208 -136zM306 499c-112 0 -193 -97 -216 -230l-3 -17c300 5 357 76 357 143c0 61 -41 104 -138 104z" />
    <glyph glyph-name="Edotaccent" unicode="&#x116;" horiz-adv-x="553" 
d="M405 822c-16 0 -20 9 -20 17c0 5 1 9 3 15c3 9 7 17 23 17s20 -9 20 -17c0 -5 -1 -9 -3 -15c-3 -9 -7 -17 -23 -17zM432 0h-378l140 698h378l-4 -20h-356l-63 -314h344l-4 -20h-344l-65 -324h356z" />
    <glyph glyph-name="edotaccent" unicode="&#x117;" horiz-adv-x="505" 
d="M338 642c-16 0 -20 9 -20 17c0 5 1 9 3 15c3 9 7 17 23 17s20 -9 20 -17c0 -5 -1 -9 -3 -15c-3 -9 -7 -17 -23 -17zM237 -12c-113 0 -176 63 -176 199c0 184 101 331 247 331c95 0 158 -47 158 -123c0 -64 -42 -155 -381 -162c-1 -10 -3 -33 -3 -44
c0 -128 52 -182 155 -182c82 0 148 47 189 125l19 -8c-51 -94 -124 -136 -208 -136zM306 499c-112 0 -193 -97 -216 -230l-3 -17c300 5 357 76 357 143c0 61 -41 104 -138 104z" />
    <glyph glyph-name="Eogonek" unicode="&#x118;" horiz-adv-x="553" 
d="M54 0l140 698h378l-4 -20h-356l-63 -314h344l-4 -20h-344l-65 -324h356l-4 -20c-103 -58 -148 -85 -148 -136c0 -32 22 -48 51 -48c32 0 53 13 65 25l13 -11c-16 -18 -44 -32 -78 -32c-41 0 -72 21 -72 66c0 36 26 78 139 133l-1 3h-347z" />
    <glyph glyph-name="eogonek" unicode="&#x119;" horiz-adv-x="505" 
d="M249 -202c-41 0 -72 21 -72 66c0 34 20 83 108 127v3c-16 -4 -31 -6 -48 -6c-113 0 -176 63 -176 199c0 184 101 331 247 331c95 0 158 -47 158 -123c0 -63 -42 -155 -381 -162c-1 -10 -3 -33 -3 -44c0 -128 52 -182 155 -182c82 0 148 47 189 125l19 -8
c-31 -55 -69 -90 -110 -114c-96 -56 -137 -90 -137 -146c0 -32 22 -48 51 -48c32 0 53 13 65 25l13 -11c-16 -18 -44 -32 -78 -32zM306 499c-112 0 -193 -97 -216 -230l-3 -17c300 5 357 76 357 143c0 61 -41 104 -138 104z" />
    <glyph glyph-name="Ecaron" unicode="&#x11a;" horiz-adv-x="553" 
d="M410 783h-24l-106 134l15 10l104 -127l148 127l13 -12zM432 0h-378l140 698h378l-4 -20h-356l-63 -314h344l-4 -20h-344l-65 -324h356z" />
    <glyph glyph-name="ecaron" unicode="&#x11b;" horiz-adv-x="505" 
d="M340 603h-24l-106 134l15 10l104 -127l148 127l13 -12zM237 -12c-113 0 -176 63 -176 199c0 184 101 331 247 331c95 0 158 -47 158 -123c0 -64 -42 -155 -381 -162c-1 -10 -3 -33 -3 -44c0 -128 52 -182 155 -182c82 0 148 47 189 125l19 -8
c-51 -94 -124 -136 -208 -136zM306 499c-112 0 -193 -97 -216 -230l-3 -17c300 5 357 76 357 143c0 61 -41 104 -138 104z" />
    <glyph glyph-name="Gcircumflex" unicode="&#x11c;" horiz-adv-x="660" 
d="M437 923h24l106 -134l-15 -10l-104 127l-148 -127l-13 12zM502 0l23 114h-3c-52 -88 -132 -126 -227 -126c-134 0 -226 81 -226 232c0 198 87 490 334 490c121 0 183 -53 207 -141l-21 -5c-23 77 -73 126 -187 126c-147 0 -253 -120 -290 -306l-11 -55
c-8 -42 -10 -81 -10 -109c0 -130 72 -212 204 -212c106 0 218 59 246 197l22 107h-176l4 20h198l-66 -332h-21z" />
    <glyph glyph-name="gcircumflex" unicode="&#x11d;" horiz-adv-x="561" 
d="M333.4 722h24l106 -134l-15 -10l-104 127l-148 -127l-13 12zM223 -12c-105 0 -163 81 -163 188c0 184 89 342 249 342c85 0 138 -43 156 -105h3l19 93h21l-105 -524c-26 -132 -106 -194 -229 -194c-75 0 -124 26 -156 67l16 14c28 -38 70 -62 140 -62
c110 0 184 53 209 180l24 124h-3c-42 -74 -96 -123 -181 -123zM223 7c42 0 75 11 110 40c39 32 79 87 93 157l28 142c13 67 -26 153 -145 153c-115 0 -189 -85 -215 -217l-7 -35c-4 -22 -6 -43 -6 -71c0 -93 44 -169 142 -169z" />
    <glyph glyph-name="Gbreve" unicode="&#x11e;" horiz-adv-x="660" 
d="M423 786c-66 0 -91 43 -115 117l16 7l15 -37c20 -49 43 -68 84 -68c46 0 71 17 107 69l25 36l16 -7c-47 -72 -78 -117 -148 -117zM502 0l23 114h-3c-52 -88 -132 -126 -227 -126c-134 0 -226 81 -226 232c0 198 87 490 334 490c121 0 183 -53 207 -141l-21 -5
c-23 77 -73 126 -187 126c-147 0 -253 -120 -290 -306l-11 -55c-8 -42 -10 -81 -10 -109c0 -130 72 -212 204 -212c106 0 218 59 246 197l22 107h-176l4 20h198l-66 -332h-21z" />
    <glyph glyph-name="gbreve" unicode="&#x11f;" horiz-adv-x="561" 
d="M328.101 578c-66 0 -91 43 -115 117l16 7l15 -37c20 -49 43 -68 84 -68c46 0 71 17 107 69l25 36l16 -7c-47 -72 -78 -117 -148 -117zM223 -12c-105 0 -163 81 -163 188c0 184 89 342 249 342c85 0 138 -43 156 -105h3l19 93h21l-105 -524c-26 -132 -106 -194 -229 -194
c-75 0 -124 26 -156 67l16 14c28 -38 70 -62 140 -62c110 0 184 53 209 180l24 124h-3c-42 -74 -96 -123 -181 -123zM223 7c42 0 75 11 110 40c39 32 79 87 93 157l28 142c13 67 -26 153 -145 153c-115 0 -189 -85 -215 -217l-7 -35c-4 -22 -6 -43 -6 -71
c0 -93 44 -169 142 -169z" />
    <glyph glyph-name="Gdotaccent" unicode="&#x120;" horiz-adv-x="660" 
d="M430 822c-16 0 -20 9 -20 17c0 5 1 9 3 15c3 9 7 17 23 17s20 -9 20 -17c0 -5 -1 -9 -3 -15c-3 -9 -7 -17 -23 -17zM502 0l23 114h-3c-52 -88 -132 -126 -227 -126c-134 0 -226 81 -226 232c0 198 87 490 334 490c121 0 183 -53 207 -141l-21 -5c-23 77 -73 126 -187 126
c-147 0 -253 -120 -290 -306l-11 -55c-8 -42 -10 -81 -10 -109c0 -130 72 -212 204 -212c106 0 218 59 246 197l22 107h-176l4 20h198l-66 -332h-21z" />
    <glyph glyph-name="gdotaccent" unicode="&#x121;" horiz-adv-x="561" 
d="M323.101 578c-16 0 -20 9 -20 17c0 5 1 9 3 15c3 9 7 17 23 17s20 -9 20 -17c0 -5 -1 -9 -3 -15c-3 -9 -7 -17 -23 -17zM223 -12c-105 0 -163 81 -163 188c0 184 89 342 249 342c85 0 138 -43 156 -105h3l19 93h21l-105 -524c-26 -132 -106 -194 -229 -194
c-75 0 -124 26 -156 67l16 14c28 -38 70 -62 140 -62c110 0 184 53 209 180l24 124h-3c-42 -74 -96 -123 -181 -123zM223 7c42 0 75 11 110 40c39 32 79 87 93 157l28 142c13 67 -26 153 -145 153c-115 0 -189 -85 -215 -217l-7 -35c-4 -22 -6 -43 -6 -71
c0 -93 44 -169 142 -169z" />
    <glyph glyph-name="Gcommaaccent" unicode="&#x122;" horiz-adv-x="660" 
d="M283 -66c17 0 21 -9 21 -16c0 -5 -1 -11 -2 -17c-5 -31 -30 -80 -60 -113h-18c31 35 49 73 56 97c-20 0 -25 8 -25 16c0 3 1 11 2 16c2 9 7 17 26 17zM502 0l23 114h-3c-52 -88 -132 -126 -227 -126c-134 0 -226 81 -226 232c0 198 87 490 334 490
c121 0 183 -53 207 -141l-21 -5c-23 77 -73 126 -187 126c-147 0 -253 -120 -290 -306l-11 -55c-8 -42 -10 -81 -10 -109c0 -130 72 -212 204 -212c106 0 218 59 246 197l22 107h-176l4 20h198l-66 -332h-21z" />
    <glyph glyph-name="gcommaaccent" unicode="&#x123;" horiz-adv-x="561" 
d="M319.101 578c-17 0 -21 9 -21 16c0 5 1 11 2 17c5 31 30 80 60 113h18c-31 -35 -49 -73 -56 -97c20 0 25 -8 25 -16c0 -3 -1 -11 -2 -16c-2 -9 -7 -17 -26 -17zM223 -12c-105 0 -163 81 -163 188c0 184 89 342 249 342c85 0 138 -43 156 -105h3l19 93h21l-105 -524
c-26 -132 -106 -194 -229 -194c-75 0 -124 26 -156 67l16 14c28 -38 70 -62 140 -62c110 0 184 53 209 180l24 124h-3c-42 -74 -96 -123 -181 -123zM223 7c42 0 75 11 110 40c39 32 79 87 93 157l28 142c13 67 -26 153 -145 153c-115 0 -189 -85 -215 -217l-7 -35
c-4 -22 -6 -43 -6 -71c0 -93 44 -169 142 -169z" />
    <glyph glyph-name="Hcircumflex" unicode="&#x124;" horiz-adv-x="680" 
d="M461 923h24l106 -134l-15 -10l-104 127l-148 -127l-13 12zM502 0l69 344h-426l-69 -344h-22l140 698h22l-67 -334h426l67 334h22l-140 -698h-22z" />
    <glyph glyph-name="hcircumflex" unicode="&#x125;" horiz-adv-x="549" 
d="M228 891h24l106 -134l-15 -10l-104 127l-148 -127l-13 12zM54 0l147 740h21l-67 -339h3c40 76 95 117 178 117c85 0 132 -49 132 -132c0 -20 -3 -45 -7 -65l-60 -302h85l-4 -19h-78c-15 0 -23 6 -23 19c0 6 1 10 2 16l57 285c4 22 7 50 7 63c0 77 -39 116 -114 116
c-45 0 -93 -15 -133 -62c-22 -26 -51 -65 -63 -125l-62 -312h-21z" />
    <glyph glyph-name="Hbar" unicode="&#x126;" horiz-adv-x="686" 
d="M505 0l69 344h-426l-69 -344h-22l108 537h-83l4 19h83l28 142h22l-28 -142h426l28 142h22l-28 -142h83l-4 -19h-83l-108 -537h-22zM152 364h426l35 173h-426z" />
    <glyph glyph-name="hbar" unicode="&#x127;" horiz-adv-x="552" 
d="M57 0l125 629h-67l4 18h67l18 93h21l-18 -93h162l-4 -18h-162l-45 -228h3c40 76 95 117 178 117c85 0 132 -49 132 -132c0 -20 -3 -45 -7 -65l-60 -302h85l-4 -19h-78c-15 0 -23 6 -23 19c0 6 1 10 2 16l57 285c4 22 7 50 7 63c0 77 -39 116 -114 116
c-45 0 -93 -15 -133 -62c-22 -26 -51 -65 -63 -125l-62 -312h-21z" />
    <glyph glyph-name="Itilde" unicode="&#x128;" horiz-adv-x="368" 
d="M355 808c-26 0 -42 10 -72 31c-25 17 -41 25 -64 25s-44 -11 -69 -33l-11 12c30 29 57 39 85 39c26 0 42 -9 72 -30c25 -17 41 -26 64 -26s44 11 69 33l11 -12c-30 -29 -57 -39 -85 -39zM251 0h-236l4 19h107l132 660h-107l4 19h236l-4 -19h-107l-132 -660h107z" />
    <glyph glyph-name="itilde" unicode="&#x129;" horiz-adv-x="235" 
d="M261 628c-26 0 -42 10 -72 31c-25 17 -41 25 -64 25s-44 -11 -69 -33l-11 12c30 29 57 39 85 39c26 0 42 -9 72 -30c25 -17 41 -26 64 -26s44 11 69 33l11 -12c-30 -29 -57 -39 -85 -39zM159 0h-78c-15 0 -23 6 -23 19c0 6 1 10 2 16l95 471h21l-98 -487h85z" />
    <glyph glyph-name="Imacron" unicode="&#x12a;" horiz-adv-x="368" 
d="M170 838l3 18h258l-3 -18h-258zM251 0h-236l4 19h107l132 660h-107l4 19h236l-4 -19h-107l-132 -660h107z" />
    <glyph glyph-name="imacron" unicode="&#x12b;" horiz-adv-x="235" 
d="M65 658l3 18h258l-3 -18h-258zM159 0h-78c-15 0 -23 6 -23 19c0 6 1 10 2 16l95 471h21l-98 -487h85z" />
    <glyph glyph-name="Ibreve" unicode="&#x12c;" horiz-adv-x="368" 
d="M290 786c-66 0 -91 43 -115 117l16 7l15 -37c20 -49 43 -68 84 -68c46 0 71 17 107 69l25 36l16 -7c-47 -72 -78 -117 -148 -117zM251 0h-236l4 19h107l132 660h-107l4 19h236l-4 -19h-107l-132 -660h107z" />
    <glyph glyph-name="ibreve" unicode="&#x12d;" horiz-adv-x="235" 
d="M186 606c-66 0 -91 43 -115 117l16 7l15 -37c20 -49 43 -68 84 -68c46 0 71 17 107 69l25 36l16 -7c-47 -72 -78 -117 -148 -117zM159 0h-78c-15 0 -23 6 -23 19c0 6 1 10 2 16l95 471h21l-98 -487h85z" />
    <glyph glyph-name="Iogonek" unicode="&#x12e;" horiz-adv-x="368" 
d="M15 0l4 19h107l132 660h-107l4 19h236l-4 -19h-107l-132 -660h107l-4 -19c-103 -58 -148 -85 -148 -136c0 -32 22 -48 51 -48c32 0 53 13 65 25l13 -11c-16 -18 -44 -32 -78 -32c-41 0 -72 21 -72 66c0 36 26 78 139 133l-1 3h-205z" />
    <glyph glyph-name="iogonek" unicode="&#x12f;" horiz-adv-x="235" 
d="M163 19l-4 -19c-103 -58 -148 -85 -148 -136c0 -32 22 -48 51 -48c32 0 53 13 65 25l13 -11c-16 -18 -44 -32 -78 -32c-41 0 -72 21 -72 66c0 36 26 78 139 133l-1 3h-47c-15 0 -23 6 -23 19c0 6 1 10 2 16l95 471h21l-98 -487h85zM200 673c-15 0 -20 8 -20 16
c0 4 1 8 2 14c3 12 10 19 27 19c15 0 20 -8 20 -16c0 -4 -1 -8 -2 -14c-3 -12 -10 -19 -27 -19z" />
    <glyph glyph-name="Idotaccent" unicode="&#x130;" horiz-adv-x="368" 
d="M297 822c-16 0 -20 9 -20 17c0 5 1 9 3 15c3 9 7 17 23 17s20 -9 20 -17c0 -5 -1 -9 -3 -15c-3 -9 -7 -17 -23 -17zM251 0h-236l4 19h107l132 660h-107l4 19h236l-4 -19h-107l-132 -660h107z" />
    <glyph glyph-name="dotlessi" unicode="&#x131;" horiz-adv-x="235" 
d="M159 0h-78c-15 0 -23 6 -23 19c0 6 1 10 2 16l95 471h21l-98 -487h85z" />
    <glyph glyph-name="IJ" unicode="&#x132;" horiz-adv-x="624" 
d="M398 698h218l-99 -496c-28 -139 -117 -214 -253 -214c-117 0 -186 58 -195 146l20 5c9 -90 79 -132 178 -132c121 0 203 69 228 195l95 476h-196zM103 290l82 408h22l-82 -408h-22z" />
    <glyph glyph-name="ij" unicode="&#x133;" horiz-adv-x="465" 
d="M253 -181l137 687h21l-134 -673c-5 -26 -13 -33 -41 -33h-72l4 19h85zM435 673c-15 0 -20 8 -20 16c0 4 1 8 2 14c3 12 10 19 27 19c15 0 20 -8 20 -16c0 -4 -1 -8 -2 -14c-3 -12 -10 -19 -27 -19zM200 673c-15 0 -20 8 -20 16c0 4 1 8 2 14c3 12 10 19 27 19
c15 0 20 -8 20 -16c0 -4 -1 -8 -2 -14c-3 -12 -10 -19 -27 -19zM159 0h-78c-15 0 -23 6 -23 19c0 6 1 10 2 16l95 471h21l-98 -487h85z" />
    <glyph glyph-name="Jcircumflex" unicode="&#x134;" horiz-adv-x="455" 
d="M325 923h24l106 -134l-15 -10l-104 127l-148 -127l-13 12zM178 698h268l-103 -520c-24 -122 -97 -190 -201 -190c-97 0 -150 55 -156 130l20 5c8 -77 58 -115 136 -115c95 0 158 64 180 176l99 494h-246z" />
    <glyph glyph-name="jcircumflex" unicode="&#x135;" horiz-adv-x="229" 
d="M199 743h24l106 -134l-15 -10l-104 127l-148 -127l-13 12zM-72 -200l4 19h85l137 687h21l-134 -673c-5 -26 -13 -33 -41 -33h-72z" />
    <glyph glyph-name="Kcommaaccent" unicode="&#x136;" horiz-adv-x="564" 
d="M250 -66c17 0 21 -9 21 -16c0 -5 -1 -11 -2 -17c-5 -31 -30 -80 -60 -113h-18c31 35 49 73 56 97c-20 0 -25 8 -25 16c0 3 1 11 2 16c2 9 7 17 26 17zM474 0l-184 388l-165 -151l-49 -237h-22l140 698h22l-85 -427h3l166 152l304 275h29l-326 -296l190 -402h-23z" />
    <glyph glyph-name="kcommaaccent" unicode="&#x137;" horiz-adv-x="479" 
d="M215 -66c17 0 21 -9 21 -16c0 -5 -1 -11 -2 -17c-5 -31 -30 -80 -60 -113h-18c31 35 49 73 56 97c-20 0 -25 8 -25 16c0 3 1 11 2 16c2 9 7 17 26 17zM53 0l148 740h21l-104 -519h4l112 94l219 191h27l-243 -214l141 -273h57l-4 -19h-48c-15 0 -21 6 -29 21l-133 259
l-109 -91l-38 -189h-21z" />
    <glyph glyph-name="kgreenlandic" unicode="&#x138;" horiz-adv-x="471" 
d="M53 0l101 506h21l-59 -296h4l112 94l228 202h27l-252 -225l135 -262h57l-4 -19h-49c-15 0 -21 6 -29 21l-127 247l-108 -90l-36 -178h-21z" />
    <glyph glyph-name="Lacute" unicode="&#x139;" horiz-adv-x="468" 
d="M367 918l-147 -151l-13 11l143 153zM401 0h-347l140 698h22l-136 -678h325z" />
    <glyph glyph-name="lacute" unicode="&#x13a;" horiz-adv-x="235" 
d="M346 938l-147 -151l-13 11l143 153zM159 0h-78c-15 0 -23 6 -23 19c0 6 1 10 2 16l141 705h21l-144 -721h85z" />
    <glyph glyph-name="Lcommaaccent" unicode="&#x13b;" horiz-adv-x="468" 
d="M219 -66c17 0 21 -9 21 -16c0 -5 -1 -11 -2 -17c-5 -31 -30 -80 -60 -113h-18c31 35 49 73 56 97c-20 0 -25 8 -25 16c0 3 1 11 2 16c2 9 7 17 26 17zM401 0h-347l140 698h22l-136 -678h325z" />
    <glyph glyph-name="lcommaaccent" unicode="&#x13c;" horiz-adv-x="235" 
d="M90 -66c17 0 21 -9 21 -16c0 -5 -1 -11 -2 -17c-5 -31 -30 -80 -60 -113h-18c31 35 49 73 56 97c-20 0 -25 8 -25 16c0 3 1 11 2 16c2 9 7 17 26 17zM159 0h-78c-15 0 -23 6 -23 19c0 6 1 10 2 16l141 705h21l-144 -721h85z" />
    <glyph glyph-name="Lcaron" unicode="&#x13d;" horiz-adv-x="468" 
d="M364 740l-53 -176h-17l45 176h25zM401 0h-347l140 698h22l-136 -678h325z" />
    <glyph glyph-name="lcaron" unicode="&#x13e;" horiz-adv-x="235" 
d="M333 740l-53 -176h-17l45 176h25zM159 0h-78c-15 0 -23 6 -23 19c0 6 1 10 2 16l141 705h21l-144 -721h85z" />
    <glyph glyph-name="Ldot" unicode="&#x13f;" horiz-adv-x="468" 
d="M345 273c-16 0 -20 9 -20 17c0 5 1 9 3 15c3 9 7 17 23 17s20 -9 20 -17c0 -5 -1 -9 -3 -15c-3 -9 -7 -17 -23 -17zM401 0h-347l140 698h22l-136 -678h325z" />
    <glyph glyph-name="ldot" unicode="&#x140;" horiz-adv-x="298" 
d="M254 238c-16 0 -20 9 -20 17c0 5 1 9 3 15c3 9 7 17 23 17s20 -9 20 -17c0 -5 -1 -9 -3 -15c-3 -9 -7 -17 -23 -17zM159 0h-78c-15 0 -23 6 -23 19c0 6 1 10 2 16l141 705h21l-144 -721h85z" />
    <glyph glyph-name="Lslash" unicode="&#x141;" horiz-adv-x="471" 
d="M408 20l-4 -20h-347l61 303l-98 -31l1 20l101 32l75 374h22l-74 -367l202 63l-1 -20l-205 -64l-58 -290h325z" />
    <glyph glyph-name="lslash" unicode="&#x142;" horiz-adv-x="242" 
d="M167 19l-4 -19h-78c-15 0 -23 6 -23 19c0 6 1 10 2 16l63 316l-73 -24v20l77 25l74 368h21l-72 -361l89 29v-20l-93 -30l-68 -339h85z" />
    <glyph glyph-name="Nacute" unicode="&#x143;" horiz-adv-x="680" 
d="M592 918l-147 -151l-13 11l143 153zM494 0l-282 671h-3l-134 -671h-21l140 698h30l282 -671h3l134 671h21l-140 -698h-30z" />
    <glyph glyph-name="nacute" unicode="&#x144;" horiz-adv-x="548" 
d="M470 738l-147 -151l-13 11l143 153zM74 0h-21l101 506h21l-21 -105h3c40 76 95 117 178 117c85 0 132 -49 132 -132c0 -20 -3 -45 -7 -65l-60 -302h85l-4 -19h-78c-15 0 -23 6 -23 19c0 6 1 10 2 16l57 285c4 22 7 50 7 63c0 77 -39 116 -114 116c-45 0 -93 -15 -133 -62
c-22 -26 -51 -65 -63 -125z" />
    <glyph glyph-name="Ncommaaccent" unicode="&#x145;" horiz-adv-x="680" 
d="M284 -66c17 0 21 -9 21 -16c0 -5 -1 -11 -2 -17c-5 -31 -30 -80 -60 -113h-18c31 35 49 73 56 97c-20 0 -25 8 -25 16c0 3 1 11 2 16c2 9 7 17 26 17zM494 0l-282 671h-3l-134 -671h-21l140 698h30l282 -671h3l134 671h21l-140 -698h-30z" />
    <glyph glyph-name="ncommaaccent" unicode="&#x146;" horiz-adv-x="548" 
d="M226 -66c17 0 21 -9 21 -16c0 -5 -1 -11 -2 -17c-5 -31 -30 -80 -60 -113h-18c31 35 49 73 56 97c-20 0 -25 8 -25 16c0 3 1 11 2 16c2 9 7 17 26 17zM74 0h-21l101 506h21l-21 -105h3c40 76 95 117 178 117c85 0 132 -49 132 -132c0 -20 -3 -45 -7 -65l-60 -302h85
l-4 -19h-78c-15 0 -23 6 -23 19c0 6 1 10 2 16l57 285c4 22 7 50 7 63c0 77 -39 116 -114 116c-45 0 -93 -15 -133 -62c-22 -26 -51 -65 -63 -125z" />
    <glyph glyph-name="Ncaron" unicode="&#x147;" horiz-adv-x="680" 
d="M468 783h-24l-106 134l15 10l104 -127l148 127l13 -12zM494 0l-282 671h-3l-134 -671h-21l140 698h30l282 -671h3l134 671h21l-140 -698h-30z" />
    <glyph glyph-name="ncaron" unicode="&#x148;" horiz-adv-x="548" 
d="M358 603h-24l-106 134l15 10l104 -127l148 127l13 -12zM74 0h-21l101 506h21l-21 -105h3c40 76 95 117 178 117c85 0 132 -49 132 -132c0 -20 -3 -45 -7 -65l-60 -302h85l-4 -19h-78c-15 0 -23 6 -23 19c0 6 1 10 2 16l57 285c4 22 7 50 7 63c0 77 -39 116 -114 116
c-45 0 -93 -15 -133 -62c-22 -26 -51 -65 -63 -125z" />
    <glyph glyph-name="napostrophe" unicode="&#x149;" horiz-adv-x="788" 
d="M314 0h-21l101 506h21l-21 -105h3c40 76 95 117 178 117c85 0 132 -49 132 -132c0 -20 -3 -45 -7 -65l-60 -302h85l-4 -19h-78c-15 0 -23 6 -23 19c0 6 1 10 2 16l57 285c4 22 7 50 7 63c0 77 -39 116 -114 116c-45 0 -93 -15 -133 -62c-22 -26 -51 -65 -63 -125z
M223 750c19 0 25 -10 25 -19c0 -5 -2 -15 -3 -19c-13 -54 -57 -122 -107 -162h-21c60 50 90 105 101 142c-22 0 -27 10 -27 19c0 5 2 14 3 18c3 11 9 21 29 21z" />
    <glyph glyph-name="Eng" unicode="&#x14a;" horiz-adv-x="680" 
d="M75 0h-21l140 698h30l282 -671h3l134 671h21l-174 -869c-4 -20 -15 -29 -35 -29h-77l4 19h85l36 181h-9l-282 671h-3z" />
    <glyph glyph-name="eng" unicode="&#x14b;" horiz-adv-x="548" 
d="M254 -181h85l100 501c4 22 7 50 7 63c0 77 -39 116 -114 116c-45 0 -93 -15 -133 -62c-22 -26 -51 -65 -63 -125l-62 -312h-21l101 506h21l-21 -105h3c40 76 95 117 178 117c85 0 132 -49 132 -132c0 -20 -3 -45 -7 -65l-97 -488c-5 -26 -15 -33 -43 -33h-70z" />
    <glyph glyph-name="Omacron" unicode="&#x14c;" horiz-adv-x="658" 
d="M319 838l3 18h258l-3 -18h-258zM291 -12c-132 0 -222 81 -222 232c0 198 88 490 332 490c132 0 222 -81 222 -232c0 -198 -88 -490 -332 -490zM291 8c145 0 252 120 289 306l11 55c8 42 10 81 10 109c0 130 -71 212 -200 212c-145 0 -252 -120 -289 -306l-11 -55
c-8 -42 -10 -81 -10 -109c0 -130 71 -212 200 -212z" />
    <glyph glyph-name="omacron" unicode="&#x14d;" horiz-adv-x="534" 
d="M207 658l3 18h258l-3 -18h-258zM225 -12c-107 0 -166 81 -166 181c0 187 85 349 250 349c107 0 166 -81 166 -181c0 -187 -85 -349 -250 -349zM227 7c112 0 187 83 214 218l8 40c4 22 5 46 5 72c0 88 -45 162 -147 162c-112 0 -187 -83 -214 -218l-8 -40
c-4 -22 -5 -46 -5 -72c0 -88 45 -162 147 -162z" />
    <glyph glyph-name="Obreve" unicode="&#x14e;" horiz-adv-x="658" 
d="M439 786c-66 0 -91 43 -115 117l16 7l15 -37c20 -49 43 -68 84 -68c46 0 71 17 107 69l25 36l16 -7c-47 -72 -78 -117 -148 -117zM291 -12c-132 0 -222 81 -222 232c0 198 88 490 332 490c132 0 222 -81 222 -232c0 -198 -88 -490 -332 -490zM291 8
c145 0 252 120 289 306l11 55c8 42 10 81 10 109c0 130 -71 212 -200 212c-145 0 -252 -120 -289 -306l-11 -55c-8 -42 -10 -81 -10 -109c0 -130 71 -212 200 -212z" />
    <glyph glyph-name="obreve" unicode="&#x14f;" horiz-adv-x="534" 
d="M328 606c-66 0 -91 43 -115 117l16 7l15 -37c20 -49 43 -68 84 -68c46 0 71 17 107 69l25 36l16 -7c-47 -72 -78 -117 -148 -117zM225 -12c-107 0 -166 81 -166 181c0 187 85 349 250 349c107 0 166 -81 166 -181c0 -187 -85 -349 -250 -349zM227 7c112 0 187 83 214 218
l8 40c4 22 5 46 5 72c0 88 -45 162 -147 162c-112 0 -187 -83 -214 -218l-8 -40c-4 -22 -5 -46 -5 -72c0 -88 45 -162 147 -162z" />
    <glyph glyph-name="Ohungarumlaut" unicode="&#x150;" horiz-adv-x="658" 
d="M494 918l-147 -151l-13 11l143 153zM654 918l-147 -151l-13 11l143 153zM291 -12c-132 0 -222 81 -222 232c0 198 88 490 332 490c132 0 222 -81 222 -232c0 -198 -88 -490 -332 -490zM291 8c145 0 252 120 289 306l11 55c8 42 10 81 10 109c0 130 -71 212 -200 212
c-145 0 -252 -120 -289 -306l-11 -55c-8 -42 -10 -81 -10 -109c0 -130 71 -212 200 -212z" />
    <glyph glyph-name="ohungarumlaut" unicode="&#x151;" horiz-adv-x="534" 
d="M387 738l-147 -151l-13 11l143 153zM547 738l-147 -151l-13 11l143 153zM225 -12c-107 0 -166 81 -166 181c0 187 85 349 250 349c107 0 166 -81 166 -181c0 -187 -85 -349 -250 -349zM227 7c112 0 187 83 214 218l8 40c4 22 5 46 5 72c0 88 -45 162 -147 162
c-112 0 -187 -83 -214 -218l-8 -40c-4 -22 -5 -46 -5 -72c0 -88 45 -162 147 -162z" />
    <glyph glyph-name="OE" unicode="&#x152;" horiz-adv-x="928" 
d="M807 0h-375c-34 -10 -85 -12 -120 -12c-145 0 -243 76 -243 229c0 104 31 493 357 493c48 0 107 -5 143 -12h378l-4 -20h-356l-63 -314h344l-4 -20h-344l-65 -324h356zM312 8c34 0 86 0 121 14l132 655c-31 7 -89 13 -141 13c-168 0 -274 -124 -308 -290l-12 -59
c-9 -47 -13 -92 -13 -124c0 -135 81 -209 221 -209z" />
    <glyph glyph-name="oe" unicode="&#x153;" horiz-adv-x="884" 
d="M227 7c112 0 187 83 214 218l8 40c4 20 5 46 5 72c0 88 -45 162 -147 162c-112 0 -187 -83 -214 -218l-8 -40c-4 -20 -5 -46 -5 -72c0 -88 45 -162 147 -162zM686 499c-112 0 -193 -97 -216 -230l-3 -17c300 5 357 76 357 143c0 61 -41 104 -138 104zM617 -12
c-107 0 -163 58 -173 169h-3c-40 -106 -112 -169 -216 -169c-107 0 -166 81 -166 181c0 187 85 349 250 349c98 0 156 -69 164 -160h3c35 84 107 160 212 160c95 0 158 -47 158 -123c0 -62 -42 -155 -381 -162c-1 -9 -3 -30 -3 -40c0 -128 55 -186 155 -186
c82 0 148 47 189 125l19 -8c-53 -95 -124 -136 -208 -136z" />
    <glyph glyph-name="Racute" unicode="&#x154;" horiz-adv-x="630" 
d="M528 918l-147 -151l-13 11l143 153zM141 322l-65 -322h-22l140 698h251c97 0 151 -63 151 -148c0 -144 -79 -228 -214 -228l125 -322h-23l-125 322h-218zM145 342h243c103 0 161 59 177 139c8 39 9 58 9 69c0 70 -39 128 -131 128h-232z" />
    <glyph glyph-name="racute" unicode="&#x155;" horiz-adv-x="338" 
d="M402 738l-147 -151l-13 11l143 153zM74 0h-21l101 506h21l-23 -114h3c34 66 81 114 173 114h30l-4 -19h-29c-99 0 -172 -86 -193 -194z" />
    <glyph glyph-name="Rcommaaccent" unicode="&#x156;" horiz-adv-x="630" 
d="M259 -66c17 0 21 -9 21 -16c0 -5 -1 -11 -2 -17c-5 -31 -30 -80 -60 -113h-18c31 35 49 73 56 97c-20 0 -25 8 -25 16c0 3 1 11 2 16c2 9 7 17 26 17zM141 322l-65 -322h-22l140 698h251c97 0 151 -63 151 -148c0 -144 -79 -228 -214 -228l125 -322h-23l-125 322h-218z
M145 342h243c103 0 161 59 177 139c8 39 9 58 9 69c0 70 -39 128 -131 128h-232z" />
    <glyph glyph-name="rcommaaccent" unicode="&#x157;" horiz-adv-x="338" 
d="M51 -66c17 0 21 -9 21 -16c0 -5 -1 -11 -2 -17c-5 -31 -30 -80 -60 -113h-18c31 35 49 73 56 97c-20 0 -25 8 -25 16c0 3 1 11 2 16c2 9 7 17 26 17zM74 0h-21l101 506h21l-23 -114h3c34 66 81 114 173 114h30l-4 -19h-29c-99 0 -172 -86 -193 -194z" />
    <glyph glyph-name="Rcaron" unicode="&#x158;" horiz-adv-x="630" 
d="M404 783h-24l-106 134l15 10l104 -127l148 127l13 -12zM141 322l-65 -322h-22l140 698h251c97 0 151 -63 151 -148c0 -144 -79 -228 -214 -228l125 -322h-23l-125 322h-218zM145 342h243c103 0 161 59 177 139c8 39 9 58 9 69c0 70 -39 128 -131 128h-232z" />
    <glyph glyph-name="rcaron" unicode="&#x159;" horiz-adv-x="338" 
d="M290 603h-24l-106 134l15 10l104 -127l148 127l13 -12zM74 0h-21l101 506h21l-23 -114h3c34 66 81 114 173 114h30l-4 -19h-29c-99 0 -172 -86 -193 -194z" />
    <glyph glyph-name="Sacute" unicode="&#x15a;" horiz-adv-x="536" 
d="M479 918l-147 -151l-13 11l143 153zM235 -12c-121 0 -181 44 -221 111l18 13c38 -65 90 -104 204 -104c150 0 207 91 207 196c0 72 -36 111 -121 133l-86 22c-90 23 -129 74 -129 154c0 107 71 197 217 197c114 0 170 -35 204 -98l-18 -11c-36 65 -88 89 -187 89
c-134 0 -194 -82 -194 -177c0 -73 34 -113 115 -134l83 -22c94 -25 139 -74 139 -153c0 -118 -70 -216 -231 -216z" />
    <glyph glyph-name="sacute" unicode="&#x15b;" horiz-adv-x="448" 
d="M389 738l-147 -151l-13 11l143 153zM199 -12c-84 0 -144 35 -186 98l18 12c39 -62 94 -91 168 -91c93 0 155 47 155 131c0 63 -37 86 -103 103l-50 13c-68 18 -116 47 -116 124c0 93 76 140 167 140c87 0 132 -38 162 -79l-16 -14c-28 40 -67 74 -147 74
c-87 0 -145 -43 -145 -121c0 -62 35 -88 101 -105l50 -13c68 -18 118 -44 118 -121c0 -100 -78 -151 -176 -151z" />
    <glyph glyph-name="Scircumflex" unicode="&#x15c;" horiz-adv-x="536" 
d="M357 923h24l106 -134l-15 -10l-104 127l-148 -127l-13 12zM235 -12c-121 0 -181 44 -221 111l18 13c38 -65 90 -104 204 -104c150 0 207 91 207 196c0 72 -36 111 -121 133l-86 22c-90 23 -129 74 -129 154c0 107 71 197 217 197c114 0 170 -35 204 -98l-18 -11
c-36 65 -88 89 -187 89c-134 0 -194 -82 -194 -177c0 -73 34 -113 115 -134l83 -22c94 -25 139 -74 139 -153c0 -118 -70 -216 -231 -216z" />
    <glyph glyph-name="scircumflex" unicode="&#x15d;" horiz-adv-x="448" 
d="M281 743h24l106 -134l-15 -10l-104 127l-148 -127l-13 12zM199 -12c-84 0 -144 35 -186 98l18 12c39 -62 94 -91 168 -91c93 0 155 47 155 131c0 63 -37 86 -103 103l-50 13c-68 18 -116 47 -116 124c0 93 76 140 167 140c87 0 132 -38 162 -79l-16 -14
c-28 40 -67 74 -147 74c-87 0 -145 -43 -145 -121c0 -62 35 -88 101 -105l50 -13c68 -18 118 -44 118 -121c0 -100 -78 -151 -176 -151z" />
    <glyph glyph-name="Scedilla" unicode="&#x15e;" horiz-adv-x="536" 
d="M195 -202c-37 0 -64 15 -75 32l14 13c13 -17 33 -27 61 -27c43 0 73 24 73 58c0 23 -13 38 -52 40l-37 2l32 73c-104 5 -160 47 -197 110l18 13c38 -65 90 -104 204 -104c150 0 207 91 207 196c0 72 -36 111 -121 133l-86 22c-90 23 -129 74 -129 154
c0 107 71 197 217 197c114 0 170 -35 204 -98l-18 -11c-36 65 -88 89 -187 89c-134 0 -194 -82 -194 -177c0 -73 34 -113 115 -134l83 -22c94 -25 139 -74 139 -153c0 -118 -70 -216 -231 -216h-7l-27 -61l2 -2c9 2 21 3 29 3c36 0 57 -20 57 -53c0 -42 -37 -77 -94 -77z
" />
    <glyph glyph-name="scedilla" unicode="&#x15f;" horiz-adv-x="448" 
d="M169 -202c-37 0 -64 15 -75 32l14 13c13 -17 33 -27 61 -27c43 0 73 24 73 58c0 23 -13 38 -52 40l-37 2l32 72c-77 4 -132 39 -172 98l18 12c39 -62 94 -91 168 -91c93 0 155 47 155 131c0 63 -37 86 -103 103l-50 13c-68 18 -116 47 -116 124c0 93 76 140 167 140
c87 0 132 -38 162 -79l-16 -14c-28 40 -67 74 -147 74c-87 0 -145 -43 -145 -121c0 -62 35 -88 101 -105l50 -13c68 -18 118 -44 118 -121c0 -100 -78 -151 -173 -151l-27 -61l2 -2c9 2 21 3 29 3c36 0 57 -20 57 -53c0 -42 -37 -77 -94 -77z" />
    <glyph glyph-name="Scaron" unicode="&#x160;" horiz-adv-x="536" 
d="M355 783h-24l-106 134l15 10l104 -127l148 127l13 -12zM235 -12c-121 0 -181 44 -221 111l18 13c38 -65 90 -104 204 -104c150 0 207 91 207 196c0 72 -36 111 -121 133l-86 22c-90 23 -129 74 -129 154c0 107 71 197 217 197c114 0 170 -35 204 -98l-18 -11
c-36 65 -88 89 -187 89c-134 0 -194 -82 -194 -177c0 -73 34 -113 115 -134l83 -22c94 -25 139 -74 139 -153c0 -118 -70 -216 -231 -216z" />
    <glyph glyph-name="scaron" unicode="&#x161;" horiz-adv-x="448" 
d="M277 603h-24l-106 134l15 10l104 -127l148 127l13 -12zM199 -12c-84 0 -144 35 -186 98l18 12c39 -62 94 -91 168 -91c93 0 155 47 155 131c0 63 -37 86 -103 103l-50 13c-68 18 -116 47 -116 124c0 93 76 140 167 140c87 0 132 -38 162 -79l-16 -14
c-28 40 -67 74 -147 74c-87 0 -145 -43 -145 -121c0 -62 35 -88 101 -105l50 -13c68 -18 118 -44 118 -121c0 -100 -78 -151 -176 -151z" />
    <glyph glyph-name="uni0162" unicode="&#x162;" horiz-adv-x="548" 
d="M211 -66c17 0 21 -9 21 -16c0 -5 -1 -11 -2 -17c-5 -31 -30 -80 -60 -113h-18c31 35 49 73 56 97c-20 0 -25 8 -25 16c0 3 1 11 2 16c2 9 7 17 26 17zM619 678h-249l-136 -678h-22l136 678h-249l4 20h520z" />
    <glyph glyph-name="uni0163" unicode="&#x163;" horiz-adv-x="302" 
d="M126 -66c17 0 21 -9 21 -16c0 -5 -1 -11 -2 -17c-5 -31 -30 -80 -60 -113h-18c31 35 49 73 56 97c-20 0 -25 8 -25 16c0 3 1 11 2 16c2 9 7 17 26 17zM206 0h-106c-15 0 -23 6 -23 19c0 6 1 10 2 16l90 452h-95l4 19h72c18 0 25 7 28 25l24 119h21l-29 -144h121l-4 -19
h-121l-93 -468h113z" />
    <glyph glyph-name="Tcaron" unicode="&#x164;" horiz-adv-x="548" 
d="M392 783h-24l-106 134l15 10l104 -127l148 127l13 -12zM619 678h-249l-136 -678h-22l136 678h-249l4 20h520z" />
    <glyph glyph-name="tcaron" unicode="&#x165;" horiz-adv-x="302" 
d="M364 740l-53 -176h-17l45 176h25zM206 0h-106c-15 0 -23 6 -23 19c0 6 1 10 2 16l90 452h-95l4 19h72c18 0 25 7 28 25l24 119h21l-29 -144h121l-4 -19h-121l-93 -468h113z" />
    <glyph glyph-name="Tbar" unicode="&#x166;" horiz-adv-x="548" 
d="M494 365h-187l-73 -365h-22l73 365h-188l4 19h188l59 294h-249l4 20h520l-4 -20h-249l-59 -294h187z" />
    <glyph glyph-name="tbar" unicode="&#x167;" horiz-adv-x="308" 
d="M213 19l-4 -19h-106c-15 0 -23 6 -23 19c0 6 1 10 2 16l49 245h-69l4 18h68l38 189h-95l4 19h72c18 0 25 7 28 25l24 119h21l-29 -144h121l-4 -19h-121l-38 -189h102l-4 -18h-101l-52 -261h113z" />
    <glyph glyph-name="Utilde" unicode="&#x168;" horiz-adv-x="639" 
d="M491 808c-26 0 -42 10 -72 31c-25 17 -41 25 -64 25s-44 -11 -69 -33l-11 12c30 29 57 39 85 39c26 0 42 -9 72 -30c25 -17 41 -26 64 -26s44 11 69 33l11 -12c-30 -29 -57 -39 -85 -39zM185 698h22l-85 -427c-12 -59 -18 -93 -18 -123c0 -88 53 -140 169 -140
c152 0 210 64 250 263l86 427h22l-86 -428c-43 -214 -107 -282 -272 -282c-120 0 -191 54 -191 160c0 37 8 72 19 128z" />
    <glyph glyph-name="utilde" unicode="&#x169;" horiz-adv-x="548" 
d="M404 628c-26 0 -42 10 -72 31c-25 17 -41 25 -64 25s-44 -11 -69 -33l-11 12c30 29 57 39 85 39c26 0 42 -9 72 -30c25 -17 41 -26 64 -26s44 11 69 33l11 -12c-30 -29 -57 -39 -85 -39zM145 506h21l-64 -320c-4 -22 -7 -50 -7 -63c0 -77 39 -116 114 -116
c45 0 93 15 133 62c22 26 51 65 63 125l62 312h21l-97 -487h85l-4 -19h-78c-15 0 -23 6 -23 19c0 6 1 10 2 16l14 70h-3c-40 -76 -95 -117 -178 -117c-85 0 -132 49 -132 132c0 20 3 45 7 65z" />
    <glyph glyph-name="Umacron" unicode="&#x16a;" horiz-adv-x="639" 
d="M306 838l3 18h258l-3 -18h-258zM185 698h22l-85 -427c-12 -59 -18 -93 -18 -123c0 -88 53 -140 169 -140c152 0 210 64 250 263l86 427h22l-86 -428c-43 -214 -107 -282 -272 -282c-120 0 -191 54 -191 160c0 37 8 72 19 128z" />
    <glyph glyph-name="umacron" unicode="&#x16b;" horiz-adv-x="548" 
d="M208 658l3 18h258l-3 -18h-258zM145 506h21l-64 -320c-4 -22 -7 -50 -7 -63c0 -77 39 -116 114 -116c45 0 93 15 133 62c22 26 51 65 63 125l62 312h21l-97 -487h85l-4 -19h-78c-15 0 -23 6 -23 19c0 6 1 10 2 16l14 70h-3c-40 -76 -95 -117 -178 -117
c-85 0 -132 49 -132 132c0 20 3 45 7 65z" />
    <glyph glyph-name="Ubreve" unicode="&#x16c;" horiz-adv-x="639" 
d="M426 786c-66 0 -91 43 -115 117l16 7l15 -37c20 -49 43 -68 84 -68c46 0 71 17 107 69l25 36l16 -7c-47 -72 -78 -117 -148 -117zM185 698h22l-85 -427c-12 -59 -18 -93 -18 -123c0 -88 53 -140 169 -140c152 0 210 64 250 263l86 427h22l-86 -428
c-43 -214 -107 -282 -272 -282c-120 0 -191 54 -191 160c0 37 8 72 19 128z" />
    <glyph glyph-name="ubreve" unicode="&#x16d;" horiz-adv-x="548" 
d="M329 606c-66 0 -91 43 -115 117l16 7l15 -37c20 -49 43 -68 84 -68c46 0 71 17 107 69l25 36l16 -7c-47 -72 -78 -117 -148 -117zM145 506h21l-64 -320c-4 -22 -7 -50 -7 -63c0 -77 39 -116 114 -116c45 0 93 15 133 62c22 26 51 65 63 125l62 312h21l-97 -487h85l-4 -19
h-78c-15 0 -23 6 -23 19c0 6 1 10 2 16l14 70h-3c-40 -76 -95 -117 -178 -117c-85 0 -132 49 -132 132c0 20 3 45 7 65z" />
    <glyph glyph-name="Uring" unicode="&#x16e;" horiz-adv-x="639" 
d="M427 769c-59 0 -76 39 -76 72c0 66 42 110 105 110c59 0 77 -39 77 -72c0 -66 -42 -110 -106 -110zM431 787c41 0 72 23 80 66c3 17 4 21 4 27c0 32 -21 53 -63 53c-40 0 -71 -23 -79 -66c-3 -17 -4 -21 -4 -27c0 -32 21 -53 62 -53zM185 698h22l-85 -427
c-12 -59 -18 -93 -18 -123c0 -88 53 -140 169 -140c152 0 210 64 250 263l86 427h22l-86 -428c-43 -214 -107 -282 -272 -282c-120 0 -191 54 -191 160c0 37 8 72 19 128z" />
    <glyph glyph-name="uring" unicode="&#x16f;" horiz-adv-x="548" 
d="M324 589c-59 0 -76 39 -76 72c0 66 42 110 105 110c59 0 77 -39 77 -72c0 -66 -42 -110 -106 -110zM328 607c41 0 72 23 80 66c3 17 4 21 4 27c0 32 -21 53 -63 53c-40 0 -71 -23 -79 -66c-3 -17 -4 -21 -4 -27c0 -32 21 -53 62 -53zM145 506h21l-64 -320
c-4 -22 -7 -50 -7 -63c0 -77 39 -116 114 -116c45 0 93 15 133 62c22 26 51 65 63 125l62 312h21l-97 -487h85l-4 -19h-78c-15 0 -23 6 -23 19c0 6 1 10 2 16l14 70h-3c-40 -76 -95 -117 -178 -117c-85 0 -132 49 -132 132c0 20 3 45 7 65z" />
    <glyph glyph-name="Uhungarumlaut" unicode="&#x170;" horiz-adv-x="639" 
d="M481 918l-147 -151l-13 11l143 153zM641 918l-147 -151l-13 11l143 153zM185 698h22l-85 -427c-12 -59 -18 -93 -18 -123c0 -88 53 -140 169 -140c152 0 210 64 250 263l86 427h22l-86 -428c-43 -214 -107 -282 -272 -282c-120 0 -191 54 -191 160c0 37 8 72 19 128z" />
    <glyph glyph-name="uhungarumlaut" unicode="&#x171;" horiz-adv-x="548" 
d="M388 738l-147 -151l-13 11l143 153zM548 738l-147 -151l-13 11l143 153zM145 506h21l-64 -320c-4 -22 -7 -50 -7 -63c0 -77 39 -116 114 -116c45 0 93 15 133 62c22 26 51 65 63 125l62 312h21l-97 -487h85l-4 -19h-78c-15 0 -23 6 -23 19c0 6 1 10 2 16l14 70h-3
c-40 -76 -95 -117 -178 -117c-85 0 -132 49 -132 132c0 20 3 45 7 65z" />
    <glyph glyph-name="Uogonek" unicode="&#x172;" horiz-adv-x="639" 
d="M185 698h22l-85 -427c-12 -59 -18 -93 -18 -123c0 -88 53 -140 170 -140c152 0 209 64 249 263l86 427h22l-86 -428c-32 -157 -75 -236 -160 -267c-97 -35 -160 -89 -160 -139c0 -32 22 -48 51 -48c32 0 53 13 65 25l13 -11c-16 -18 -44 -32 -78 -32c-41 0 -72 21 -72 66
c0 34 21 81 120 124l-1 3c-16 -2 -33 -3 -51 -3c-121 0 -190 54 -190 160c0 37 8 72 19 128z" />
    <glyph glyph-name="uogonek" unicode="&#x173;" horiz-adv-x="548" 
d="M145 506h21l-64 -320c-4 -22 -7 -50 -7 -63c0 -77 39 -116 114 -116c45 0 93 15 133 62c22 26 51 65 63 125l62 312h21l-97 -487h85l-4 -19c-103 -58 -148 -85 -148 -136c0 -32 22 -48 51 -48c32 0 53 13 65 25l13 -11c-16 -18 -44 -32 -78 -32c-41 0 -72 21 -72 66
c0 36 26 78 139 133l-1 3h-47c-15 0 -23 6 -23 19c0 6 1 10 2 16l14 70h-3c-40 -76 -95 -117 -178 -117c-85 0 -132 49 -132 132c0 20 3 45 7 65z" />
    <glyph glyph-name="Wcircumflex" unicode="&#x174;" horiz-adv-x="864" 
d="M554 923h24l106 -134l-15 -10l-104 127l-148 -127l-13 12zM192 0h-31l-40 698h22l38 -667h3l323 667h31l51 -667h3l313 667h24l-329 -698h-31l-50 668h-3z" />
    <glyph glyph-name="wcircumflex" unicode="&#x175;" horiz-adv-x="718" 
d="M438 743h24l106 -134l-15 -10l-104 127l-148 -127l-13 12zM130 0l-52 506h20l48 -479h3l245 479h22l51 -479h2l241 479h22l-256 -506h-26l-49 472h-3l-242 -472h-26z" />
    <glyph glyph-name="Ycircumflex" unicode="&#x176;" horiz-adv-x="540" 
d="M391 923h24l106 -134l-15 -10l-104 127l-148 -127l-13 12zM230 0h-22l59 294l-158 404h23l148 -378h3l300 378h26l-320 -404z" />
    <glyph glyph-name="ycircumflex" unicode="&#x177;" horiz-adv-x="460" 
d="M302 743h24l106 -134l-15 -10l-104 127l-148 -127l-13 12zM181 24l273 482h23l-388 -681c-11 -19 -19 -25 -38 -25h-75l4 19h84l100 178l-91 509h20l85 -482h3z" />
    <glyph glyph-name="Ydieresis" unicode="&#x178;" horiz-adv-x="540" 
d="M294 819c-16 0 -20 9 -20 17c0 5 1 9 3 15c3 9 7 17 23 17s20 -9 20 -17c0 -5 -1 -9 -3 -15c-3 -9 -7 -17 -23 -17zM476 819c-16 0 -20 9 -20 17c0 5 1 9 3 15c3 9 7 17 23 17s20 -9 20 -17c0 -5 -1 -9 -3 -15c-3 -9 -7 -17 -23 -17zM230 0h-22l59 294l-158 404h23
l148 -378h3l300 378h26l-320 -404z" />
    <glyph glyph-name="Zacute" unicode="&#x179;" horiz-adv-x="543" 
d="M514 918l-147 -151l-13 11l143 153zM466 20l-4 -20h-484l5 22l567 656h-413l4 20h440l-5 -22l-567 -656h457z" />
    <glyph glyph-name="zacute" unicode="&#x17a;" horiz-adv-x="430" 
d="M398 738l-147 -151l-13 11l143 153zM346 0h-347l4 20l399 467h-310l4 19h334l-4 -20l-398 -467h322z" />
    <glyph glyph-name="Zdotaccent" unicode="&#x17b;" horiz-adv-x="543" 
d="M385 822c-16 0 -20 9 -20 17c0 5 1 9 3 15c3 9 7 17 23 17s20 -9 20 -17c0 -5 -1 -9 -3 -15c-3 -9 -7 -17 -23 -17zM466 20l-4 -20h-484l5 22l567 656h-413l4 20h440l-5 -22l-567 -656h457z" />
    <glyph glyph-name="zdotaccent" unicode="&#x17c;" horiz-adv-x="430" 
d="M284 642c-16 0 -20 9 -20 17c0 5 1 9 3 15c3 9 7 17 23 17s20 -9 20 -17c0 -5 -1 -9 -3 -15c-3 -9 -7 -17 -23 -17zM346 0h-347l4 20l399 467h-310l4 19h334l-4 -20l-398 -467h322z" />
    <glyph glyph-name="Zcaron" unicode="&#x17d;" horiz-adv-x="543" 
d="M390 783h-24l-106 134l15 10l104 -127l148 127l13 -12zM466 20l-4 -20h-484l5 22l567 656h-413l4 20h440l-5 -22l-567 -656h457z" />
    <glyph glyph-name="zcaron" unicode="&#x17e;" horiz-adv-x="430" 
d="M286 603h-24l-106 134l15 10l104 -127l148 127l13 -12zM346 0h-347l4 20l399 467h-310l4 19h334l-4 -20l-398 -467h322z" />
    <glyph glyph-name="uni018F" unicode="&#x18f;" horiz-adv-x="658" 
d="M291 -12c-132 0 -222 81 -222 232c0 37 3 72 9 112l3 19h506c13 60 14 99 14 127c0 130 -71 212 -200 212c-108 0 -195 -67 -248 -178l-18 11c52 106 136 187 266 187c132 0 222 -81 222 -232c0 -198 -88 -490 -332 -490zM291 8c145 0 256 119 292 323h-482
c-7 -45 -10 -83 -10 -111c0 -130 71 -212 200 -212z" />
    <glyph glyph-name="florin" unicode="&#x192;" horiz-adv-x="488" 
d="M-84 -134l6 19h178l127 426h-173l6 19h173l100 335c8 25 13 33 41 33h175l-6 -19h-185l-104 -349h210l-6 -19h-210l-123 -412c-8 -25 -13 -33 -41 -33h-168z" />
    <glyph glyph-name="Ohorn" unicode="&#x1a0;" horiz-adv-x="658" 
d="M637 811h20l-19 -102c-4 -20 -14 -29 -35 -29h-80c63 -37 100 -106 100 -202c0 -198 -88 -490 -332 -490c-132 0 -222 81 -222 232c0 198 88 490 332 490c32 0 55 -4 82 -12h132zM291 8c145 0 252 120 289 306l11 55c8 42 10 81 10 109c0 130 -71 212 -200 212
c-145 0 -252 -120 -289 -306l-11 -55c-8 -42 -10 -81 -10 -109c0 -130 71 -212 200 -212z" />
    <glyph glyph-name="ohorn" unicode="&#x1a1;" horiz-adv-x="534" 
d="M225 -12c-107 0 -166 81 -166 181c0 187 85 349 250 349c24 0 46 -4 66 -12h100l21 111h20l-18 -100c-4 -20 -14 -29 -35 -29h-56c45 -32 68 -88 68 -151c0 -187 -85 -349 -250 -349zM227 7c112 0 187 83 214 218l8 40c4 20 5 46 5 72c0 88 -45 162 -147 162
c-112 0 -187 -83 -214 -218l-8 -40c-4 -20 -5 -46 -5 -72c0 -88 45 -162 147 -162z" />
    <glyph glyph-name="Uhorn" unicode="&#x1af;" horiz-adv-x="639" 
d="M185 698h22l-85 -427c-12 -59 -18 -93 -18 -123c0 -88 53 -140 169 -140c152 0 210 64 250 263l86 427h80l22 111h20l-19 -100c-4 -20 -14 -29 -35 -29h-50l-82 -410c-43 -214 -109 -282 -274 -282c-121 0 -188 54 -188 160c0 37 7 72 18 128z" />
    <glyph glyph-name="uhorn" unicode="&#x1b0;" horiz-adv-x="547" 
d="M472 0h-78c-15 0 -23 6 -23 19c0 6 1 10 2 16l14 70h-3c-40 -76 -95 -117 -178 -117c-85 0 -132 49 -132 132c0 20 3 45 7 65l64 321h21l-64 -320c-4 -22 -7 -50 -7 -63c0 -77 39 -116 114 -116c45 0 93 15 133 62c22 26 51 65 63 125l62 312h80l22 111h20l-19 -100
c-4 -20 -14 -29 -35 -29h-51l-93 -469h85z" />
    <glyph glyph-name="Aringacute" unicode="&#x1fa;" horiz-adv-x="594" 
d="M518 1076l-94 -97l-13 11l92 99zM388 769c-59 0 -76 39 -76 72c0 66 42 110 105 110c59 0 77 -39 77 -72c0 -66 -42 -110 -106 -110zM392 787c41 0 72 23 80 66c3 17 4 21 4 27c0 32 -21 53 -63 53c-40 0 -71 -23 -79 -66c-3 -17 -4 -21 -4 -27c0 -32 21 -53 62 -53z
M519 0h-22l-45 234h-318l-122 -234h-24l366 698h30zM448 253l-81 420h-3l-220 -420h304z" />
    <glyph glyph-name="aringacute" unicode="&#x1fb;" horiz-adv-x="567" 
d="M473 897l-100 -98l-13 10l96 102zM339 589c-59 0 -76 39 -76 72c0 66 42 110 105 110c59 0 77 -39 77 -72c0 -66 -42 -110 -106 -110zM343 607c41 0 72 23 80 66c3 17 4 21 4 27c0 32 -21 53 -63 53c-40 0 -71 -23 -79 -66c-3 -17 -4 -21 -4 -27c0 -32 21 -53 62 -53z
M491 0h-78c-15 0 -23 6 -23 19c0 6 1 10 2 16l15 76h-3c-42 -74 -96 -123 -181 -123c-105 0 -163 81 -163 188c0 184 89 342 249 342c85 0 138 -43 156 -105h3l18 93h21l-97 -487h85zM223 7c42 0 75 11 110 40c39 32 79 87 93 157l28 142c13 67 -26 153 -145 153
c-115 0 -189 -85 -215 -217l-7 -35c-4 -22 -6 -43 -6 -71c0 -93 44 -169 142 -169z" />
    <glyph glyph-name="AEacute" unicode="&#x1fc;" horiz-adv-x="884" 
d="M804 918l-147 -151l-13 11l143 153zM385 0l47 234h-252l-176 -234h-25l523 698h401l-4 -20h-356l-63 -314h344l-4 -20h-344l-65 -324h356l-4 -20h-378zM521 678h-10l-317 -425h242z" />
    <glyph glyph-name="aeacute" unicode="&#x1fd;" horiz-adv-x="860" 
d="M630 738l-147 -151l-13 11l143 153zM204 7c90 0 184 51 202 155l14 81l-180 -9c-111 -6 -157 -39 -167 -91c-5 -24 -5 -31 -5 -41c0 -60 48 -95 136 -95zM661 499c-112 0 -192 -97 -215 -226l-2 -11c301 5 355 73 355 137c0 59 -41 100 -138 100zM202 -12
c-98 0 -155 41 -155 115c0 100 62 143 194 149l183 9l13 68c4 19 5 37 5 52c0 65 -31 118 -135 118c-91 0 -133 -29 -175 -97l-17 9c40 67 88 107 194 107c108 0 151 -59 153 -131h3c41 78 108 131 198 131c95 0 158 -45 158 -119c0 -70 -51 -149 -379 -156
c-3 -18 -6 -36 -6 -53c0 -111 53 -183 156 -183c82 0 148 47 189 125l19 -7c-53 -95 -124 -137 -208 -137c-92 0 -158 54 -171 150h-3c-22 -90 -109 -150 -216 -150z" />
    <glyph glyph-name="Oslashacute" unicode="&#x1fe;" horiz-adv-x="658" 
d="M567 918l-147 -151l-13 11l143 153zM291 -12c-78 0 -142 28 -180 83l-93 -104l-15 12l97 109c-20 35 -31 79 -31 132c0 198 89 490 332 490c78 0 142 -28 180 -83l93 104l15 -12l-97 -109c20 -35 31 -79 31 -132c0 -198 -88 -490 -332 -490zM101 329
c-8 -42 -10 -81 -10 -109c0 -44 8 -83 24 -115l452 506c-33 50 -90 79 -166 79c-145 0 -252 -120 -289 -306zM591 369c8 42 10 81 10 109c0 44 -8 83 -24 115l-452 -506c33 -50 90 -79 166 -79c145 0 252 120 289 306z" />
    <glyph glyph-name="oslashacute" unicode="&#x1ff;" horiz-adv-x="534" 
d="M451 738l-147 -151l-13 11l143 153zM225 -12c-55 0 -96 21 -124 54l-58 -68l-14 11l61 72c-20 31 -31 70 -31 112c0 187 85 349 250 349c54 0 96 -20 124 -54l58 68l14 -11l-61 -72c20 -31 31 -70 31 -112c0 -187 -85 -349 -250 -349zM80 169c0 -36 7 -69 23 -96l318 376
c-24 30 -62 50 -114 50c-112 0 -187 -83 -214 -218l-8 -40c-4 -20 -5 -46 -5 -72zM227 7c112 0 187 83 214 218l8 40c4 20 5 46 5 72c0 35 -8 69 -23 96l-318 -376c24 -31 62 -50 114 -50z" />
    <glyph glyph-name="Scommaaccent" unicode="&#x218;" horiz-adv-x="536" 
d="M211 -66c17 0 21 -9 21 -16c0 -5 -1 -11 -2 -17c-5 -31 -30 -80 -60 -113h-18c31 35 49 73 56 97c-20 0 -25 8 -25 16c0 3 1 11 2 16c2 9 7 17 26 17zM235 -12c-121 0 -181 44 -221 111l18 13c38 -65 90 -104 204 -104c150 0 207 91 207 196c0 72 -36 111 -121 133
l-86 22c-90 23 -129 74 -129 154c0 107 71 197 217 197c114 0 170 -35 204 -98l-18 -11c-36 65 -88 89 -187 89c-134 0 -194 -82 -194 -177c0 -73 34 -113 115 -134l83 -22c94 -25 139 -74 139 -153c0 -118 -70 -216 -231 -216z" />
    <glyph glyph-name="scommaaccent" unicode="&#x219;" horiz-adv-x="448" 
d="M185 -66c17 0 21 -9 21 -16c0 -5 -1 -11 -2 -17c-5 -31 -30 -80 -60 -113h-18c31 35 49 73 56 97c-20 0 -25 8 -25 16c0 3 1 11 2 16c2 9 7 17 26 17zM199 -12c-84 0 -144 35 -186 98l18 12c39 -62 94 -91 168 -91c93 0 155 47 155 131c0 63 -37 86 -103 103l-50 13
c-68 18 -116 47 -116 124c0 93 76 140 167 140c87 0 132 -38 162 -79l-16 -14c-28 40 -67 74 -147 74c-87 0 -145 -43 -145 -121c0 -62 35 -88 101 -105l50 -13c68 -18 118 -44 118 -121c0 -100 -78 -151 -176 -151z" />
    <glyph glyph-name="uni021A" unicode="&#x21a;" horiz-adv-x="548" 
d="M211 -66c17 0 21 -9 21 -16c0 -5 -1 -11 -2 -17c-5 -31 -30 -80 -60 -113h-18c31 35 49 73 56 97c-20 0 -25 8 -25 16c0 3 1 11 2 16c2 9 7 17 26 17zM619 678h-249l-136 -678h-22l136 678h-249l4 20h520z" />
    <glyph glyph-name="uni021B" unicode="&#x21b;" horiz-adv-x="302" 
d="M126 -66c17 0 21 -9 21 -16c0 -5 -1 -11 -2 -17c-5 -31 -30 -80 -60 -113h-18c31 35 49 73 56 97c-20 0 -25 8 -25 16c0 3 1 11 2 16c2 9 7 17 26 17zM206 0h-106c-15 0 -23 6 -23 19c0 6 1 10 2 16l90 452h-95l4 19h72c18 0 25 7 28 25l24 119h21l-29 -144h121l-4 -19
h-121l-93 -468h113z" />
    <glyph glyph-name="uni0237" unicode="&#x237;" horiz-adv-x="229" 
d="M-72 -200l4 19h85l137 687h21l-134 -673c-5 -26 -13 -33 -41 -33h-72z" />
    <glyph glyph-name="uni0259" unicode="&#x259;" horiz-adv-x="505" 
d="M197 -12c-95 0 -158 47 -158 123c0 64 42 155 381 162c1 10 3 33 3 44c0 128 -52 182 -155 182c-82 0 -148 -47 -189 -125l-19 8c51 94 124 136 208 136c113 0 176 -63 176 -199c0 -184 -101 -331 -247 -331zM199 7c112 0 193 97 216 230l3 17
c-300 -5 -357 -76 -357 -143c0 -61 41 -104 138 -104z" />
    <glyph glyph-name="uni02BB" unicode="&#x2bb;" 
d="M312 599c-17 0 -21 9 -21 16c0 5 1 11 2 17c5 31 30 80 60 113h18c-31 -35 -49 -73 -56 -97c20 0 25 -8 25 -16c0 -3 -1 -11 -2 -16c-2 -9 -7 -17 -26 -17z" />
    <glyph glyph-name="uni02BC" unicode="&#x2bc;" 
d="M340 740l-53 -176h-17l45 176h25z" />
    <glyph glyph-name="circumflex" unicode="&#x2c6;" 
d="M327 743h24l106 -134l-15 -10l-104 127l-148 -127l-13 12z" />
    <glyph glyph-name="caron" unicode="&#x2c7;" 
d="M323 603h-24l-106 134l15 10l104 -127l148 127l13 -12z" />
    <glyph glyph-name="breve" unicode="&#x2d8;" 
d="M314 606c-66 0 -91 43 -115 117l16 7l15 -37c20 -49 43 -68 84 -68c46 0 71 17 107 69l25 36l16 -7c-47 -72 -78 -117 -148 -117z" />
    <glyph glyph-name="dotaccent" unicode="&#x2d9;" 
d="M321 642c-16 0 -20 9 -20 17c0 5 1 9 3 15c3 9 7 17 23 17s20 -9 20 -17c0 -5 -1 -9 -3 -15c-3 -9 -7 -17 -23 -17z" />
    <glyph glyph-name="ring" unicode="&#x2da;" 
d="M309 589c-59 0 -76 39 -76 72c0 66 42 110 105 110c59 0 77 -39 77 -72c0 -66 -42 -110 -106 -110zM313 607c41 0 72 23 80 66c3 17 4 21 4 27c0 32 -21 53 -63 53c-40 0 -71 -23 -79 -66c-3 -17 -4 -21 -4 -27c0 -32 21 -53 62 -53z" />
    <glyph glyph-name="ogonek" unicode="&#x2db;" 
d="M206 -202c-41 0 -72 21 -72 66c0 37 27 80 143 136l-3 12l25 4l4 -16c-103 -58 -148 -85 -148 -136c0 -32 22 -48 51 -48c32 0 53 13 65 25l13 -11c-16 -18 -44 -32 -78 -32z" />
    <glyph glyph-name="tilde" unicode="&#x2dc;" 
d="M389 628c-26 0 -42 10 -72 31c-25 17 -41 25 -64 25s-44 -11 -69 -33l-11 12c30 29 57 39 85 39c26 0 42 -9 72 -30c25 -17 41 -26 64 -26s44 11 69 33l11 -12c-30 -29 -57 -39 -85 -39z" />
    <glyph glyph-name="hungarumlaut" unicode="&#x2dd;" 
d="M373 738l-147 -151l-13 11l143 153zM533 738l-147 -151l-13 11l143 153z" />
    <glyph glyph-name="uni0300" unicode="&#x300;" horiz-adv-x="0" 
d="M19 587l-84 153l19 11l81 -155z" />
    <glyph glyph-name="uni0301" unicode="&#x301;" horiz-adv-x="0" 
d="M135 738l-147 -151l-13 11l143 153z" />
    <glyph glyph-name="uni0302" unicode="&#x302;" horiz-adv-x="0" 
d="M27 743h24l106 -134l-15 -10l-104 127l-148 -127l-13 12z" />
    <glyph glyph-name="uni0303" unicode="&#x303;" horiz-adv-x="0" 
d="M89 628c-26 0 -42 10 -72 31c-25 17 -41 25 -64 25s-44 -11 -69 -33l-11 12c30 29 57 39 85 39c26 0 42 -9 72 -30c25 -17 41 -26 64 -26s44 11 69 33l11 -12c-30 -29 -57 -39 -85 -39z" />
    <glyph glyph-name="uni0304" unicode="&#x304;" horiz-adv-x="0" 
d="M-107 658l3 18h258l-3 -18h-258z" />
    <glyph glyph-name="uni0306" unicode="&#x306;" horiz-adv-x="0" 
d="M14 606c-66 0 -91 43 -115 117l16 7l15 -37c20 -49 43 -68 84 -68c46 0 71 17 107 69l25 36l16 -7c-47 -72 -78 -117 -148 -117z" />
    <glyph glyph-name="uni0307" unicode="&#x307;" horiz-adv-x="0" 
d="M21 642c-16 0 -20 9 -20 17c0 5 1 9 3 15c3 9 7 17 23 17s20 -9 20 -17c0 -5 -1 -9 -3 -15c-3 -9 -7 -17 -23 -17z" />
    <glyph glyph-name="uni0308" unicode="&#x308;" horiz-adv-x="0" 
d="M-69 642c-16 0 -20 9 -20 17c0 5 1 9 3 15c3 9 7 17 23 17s20 -9 20 -17c0 -5 -1 -9 -3 -15c-3 -9 -7 -17 -23 -17zM113 642c-16 0 -20 9 -20 17c0 5 1 9 3 15c3 9 7 17 23 17s20 -9 20 -17c0 -5 -1 -9 -3 -15c-3 -9 -7 -17 -23 -17z" />
    <glyph glyph-name="uni0309" unicode="&#x309;" horiz-adv-x="0" 
d="M-34 719l3 18h133c18 0 24 -6 24 -15s-4 -15 -38 -55l-69 -82l-15 9l102 125h-140z" />
    <glyph glyph-name="uni030A" unicode="&#x30a;" horiz-adv-x="0" 
d="M9 589c-59 0 -76 39 -76 72c0 66 42 110 105 110c59 0 77 -39 77 -72c0 -66 -42 -110 -106 -110zM13 607c41 0 72 23 80 66c3 17 4 21 4 27c0 32 -21 53 -63 53c-40 0 -71 -23 -79 -66c-3 -17 -4 -21 -4 -27c0 -32 21 -53 62 -53z" />
    <glyph glyph-name="uni030B" unicode="&#x30b;" horiz-adv-x="0" 
d="M73 738l-147 -151l-13 11l143 153zM233 738l-147 -151l-13 11l143 153z" />
    <glyph glyph-name="uni030C" unicode="&#x30c;" horiz-adv-x="0" 
d="M23 603h-24l-106 134l15 10l104 -127l148 127l13 -12z" />
    <glyph glyph-name="uni0312" unicode="&#x312;" horiz-adv-x="0" 
d="M12 599c-17 0 -21 9 -21 16c0 5 1 11 2 17c5 31 30 80 60 113h18c-31 -35 -49 -73 -56 -97c20 0 25 -8 25 -16c0 -3 -1 -11 -2 -16c-2 -9 -7 -17 -26 -17z" />
    <glyph glyph-name="uni0315" unicode="&#x315;" horiz-adv-x="0" 
d="M40 740l-53 -176h-17l45 176h25z" />
    <glyph glyph-name="uni031B" unicode="&#x31b;" horiz-adv-x="0" 
d="M62 619l-19 -102c-4 -20 -14 -29 -35 -29h-71l3 18h80l22 113h20z" />
    <glyph glyph-name="uni0323" unicode="&#x323;" horiz-adv-x="0" 
d="M-22 -134c-16 0 -20 9 -20 17c0 5 1 9 3 15c3 9 7 17 23 17s20 -9 20 -17c0 -5 -1 -9 -3 -15c-3 -9 -7 -17 -23 -17z" />
    <glyph glyph-name="uni0326" unicode="&#x326;" horiz-adv-x="0" 
d="M-13 -66c17 0 21 -9 21 -16c0 -5 -1 -11 -2 -17c-5 -31 -30 -80 -60 -113h-18c31 35 49 73 56 97c-20 0 -25 8 -25 16c0 3 1 11 2 16c2 9 7 17 26 17z" />
    <glyph glyph-name="uni0327" unicode="&#x327;" horiz-adv-x="0" 
d="M-29 -202c-37 0 -64 15 -75 32l14 13c13 -17 33 -27 61 -27c43 0 73 24 73 58c0 23 -13 38 -52 40l-37 2l38 87h18l-34 -76l2 -2c9 2 21 3 29 3c36 0 57 -20 57 -53c0 -42 -37 -77 -94 -77z" />
    <glyph glyph-name="uni0328" unicode="&#x328;" horiz-adv-x="0" 
d="M-97 -202c-41 0 -72 21 -72 66c0 37 27 80 143 136l-3 12l25 4l4 -16c-103 -58 -148 -85 -148 -136c0 -32 22 -48 51 -48c32 0 53 13 65 25l13 -11c-16 -18 -44 -32 -78 -32z" />
    <glyph glyph-name="uni037E" unicode="&#x37e;" horiz-adv-x="258" 
d="M168 436c-20 0 -26 10 -26 19c0 5 2 14 3 18c3 11 9 21 29 21c19 0 25 -10 25 -19c0 -5 -2 -14 -3 -18c-3 -11 -8 -21 -28 -21zM84 53c19 0 25 -10 25 -19c0 -5 -2 -15 -3 -19c-13 -54 -57 -122 -107 -162h-21c60 50 90 105 101 142c-22 0 -27 10 -27 19c0 5 2 14 3 18
c3 11 9 21 29 21z" />
    <glyph glyph-name="tonos" unicode="&#x384;" horiz-adv-x="576" 
d="M464 742l-100 -155l-15 7l97 157z" />
    <glyph glyph-name="dieresistonos" unicode="&#x385;" horiz-adv-x="576" 
d="M435 742l-100 -155l-15 7l97 157zM286 642c-16 0 -20 9 -20 17c0 5 1 9 3 15c3 9 7 17 23 17s20 -9 20 -17c0 -5 -1 -9 -3 -15c-3 -9 -7 -17 -23 -17zM460 642c-16 0 -20 9 -20 17c0 5 1 9 3 15c3 9 7 17 23 17s20 -9 20 -17c0 -5 -1 -9 -3 -15c-3 -9 -7 -17 -23 -17z
" />
    <glyph glyph-name="Alphatonos" unicode="&#x386;" horiz-adv-x="594" 
d="M267 742l-100 -155l-15 7l97 157zM519 0h-22l-45 234h-318l-122 -234h-24l366 698h30zM448 253l-81 420h-3l-220 -420h304z" />
    <glyph glyph-name="anoteleia" unicode="&#x387;" horiz-adv-x="258" 
d="M168 436c-20 0 -26 10 -26 19c0 5 2 14 3 18c3 11 9 21 29 21c19 0 25 -10 25 -19c0 -5 -2 -14 -3 -18c-3 -11 -8 -21 -28 -21z" />
    <glyph glyph-name="Epsilontonos" unicode="&#x388;" horiz-adv-x="575" 
d="M162 742l-100 -155l-15 7l97 157zM454 0h-378l140 698h378l-4 -20h-356l-63 -314h344l-4 -20h-344l-65 -324h356z" />
    <glyph glyph-name="Etatonos" unicode="&#x389;" horiz-adv-x="702" 
d="M162 742l-100 -155l-15 7l97 157zM524 0l69 344h-426l-69 -344h-22l140 698h22l-67 -334h426l67 334h22l-140 -698h-22z" />
    <glyph glyph-name="Iotatonos" unicode="&#x38a;" horiz-adv-x="419" 
d="M162 742l-100 -155l-15 7l97 157zM302 0h-236l4 19h107l132 660h-107l4 19h236l-4 -19h-107l-132 -660h107z" />
    <glyph glyph-name="Omicrontonos" unicode="&#x38c;" horiz-adv-x="668" 
d="M162 742l-100 -155l-15 7l97 157zM301 -12c-132 0 -222 81 -222 232c0 198 88 490 332 490c132 0 222 -81 222 -232c0 -198 -88 -490 -332 -490zM301 8c145 0 252 120 289 306l11 55c8 42 10 81 10 109c0 130 -71 212 -200 212c-145 0 -252 -120 -289 -306l-11 -55
c-8 -42 -10 -81 -10 -109c0 -130 71 -212 200 -212z" />
    <glyph glyph-name="Upsilontonos" unicode="&#x38e;" horiz-adv-x="619" 
d="M162 742l-100 -155l-15 7l97 157zM309 0h-22l59 294l-158 404h23l148 -378h3l300 378h26l-320 -404z" />
    <glyph glyph-name="Omegatonos" unicode="&#x38f;" horiz-adv-x="684" 
d="M162 742l-100 -155l-15 7l97 157zM33 0l3 20h172l4 21c-59 46 -116 103 -116 231c0 171 71 438 322 438c139 0 220 -76 220 -218c0 -234 -98 -383 -244 -452l-4 -20h170l-3 -20h-192l9 49c107 49 195 145 221 278l12 62c7 35 9 71 9 103c0 129 -71 198 -198 198
c-139 0 -248 -96 -282 -274l-12 -62c-4 -22 -6 -54 -6 -82c0 -120 51 -178 117 -223l-10 -49h-192z" />
    <glyph glyph-name="iotadieresistonos" unicode="&#x390;" horiz-adv-x="253" 
d="M269 742l-100 -155l-15 7l97 157zM120 642c-16 0 -20 9 -20 17c0 5 1 9 3 15c3 9 7 17 23 17s20 -9 20 -17c0 -5 -1 -9 -3 -15c-3 -9 -7 -17 -23 -17zM294 642c-16 0 -20 9 -20 17c0 5 1 9 3 15c3 9 7 17 23 17s20 -9 20 -17c0 -5 -1 -9 -3 -15c-3 -9 -7 -17 -23 -17z
M191 19l-4 -19h-106c-15 0 -23 6 -23 19c0 6 1 10 2 16l95 471h21l-98 -487h113z" />
    <glyph glyph-name="Alpha" unicode="&#x391;" horiz-adv-x="594" 
d="M519 0h-22l-45 234h-318l-122 -234h-24l366 698h30zM448 253l-81 420h-3l-220 -420h304z" />
    <glyph glyph-name="Beta" unicode="&#x392;" horiz-adv-x="606" 
d="M55 0l138 698h221c96 0 150 -49 150 -137c0 -82 -29 -170 -135 -191v-3c66 -15 102 -72 102 -139c0 -144 -80 -228 -210 -228h-266zM81 20h242c103 0 161 59 177 139c8 39 9 58 9 69c0 70 -40 130 -132 130h-229zM152 378h215c94 0 152 44 166 117c8 43 9 56 9 67
c0 70 -37 116 -129 116h-202z" />
    <glyph glyph-name="Gamma" unicode="&#x393;" horiz-adv-x="486" 
d="M54 0l140 698h340l-4 -20h-318l-136 -678h-22z" />
    <glyph glyph-name="uni0394" unicode="&#x394;" horiz-adv-x="594" 
d="M-5 0l4 21l355 677h30l131 -676l-4 -22h-516zM493 20l-126 653h-3l-342 -653h471z" />
    <glyph glyph-name="Epsilon" unicode="&#x395;" horiz-adv-x="553" 
d="M432 0h-378l140 698h378l-4 -20h-356l-63 -314h344l-4 -20h-344l-65 -324h356z" />
    <glyph glyph-name="Zeta" unicode="&#x396;" horiz-adv-x="543" 
d="M466 20l-4 -20h-484l5 22l567 656h-413l4 20h440l-5 -22l-567 -656h457z" />
    <glyph glyph-name="Eta" unicode="&#x397;" horiz-adv-x="680" 
d="M502 0l69 344h-426l-69 -344h-22l140 698h22l-67 -334h426l67 334h22l-140 -698h-22z" />
    <glyph glyph-name="Theta" unicode="&#x398;" horiz-adv-x="658" 
d="M291 -12c-132 0 -222 81 -222 232c0 198 88 490 332 490c132 0 222 -81 222 -232c0 -198 -88 -490 -332 -490zM291 8c145 0 252 120 289 306l11 55c8 42 10 81 10 109c0 130 -71 212 -200 212c-145 0 -252 -120 -289 -306l-11 -55c-8 -42 -10 -81 -10 -109
c0 -130 71 -212 200 -212zM505 344h-320l4 20h320z" />
    <glyph glyph-name="Iota" unicode="&#x399;" horiz-adv-x="368" 
d="M251 0h-236l4 19h107l132 660h-107l4 19h236l-4 -19h-107l-132 -660h107z" />
    <glyph glyph-name="Kappa" unicode="&#x39a;" horiz-adv-x="564" 
d="M474 0l-184 388l-165 -151l-49 -237h-22l140 698h22l-85 -427h3l166 152l304 275h29l-326 -296l190 -402h-23z" />
    <glyph glyph-name="Lambda" unicode="&#x39b;" horiz-adv-x="594" 
d="M354 698h30l135 -698h-22l-130 673h-3l-352 -673h-24z" />
    <glyph glyph-name="Mu" unicode="&#x39c;" horiz-adv-x="780" 
d="M603 0l135 673h-3l-349 -437l-173 437h-3l-135 -673h-21l140 698h32l166 -420h3l334 420h35l-140 -698h-21z" />
    <glyph glyph-name="Nu" unicode="&#x39d;" horiz-adv-x="680" 
d="M494 0l-282 671h-3l-134 -671h-21l140 698h30l282 -671h3l134 671h21l-140 -698h-30z" />
    <glyph glyph-name="Xi" unicode="&#x39e;" horiz-adv-x="548" 
d="M154 678l4 20h409l-4 -20h-409zM116 344l4 20h352l-4 -20h-352zM18 0l4 20h409l-4 -20h-409z" />
    <glyph glyph-name="Omicron" unicode="&#x39f;" horiz-adv-x="658" 
d="M291 -12c-132 0 -222 81 -222 232c0 198 88 490 332 490c132 0 222 -81 222 -232c0 -198 -88 -490 -332 -490zM291 8c145 0 252 120 289 306l11 55c8 42 10 81 10 109c0 130 -71 212 -200 212c-145 0 -252 -120 -289 -306l-11 -55c-8 -42 -10 -81 -10 -109
c0 -130 71 -212 200 -212z" />
    <glyph glyph-name="Pi" unicode="&#x3a0;" horiz-adv-x="665" 
d="M54 0l140 698h455l-140 -698h-22l136 678h-411l-136 -678h-22z" />
    <glyph glyph-name="Rho" unicode="&#x3a1;" horiz-adv-x="582" 
d="M76 0h-22l140 698h251c97 0 151 -63 151 -148c0 -144 -80 -228 -210 -228h-245zM211 678l-66 -336h243c103 0 161 59 177 139c8 39 9 58 9 69c0 70 -39 128 -131 128h-232z" />
    <glyph glyph-name="Sigma" unicode="&#x3a3;" horiz-adv-x="560" 
d="M436 0h-433l5 22l331 333l-195 321l5 22h427l-4 -20h-406l198 -326l-330 -332h406z" />
    <glyph glyph-name="Tau" unicode="&#x3a4;" horiz-adv-x="548" 
d="M619 678h-249l-136 -678h-22l136 678h-249l4 20h520z" />
    <glyph glyph-name="Upsilon" unicode="&#x3a5;" horiz-adv-x="540" 
d="M230 0h-22l59 294l-158 404h23l148 -378h3l300 378h26l-320 -404z" />
    <glyph glyph-name="Phi" unicode="&#x3a6;" horiz-adv-x="809" 
d="M337 -29l13 66h-33c-158 0 -241 100 -241 253c0 218 137 381 363 381h38l11 54h22l-11 -54h33c158 0 241 -100 241 -253c0 -218 -137 -381 -363 -381h-38l-13 -66h-22zM354 57l119 594h-35c-200 0 -303 -137 -323 -239l-9 -45c-8 -41 -8 -55 -8 -77
c0 -142 75 -233 222 -233h34zM376 57h35c200 0 303 137 323 239l9 45c8 41 8 55 8 77c0 142 -75 233 -222 233h-34z" />
    <glyph glyph-name="Chi" unicode="&#x3a7;" horiz-adv-x="552" 
d="M306 355l167 -355h-24l-157 336h-3l-290 -336h-28l308 356l-161 342h24l152 -323h3l277 323h28z" />
    <glyph glyph-name="Psi" unicode="&#x3a8;" horiz-adv-x="705" 
d="M290 0l42 208c-141 0 -220 61 -220 172c0 36 3 71 15 129l38 189h22l-39 -194c-10 -48 -14 -82 -14 -124c0 -96 63 -152 202 -152l94 470h22l-94 -470c172 0 254 60 293 252l44 218h22l-44 -218c-43 -214 -137 -272 -319 -272l-42 -208h-22z" />
    <glyph glyph-name="uni03A9" unicode="&#x3a9;" horiz-adv-x="676" 
d="M25 0l3 20h172l4 21c-59 46 -116 103 -116 231c0 171 71 438 322 438c139 0 220 -76 220 -218c0 -234 -98 -383 -244 -452l-4 -20h170l-3 -20h-192l9 49c107 49 195 145 221 278l12 62c7 35 9 71 9 103c0 129 -71 198 -198 198c-139 0 -248 -96 -282 -274l-12 -62
c-4 -22 -6 -54 -6 -82c0 -120 51 -178 117 -223l-10 -49h-192z" />
    <glyph glyph-name="Iotadieresis" unicode="&#x3aa;" horiz-adv-x="368" 
d="M207 819c-16 0 -20 9 -20 17c0 5 1 9 3 15c3 9 7 17 23 17s20 -9 20 -17c0 -5 -1 -9 -3 -15c-3 -9 -7 -17 -23 -17zM389 819c-16 0 -20 9 -20 17c0 5 1 9 3 15c3 9 7 17 23 17s20 -9 20 -17c0 -5 -1 -9 -3 -15c-3 -9 -7 -17 -23 -17zM251 0h-236l4 19h107l132 660h-107
l4 19h236l-4 -19h-107l-132 -660h107z" />
    <glyph glyph-name="Upsilondieresis" unicode="&#x3ab;" horiz-adv-x="540" 
d="M294 819c-16 0 -20 9 -20 17c0 5 1 9 3 15c3 9 7 17 23 17s20 -9 20 -17c0 -5 -1 -9 -3 -15c-3 -9 -7 -17 -23 -17zM476 819c-16 0 -20 9 -20 17c0 5 1 9 3 15c3 9 7 17 23 17s20 -9 20 -17c0 -5 -1 -9 -3 -15c-3 -9 -7 -17 -23 -17zM230 0h-22l59 294l-158 404h23
l148 -378h3l300 378h26l-320 -404z" />
    <glyph glyph-name="alphatonos" unicode="&#x3ac;" horiz-adv-x="624" 
d="M456 742l-100 -155l-15 7l97 157zM539 19l-4 -19h-58c-15 0 -23 6 -23 19l-10 207h-3c-90 -202 -148 -238 -232 -238c-88 0 -149 69 -149 188c0 184 94 342 241 342c94 0 147 -52 151 -238h3l33 66l87 160h25l-140 -254l14 -233h65zM209 7c73 0 118 28 200 192l27 54
l-3 54c-8 144 -50 192 -132 192c-102 0 -181 -85 -207 -217l-7 -35c-4 -22 -6 -43 -6 -71c0 -116 55 -169 128 -169z" />
    <glyph glyph-name="epsilontonos" unicode="&#x3ad;" horiz-adv-x="513" 
d="M421 742l-100 -155l-15 7l97 157zM412 87l15 -12c-48 -56 -101 -87 -201 -87c-119 0 -166 60 -166 127c0 88 61 139 156 147v2c-55 17 -86 58 -86 108c0 97 69 146 182 146c85 0 141 -25 175 -67l-16 -13c-32 40 -83 61 -160 61c-104 0 -144 -40 -157 -95
c-2 -9 -3 -19 -3 -32c0 -65 51 -102 123 -102h89l-4 -19h-97c-88 0 -163 -32 -177 -98c-4 -19 -4 -30 -4 -38c0 -66 46 -108 145 -108c90 0 142 26 186 80z" />
    <glyph glyph-name="etatonos" unicode="&#x3ae;" horiz-adv-x="569" 
d="M472 742l-100 -155l-15 7l97 157zM95 0h-21l97 487h-85l4 19h78c15 0 23 -6 23 -19c0 -6 -1 -10 -2 -16l-14 -70h3c40 76 95 117 178 117c85 0 132 -49 132 -132c0 -20 -3 -45 -7 -65l-104 -521h-21l104 520c4 22 7 50 7 63c0 77 -39 116 -114 116
c-45 0 -93 -15 -133 -62c-22 -26 -51 -65 -63 -125z" />
    <glyph glyph-name="iotatonos" unicode="&#x3af;" horiz-adv-x="253" 
d="M293 742l-100 -155l-15 7l97 157zM191 19l-4 -19h-106c-15 0 -23 6 -23 19c0 6 1 10 2 16l95 471h21l-98 -487h113z" />
    <glyph glyph-name="upsilondieresistonos" unicode="&#x3b0;" horiz-adv-x="533" 
d="M417 742l-100 -155l-15 7l97 157zM268 642c-16 0 -20 9 -20 17c0 5 1 9 3 15c3 9 7 17 23 17s20 -9 20 -17c0 -5 -1 -9 -3 -15c-3 -9 -7 -17 -23 -17zM442 642c-16 0 -20 9 -20 17c0 5 1 9 3 15c3 9 7 17 23 17s20 -9 20 -17c0 -5 -1 -9 -3 -15c-3 -9 -7 -17 -23 -17z
M166 506l-57 -285c-5 -24 -9 -56 -9 -86c0 -87 43 -128 125 -128c100 0 150 41 183 204l59 295h21l-59 -296c-33 -166 -90 -222 -206 -222c-94 0 -144 55 -144 147c0 28 4 61 10 91l56 280h21z" />
    <glyph glyph-name="alpha" unicode="&#x3b1;" horiz-adv-x="624" 
d="M539 19l-4 -19h-58c-15 0 -23 6 -23 19l-10 207h-3c-90 -202 -148 -238 -232 -238c-88 0 -149 69 -149 188c0 184 94 342 241 342c94 0 147 -52 151 -238h3l33 66l87 160h25l-140 -254l14 -233h65zM209 7c73 0 118 28 200 192l27 54l-3 54c-8 144 -50 192 -132 192
c-102 0 -181 -85 -207 -217l-7 -35c-4 -22 -6 -43 -6 -71c0 -116 55 -169 128 -169z" />
    <glyph glyph-name="beta" unicode="&#x3b2;" horiz-adv-x="547" 
d="M13 -200l144 721c28 140 98 231 220 231c104 0 141 -65 141 -132c0 -114 -73 -193 -149 -213v-3c72 -12 114 -71 114 -141c0 -165 -98 -275 -230 -275c-88 0 -140 43 -158 105h-3l-58 -293h-21zM233 396l4 19h84c88 0 148 68 168 142c6 22 8 45 8 63
c0 68 -35 113 -122 113c-86 0 -166 -56 -197 -212l-72 -361c-13 -67 25 -153 147 -153c118 0 186 90 203 192c4 24 6 46 6 64c0 74 -48 133 -144 133h-85z" />
    <glyph glyph-name="gamma" unicode="&#x3b3;" horiz-adv-x="460" 
d="M126 -200l40 200l-80 487h-45l4 19h38c13 0 21 -4 23 -16l37 -228l38 -235h3c129 164 219 328 270 479h23c-56 -158 -151 -333 -290 -506l-40 -200h-21z" />
    <glyph glyph-name="delta" unicode="&#x3b4;" horiz-adv-x="533" 
d="M533 721h-252l-54 3v-1l114 -133c114 -133 134 -195 134 -277c0 -138 -71 -325 -250 -325c-107 0 -166 81 -166 181c0 203 122 337 322 337v4c-15 21 -34 43 -55 69l-118 140l4 21h325zM454 313c0 60 -9 105 -61 180c-199 -1 -282 -126 -304 -240c-7 -37 -9 -58 -9 -84
c0 -88 45 -162 147 -162c106 0 186 74 216 218c9 43 11 60 11 88z" />
    <glyph glyph-name="epsilon" unicode="&#x3b5;" horiz-adv-x="513" 
d="M412 87l15 -12c-48 -56 -101 -87 -201 -87c-119 0 -166 60 -166 127c0 88 61 139 156 147v2c-55 17 -86 58 -86 108c0 97 69 146 182 146c85 0 141 -25 175 -67l-16 -13c-32 40 -83 61 -160 61c-104 0 -144 -40 -157 -95c-2 -9 -3 -19 -3 -32c0 -65 51 -102 123 -102h89
l-4 -19h-97c-88 0 -163 -32 -177 -98c-4 -19 -4 -30 -4 -38c0 -66 46 -108 145 -108c90 0 142 26 186 80z" />
    <glyph glyph-name="zeta" unicode="&#x3b6;" horiz-adv-x="417" 
d="M172 721l4 19h317l-4 -20l-298 -296c-90 -90 -114 -152 -114 -225c0 -89 48 -136 169 -173l62 -19c13 -4 17 -9 17 -17c0 -5 -2 -10 -7 -21l-61 -129l-17 8l66 139l-62 19c-137 42 -188 95 -188 192c0 81 29 150 132 251l279 274v1l-54 -3h-241z" />
    <glyph glyph-name="eta" unicode="&#x3b7;" horiz-adv-x="569" 
d="M95 0h-21l97 487h-85l4 19h78c15 0 23 -6 23 -19c0 -6 -1 -10 -2 -16l-14 -70h3c40 76 95 117 178 117c85 0 132 -49 132 -132c0 -20 -3 -45 -7 -65l-104 -521h-21l104 520c4 22 7 50 7 63c0 77 -39 116 -114 116c-45 0 -93 -15 -133 -62c-22 -26 -51 -65 -63 -125z" />
    <glyph glyph-name="theta" unicode="&#x3b8;" horiz-adv-x="546" 
d="M42 390h53c15 0 23 -6 23 -19c0 -6 -1 -10 -2 -16l-14 -69c-10 -48 -15 -87 -15 -127c0 -106 46 -152 138 -152c112 0 194 86 246 346l11 55h-127c-122 0 -186 46 -186 141c0 42 10 103 55 148c36 36 85 55 137 55c102 0 159 -57 159 -171c0 -181 -66 -446 -153 -533
c-43 -43 -90 -60 -142 -60c-102 0 -159 57 -159 171c0 40 5 78 15 128l17 84h-60zM190 549c0 -88 53 -122 165 -122h131c7 42 13 98 13 154c0 106 -46 152 -138 152c-86 0 -150 -52 -166 -134c-3 -15 -5 -32 -5 -50z" />
    <glyph glyph-name="iota" unicode="&#x3b9;" horiz-adv-x="253" 
d="M191 19l-4 -19h-106c-15 0 -23 6 -23 19c0 6 1 10 2 16l95 471h21l-98 -487h113z" />
    <glyph glyph-name="kappa" unicode="&#x3ba;" horiz-adv-x="481" 
d="M387 0l-165 277l-112 -99l-36 -178h-21l101 506h21l-59 -296h4l105 94l201 190c10 9 18 12 32 12h40l-4 -19h-47l-209 -197l173 -290h-24z" />
    <glyph glyph-name="lambda" unicode="&#x3bb;" horiz-adv-x="440" 
d="M253 508l-30 213h-66l4 19h59c13 0 21 -4 23 -16l98 -705h45l-4 -19h-38c-13 0 -21 4 -23 16l-63 458h-3l-262 -474h-23z" />
    <glyph glyph-name="uni03BC" unicode="&#x3bc;" horiz-adv-x="558" 
d="M35 -200h-21l141 706h21l-64 -320c-4 -22 -7 -50 -7 -63c0 -77 39 -116 114 -116c45 0 93 15 133 62c22 26 51 65 63 125l62 312h21l-97 -487h85l-4 -19h-78c-15 0 -23 6 -23 19c0 6 1 10 2 16l14 70h-3c-40 -76 -95 -117 -178 -117c-72 0 -115 35 -128 92h-2l-20 -124z
" />
    <glyph glyph-name="nu" unicode="&#x3bd;" horiz-adv-x="460" 
d="M189 0h-26l-77 487h-45l4 19h38c13 0 21 -4 23 -16l39 -252l34 -214h3c131 165 221 331 272 482h23c-56 -158 -151 -333 -288 -506z" />
    <glyph glyph-name="xi" unicode="&#x3be;" horiz-adv-x="446" 
d="M496 721h-108c-103 0 -181 -61 -198 -144c-3 -14 -5 -29 -5 -43c0 -78 49 -119 113 -119h81l-4 -19h-82c-116 0 -190 -67 -207 -152c-4 -22 -6 -36 -6 -52c0 -81 51 -128 176 -166l62 -19c13 -4 17 -9 17 -17c0 -5 -2 -10 -7 -21l-61 -129l-17 8l66 139l-62 19
c-137 42 -195 93 -195 186c0 114 69 201 191 215v2c-58 22 -86 60 -86 125c0 84 50 160 142 184v3h-127l4 19h317z" />
    <glyph glyph-name="omicron" unicode="&#x3bf;" horiz-adv-x="534" 
d="M225 -12c-107 0 -166 81 -166 181c0 187 85 349 250 349c107 0 166 -81 166 -181c0 -187 -85 -349 -250 -349zM227 7c112 0 187 83 214 218l8 40c4 22 5 46 5 72c0 88 -45 162 -147 162c-112 0 -187 -83 -214 -218l-8 -40c-4 -22 -5 -46 -5 -72c0 -88 45 -162 147 -162z
" />
    <glyph glyph-name="pi" unicode="&#x3c0;" horiz-adv-x="562" 
d="M449 0h-69c-15 0 -23 6 -23 19c0 5 1 10 2 15l91 453h-261l-97 -487h-21l97 487h-94l4 19h500l-4 -19h-103l-94 -468h76z" />
    <glyph glyph-name="rho" unicode="&#x3c1;" horiz-adv-x="536" 
d="M-11 -200l97 487c28 140 98 231 230 231c102 0 160 -81 160 -181c0 -186 -85 -349 -249 -349c-85 0 -138 43 -156 105h-3l-58 -293h-21zM227 7c115 0 189 85 215 217l8 41c4 22 5 46 5 72c0 88 -44 162 -141 162c-96 0 -176 -56 -207 -212l-25 -127
c-13 -67 26 -153 145 -153z" />
    <glyph glyph-name="sigma1" unicode="&#x3c2;" horiz-adv-x="466" 
d="M257 -152l66 139l-62 19c-152 47 -200 102 -200 210c0 148 77 302 237 302c79 0 136 -47 150 -115l-19 -5c-15 65 -66 101 -133 101c-98 0 -173 -71 -199 -183c-11 -48 -15 -76 -15 -100c0 -100 47 -149 181 -190l62 -19c13 -4 17 -9 17 -17c0 -5 -2 -10 -7 -21l-61 -129
z" />
    <glyph glyph-name="sigma" unicode="&#x3c3;" horiz-adv-x="542" 
d="M547 487h-148v-3c48 -40 74 -98 74 -168c0 -165 -83 -328 -248 -328c-107 0 -166 81 -166 181c0 189 98 337 265 337h227zM378 487h-56c-118 0 -204 -83 -231 -218l-6 -28c-4 -22 -5 -46 -5 -72c0 -88 45 -162 147 -162c112 0 187 83 214 218l4 19c5 22 7 49 7 72
c0 69 -18 119 -74 171z" />
    <glyph glyph-name="tau" unicode="&#x3c4;" horiz-adv-x="455" 
d="M299 0h-112c-15 0 -23 6 -23 19c0 6 1 10 2 16l91 452h-179l4 19h389l-4 -19h-189l-94 -468h119z" />
    <glyph glyph-name="upsilon" unicode="&#x3c5;" horiz-adv-x="533" 
d="M166 506l-57 -285c-5 -24 -9 -56 -9 -86c0 -87 43 -128 125 -128c100 0 150 41 183 204l59 295h21l-59 -296c-33 -166 -90 -222 -206 -222c-94 0 -144 55 -144 147c0 28 4 61 10 91l56 280h21z" />
    <glyph glyph-name="phi" unicode="&#x3c6;" horiz-adv-x="682" 
d="M222 -200l37 188c-136 0 -199 73 -199 175c0 123 52 304 184 355l8 -17c-81 -30 -135 -122 -156 -224l-9 -43c-3 -14 -6 -45 -6 -71c0 -100 59 -156 182 -156l56 275c32 156 82 236 184 236c71 0 111 -45 111 -140c0 -229 -107 -390 -334 -390l-37 -188h-21zM284 7
c138 0 257 64 294 241l5 24c7 36 10 74 10 110c0 90 -36 117 -92 117c-72 0 -126 -45 -161 -217z" />
    <glyph glyph-name="chi" unicode="&#x3c7;" horiz-adv-x="446" 
d="M62 506h38c14 0 20 -4 23 -15l81 -308h2l230 323h25l-246 -343l87 -344h45l-4 -19h-38c-13 0 -21 4 -23 16l-81 327h-2l-236 -343h-25l252 363l-87 324h-45z" />
    <glyph glyph-name="psi" unicode="&#x3c8;" horiz-adv-x="666" 
d="M250 -200h-21l37 188c-138 0 -187 75 -187 171c0 28 4 61 10 91l51 256h21l-52 -261c-5 -24 -9 -56 -9 -86c0 -94 44 -152 170 -152l141 703h21l-141 -703c126 0 217 36 255 228l54 271h21l-54 -273c-37 -188 -126 -245 -280 -245z" />
    <glyph glyph-name="omega" unicode="&#x3c9;" horiz-adv-x="705" 
d="M386 349l-25 -125c-7 -36 -9 -64 -9 -100c0 -86 38 -117 91 -117c67 0 130 54 158 201l6 31c4 22 9 66 9 102c0 68 -21 126 -71 162l12 15c54 -38 80 -100 80 -179c0 -163 -60 -351 -193 -351c-70 0 -110 41 -110 140h-3c-36 -104 -83 -140 -153 -140s-110 45 -110 140
c0 157 56 339 188 390l8 -17c-81 -30 -135 -122 -156 -224l-9 -43c-7 -36 -10 -74 -10 -110c0 -90 36 -117 91 -117c67 0 126 45 160 217l25 125h21z" />
    <glyph glyph-name="iotadieresis" unicode="&#x3ca;" horiz-adv-x="253" 
d="M106 642c-16 0 -20 9 -20 17c0 5 1 9 3 15c3 9 7 17 23 17s20 -9 20 -17c0 -5 -1 -9 -3 -15c-3 -9 -7 -17 -23 -17zM288 642c-16 0 -20 9 -20 17c0 5 1 9 3 15c3 9 7 17 23 17s20 -9 20 -17c0 -5 -1 -9 -3 -15c-3 -9 -7 -17 -23 -17zM191 19l-4 -19h-106
c-15 0 -23 6 -23 19c0 6 1 10 2 16l95 471h21l-98 -487h113z" />
    <glyph glyph-name="upsilondieresis" unicode="&#x3cb;" horiz-adv-x="533" 
d="M256 642c-16 0 -20 9 -20 17c0 5 1 9 3 15c3 9 7 17 23 17s20 -9 20 -17c0 -5 -1 -9 -3 -15c-3 -9 -7 -17 -23 -17zM438 642c-16 0 -20 9 -20 17c0 5 1 9 3 15c3 9 7 17 23 17s20 -9 20 -17c0 -5 -1 -9 -3 -15c-3 -9 -7 -17 -23 -17zM166 506l-57 -285
c-5 -24 -9 -56 -9 -86c0 -87 43 -128 125 -128c100 0 150 41 183 204l59 295h21l-59 -296c-33 -166 -90 -222 -206 -222c-94 0 -144 55 -144 147c0 28 4 61 10 91l56 280h21z" />
    <glyph glyph-name="omicrontonos" unicode="&#x3cc;" horiz-adv-x="534" 
d="M432 742l-100 -155l-15 7l97 157zM225 -12c-107 0 -166 81 -166 181c0 187 85 349 250 349c107 0 166 -81 166 -181c0 -187 -85 -349 -250 -349zM227 7c112 0 187 83 214 218l8 40c4 22 5 46 5 72c0 88 -45 162 -147 162c-112 0 -187 -83 -214 -218l-8 -40
c-4 -22 -5 -46 -5 -72c0 -88 45 -162 147 -162z" />
    <glyph glyph-name="upsilontonos" unicode="&#x3cd;" horiz-adv-x="533" 
d="M443 742l-100 -155l-15 7l97 157zM166 506l-57 -285c-5 -24 -9 -56 -9 -86c0 -87 43 -128 125 -128c100 0 150 41 183 204l59 295h21l-59 -296c-33 -166 -90 -222 -206 -222c-94 0 -144 55 -144 147c0 28 4 61 10 91l56 280h21z" />
    <glyph glyph-name="omegatonos" unicode="&#x3ce;" horiz-adv-x="705" 
d="M522 742l-100 -155l-15 7l97 157zM386 349l-25 -125c-7 -36 -9 -64 -9 -100c0 -86 38 -117 91 -117c67 0 130 54 158 201l6 31c4 22 9 66 9 102c0 68 -21 126 -71 162l12 15c54 -38 80 -100 80 -179c0 -163 -60 -351 -193 -351c-70 0 -110 41 -110 140h-3
c-36 -104 -83 -140 -153 -140s-110 45 -110 140c0 157 56 339 188 390l8 -17c-81 -30 -135 -122 -156 -224l-9 -43c-7 -36 -10 -74 -10 -110c0 -90 36 -117 91 -117c67 0 126 45 160 217l25 125h21z" />
    <glyph glyph-name="uni0400" unicode="&#x400;" horiz-adv-x="553" 
d="M398 768l-84 153l19 11l81 -155zM432 0h-378l140 698h378l-4 -20h-356l-63 -314h344l-4 -20h-344l-65 -324h356z" />
    <glyph glyph-name="uni0401" unicode="&#x401;" horiz-adv-x="553" 
d="M315 819c-16 0 -20 9 -20 17c0 5 1 9 3 15c3 9 7 17 23 17s20 -9 20 -17c0 -5 -1 -9 -3 -15c-3 -9 -7 -17 -23 -17zM497 819c-16 0 -20 9 -20 17c0 5 1 9 3 15c3 9 7 17 23 17s20 -9 20 -17c0 -5 -1 -9 -3 -15c-3 -9 -7 -17 -23 -17zM432 0h-378l140 698h378l-4 -20h-356
l-63 -314h344l-4 -20h-344l-65 -324h356z" />
    <glyph glyph-name="uni0402" unicode="&#x402;" horiz-adv-x="755" 
d="M422 -164l4 20h84c52 19 94 62 117 184l15 75c11 59 19 97 19 133c0 99 -54 153 -180 153c-62 0 -113 -9 -173 -29l-74 -372h-22l136 678h-249l4 20h520l-4 -20h-249l-58 -286h2c50 18 109 29 171 29c136 0 198 -62 198 -173c0 -38 -7 -73 -20 -138l-15 -75
c-28 -148 -89 -199 -160 -199h-66z" />
    <glyph glyph-name="uni0403" unicode="&#x403;" horiz-adv-x="486" 
d="M508 918l-147 -151l-13 11l143 153zM54 0l140 698h340l-4 -20h-318l-136 -678h-22z" />
    <glyph glyph-name="uni0404" unicode="&#x404;" horiz-adv-x="595" 
d="M291 -12c-132 0 -222 81 -222 232c0 198 89 490 329 490c112 0 169 -54 191 -141l-21 -5c-21 76 -67 126 -171 126c-142 0 -248 -120 -285 -306l-4 -20h332l-4 -20h-332l-3 -15c-8 -42 -10 -81 -10 -109c0 -130 71 -212 200 -212c93 0 156 47 209 143l19 -10
c-62 -109 -131 -153 -228 -153z" />
    <glyph glyph-name="uni0405" unicode="&#x405;" horiz-adv-x="536" 
d="M235 -12c-121 0 -181 44 -221 111l18 13c38 -65 90 -104 204 -104c150 0 207 91 207 196c0 72 -36 111 -121 133l-86 22c-90 23 -129 74 -129 154c0 107 71 197 217 197c114 0 170 -35 204 -98l-18 -11c-36 65 -88 89 -187 89c-134 0 -194 -82 -194 -177
c0 -73 34 -113 115 -134l83 -22c94 -25 139 -74 139 -153c0 -118 -70 -216 -231 -216z" />
    <glyph glyph-name="uni0406" unicode="&#x406;" horiz-adv-x="368" 
d="M251 0h-236l4 19h107l132 660h-107l4 19h236l-4 -19h-107l-132 -660h107z" />
    <glyph glyph-name="uni0407" unicode="&#x407;" horiz-adv-x="368" 
d="M207 819c-16 0 -20 9 -20 17c0 5 1 9 3 15c3 9 7 17 23 17s20 -9 20 -17c0 -5 -1 -9 -3 -15c-3 -9 -7 -17 -23 -17zM389 819c-16 0 -20 9 -20 17c0 5 1 9 3 15c3 9 7 17 23 17s20 -9 20 -17c0 -5 -1 -9 -3 -15c-3 -9 -7 -17 -23 -17zM251 0h-236l4 19h107l132 660h-107
l4 19h236l-4 -19h-107l-132 -660h107z" />
    <glyph glyph-name="uni0408" unicode="&#x408;" horiz-adv-x="455" 
d="M178 698h268l-103 -520c-24 -122 -97 -190 -201 -190c-97 0 -150 55 -156 130l20 5c8 -77 58 -115 136 -115c95 0 158 64 180 176l99 494h-246z" />
    <glyph glyph-name="uni0409" unicode="&#x409;" horiz-adv-x="967" 
d="M-40 0l4 20h63c71 47 150 209 207 493l37 185h321l-61 -303h208c108 0 158 -65 158 -154c0 -153 -82 -241 -219 -241h-248l136 678h-277l-33 -165c-53 -265 -122 -419 -186 -483c-24 -24 -41 -30 -65 -30h-45zM456 20h224c109 0 170 63 187 150c7 34 8 53 8 71
c0 75 -37 134 -138 134h-210z" />
    <glyph glyph-name="uni040A" unicode="&#x40a;" horiz-adv-x="1014" 
d="M54 0l140 698h22l-64 -320h401l64 320h22l-64 -320h208c108 0 158 -64 158 -153c0 -153 -79 -225 -216 -225h-248l72 358h-401l-72 -358h-22zM503 20h224c111 0 168 51 186 142c5 26 6 45 6 63c0 75 -37 133 -138 133h-210z" />
    <glyph glyph-name="uni040B" unicode="&#x40b;" horiz-adv-x="765" 
d="M212 0l136 678h-249l4 20h520l-4 -20h-249l-58 -286h2c50 18 110 29 176 29c141 0 203 -62 203 -173c0 -38 -7 -73 -20 -138l-22 -110h-22l23 115c12 59 19 97 19 133c0 99 -54 153 -185 153c-66 0 -118 -9 -178 -29l-74 -372h-22z" />
    <glyph glyph-name="uni040C" unicode="&#x40c;" horiz-adv-x="607" 
d="M512 918l-147 -151l-13 11l143 153zM53 0l140 698h22l-67 -334h158l245 315c11 14 21 19 39 19h49l-4 -20h-59l-228 -293c-15 -20 -26 -28 -41 -31l-1 -2c13 -2 20 -8 26 -24l123 -308h59l-4 -20h-49c-15 0 -24 5 -30 21l-129 323h-158l-69 -344h-22z" />
    <glyph glyph-name="uni040D" unicode="&#x40d;" horiz-adv-x="680" 
d="M439 768l-84 153l19 11l81 -155zM54 0l140 698h21l-105 -524l-29 -134h3l87 104l474 554h19l-140 -698h-21l105 524l29 134h-3l-87 -104l-474 -554h-19z" />
    <glyph glyph-name="uni040E" unicode="&#x40e;" horiz-adv-x="556" 
d="M371 786c-50 0 -75 25 -91 69l-16 45l16 7l23 -65c16 -27 35 -38 69 -38s57 11 87 38l47 65l15 -8l-33 -44c-33 -44 -67 -69 -117 -69zM92 0l4 19h91l79 131l-150 548h22l91 -333l51 -188h2l106 176l206 345h23l-405 -676c-10 -17 -22 -22 -40 -22h-80z" />
    <glyph glyph-name="uni040F" unicode="&#x40f;" horiz-adv-x="665" 
d="M240 -150l30 150h-216l140 698h22l-136 -678h411l136 678h22l-140 -698h-217l-30 -150h-22z" />
    <glyph glyph-name="uni0410" unicode="&#x410;" horiz-adv-x="594" 
d="M519 0h-22l-45 234h-318l-122 -234h-24l366 698h30zM448 253l-81 420h-3l-220 -420h304z" />
    <glyph glyph-name="uni0411" unicode="&#x411;" horiz-adv-x="597" 
d="M54 0l140 698h351l-4 -20h-329l-57 -283h209c108 0 158 -65 158 -154c0 -153 -82 -241 -219 -241h-249zM80 20h225c109 0 170 63 187 150c7 34 8 53 8 71c0 75 -37 134 -138 134h-211z" />
    <glyph glyph-name="uni0412" unicode="&#x412;" horiz-adv-x="606" 
d="M55 0l138 698h221c96 0 150 -49 150 -137c0 -82 -29 -170 -135 -191v-3c66 -15 102 -72 102 -139c0 -144 -80 -228 -210 -228h-266zM81 20h242c103 0 161 59 177 139c8 39 9 58 9 69c0 70 -40 130 -132 130h-229zM152 378h215c94 0 152 44 166 117c8 43 9 56 9 67
c0 70 -37 116 -129 116h-202z" />
    <glyph glyph-name="uni0413" unicode="&#x413;" horiz-adv-x="486" 
d="M54 0l140 698h340l-4 -20h-318l-136 -678h-22z" />
    <glyph glyph-name="uni0414" unicode="&#x414;" horiz-adv-x="659" 
d="M-61 -150l34 170h68c75 86 142 223 195 492l37 186h345l-136 -678h85l-34 -170h-22l30 150h-550l-30 -150h-22zM68 20h392l132 658h-301l-33 -165c-53 -265 -116 -406 -189 -490z" />
    <glyph glyph-name="uni0415" unicode="&#x415;" horiz-adv-x="553" 
d="M432 0h-378l140 698h378l-4 -20h-356l-63 -314h344l-4 -20h-344l-65 -324h356z" />
    <glyph glyph-name="uni0416" unicode="&#x416;" horiz-adv-x="867" 
d="M-25 0l4 20h57l227 310c12 16 19 20 36 22v2c-12 2 -19 10 -25 29l-93 295h-59l4 20h49c14 0 23 -7 28 -22l100 -312h131l67 334h22l-67 -334h131l221 310c13 18 24 24 42 24h49l-4 -20h-59l-209 -293c-16 -22 -23 -29 -39 -31l-1 -2c12 -2 18 -8 25 -28l104 -304h59
l-4 -20h-49c-15 0 -24 6 -29 22l-110 322h-131l-69 -344h-22l69 344h-131l-238 -325c-11 -14 -21 -19 -39 -19h-47z" />
    <glyph glyph-name="uni0417" unicode="&#x417;" horiz-adv-x="556" 
d="M240 -12c-103 0 -176 34 -218 107l18 12c40 -68 101 -99 201 -99c113 0 195 57 211 141c5 26 7 47 7 56c0 82 -52 139 -157 139h-110l4 20h109c108 0 182 56 200 146c4 20 6 36 6 47c0 82 -60 133 -156 133c-98 0 -157 -30 -198 -100l-18 9c39 71 109 111 219 111
c100 0 175 -56 175 -153c0 -112 -74 -188 -171 -203l-1 -3c69 -9 120 -65 120 -146c0 -140 -99 -217 -241 -217z" />
    <glyph glyph-name="uni0418" unicode="&#x418;" horiz-adv-x="680" 
d="M54 0l140 698h21l-105 -524l-29 -134h3l87 104l474 554h19l-140 -698h-21l105 524l29 134h-3l-87 -104l-474 -554h-19z" />
    <glyph glyph-name="uni0419" unicode="&#x419;" horiz-adv-x="680" 
d="M439 786c-50 0 -75 25 -91 69l-16 45l16 7l23 -65c16 -27 35 -38 69 -38s57 11 87 38l47 65l15 -8l-33 -44c-33 -44 -67 -69 -117 -69zM54 0l140 698h21l-105 -524l-29 -134h3l87 104l474 554h19l-140 -698h-21l105 524l29 134h-3l-87 -104l-474 -554h-19z" />
    <glyph glyph-name="uni041A" unicode="&#x41a;" horiz-adv-x="607" 
d="M53 0l140 698h22l-67 -334h158l245 315c11 14 21 19 39 19h49l-4 -20h-59l-228 -293c-15 -20 -26 -28 -41 -31l-1 -2c13 -2 20 -8 26 -24l123 -308h59l-4 -20h-49c-15 0 -24 5 -30 21l-129 323h-158l-69 -344h-22z" />
    <glyph glyph-name="uni041B" unicode="&#x41b;" horiz-adv-x="632" 
d="M-40 0l4 20h63c71 47 150 209 207 493l37 185h345l-140 -698h-22l136 678h-301l-33 -165c-53 -265 -122 -419 -186 -483c-24 -24 -41 -30 -65 -30h-45z" />
    <glyph glyph-name="uni041C" unicode="&#x41c;" horiz-adv-x="780" 
d="M603 0l135 673h-3l-349 -437l-173 437h-3l-135 -673h-21l140 698h32l166 -420h3l334 420h35l-140 -698h-21z" />
    <glyph glyph-name="uni041D" unicode="&#x41d;" horiz-adv-x="680" 
d="M502 0l69 344h-426l-69 -344h-22l140 698h22l-67 -334h426l67 334h22l-140 -698h-22z" />
    <glyph glyph-name="uni041E" unicode="&#x41e;" horiz-adv-x="658" 
d="M291 -12c-132 0 -222 81 -222 232c0 198 88 490 332 490c132 0 222 -81 222 -232c0 -198 -88 -490 -332 -490zM291 8c145 0 252 120 289 306l11 55c8 42 10 81 10 109c0 130 -71 212 -200 212c-145 0 -252 -120 -289 -306l-11 -55c-8 -42 -10 -81 -10 -109
c0 -130 71 -212 200 -212z" />
    <glyph glyph-name="uni041F" unicode="&#x41f;" horiz-adv-x="665" 
d="M54 0l140 698h455l-140 -698h-22l136 678h-411l-136 -678h-22z" />
    <glyph glyph-name="uni0420" unicode="&#x420;" horiz-adv-x="582" 
d="M76 0h-22l140 698h251c97 0 151 -63 151 -148c0 -144 -80 -228 -210 -228h-245zM211 678l-66 -336h243c103 0 161 59 177 139c8 39 9 58 9 69c0 70 -39 128 -131 128h-232z" />
    <glyph glyph-name="uni0421" unicode="&#x421;" horiz-adv-x="595" 
d="M291 -12c-132 0 -222 81 -222 232c0 198 89 490 329 490c112 0 169 -54 191 -141l-21 -5c-21 76 -67 126 -171 126c-142 0 -248 -120 -285 -306l-11 -55c-8 -42 -10 -81 -10 -109c0 -130 71 -212 200 -212c93 0 156 47 209 143l19 -10c-62 -109 -131 -153 -228 -153z" />
    <glyph glyph-name="uni0422" unicode="&#x422;" horiz-adv-x="548" 
d="M619 678h-249l-136 -678h-22l136 678h-249l4 20h520z" />
    <glyph glyph-name="uni0423" unicode="&#x423;" horiz-adv-x="556" 
d="M92 0l4 19h91l79 131l-150 548h22l91 -333l51 -188h2l106 176l206 345h23l-405 -676c-10 -17 -22 -22 -40 -22h-80z" />
    <glyph glyph-name="uni0424" unicode="&#x424;" horiz-adv-x="817" 
d="M341 -29l18 90h-49c-138 0 -231 90 -231 223c0 206 115 351 341 351h54l18 90h22l-18 -90h49c138 0 231 -90 231 -223c0 -206 -115 -351 -341 -351h-54l-18 -90h-22zM313 81h50l107 534h-51c-182 0 -280 -105 -301 -209l-9 -45c-8 -41 -8 -55 -8 -77
c0 -122 85 -203 212 -203zM385 81h51c182 0 280 105 301 209l9 45c8 41 8 55 8 77c0 122 -85 203 -212 203h-50z" />
    <glyph glyph-name="uni0425" unicode="&#x425;" horiz-adv-x="552" 
d="M306 355l167 -355h-24l-157 336h-3l-290 -336h-28l308 356l-161 342h24l152 -323h3l277 323h28z" />
    <glyph glyph-name="uni0426" unicode="&#x426;" horiz-adv-x="690" 
d="M542 -150l30 150h-518l140 698h22l-136 -678h411l136 678h22l-136 -678h85l-34 -170h-22z" />
    <glyph glyph-name="uni0427" unicode="&#x427;" horiz-adv-x="607" 
d="M429 0l62 306h-2c-50 -18 -110 -29 -176 -29c-141 0 -203 62 -203 173c0 38 7 73 20 138l22 110h22l-23 -115c-12 -59 -19 -97 -19 -133c0 -99 54 -153 185 -153c66 0 118 9 178 29l74 372h22l-140 -698h-22z" />
    <glyph glyph-name="uni0428" unicode="&#x428;" horiz-adv-x="888" 
d="M54 0l140 698h22l-136 -678h306l136 678h22l-136 -678h306l136 678h22l-140 -698h-678z" />
    <glyph glyph-name="uni0429" unicode="&#x429;" horiz-adv-x="913" 
d="M763 -150l30 150h-739l140 698h22l-136 -678h306l136 678h22l-136 -678h306l136 678h22l-136 -678h82l-34 -170h-21z" />
    <glyph glyph-name="uni042A" unicode="&#x42a;" horiz-adv-x="706" 
d="M168 0l136 678h-205l4 20h227l-61 -303h209c108 0 158 -65 158 -154c0 -153 -82 -241 -219 -241h-249zM194 20h225c109 0 170 63 187 150c7 34 8 53 8 71c0 75 -37 134 -138 134h-211z" />
    <glyph glyph-name="uni042B" unicode="&#x42b;" horiz-adv-x="804" 
d="M54 0l140 698h22l-61 -303h208c108 0 158 -65 158 -154c0 -153 -82 -241 -219 -241h-248zM80 20h224c109 0 170 63 187 150c7 34 8 53 8 71c0 75 -37 134 -138 134h-210zM626 0l140 698h22l-140 -698h-22z" />
    <glyph glyph-name="uni042C" unicode="&#x42c;" horiz-adv-x="602" 
d="M55 0l140 698h22l-61 -303h218c108 0 158 -65 158 -154c0 -153 -82 -241 -219 -241h-258zM81 20h234c109 0 170 63 187 150c7 34 8 53 8 71c0 75 -37 134 -138 134h-220z" />
    <glyph glyph-name="uni042D" unicode="&#x42d;" horiz-adv-x="595" 
d="M191 344l4 20h332l1 5c8 42 10 81 10 109c0 130 -71 212 -200 212c-90 0 -150 -43 -198 -126l-19 10c52 90 121 136 217 136c132 0 222 -81 222 -232c0 -198 -89 -490 -329 -490c-117 0 -177 52 -199 159l21 5c20 -95 70 -144 179 -144c142 0 248 120 285 306l6 30h-332z
" />
    <glyph glyph-name="uni042E" unicode="&#x42e;" horiz-adv-x="884" 
d="M521 -12c-130 0 -218 81 -218 232c0 38 3 81 10 124h-168l-69 -344h-22l140 698h22l-67 -334h168c33 171 127 346 314 346c130 0 218 -81 218 -232c0 -198 -86 -490 -328 -490zM521 8c143 0 248 120 285 306l11 55c8 42 10 81 10 109c0 130 -69 212 -196 212
c-143 0 -248 -120 -285 -306l-11 -55c-8 -42 -10 -81 -10 -109c0 -130 69 -212 196 -212z" />
    <glyph glyph-name="uni042F" unicode="&#x42f;" horiz-adv-x="610" 
d="M-24 0l4 20h59l197 269c17 24 23 28 35 30l1 3h-6c-102 0 -150 62 -150 147c0 145 78 229 208 229h270l-140 -698h-22l64 322h-210l-222 -303c-11 -14 -21 -19 -39 -19h-49zM568 678h-246c-102 0 -160 -60 -176 -142c-7 -32 -8 -50 -8 -67c0 -71 35 -127 131 -127h231z
" />
    <glyph glyph-name="uni0430" unicode="&#x430;" horiz-adv-x="567" 
d="M491 0h-78c-15 0 -23 6 -23 19c0 6 1 10 2 16l15 76h-3c-42 -74 -96 -123 -181 -123c-105 0 -163 81 -163 188c0 184 89 342 249 342c85 0 138 -43 156 -105h3l18 93h21l-97 -487h85zM223 7c42 0 75 11 110 40c39 32 79 87 93 157l28 142c13 67 -26 153 -145 153
c-115 0 -189 -85 -215 -217l-7 -35c-4 -22 -6 -43 -6 -71c0 -93 44 -169 142 -169z" />
    <glyph glyph-name="uni0431" unicode="&#x431;" horiz-adv-x="536" 
d="M227 -12c-107 0 -166 81 -166 181c0 148 74 406 164 496c41 41 92 62 172 68l139 11l-4 -18l-137 -11c-129 -10 -205 -60 -285 -340h3c40 89 105 131 198 131c107 0 166 -75 166 -175c0 -187 -85 -343 -250 -343zM229 7c112 0 187 77 214 212l8 40c4 22 5 46 5 72
c0 88 -45 156 -147 156c-112 0 -188 -77 -214 -206l-8 -40c-4 -22 -5 -46 -5 -72c0 -88 45 -162 147 -162z" />
    <glyph glyph-name="uni0432" unicode="&#x432;" horiz-adv-x="509" 
d="M53 0l101 506h186c70 0 109 -36 109 -99c0 -80 -39 -130 -99 -145v-2c48 -11 75 -44 75 -95c0 -106 -55 -165 -152 -165h-220zM78 19h195c76 0 113 40 125 98c6 29 6 40 6 48c0 49 -26 85 -93 85h-187zM128 269h176c62 0 107 37 118 90c5 25 6 38 6 48
c0 49 -26 80 -88 80h-169z" />
    <glyph glyph-name="uni0433" unicode="&#x433;" horiz-adv-x="416" 
d="M53 0l101 506h276l-4 -19h-255l-97 -487h-21z" />
    <glyph glyph-name="uni0434" unicode="&#x434;" horiz-adv-x="551" 
d="M225 -12c-107 0 -166 81 -166 181c0 178 83 337 248 337c95 0 146 -53 160 -125h3v76c0 112 -20 185 -59 224c-36 36 -79 52 -143 52c-32 0 -51 -2 -71 -4l4 19c16 2 37 4 69 4c64 0 115 -18 154 -57c43 -43 66 -114 66 -236c0 -325 -99 -471 -265 -471zM227 7
c118 0 189 84 217 219l7 34c4 20 6 43 6 63c0 98 -49 164 -152 164c-112 0 -187 -83 -214 -216l-6 -30c-4 -22 -5 -46 -5 -72c0 -88 45 -162 147 -162z" />
    <glyph glyph-name="uni0435" unicode="&#x435;" horiz-adv-x="505" 
d="M237 -12c-113 0 -176 63 -176 199c0 184 101 331 247 331c95 0 158 -47 158 -123c0 -64 -42 -155 -381 -162c-1 -10 -3 -33 -3 -44c0 -128 52 -182 155 -182c82 0 148 47 189 125l19 -8c-51 -94 -124 -136 -208 -136zM306 499c-112 0 -193 -97 -216 -230l-3 -17
c300 5 357 76 357 143c0 61 -41 104 -138 104z" />
    <glyph glyph-name="uni0436" unicode="&#x436;" horiz-adv-x="717" 
d="M-10 0l4 19h82c33 24 70 87 103 249c10 49 16 89 16 135c0 44 -8 70 -20 84h-74l4 19h51c42 0 60 -33 60 -103c0 -40 -5 -82 -14 -128h151l46 231h21l-47 -231h151c40 183 76 231 132 231h57l-4 -19h-76c-30 -22 -58 -67 -89 -219c-10 -49 -16 -99 -16 -145
c0 -58 11 -90 23 -104h78l-4 -19h-55c-42 0 -63 33 -63 123c0 42 5 88 13 133h-151l-51 -256h-21l52 256h-151c-42 -190 -85 -256 -143 -256h-65z" />
    <glyph glyph-name="uni0437" unicode="&#x437;" horiz-adv-x="470" 
d="M201 -12c-98 0 -160 55 -175 130l19 5c16 -73 72 -116 158 -116c78 0 141 33 158 108c3 13 4 24 4 36c0 63 -47 100 -131 100h-92l4 19h90c81 0 146 31 160 97c4 19 4 30 4 38c0 53 -37 94 -129 94c-76 0 -124 -27 -165 -90l-17 9c40 63 93 100 184 100
c98 0 148 -46 148 -113c0 -82 -50 -132 -130 -144v-2c54 -12 95 -42 95 -108c0 -97 -71 -163 -185 -163z" />
    <glyph glyph-name="uni0438" unicode="&#x438;" horiz-adv-x="548" 
d="M145 506h21l-64 -320c-4 -22 -7 -50 -7 -63c0 -77 39 -116 114 -116c45 0 93 15 133 62c22 26 51 65 63 125l62 312h21l-97 -487h85l-4 -19h-78c-15 0 -23 6 -23 19c0 6 1 10 2 16l14 70h-3c-40 -76 -95 -117 -178 -117c-85 0 -132 49 -132 132c0 20 3 45 7 65z" />
    <glyph glyph-name="uni0439" unicode="&#x439;" horiz-adv-x="548" 
d="M334 606c-50 0 -75 25 -91 69l-16 45l16 7l23 -65c16 -27 35 -38 69 -38s57 11 87 38l47 65l15 -8l-33 -44c-33 -44 -67 -69 -117 -69zM145 506h21l-64 -320c-4 -22 -7 -50 -7 -63c0 -77 39 -116 114 -116c45 0 93 15 133 62c22 26 51 65 63 125l62 312h21l-97 -487h85
l-4 -19h-78c-15 0 -23 6 -23 19c0 6 1 10 2 16l14 70h-3c-40 -76 -95 -117 -178 -117c-85 0 -132 49 -132 132c0 20 3 45 7 65z" />
    <glyph glyph-name="uni043A" unicode="&#x43a;" horiz-adv-x="502" 
d="M53 0l101 506h21l-46 -231h102l184 211c14 16 24 20 40 20h47l-4 -19h-57l-171 -196c-15 -18 -22 -22 -36 -24l-1 -3c14 -2 22 -11 31 -33l92 -212h57l-4 -19h-37c-22 0 -35 7 -44 28l-99 228h-104l-51 -256h-21z" />
    <glyph glyph-name="uni043B" unicode="&#x43b;" horiz-adv-x="525" 
d="M-48 0l4 19h57c66 66 121 177 153 337l30 150h276l-101 -506h-21l97 487h-234l-26 -131c-31 -158 -88 -278 -148 -338c-15 -15 -24 -18 -45 -18h-42z" />
    <glyph glyph-name="uni043C" unicode="&#x43c;" horiz-adv-x="659" 
d="M53 0l101 506h33l125 -329h2l257 329h35l-101 -506h-21l97 486h-3l-73 -93l-199 -255l-94 249l-38 99h-3l-97 -486h-21z" />
    <glyph glyph-name="uni043D" unicode="&#x43d;" horiz-adv-x="550" 
d="M53 0l101 506h21l-46 -231h301l46 231h21l-101 -506h-21l51 256h-301l-51 -256h-21z" />
    <glyph glyph-name="uni043E" unicode="&#x43e;" horiz-adv-x="534" 
d="M225 -12c-107 0 -166 81 -166 181c0 187 85 349 250 349c107 0 166 -81 166 -181c0 -187 -85 -349 -250 -349zM227 7c112 0 187 83 214 218l8 40c4 22 5 46 5 72c0 88 -45 162 -147 162c-112 0 -187 -83 -214 -218l-8 -40c-4 -22 -5 -46 -5 -72c0 -88 45 -162 147 -162z
" />
    <glyph glyph-name="uni043F" unicode="&#x43f;" horiz-adv-x="548" 
d="M74 0h-21l101 506h21l-21 -105h3c40 76 95 117 178 117c85 0 132 -49 132 -132c0 -20 -3 -45 -7 -65l-60 -302h85l-4 -19h-78c-15 0 -23 6 -23 19c0 6 1 10 2 16l57 285c4 22 7 50 7 63c0 77 -39 116 -114 116c-45 0 -93 -15 -133 -62c-22 -26 -51 -65 -63 -125z" />
    <glyph glyph-name="uni0440" unicode="&#x440;" horiz-adv-x="561" 
d="M14 -200l141 706h21l-22 -111h3c42 74 96 123 181 123c105 0 163 -81 163 -188c0 -184 -89 -342 -249 -342c-85 0 -138 43 -156 105h-3l-58 -293h-21zM252 7c115 0 189 85 215 217l7 35c4 22 6 43 6 71c0 93 -44 169 -142 169c-42 0 -75 -11 -110 -40
c-39 -32 -79 -87 -93 -157l-28 -142c-13 -67 26 -153 145 -153z" />
    <glyph glyph-name="uni0441" unicode="&#x441;" horiz-adv-x="479" 
d="M223 -12c-108 0 -162 84 -162 198c0 187 85 332 240 332c79 0 136 -47 150 -115l-19 -5c-15 65 -66 101 -133 101c-102 0 -180 -78 -203 -202l-9 -49c-4 -24 -6 -37 -6 -62c0 -99 42 -179 142 -179c78 0 136 46 182 116l17 -9c-49 -76 -112 -126 -199 -126z" />
    <glyph glyph-name="uni0442" unicode="&#x442;" horiz-adv-x="452" 
d="M165 0l97 487h-184l4 19h389l-4 -19h-184l-97 -487h-21z" />
    <glyph glyph-name="uni0443" unicode="&#x443;" horiz-adv-x="460" 
d="M181 24l273 482h23l-388 -681c-11 -19 -19 -25 -38 -25h-75l4 19h84l100 178l-91 509h20l85 -482h3z" />
    <glyph glyph-name="uni0444" unicode="&#x444;" horiz-adv-x="740" 
d="M269 -200l54 271h-3c-28 -48 -72 -83 -134 -83c-80 0 -123 65 -123 148c0 197 81 382 222 382c60 0 98 -31 108 -83h3l55 275h21l-55 -275h3c28 48 72 83 134 83c80 0 123 -65 123 -148c0 -197 -81 -382 -222 -382c-60 0 -98 31 -108 83h-3l-54 -271h-21zM186 7
c42 0 74 14 104 44c22 22 39 51 45 79l49 243c14 68 -21 126 -99 126s-154 -70 -185 -224l-9 -44c-4 -22 -7 -67 -7 -95c0 -72 32 -129 102 -129zM455 7c78 0 154 70 185 224l9 44c4 22 7 67 7 95c0 72 -32 129 -102 129c-42 0 -74 -14 -104 -44c-22 -22 -39 -51 -45 -79
l-49 -243c-14 -68 21 -126 99 -126z" />
    <glyph glyph-name="uni0445" unicode="&#x445;" horiz-adv-x="473" 
d="M23 0h-27l225 257l-133 249h22l127 -235h3l206 235h27l-224 -253l132 -253h-22l-126 239h-3z" />
    <glyph glyph-name="uni0446" unicode="&#x446;" horiz-adv-x="568" 
d="M423 -140l28 140h-57c-15 0 -23 6 -23 19c0 6 1 10 2 16l14 70h-3c-40 -76 -95 -117 -178 -117c-85 0 -132 49 -132 132c0 20 3 45 7 65l64 321h21l-64 -320c-4 -22 -7 -50 -7 -63c0 -77 39 -116 114 -116c45 0 93 15 133 62c22 26 51 65 63 125l62 312h21l-97 -487h85
l-32 -159h-21z" />
    <glyph glyph-name="uni0447" unicode="&#x447;" horiz-adv-x="504" 
d="M329 0l57 288h-3c-44 -66 -98 -93 -174 -93c-89 0 -135 45 -135 108c0 23 3 47 7 67l27 136h21l-27 -135c-4 -22 -7 -48 -7 -68c0 -55 41 -89 117 -89c129 0 179 99 191 157l27 135h21l-101 -506h-21z" />
    <glyph glyph-name="uni0448" unicode="&#x448;" horiz-adv-x="816" 
d="M193 -12c-76 0 -119 49 -119 132c0 20 3 45 7 65l64 321h21l-64 -320c-4 -22 -7 -50 -7 -63c0 -77 36 -116 101 -116c40 0 87 17 123 60c25 29 46 63 57 120l64 319h21l-64 -320c-4 -22 -7 -50 -7 -63c0 -77 36 -116 101 -116c39 0 82 18 119 62c22 26 51 65 63 125
l62 312h21l-97 -487h85l-4 -19h-78c-15 0 -23 6 -23 19c0 6 1 10 2 16l14 70h-3c-36 -70 -89 -117 -164 -117c-76 0 -117 50 -119 124h-3c-35 -75 -94 -124 -173 -124z" />
    <glyph glyph-name="uni0449" unicode="&#x449;" horiz-adv-x="836" 
d="M691 -140l28 140h-57c-15 0 -23 6 -23 19c0 6 1 10 2 16l14 70h-3c-36 -70 -89 -117 -164 -117c-76 0 -117 50 -119 124h-3c-35 -75 -94 -124 -173 -124c-76 0 -119 49 -119 132c0 20 3 45 7 65l64 321h21l-64 -320c-4 -22 -7 -50 -7 -63c0 -77 36 -116 101 -116
c40 0 87 17 123 60c25 29 46 63 57 120l64 319h21l-64 -320c-4 -22 -7 -50 -7 -63c0 -77 36 -116 101 -116c39 0 82 18 119 62c22 26 51 65 63 125l62 312h21l-97 -487h85l-32 -159h-21z" />
    <glyph glyph-name="uni044A" unicode="&#x44a;" horiz-adv-x="549" 
d="M123 0l97 487h-142l4 19h163l-42 -213h138c100 0 138 -39 138 -111c0 -74 -32 -182 -179 -182h-177zM148 19h154c95 0 138 51 149 106c4 20 7 41 7 57c0 62 -30 92 -119 92h-140z" />
    <glyph glyph-name="uni044B" unicode="&#x44b;" horiz-adv-x="651" 
d="M53 0l101 506h21l-42 -213h130c100 0 138 -39 138 -111c0 -74 -32 -182 -179 -182h-169zM78 19h146c95 0 138 51 149 106c4 20 7 41 7 57c0 62 -30 92 -119 92h-132zM476 0l101 506h21l-101 -506h-21z" />
    <glyph glyph-name="uni044C" unicode="&#x44c;" horiz-adv-x="479" 
d="M53 0l101 506h21l-42 -213h138c100 0 138 -39 138 -111c0 -74 -32 -182 -179 -182h-177zM78 19h154c95 0 138 51 149 106c4 20 7 41 7 57c0 62 -30 92 -119 92h-140z" />
    <glyph glyph-name="uni044D" unicode="&#x44d;" horiz-adv-x="489" 
d="M145 246l4 19h254c3 20 4 36 4 55c0 99 -41 179 -141 179c-73 0 -119 -27 -160 -90l-17 9c40 63 91 100 177 100c108 0 162 -84 162 -198c0 -187 -85 -332 -240 -332c-85 0 -147 53 -162 130l19 5c16 -75 72 -116 145 -116c102 0 180 78 203 202l7 37h-255z" />
    <glyph glyph-name="uni044E" unicode="&#x44e;" horiz-adv-x="725" 
d="M416 -12c-107 0 -166 81 -166 181c0 30 3 64 7 87h-132l-51 -256h-21l101 506h21l-46 -231h131c27 138 107 243 240 243c107 0 166 -81 166 -181c0 -187 -85 -349 -250 -349zM418 7c112 0 187 83 214 218l8 40c4 22 5 46 5 72c0 88 -45 162 -147 162
c-112 0 -187 -83 -214 -218l-8 -40c-4 -22 -5 -46 -5 -72c0 -88 45 -162 147 -162z" />
    <glyph glyph-name="uni044F" unicode="&#x44f;" horiz-adv-x="496" 
d="M-16 0l4 19h57l136 173c9 12 15 16 25 18l1 3c-88 4 -124 42 -124 111c0 74 32 182 179 182h177l-101 -506h-21l42 213h-136l-151 -192c-12 -16 -25 -21 -41 -21h-47zM414 487h-154c-95 0 -138 -51 -149 -106c-4 -20 -7 -41 -7 -57c0 -62 30 -92 119 -92h140z" />
    <glyph glyph-name="uni0450" unicode="&#x450;" horiz-adv-x="505" 
d="M336 587l-84 153l19 11l81 -155zM237 -12c-113 0 -176 63 -176 199c0 184 101 331 247 331c95 0 158 -47 158 -123c0 -64 -42 -155 -381 -162c-1 -10 -3 -33 -3 -44c0 -128 52 -182 155 -182c82 0 148 47 189 125l19 -8c-51 -94 -124 -136 -208 -136zM306 499
c-112 0 -193 -97 -216 -230l-3 -17c300 5 357 76 357 143c0 61 -41 104 -138 104z" />
    <glyph glyph-name="uni0451" unicode="&#x451;" horiz-adv-x="505" 
d="M248 642c-16 0 -20 9 -20 17c0 5 1 9 3 15c3 9 7 17 23 17s20 -9 20 -17c0 -5 -1 -9 -3 -15c-3 -9 -7 -17 -23 -17zM430 642c-16 0 -20 9 -20 17c0 5 1 9 3 15c3 9 7 17 23 17s20 -9 20 -17c0 -5 -1 -9 -3 -15c-3 -9 -7 -17 -23 -17zM237 -12c-113 0 -176 63 -176 199
c0 184 101 331 247 331c95 0 158 -47 158 -123c0 -64 -42 -155 -381 -162c-1 -10 -3 -33 -3 -44c0 -128 52 -182 155 -182c82 0 148 47 189 125l19 -8c-51 -94 -124 -136 -208 -136zM306 499c-112 0 -193 -97 -216 -230l-3 -17c300 5 357 76 357 143c0 61 -41 104 -138 104z
" />
    <glyph glyph-name="uni0452" unicode="&#x452;" horiz-adv-x="555" 
d="M254 -200l4 19h85l100 501c4 22 7 50 7 63c0 77 -39 116 -114 116c-45 0 -93 -15 -133 -62c-22 -26 -51 -65 -63 -125l-62 -312h-21l125 629h-67l4 18h67l18 93h21l-18 -93h162l-4 -18h-162l-45 -228h3c40 76 95 117 178 117c85 0 132 -49 132 -132c0 -20 -3 -45 -7 -65
l-97 -488c-5 -26 -13 -33 -41 -33h-72z" />
    <glyph glyph-name="uni0453" unicode="&#x453;" horiz-adv-x="416" 
d="M428 738l-147 -151l-13 11l143 153zM53 0l101 506h276l-4 -19h-255l-97 -487h-21z" />
    <glyph glyph-name="uni0454" unicode="&#x454;" horiz-adv-x="489" 
d="M223 -12c-108 0 -162 84 -162 198c0 187 85 332 240 332c79 0 136 -47 150 -115l-19 -5c-15 65 -66 101 -133 101c-102 0 -180 -78 -203 -202l-6 -32h262l-4 -19h-261c-4 -23 -5 -40 -5 -60c0 -99 41 -179 141 -179c78 0 136 46 182 116l17 -9
c-49 -76 -112 -126 -199 -126z" />
    <glyph glyph-name="uni0455" unicode="&#x455;" horiz-adv-x="448" 
d="M199 -12c-84 0 -144 35 -186 98l18 12c39 -62 94 -91 168 -91c93 0 155 47 155 131c0 63 -37 86 -103 103l-50 13c-68 18 -116 47 -116 124c0 93 76 140 167 140c87 0 132 -38 162 -79l-16 -14c-28 40 -67 74 -147 74c-87 0 -145 -43 -145 -121c0 -62 35 -88 101 -105
l50 -13c68 -18 118 -44 118 -121c0 -100 -78 -151 -176 -151z" />
    <glyph glyph-name="uni0456" unicode="&#x456;" horiz-adv-x="235" 
d="M200 673c-15 0 -20 8 -20 16c0 4 1 8 2 14c3 12 10 19 27 19c15 0 20 -8 20 -16c0 -4 -1 -8 -2 -14c-3 -12 -10 -19 -27 -19zM159 0h-78c-15 0 -23 6 -23 19c0 6 1 10 2 16l95 471h21l-98 -487h85z" />
    <glyph glyph-name="uni0457" unicode="&#x457;" horiz-adv-x="235" 
d="M103 642c-16 0 -20 9 -20 17c0 5 1 9 3 15c3 9 7 17 23 17s20 -9 20 -17c0 -5 -1 -9 -3 -15c-3 -9 -7 -17 -23 -17zM285 642c-16 0 -20 9 -20 17c0 5 1 9 3 15c3 9 7 17 23 17s20 -9 20 -17c0 -5 -1 -9 -3 -15c-3 -9 -7 -17 -23 -17zM159 0h-78c-15 0 -23 6 -23 19
c0 6 1 10 2 16l95 471h21l-98 -487h85z" />
    <glyph glyph-name="uni0458" unicode="&#x458;" horiz-adv-x="229" 
d="M17 -181l137 687h21l-134 -673c-5 -26 -13 -33 -41 -33h-72l4 19h85zM199 673c-15 0 -20 8 -20 16c0 4 1 8 2 14c3 12 10 19 27 19c15 0 20 -8 20 -16c0 -4 -1 -8 -2 -14c-3 -12 -10 -19 -27 -19z" />
    <glyph glyph-name="uni0459" unicode="&#x459;" horiz-adv-x="735" 
d="M-48 0l4 19h57c66 66 121 177 153 337l30 150h243l-42 -213h130c100 0 138 -39 138 -111c0 -74 -32 -182 -179 -182h-169l97 487h-201l-26 -131c-31 -158 -88 -278 -148 -338c-15 -15 -24 -18 -45 -18h-42zM342 19h146c95 0 138 51 149 106c4 20 7 41 7 57
c0 62 -30 92 -119 92h-132z" />
    <glyph glyph-name="uni045A" unicode="&#x45a;" horiz-adv-x="763" 
d="M53 0l101 506h21l-44 -222h271l44 222h21l-44 -222h132c100 0 138 -41 138 -107c0 -68 -32 -177 -179 -177h-169l53 265h-271l-53 -265h-21zM370 19h146c95 0 138 51 149 106c5 24 7 41 7 52c0 56 -30 88 -119 88h-134z" />
    <glyph glyph-name="uni045B" unicode="&#x45b;" horiz-adv-x="552" 
d="M57 0l125 629h-67l4 18h67l18 93h21l-18 -93h162l-4 -18h-162l-45 -228h3c40 76 95 117 178 117c85 0 132 -49 132 -132c0 -20 -3 -45 -7 -65l-60 -302h85l-4 -19h-78c-15 0 -23 6 -23 19c0 6 1 10 2 16l57 285c4 22 7 50 7 63c0 77 -39 116 -114 116
c-45 0 -93 -15 -133 -62c-22 -26 -51 -65 -63 -125l-62 -312h-21z" />
    <glyph glyph-name="uni045C" unicode="&#x45c;" horiz-adv-x="502" 
d="M433 738l-147 -151l-13 11l143 153zM53 0l101 506h21l-46 -231h102l184 211c14 16 24 20 40 20h47l-4 -19h-57l-171 -196c-15 -18 -22 -22 -36 -24l-1 -3c14 -2 22 -11 31 -33l92 -212h57l-4 -19h-37c-22 0 -35 7 -44 28l-99 228h-104l-51 -256h-21z" />
    <glyph glyph-name="uni045D" unicode="&#x45d;" horiz-adv-x="548" 
d="M339 587l-84 153l19 11l81 -155zM145 506h21l-64 -320c-4 -22 -7 -50 -7 -63c0 -77 39 -116 114 -116c45 0 93 15 133 62c22 26 51 65 63 125l62 312h21l-97 -487h85l-4 -19h-78c-15 0 -23 6 -23 19c0 6 1 10 2 16l14 70h-3c-40 -76 -95 -117 -178 -117
c-85 0 -132 49 -132 132c0 20 3 45 7 65z" />
    <glyph glyph-name="uni045E" unicode="&#x45e;" horiz-adv-x="460" 
d="M289 606c-50 0 -75 25 -91 69l-16 45l16 7l23 -65c16 -27 35 -38 69 -38s57 11 87 38l47 65l15 -8l-33 -44c-33 -44 -67 -69 -117 -69zM181 24l273 482h23l-388 -681c-11 -19 -19 -25 -38 -25h-75l4 19h84l100 178l-91 509h20l85 -482h3z" />
    <glyph glyph-name="uni045F" unicode="&#x45f;" horiz-adv-x="548" 
d="M206 -12c-85 0 -132 49 -132 132c0 20 3 45 7 65l64 321h21l-64 -320c-4 -22 -7 -50 -7 -63c0 -77 39 -116 114 -116c45 0 93 15 133 62c22 26 51 65 63 125l62 312h21l-97 -487h85l-4 -19h-78c-15 0 -23 6 -23 19c0 6 1 10 2 16l14 70h-3c-40 -76 -95 -117 -178 -117z
M162 -200l30 150h21l-30 -150h-21z" />
    <glyph glyph-name="uni0472" unicode="&#x472;" horiz-adv-x="658" 
d="M291 -12c-132 0 -222 81 -222 232c0 198 88 490 332 490c132 0 222 -81 222 -232c0 -198 -88 -490 -332 -490zM291 8c145 0 252 120 289 306l6 30h-482l-3 -15c-8 -42 -10 -81 -10 -109c0 -130 71 -212 200 -212zM112 384l-4 -20h482l1 5c8 42 10 81 10 109
c0 130 -71 212 -200 212c-145 0 -252 -120 -289 -306z" />
    <glyph glyph-name="uni0473" unicode="&#x473;" horiz-adv-x="534" 
d="M225 -12c-107 0 -166 81 -166 181c0 187 85 349 250 349c107 0 166 -81 166 -181c0 -187 -85 -349 -250 -349zM227 7c112 0 187 82 214 217l5 25h-359l-2 -10c-4 -22 -5 -44 -5 -70c0 -88 45 -162 147 -162zM93 283l-3 -15h359c4 21 5 44 5 69c0 88 -45 162 -147 162
c-112 0 -187 -82 -214 -216z" />
    <glyph glyph-name="uni0490" unicode="&#x490;" horiz-adv-x="486" 
d="M54 0l140 698h318l30 150h22l-34 -170h-318l-136 -678h-22z" />
    <glyph glyph-name="uni0491" unicode="&#x491;" horiz-adv-x="416" 
d="M53 0l101 506h254l28 140h21l-31 -159h-255l-97 -487h-21z" />
    <glyph glyph-name="uni0492" unicode="&#x492;" horiz-adv-x="506" 
d="M74 0l73 365h-100l4 19h100l63 314h340l-4 -20h-318l-59 -294h216l-4 -19h-216l-73 -365h-22z" />
    <glyph glyph-name="uni0493" unicode="&#x493;" horiz-adv-x="425" 
d="M62 0l51 257h-80l4 18h80l46 231h276l-4 -19h-255l-42 -212h178l-4 -18h-178l-51 -257h-21z" />
    <glyph glyph-name="uni0494" unicode="&#x494;" horiz-adv-x="597" 
d="M264 -164l4 20h84c52 19 91 63 117 184l8 38c12 59 19 97 19 133c0 99 -54 153 -180 153c-62 0 -113 -9 -173 -29l-67 -335h-22l140 698h340l-4 -20h-318l-65 -323h2c50 18 109 29 171 29c136 0 198 -62 198 -173c0 -38 -6 -73 -20 -138l-8 -38
c-31 -147 -89 -199 -160 -199h-66z" />
    <glyph glyph-name="uni0495" unicode="&#x495;" horiz-adv-x="509" 
d="M207 -200l4 19h85c31 22 58 75 79 180l20 101c4 22 7 48 7 68c0 55 -41 89 -117 89c-129 0 -179 -99 -191 -157l-20 -100h-21l101 506h276l-4 -19h-255l-60 -304h3c44 66 98 93 174 93c89 0 135 -45 135 -108c0 -23 -3 -47 -7 -67l-22 -111c-31 -155 -72 -190 -120 -190
h-67z" />
    <glyph glyph-name="uni0496" unicode="&#x496;" horiz-adv-x="875" 
d="M731 -150l30 150h-39c-15 0 -24 6 -29 22l-110 322h-131l-69 -344h-22l69 344h-131l-238 -325c-11 -14 -21 -19 -39 -19h-47l4 20h57l227 310c12 16 19 20 36 22v2c-12 2 -19 10 -25 29l-93 295h-59l4 20h49c14 0 23 -7 28 -22l100 -312h131l67 334h22l-67 -334h131
l221 310c13 18 24 24 42 24h49l-4 -20h-59l-209 -293c-16 -22 -23 -29 -39 -31l-1 -2c12 -2 18 -8 25 -28l104 -304h71l-34 -170h-22z" />
    <glyph glyph-name="uni0497" unicode="&#x497;" horiz-adv-x="721" 
d="M576 -140l28 140h-34c-42 0 -63 33 -63 123c0 42 5 88 13 133h-151l-51 -256h-21l52 256h-151c-42 -190 -85 -256 -143 -256h-65l4 19h82c33 24 70 87 103 249c10 49 16 89 16 135c0 44 -8 70 -20 84h-74l4 19h51c42 0 60 -33 60 -103c0 -40 -5 -82 -14 -128h151l46 231
h21l-47 -231h151c40 183 76 231 132 231h57l-4 -19h-76c-30 -22 -58 -67 -89 -219c-10 -49 -16 -99 -16 -145c0 -58 11 -90 23 -104h78l-32 -159h-21z" />
    <glyph glyph-name="uni0498" unicode="&#x498;" horiz-adv-x="556" 
d="M200 -150l28 138c-96 3 -166 37 -206 107l18 12c40 -68 101 -99 201 -99c113 0 195 57 211 141c5 26 7 47 7 56c0 82 -52 139 -157 139h-110l4 20h109c108 0 182 56 200 146c4 20 6 36 6 47c0 82 -60 133 -156 133c-98 0 -157 -30 -198 -100l-18 9c39 71 109 111 219 111
c100 0 175 -56 175 -153c0 -112 -74 -188 -171 -203l-1 -3c69 -9 120 -65 120 -146c0 -137 -94 -213 -231 -217l-28 -138h-22z" />
    <glyph glyph-name="uni0499" unicode="&#x499;" horiz-adv-x="470" 
d="M166 -140l26 128c-92 4 -152 57 -166 130l19 5c16 -73 72 -116 158 -116c78 0 141 33 158 108c3 13 4 24 4 36c0 63 -47 100 -131 100h-92l4 19h90c81 0 146 31 160 97c4 19 4 30 4 38c0 53 -37 94 -129 94c-76 0 -124 -27 -165 -90l-17 9c40 63 93 100 184 100
c98 0 148 -46 148 -113c0 -82 -50 -132 -130 -144v-2c54 -12 95 -42 95 -108c0 -94 -65 -158 -173 -163l-26 -128h-21z" />
    <glyph glyph-name="uni049A" unicode="&#x49a;" horiz-adv-x="615" 
d="M470 -150l30 150h-39c-15 0 -24 5 -30 21l-129 323h-158l-69 -344h-22l140 698h22l-67 -334h158l245 315c11 14 21 19 39 19h49l-4 -20h-59l-228 -293c-15 -20 -26 -28 -41 -31l-1 -2c13 -2 20 -8 26 -24l123 -308h71l-34 -170h-22z" />
    <glyph glyph-name="uni049B" unicode="&#x49b;" horiz-adv-x="510" 
d="M375 -140l28 140h-31c-22 0 -35 7 -44 28l-99 228h-104l-51 -256h-21l101 506h21l-46 -231h102l184 211c14 16 24 20 40 20h47l-4 -19h-57l-171 -196c-15 -18 -22 -22 -36 -24l-1 -3c14 -2 22 -11 31 -33l92 -212h72l-32 -159h-21z" />
    <glyph glyph-name="uni049C" unicode="&#x49c;" horiz-adv-x="618" 
d="M54 0l140 698h22l-67 -334h83l35 173h18l-34 -173h66l245 315c11 14 21 19 39 19h49l-4 -20h-59l-228 -293c-15 -20 -26 -28 -41 -31l-1 -2c13 -2 20 -8 26 -24l123 -308h59l-4 -20h-49c-15 0 -24 5 -30 21l-129 323h-66l-34 -171h-19l34 171h-83l-69 -344h-22z" />
    <glyph glyph-name="uni049D" unicode="&#x49d;" horiz-adv-x="522" 
d="M53 0l101 506h21l-46 -231h55l26 130h21l-26 -130h46l184 211c14 16 24 20 40 20h47l-4 -19h-57l-171 -196c-15 -18 -22 -22 -36 -24l-1 -3c14 -2 22 -11 31 -33l92 -212h57l-4 -19h-37c-22 0 -35 7 -44 28l-99 228h-48l-26 -131h-21l26 131h-55l-51 -256h-21z" />
    <glyph glyph-name="uni04A0" unicode="&#x4a0;" horiz-adv-x="722" 
d="M168 0l136 678h-205l4 20h227l-67 -334h158l245 315c11 14 21 19 39 19h49l-4 -20h-59l-228 -293c-15 -20 -26 -28 -41 -31l-1 -2c13 -2 20 -8 26 -24l123 -308h59l-4 -20h-49c-15 0 -24 5 -30 21l-129 323h-158l-69 -344h-22z" />
    <glyph glyph-name="uni04A1" unicode="&#x4a1;" horiz-adv-x="570" 
d="M121 0l97 487h-140l4 19h161l-46 -231h102l184 211c14 16 24 20 40 20h47l-4 -19h-57l-171 -196c-15 -18 -22 -22 -36 -24l-1 -3c14 -2 22 -11 31 -33l92 -212h57l-4 -19h-37c-22 0 -35 7 -44 28l-99 228h-104l-51 -256h-21z" />
    <glyph glyph-name="uni04A2" unicode="&#x4a2;" horiz-adv-x="705" 
d="M557 -150l30 150h-85l69 344h-426l-69 -344h-22l140 698h22l-67 -334h426l67 334h22l-136 -678h85l-34 -170h-22z" />
    <glyph glyph-name="uni04A3" unicode="&#x4a3;" horiz-adv-x="577" 
d="M432 -140l28 140h-85l51 256h-301l-51 -256h-21l101 506h21l-46 -231h301l46 231h21l-97 -487h85l-32 -159h-21z" />
    <glyph glyph-name="uni04A4" unicode="&#x4a4;" horiz-adv-x="909" 
d="M54 0l140 698h22l-67 -334h401l67 334h340l-4 -20h-318l-136 -678h-22l69 344h-401l-69 -344h-22z" />
    <glyph glyph-name="uni04A5" unicode="&#x4a5;" horiz-adv-x="708" 
d="M53 0l101 506h21l-46 -231h271l46 231h276l-4 -19h-255l-97 -487h-21l51 256h-271l-51 -256h-21z" />
    <glyph glyph-name="uni04AA" unicode="&#x4aa;" horiz-adv-x="595" 
d="M218 -150l28 141c-106 18 -177 94 -177 229c0 198 89 490 329 490c112 0 169 -54 191 -141l-21 -5c-21 76 -67 126 -171 126c-142 0 -248 -120 -285 -306l-11 -55c-8 -42 -10 -81 -10 -109c0 -130 71 -212 200 -212c93 0 156 47 209 143l19 -10
c-62 -109 -131 -153 -228 -153c-4 0 -11 0 -23 1l-28 -139h-22z" />
    <glyph glyph-name="uni04AB" unicode="&#x4ab;" horiz-adv-x="479" 
d="M189 -140l26 128c-102 5 -154 87 -154 198c0 187 85 332 240 332c79 0 136 -47 150 -115l-19 -5c-15 65 -66 101 -133 101c-102 0 -180 -78 -203 -202l-9 -49c-4 -24 -5 -41 -5 -62c0 -99 41 -179 141 -179c78 0 136 46 182 116l17 -9c-47 -73 -107 -122 -187 -126
l-25 -128h-21z" />
    <glyph glyph-name="uni04AE" unicode="&#x4ae;" horiz-adv-x="540" 
d="M230 0h-22l59 294l-158 404h23l148 -378h3l300 378h26l-320 -404z" />
    <glyph glyph-name="uni04AF" unicode="&#x4af;" horiz-adv-x="460" 
d="M125 -200l40 200l-92 506h20l44 -244l42 -231h3l132 231l140 244h23l-291 -506l-40 -200h-21z" />
    <glyph glyph-name="uni04B0" unicode="&#x4b0;" horiz-adv-x="540" 
d="M208 0l55 274h-179l4 20h179l-158 404h23l148 -378h3l300 378h26l-320 -404h179l-4 -20h-179l-55 -274h-22z" />
    <glyph glyph-name="uni04B1" unicode="&#x4b1;" horiz-adv-x="460" 
d="M37 -19l4 19h124l-92 506h20l44 -244l42 -231h3l132 231l140 244h23l-291 -506h124l-4 -19h-124l-36 -181h-21l36 181h-124z" />
    <glyph glyph-name="uni04B2" unicode="&#x4b2;" horiz-adv-x="577" 
d="M479 -150l30 150h-60l-157 336h-3l-290 -336h-28l308 356l-161 342h24l152 -323h3l277 323h28l-296 -343l158 -335h71l-34 -170h-22z" />
    <glyph glyph-name="uni04B3" unicode="&#x4b3;" horiz-adv-x="494" 
d="M390 -140l28 140h-59l-126 239h-3l-207 -239h-27l225 257l-133 249h22l127 -235h3l206 235h27l-224 -253l122 -234h72l-32 -159h-21z" />
    <glyph glyph-name="uni04B6" unicode="&#x4b6;" horiz-adv-x="632" 
d="M484 -150l30 150h-85l62 306h-2c-50 -18 -110 -29 -176 -29c-141 0 -203 62 -203 173c0 38 7 73 20 138l22 110h22l-23 -115c-12 -59 -19 -97 -19 -133c0 -99 54 -153 185 -153c66 0 118 9 178 29l74 372h22l-136 -678h85l-34 -170h-22z" />
    <glyph glyph-name="uni04B7" unicode="&#x4b7;" horiz-adv-x="531" 
d="M386 -140l28 140h-85l57 288h-3c-44 -66 -98 -93 -174 -93c-89 0 -135 45 -135 108c0 23 3 47 7 67l27 136h21l-27 -135c-4 -22 -7 -48 -7 -68c0 -55 41 -89 117 -89c129 0 179 99 191 157l27 135h21l-97 -487h85l-32 -159h-21z" />
    <glyph glyph-name="uni04B8" unicode="&#x4b8;" horiz-adv-x="607" 
d="M429 0l62 306h-2c-50 -18 -110 -29 -185 -29l-31 -159h-21l31 160c-111 7 -173 61 -173 172c0 38 7 73 20 138l22 110h22l-23 -115c-12 -59 -19 -97 -19 -133c0 -95 50 -145 155 -152l37 184h21l-37 -185c75 0 127 9 187 29l74 372h22l-140 -698h-22z" />
    <glyph glyph-name="uni04B9" unicode="&#x4b9;" horiz-adv-x="504" 
d="M329 0l57 288h-3c-42 -63 -93 -91 -164 -93l-20 -102h-20l20 102c-82 3 -125 47 -125 108c0 23 3 47 7 67l27 136h21l-27 -135c-4 -22 -7 -48 -7 -68c0 -53 38 -87 108 -89l29 145h20l-29 -145c121 5 168 101 180 157l27 135h21l-101 -506h-21z" />
    <glyph glyph-name="uni04BA" unicode="&#x4ba;" horiz-adv-x="607" 
d="M54 0l140 698h22l-62 -306h2c50 18 110 29 176 29c141 0 203 -62 203 -173c0 -38 -7 -73 -20 -138l-22 -110h-22l23 115c12 59 19 97 19 133c0 99 -54 153 -185 153c-66 0 -118 -9 -178 -29l-74 -372h-22z" />
    <glyph glyph-name="uni04BB" unicode="&#x4bb;" horiz-adv-x="549" 
d="M54 0l147 740h21l-67 -339h3c40 76 95 117 178 117c85 0 132 -49 132 -132c0 -20 -3 -45 -7 -65l-60 -302h85l-4 -19h-78c-15 0 -23 6 -23 19c0 6 1 10 2 16l57 285c4 22 7 50 7 63c0 77 -39 116 -114 116c-45 0 -93 -15 -133 -62c-22 -26 -51 -65 -63 -125l-62 -312h-21
z" />
    <glyph glyph-name="uni04C0" unicode="&#x4c0;" horiz-adv-x="368" 
d="M251 0h-236l4 19h107l132 660h-107l4 19h236l-4 -19h-107l-132 -660h107z" />
    <glyph glyph-name="uni04C1" unicode="&#x4c1;" horiz-adv-x="867" 
d="M530 786c-50 0 -75 25 -91 69l-16 45l16 7l23 -65c16 -27 35 -38 69 -38s57 11 87 38l47 65l15 -8l-33 -44c-33 -44 -67 -69 -117 -69zM-25 0l4 20h57l227 310c12 16 19 20 36 22v2c-12 2 -19 10 -25 29l-93 295h-59l4 20h49c14 0 23 -7 28 -22l100 -312h131l67 334h22
l-67 -334h131l221 310c13 18 24 24 42 24h49l-4 -20h-59l-209 -293c-16 -22 -23 -29 -39 -31l-1 -2c12 -2 18 -8 25 -28l104 -304h59l-4 -20h-49c-15 0 -24 6 -29 22l-110 322h-131l-69 -344h-22l69 344h-131l-238 -325c-11 -14 -21 -19 -39 -19h-47z" />
    <glyph glyph-name="uni04C2" unicode="&#x4c2;" horiz-adv-x="717" 
d="M430 606c-50 0 -75 25 -91 69l-16 45l16 7l23 -65c16 -27 35 -38 69 -38s57 11 87 38l47 65l15 -8l-33 -44c-33 -44 -67 -69 -117 -69zM-10 0l4 19h82c33 24 70 87 103 249c10 49 16 89 16 135c0 44 -8 70 -20 84h-74l4 19h51c42 0 60 -33 60 -103c0 -40 -5 -82 -14 -128
h151l46 231h21l-47 -231h151c40 183 76 231 132 231h57l-4 -19h-76c-30 -22 -58 -67 -89 -219c-10 -49 -16 -99 -16 -145c0 -58 11 -90 23 -104h78l-4 -19h-55c-42 0 -63 33 -63 123c0 42 5 88 13 133h-151l-51 -256h-21l52 256h-151c-42 -190 -85 -256 -143 -256h-65z" />
    <glyph glyph-name="uni04CF" unicode="&#x4cf;" horiz-adv-x="228" 
d="M53 0l147 740h21l-147 -740h-21z" />
    <glyph glyph-name="uni04D0" unicode="&#x4d0;" horiz-adv-x="594" 
d="M387 786c-50 0 -75 25 -91 69l-16 45l16 7l23 -65c16 -27 35 -38 69 -38s57 11 87 38l47 65l15 -8l-33 -44c-33 -44 -67 -69 -117 -69zM519 0h-22l-45 234h-318l-122 -234h-24l366 698h30zM448 253l-81 420h-3l-220 -420h304z" />
    <glyph glyph-name="uni04D1" unicode="&#x4d1;" horiz-adv-x="567" 
d="M344 606c-50 0 -75 25 -91 69l-16 45l16 7l23 -65c16 -27 35 -38 69 -38s57 11 87 38l47 65l15 -8l-33 -44c-33 -44 -67 -69 -117 -69zM491 0h-78c-15 0 -23 6 -23 19c0 6 1 10 2 16l15 76h-3c-42 -74 -96 -123 -181 -123c-105 0 -163 81 -163 188c0 184 89 342 249 342
c85 0 138 -43 156 -105h3l18 93h21l-97 -487h85zM223 7c42 0 75 11 110 40c39 32 79 87 93 157l28 142c13 67 -26 153 -145 153c-115 0 -189 -85 -215 -217l-7 -35c-4 -22 -6 -43 -6 -71c0 -93 44 -169 142 -169z" />
    <glyph glyph-name="uni04D2" unicode="&#x4d2;" horiz-adv-x="594" 
d="M304 819c-16 0 -20 9 -20 17c0 5 1 9 3 15c3 9 7 17 23 17s20 -9 20 -17c0 -5 -1 -9 -3 -15c-3 -9 -7 -17 -23 -17zM486 819c-16 0 -20 9 -20 17c0 5 1 9 3 15c3 9 7 17 23 17s20 -9 20 -17c0 -5 -1 -9 -3 -15c-3 -9 -7 -17 -23 -17zM519 0h-22l-45 234h-318l-122 -234
h-24l366 698h30zM448 253l-81 420h-3l-220 -420h304z" />
    <glyph glyph-name="uni04D3" unicode="&#x4d3;" horiz-adv-x="567" 
d="M261 642c-16 0 -20 9 -20 17c0 5 1 9 3 15c3 9 7 17 23 17s20 -9 20 -17c0 -5 -1 -9 -3 -15c-3 -9 -7 -17 -23 -17zM443 642c-16 0 -20 9 -20 17c0 5 1 9 3 15c3 9 7 17 23 17s20 -9 20 -17c0 -5 -1 -9 -3 -15c-3 -9 -7 -17 -23 -17zM491 0h-78c-15 0 -23 6 -23 19
c0 6 1 10 2 16l15 76h-3c-42 -74 -96 -123 -181 -123c-105 0 -163 81 -163 188c0 184 89 342 249 342c85 0 138 -43 156 -105h3l18 93h21l-97 -487h85zM223 7c42 0 75 11 110 40c39 32 79 87 93 157l28 142c13 67 -26 153 -145 153c-115 0 -189 -85 -215 -217l-7 -35
c-4 -22 -6 -43 -6 -71c0 -93 44 -169 142 -169z" />
    <glyph glyph-name="uni04D4" unicode="&#x4d4;" horiz-adv-x="884" 
d="M385 0l47 234h-252l-176 -234h-25l523 698h401l-4 -20h-356l-63 -314h344l-4 -20h-344l-65 -324h356l-4 -20h-378zM521 678h-10l-317 -425h242z" />
    <glyph glyph-name="uni04D5" unicode="&#x4d5;" horiz-adv-x="860" 
d="M204 7c90 0 184 51 202 155l14 81l-180 -9c-111 -6 -157 -39 -167 -91c-5 -24 -5 -31 -5 -41c0 -60 48 -95 136 -95zM661 499c-112 0 -192 -97 -215 -226l-2 -11c301 5 355 73 355 137c0 59 -41 100 -138 100zM202 -12c-98 0 -155 41 -155 115c0 100 62 143 194 149
l183 9l13 68c4 19 5 37 5 52c0 65 -31 118 -135 118c-91 0 -133 -29 -175 -97l-17 9c40 67 88 107 194 107c108 0 151 -59 153 -131h3c41 78 108 131 198 131c95 0 158 -45 158 -119c0 -70 -51 -149 -379 -156c-3 -18 -6 -36 -6 -53c0 -111 53 -183 156 -183
c82 0 148 47 189 125l19 -7c-53 -95 -124 -137 -208 -137c-92 0 -158 54 -171 150h-3c-22 -90 -109 -150 -216 -150z" />
    <glyph glyph-name="uni04D6" unicode="&#x4d6;" horiz-adv-x="553" 
d="M398 786c-50 0 -75 25 -91 69l-16 45l16 7l23 -65c16 -27 35 -38 69 -38s57 11 87 38l47 65l15 -8l-33 -44c-33 -44 -67 -69 -117 -69zM432 0h-378l140 698h378l-4 -20h-356l-63 -314h344l-4 -20h-344l-65 -324h356z" />
    <glyph glyph-name="uni04D7" unicode="&#x4d7;" horiz-adv-x="505" 
d="M331 606c-50 0 -75 25 -91 69l-16 45l16 7l23 -65c16 -27 35 -38 69 -38s57 11 87 38l47 65l15 -8l-33 -44c-33 -44 -67 -69 -117 -69zM237 -12c-113 0 -176 63 -176 199c0 184 101 331 247 331c95 0 158 -47 158 -123c0 -64 -42 -155 -381 -162c-1 -10 -3 -33 -3 -44
c0 -128 52 -182 155 -182c82 0 148 47 189 125l19 -8c-51 -94 -124 -136 -208 -136zM306 499c-112 0 -193 -97 -216 -230l-3 -17c300 5 357 76 357 143c0 61 -41 104 -138 104z" />
    <glyph glyph-name="uni04D8" unicode="&#x4d8;" horiz-adv-x="658" 
d="M291 -12c-132 0 -222 81 -222 232c0 37 3 72 9 112l3 19h506c13 60 14 99 14 127c0 130 -71 212 -200 212c-108 0 -195 -67 -248 -178l-18 11c52 106 136 187 266 187c132 0 222 -81 222 -232c0 -198 -88 -490 -332 -490zM291 8c145 0 256 119 292 323h-482
c-7 -45 -10 -83 -10 -111c0 -130 71 -212 200 -212z" />
    <glyph glyph-name="uni04D9" unicode="&#x4d9;" horiz-adv-x="505" 
d="M197 -12c-95 0 -158 47 -158 123c0 64 42 155 381 162c1 10 3 33 3 44c0 128 -52 182 -155 182c-82 0 -148 -47 -189 -125l-19 8c51 94 124 136 208 136c113 0 176 -63 176 -199c0 -184 -101 -331 -247 -331zM199 7c112 0 193 97 216 230l3 17
c-300 -5 -357 -76 -357 -143c0 -61 41 -104 138 -104z" />
    <glyph glyph-name="uni04DC" unicode="&#x4dc;" horiz-adv-x="867" 
d="M447 819c-16 0 -20 9 -20 17c0 5 1 9 3 15c3 9 7 17 23 17s20 -9 20 -17c0 -5 -1 -9 -3 -15c-3 -9 -7 -17 -23 -17zM629 819c-16 0 -20 9 -20 17c0 5 1 9 3 15c3 9 7 17 23 17s20 -9 20 -17c0 -5 -1 -9 -3 -15c-3 -9 -7 -17 -23 -17zM-25 0l4 20h57l227 310
c12 16 19 20 36 22v2c-12 2 -19 10 -25 29l-93 295h-59l4 20h49c14 0 23 -7 28 -22l100 -312h131l67 334h22l-67 -334h131l221 310c13 18 24 24 42 24h49l-4 -20h-59l-209 -293c-16 -22 -23 -29 -39 -31l-1 -2c12 -2 18 -8 25 -28l104 -304h59l-4 -20h-49
c-15 0 -24 6 -29 22l-110 322h-131l-69 -344h-22l69 344h-131l-238 -325c-11 -14 -21 -19 -39 -19h-47z" />
    <glyph glyph-name="uni04DD" unicode="&#x4dd;" horiz-adv-x="717" 
d="M347 642c-16 0 -20 9 -20 17c0 5 1 9 3 15c3 9 7 17 23 17s20 -9 20 -17c0 -5 -1 -9 -3 -15c-3 -9 -7 -17 -23 -17zM529 642c-16 0 -20 9 -20 17c0 5 1 9 3 15c3 9 7 17 23 17s20 -9 20 -17c0 -5 -1 -9 -3 -15c-3 -9 -7 -17 -23 -17zM-10 0l4 19h82c33 24 70 87 103 249
c10 49 16 89 16 135c0 44 -8 70 -20 84h-74l4 19h51c42 0 60 -33 60 -103c0 -40 -5 -82 -14 -128h151l46 231h21l-47 -231h151c40 183 76 231 132 231h57l-4 -19h-76c-30 -22 -58 -67 -89 -219c-10 -49 -16 -99 -16 -145c0 -58 11 -90 23 -104h78l-4 -19h-55
c-42 0 -63 33 -63 123c0 42 5 88 13 133h-151l-51 -256h-21l52 256h-151c-42 -190 -85 -256 -143 -256h-65z" />
    <glyph glyph-name="uni04DE" unicode="&#x4de;" horiz-adv-x="556" 
d="M292 819c-16 0 -20 9 -20 17c0 5 1 9 3 15c3 9 7 17 23 17s20 -9 20 -17c0 -5 -1 -9 -3 -15c-3 -9 -7 -17 -23 -17zM474 819c-16 0 -20 9 -20 17c0 5 1 9 3 15c3 9 7 17 23 17s20 -9 20 -17c0 -5 -1 -9 -3 -15c-3 -9 -7 -17 -23 -17zM240 -12c-103 0 -176 34 -218 107
l18 12c40 -68 101 -99 201 -99c113 0 195 57 211 141c5 26 7 47 7 56c0 82 -52 139 -157 139h-110l4 20h109c108 0 182 56 200 146c4 20 6 36 6 47c0 82 -60 133 -156 133c-98 0 -157 -30 -198 -100l-18 9c39 71 109 111 219 111c100 0 175 -56 175 -153
c0 -112 -74 -188 -171 -203l-1 -3c69 -9 120 -65 120 -146c0 -140 -99 -217 -241 -217z" />
    <glyph glyph-name="uni04DF" unicode="&#x4df;" horiz-adv-x="470" 
d="M206 642c-16 0 -20 9 -20 17c0 5 1 9 3 15c3 9 7 17 23 17s20 -9 20 -17c0 -5 -1 -9 -3 -15c-3 -9 -7 -17 -23 -17zM388 642c-16 0 -20 9 -20 17c0 5 1 9 3 15c3 9 7 17 23 17s20 -9 20 -17c0 -5 -1 -9 -3 -15c-3 -9 -7 -17 -23 -17zM201 -12c-98 0 -160 55 -175 130
l19 5c16 -73 72 -116 158 -116c78 0 141 33 158 108c3 13 4 24 4 36c0 63 -47 100 -131 100h-92l4 19h90c81 0 146 31 160 97c4 19 4 30 4 38c0 53 -37 94 -129 94c-76 0 -124 -27 -165 -90l-17 9c40 63 93 100 184 100c98 0 148 -46 148 -113c0 -82 -50 -132 -130 -144v-2
c54 -12 95 -42 95 -108c0 -97 -71 -163 -185 -163z" />
    <glyph glyph-name="uni04E2" unicode="&#x4e2;" horiz-adv-x="680" 
d="M319 838l3 18h258l-3 -18h-258zM54 0l140 698h21l-105 -524l-29 -134h3l87 104l474 554h19l-140 -698h-21l105 524l29 134h-3l-87 -104l-474 -554h-19z" />
    <glyph glyph-name="uni04E3" unicode="&#x4e3;" horiz-adv-x="548" 
d="M213 658l3 18h258l-3 -18h-258zM145 506h21l-64 -320c-4 -22 -7 -50 -7 -63c0 -77 39 -116 114 -116c45 0 93 15 133 62c22 26 51 65 63 125l62 312h21l-97 -487h85l-4 -19h-78c-15 0 -23 6 -23 19c0 6 1 10 2 16l14 70h-3c-40 -76 -95 -117 -178 -117
c-85 0 -132 49 -132 132c0 20 3 45 7 65z" />
    <glyph glyph-name="uni04E4" unicode="&#x4e4;" horiz-adv-x="680" 
d="M356 819c-16 0 -20 9 -20 17c0 5 1 9 3 15c3 9 7 17 23 17s20 -9 20 -17c0 -5 -1 -9 -3 -15c-3 -9 -7 -17 -23 -17zM538 819c-16 0 -20 9 -20 17c0 5 1 9 3 15c3 9 7 17 23 17s20 -9 20 -17c0 -5 -1 -9 -3 -15c-3 -9 -7 -17 -23 -17zM54 0l140 698h21l-105 -524l-29 -134
h3l87 104l474 554h19l-140 -698h-21l105 524l29 134h-3l-87 -104l-474 -554h-19z" />
    <glyph glyph-name="uni04E5" unicode="&#x4e5;" horiz-adv-x="548" 
d="M251 642c-16 0 -20 9 -20 17c0 5 1 9 3 15c3 9 7 17 23 17s20 -9 20 -17c0 -5 -1 -9 -3 -15c-3 -9 -7 -17 -23 -17zM433 642c-16 0 -20 9 -20 17c0 5 1 9 3 15c3 9 7 17 23 17s20 -9 20 -17c0 -5 -1 -9 -3 -15c-3 -9 -7 -17 -23 -17zM145 506h21l-64 -320
c-4 -22 -7 -50 -7 -63c0 -77 39 -116 114 -116c45 0 93 15 133 62c22 26 51 65 63 125l62 312h21l-97 -487h85l-4 -19h-78c-15 0 -23 6 -23 19c0 6 1 10 2 16l14 70h-3c-40 -76 -95 -117 -178 -117c-85 0 -132 49 -132 132c0 20 3 45 7 65z" />
    <glyph glyph-name="uni04E6" unicode="&#x4e6;" horiz-adv-x="658" 
d="M356 819c-16 0 -20 9 -20 17c0 5 1 9 3 15c3 9 7 17 23 17s20 -9 20 -17c0 -5 -1 -9 -3 -15c-3 -9 -7 -17 -23 -17zM538 819c-16 0 -20 9 -20 17c0 5 1 9 3 15c3 9 7 17 23 17s20 -9 20 -17c0 -5 -1 -9 -3 -15c-3 -9 -7 -17 -23 -17zM291 -12c-132 0 -222 81 -222 232
c0 198 88 490 332 490c132 0 222 -81 222 -232c0 -198 -88 -490 -332 -490zM291 8c145 0 252 120 289 306l11 55c8 42 10 81 10 109c0 130 -71 212 -200 212c-145 0 -252 -120 -289 -306l-11 -55c-8 -42 -10 -81 -10 -109c0 -130 71 -212 200 -212z" />
    <glyph glyph-name="uni04E7" unicode="&#x4e7;" horiz-adv-x="534" 
d="M245 642c-16 0 -20 9 -20 17c0 5 1 9 3 15c3 9 7 17 23 17s20 -9 20 -17c0 -5 -1 -9 -3 -15c-3 -9 -7 -17 -23 -17zM427 642c-16 0 -20 9 -20 17c0 5 1 9 3 15c3 9 7 17 23 17s20 -9 20 -17c0 -5 -1 -9 -3 -15c-3 -9 -7 -17 -23 -17zM225 -12c-107 0 -166 81 -166 181
c0 187 85 349 250 349c107 0 166 -81 166 -181c0 -187 -85 -349 -250 -349zM227 7c112 0 187 83 214 218l8 40c4 22 5 46 5 72c0 88 -45 162 -147 162c-112 0 -187 -83 -214 -218l-8 -40c-4 -22 -5 -46 -5 -72c0 -88 45 -162 147 -162z" />
    <glyph glyph-name="uni04E8" unicode="&#x4e8;" horiz-adv-x="658" 
d="M291 -12c-132 0 -222 81 -222 232c0 198 88 490 332 490c132 0 222 -81 222 -232c0 -198 -88 -490 -332 -490zM291 8c145 0 252 120 289 306l6 30h-482l-3 -15c-8 -42 -10 -81 -10 -109c0 -130 71 -212 200 -212zM112 384l-4 -20h482l1 5c8 42 10 81 10 109
c0 130 -71 212 -200 212c-145 0 -252 -120 -289 -306z" />
    <glyph glyph-name="uni04E9" unicode="&#x4e9;" horiz-adv-x="534" 
d="M225 -12c-107 0 -166 81 -166 181c0 187 85 349 250 349c107 0 166 -81 166 -181c0 -187 -85 -349 -250 -349zM227 7c112 0 187 82 214 217l5 25h-359l-2 -10c-4 -22 -5 -44 -5 -70c0 -88 45 -162 147 -162zM93 283l-3 -15h359c4 21 5 44 5 69c0 88 -45 162 -147 162
c-112 0 -187 -82 -214 -216z" />
    <glyph glyph-name="uni04EE" unicode="&#x4ee;" horiz-adv-x="556" 
d="M251 838l3 18h258l-3 -18h-258zM92 0l4 19h91l79 131l-150 548h22l91 -333l51 -188h2l106 176l206 345h23l-405 -676c-10 -17 -22 -22 -40 -22h-80z" />
    <glyph glyph-name="uni04EF" unicode="&#x4ef;" horiz-adv-x="460" 
d="M168 658l3 18h258l-3 -18h-258zM181 24l273 482h23l-388 -681c-11 -19 -19 -25 -38 -25h-75l4 19h84l100 178l-91 509h20l85 -482h3z" />
    <glyph glyph-name="uni04F0" unicode="&#x4f0;" horiz-adv-x="556" 
d="M288 819c-16 0 -20 9 -20 17c0 5 1 9 3 15c3 9 7 17 23 17s20 -9 20 -17c0 -5 -1 -9 -3 -15c-3 -9 -7 -17 -23 -17zM470 819c-16 0 -20 9 -20 17c0 5 1 9 3 15c3 9 7 17 23 17s20 -9 20 -17c0 -5 -1 -9 -3 -15c-3 -9 -7 -17 -23 -17zM92 0l4 19h91l79 131l-150 548h22
l91 -333l51 -188h2l106 176l206 345h23l-405 -676c-10 -17 -22 -22 -40 -22h-80z" />
    <glyph glyph-name="uni04F1" unicode="&#x4f1;" horiz-adv-x="460" 
d="M206 642c-16 0 -20 9 -20 17c0 5 1 9 3 15c3 9 7 17 23 17s20 -9 20 -17c0 -5 -1 -9 -3 -15c-3 -9 -7 -17 -23 -17zM388 642c-16 0 -20 9 -20 17c0 5 1 9 3 15c3 9 7 17 23 17s20 -9 20 -17c0 -5 -1 -9 -3 -15c-3 -9 -7 -17 -23 -17zM181 24l273 482h23l-388 -681
c-11 -19 -19 -25 -38 -25h-75l4 19h84l100 178l-91 509h20l85 -482h3z" />
    <glyph glyph-name="uni04F2" unicode="&#x4f2;" horiz-adv-x="556" 
d="M426 918l-147 -151l-13 11l143 153zM586 918l-147 -151l-13 11l143 153zM92 0l4 19h91l79 131l-150 548h22l91 -333l51 -188h2l106 176l206 345h23l-405 -676c-10 -17 -22 -22 -40 -22h-80z" />
    <glyph glyph-name="uni04F3" unicode="&#x4f3;" horiz-adv-x="460" 
d="M348 738l-147 -151l-13 11l143 153zM508 738l-147 -151l-13 11l143 153zM181 24l273 482h23l-388 -681c-11 -19 -19 -25 -38 -25h-75l4 19h84l100 178l-91 509h20l85 -482h3z" />
    <glyph glyph-name="uni04F4" unicode="&#x4f4;" horiz-adv-x="607" 
d="M306 819c-16 0 -20 9 -20 17c0 5 1 9 3 15c3 9 7 17 23 17s20 -9 20 -17c0 -5 -1 -9 -3 -15c-3 -9 -7 -17 -23 -17zM488 819c-16 0 -20 9 -20 17c0 5 1 9 3 15c3 9 7 17 23 17s20 -9 20 -17c0 -5 -1 -9 -3 -15c-3 -9 -7 -17 -23 -17zM429 0l62 306h-2
c-50 -18 -110 -29 -176 -29c-141 0 -203 62 -203 173c0 38 7 73 20 138l22 110h22l-23 -115c-12 -59 -19 -97 -19 -133c0 -99 54 -153 185 -153c66 0 118 9 178 29l74 372h22l-140 -698h-22z" />
    <glyph glyph-name="uni04F5" unicode="&#x4f5;" horiz-adv-x="504" 
d="M211 642c-16 0 -20 9 -20 17c0 5 1 9 3 15c3 9 7 17 23 17s20 -9 20 -17c0 -5 -1 -9 -3 -15c-3 -9 -7 -17 -23 -17zM393 642c-16 0 -20 9 -20 17c0 5 1 9 3 15c3 9 7 17 23 17s20 -9 20 -17c0 -5 -1 -9 -3 -15c-3 -9 -7 -17 -23 -17zM329 0l57 288h-3
c-44 -66 -98 -93 -174 -93c-89 0 -135 45 -135 108c0 23 3 47 7 67l27 136h21l-27 -135c-4 -22 -7 -48 -7 -68c0 -55 41 -89 117 -89c129 0 179 99 191 157l27 135h21l-101 -506h-21z" />
    <glyph glyph-name="uni04F8" unicode="&#x4f8;" horiz-adv-x="804" 
d="M426 819c-16 0 -20 9 -20 17c0 5 1 9 3 15c3 9 7 17 23 17s20 -9 20 -17c0 -5 -1 -9 -3 -15c-3 -9 -7 -17 -23 -17zM608 819c-16 0 -20 9 -20 17c0 5 1 9 3 15c3 9 7 17 23 17s20 -9 20 -17c0 -5 -1 -9 -3 -15c-3 -9 -7 -17 -23 -17zM54 0l140 698h22l-61 -303h208
c108 0 158 -65 158 -154c0 -153 -82 -241 -219 -241h-248zM80 20h224c109 0 170 63 187 150c7 34 8 53 8 71c0 75 -37 134 -138 134h-210zM626 0l140 698h22l-140 -698h-22z" />
    <glyph glyph-name="uni04F9" unicode="&#x4f9;" horiz-adv-x="651" 
d="M302 642c-16 0 -20 9 -20 17c0 5 1 9 3 15c3 9 7 17 23 17s20 -9 20 -17c0 -5 -1 -9 -3 -15c-3 -9 -7 -17 -23 -17zM484 642c-16 0 -20 9 -20 17c0 5 1 9 3 15c3 9 7 17 23 17s20 -9 20 -17c0 -5 -1 -9 -3 -15c-3 -9 -7 -17 -23 -17zM53 0l101 506h21l-42 -213h130
c100 0 138 -39 138 -111c0 -74 -32 -182 -179 -182h-169zM78 19h146c95 0 138 51 149 106c4 20 7 41 7 57c0 62 -30 92 -119 92h-132zM476 0l101 506h21l-101 -506h-21z" />
    <glyph glyph-name="uni0E3F" unicode="&#xe3f;" horiz-adv-x="595" 
d="M248 20l-20 -102h-20l20 102h-169l131 657h169l21 103h20l-21 -103h14c89 0 151 -45 151 -126c0 -91 -36 -164 -142 -183v-3c74 -14 108 -71 108 -139c0 -120 -51 -206 -213 -206h-49zM151 376h148l56 281h-147zM375 657l-56 -281h13c105 0 168 44 181 110
c8 42 9 54 9 65c0 76 -56 106 -136 106h-11zM85 40h147l63 316h-148zM315 356l-63 -316h53c98 0 158 41 173 114c9 43 10 62 10 72c0 68 -38 130 -134 130h-39z" />
    <glyph glyph-name="Wgrave" unicode="&#x1e80;" horiz-adv-x="864" 
d="M540 768l-84 153l19 11l81 -155zM192 0h-31l-40 698h22l38 -667h3l323 667h31l51 -667h3l313 667h24l-329 -698h-31l-50 668h-3z" />
    <glyph glyph-name="wgrave" unicode="&#x1e81;" horiz-adv-x="718" 
d="M430 587l-84 153l19 11l81 -155zM130 0l-52 506h20l48 -479h3l245 479h22l51 -479h2l241 479h22l-256 -506h-26l-49 472h-3l-242 -472h-26z" />
    <glyph glyph-name="Wacute" unicode="&#x1e82;" horiz-adv-x="864" 
d="M676 918l-147 -151l-13 11l143 153zM192 0h-31l-40 698h22l38 -667h3l323 667h31l51 -667h3l313 667h24l-329 -698h-31l-50 668h-3z" />
    <glyph glyph-name="wacute" unicode="&#x1e83;" horiz-adv-x="718" 
d="M546 738l-147 -151l-13 11l143 153zM130 0l-52 506h20l48 -479h3l245 479h22l51 -479h2l241 479h22l-256 -506h-26l-49 472h-3l-242 -472h-26z" />
    <glyph glyph-name="Wdieresis" unicode="&#x1e84;" horiz-adv-x="864" 
d="M457 819c-16 0 -20 9 -20 17c0 5 1 9 3 15c3 9 7 17 23 17s20 -9 20 -17c0 -5 -1 -9 -3 -15c-3 -9 -7 -17 -23 -17zM639 819c-16 0 -20 9 -20 17c0 5 1 9 3 15c3 9 7 17 23 17s20 -9 20 -17c0 -5 -1 -9 -3 -15c-3 -9 -7 -17 -23 -17zM192 0h-31l-40 698h22l38 -667h3
l323 667h31l51 -667h3l313 667h24l-329 -698h-31l-50 668h-3z" />
    <glyph glyph-name="wdieresis" unicode="&#x1e85;" horiz-adv-x="718" 
d="M342 642c-16 0 -20 9 -20 17c0 5 1 9 3 15c3 9 7 17 23 17s20 -9 20 -17c0 -5 -1 -9 -3 -15c-3 -9 -7 -17 -23 -17zM524 642c-16 0 -20 9 -20 17c0 5 1 9 3 15c3 9 7 17 23 17s20 -9 20 -17c0 -5 -1 -9 -3 -15c-3 -9 -7 -17 -23 -17zM130 0l-52 506h20l48 -479h3l245 479
h22l51 -479h2l241 479h22l-256 -506h-26l-49 472h-3l-242 -472h-26z" />
    <glyph glyph-name="uni1E9E" unicode="&#x1e9e;" horiz-adv-x="692" 
d="M372 8c98 0 186 67 204 151c12 58 13 73 13 87c0 84 -63 133 -167 133h-45l4 20l251 279h-420l-136 -678h-22l140 698h466l-4 -22l-247 -274l-1 -4h18c108 0 185 -51 185 -152c0 -160 -107 -258 -239 -258c-105 0 -155 40 -190 101l18 13c33 -58 75 -94 172 -94z" />
    <glyph glyph-name="uni1EA0" unicode="&#x1ea0;" horiz-adv-x="594" 
d="M230 -134c-16 0 -20 9 -20 17c0 5 1 9 3 15c3 9 7 17 23 17s20 -9 20 -17c0 -5 -1 -9 -3 -15c-3 -9 -7 -17 -23 -17zM519 0h-22l-45 234h-318l-122 -234h-24l366 698h30zM448 253l-81 420h-3l-220 -420h304z" />
    <glyph glyph-name="uni1EA1" unicode="&#x1ea1;" horiz-adv-x="567" 
d="M199 -134c-16 0 -20 9 -20 17c0 5 1 9 3 15c3 9 7 17 23 17s20 -9 20 -17c0 -5 -1 -9 -3 -15c-3 -9 -7 -17 -23 -17zM491 0h-78c-15 0 -23 6 -23 19c0 6 1 10 2 16l15 76h-3c-42 -74 -96 -123 -181 -123c-105 0 -163 81 -163 188c0 184 89 342 249 342
c85 0 138 -43 156 -105h3l18 93h21l-97 -487h85zM223 7c42 0 75 11 110 40c39 32 79 87 93 157l28 142c13 67 -26 153 -145 153c-115 0 -189 -85 -215 -217l-7 -35c-4 -22 -6 -43 -6 -71c0 -93 44 -169 142 -169z" />
    <glyph glyph-name="uni1EA2" unicode="&#x1ea2;" horiz-adv-x="594" 
d="M322 899l3 18h133c18 0 24 -6 24 -15s-4 -15 -38 -55l-69 -82l-15 9l102 125h-140zM519 0h-22l-45 234h-318l-122 -234h-24l366 698h30zM448 253l-81 420h-3l-220 -420h304z" />
    <glyph glyph-name="uni1EA3" unicode="&#x1ea3;" horiz-adv-x="567" 
d="M296 719l3 18h133c18 0 24 -6 24 -15s-4 -15 -38 -55l-69 -82l-15 9l102 125h-140zM491 0h-78c-15 0 -23 6 -23 19c0 6 1 10 2 16l15 76h-3c-42 -74 -96 -123 -181 -123c-105 0 -163 81 -163 188c0 184 89 342 249 342c85 0 138 -43 156 -105h3l18 93h21l-97 -487h85z
M223 7c42 0 75 11 110 40c39 32 79 87 93 157l28 142c13 67 -26 153 -145 153c-115 0 -189 -85 -215 -217l-7 -35c-4 -22 -6 -43 -6 -71c0 -93 44 -169 142 -169z" />
    <glyph glyph-name="uni1EA4" unicode="&#x1ea4;" horiz-adv-x="594" 
d="M663 1028l-147 -151l-13 11l143 153zM398 915h24l106 -134l-15 -10l-104 127l-148 -127l-13 12zM519 0h-22l-45 234h-318l-122 -234h-24l366 698h30zM448 253l-81 420h-3l-220 -420h304z" />
    <glyph glyph-name="uni1EA5" unicode="&#x1ea5;" horiz-adv-x="567" 
d="M620 848l-147 -151l-13 11l143 153zM355 735h24l106 -134l-15 -10l-104 127l-148 -127l-13 12zM491 0h-78c-15 0 -23 6 -23 19c0 6 1 10 2 16l15 76h-3c-42 -74 -96 -123 -181 -123c-105 0 -163 81 -163 188c0 184 89 342 249 342c85 0 138 -43 156 -105h3l18 93h21
l-97 -487h85zM223 7c42 0 75 11 110 40c39 32 79 87 93 157l28 142c13 67 -26 153 -145 153c-115 0 -189 -85 -215 -217l-7 -35c-4 -22 -6 -43 -6 -71c0 -93 44 -169 142 -169z" />
    <glyph glyph-name="uni1EA6" unicode="&#x1ea6;" horiz-adv-x="594" 
d="M264 877l-84 153l19 11l81 -155zM398 915h24l106 -134l-15 -10l-104 127l-148 -127l-13 12zM519 0h-22l-45 234h-318l-122 -234h-24l366 698h30zM448 253l-81 420h-3l-220 -420h304z" />
    <glyph glyph-name="uni1EA7" unicode="&#x1ea7;" horiz-adv-x="567" 
d="M221 697l-84 153l19 11l81 -155zM355 735h24l106 -134l-15 -10l-104 127l-148 -127l-13 12zM491 0h-78c-15 0 -23 6 -23 19c0 6 1 10 2 16l15 76h-3c-42 -74 -96 -123 -181 -123c-105 0 -163 81 -163 188c0 184 89 342 249 342c85 0 138 -43 156 -105h3l18 93h21
l-97 -487h85zM223 7c42 0 75 11 110 40c39 32 79 87 93 157l28 142c13 67 -26 153 -145 153c-115 0 -189 -85 -215 -217l-7 -35c-4 -22 -6 -43 -6 -71c0 -93 44 -169 142 -169z" />
    <glyph glyph-name="uni1EA8" unicode="&#x1ea8;" horiz-adv-x="594" 
d="M461 1009l3 18h133c18 0 24 -6 24 -15s-4 -15 -38 -55l-69 -82l-15 9l102 125h-140zM398 915h24l106 -134l-15 -10l-104 127l-148 -127l-13 12zM519 0h-22l-45 234h-318l-122 -234h-24l366 698h30zM448 253l-81 420h-3l-220 -420h304z" />
    <glyph glyph-name="uni1EA9" unicode="&#x1ea9;" horiz-adv-x="567" 
d="M418 829l3 18h133c18 0 24 -6 24 -15s-4 -15 -38 -55l-69 -82l-15 9l102 125h-140zM355 735h24l106 -134l-15 -10l-104 127l-148 -127l-13 12zM491 0h-78c-15 0 -23 6 -23 19c0 6 1 10 2 16l15 76h-3c-42 -74 -96 -123 -181 -123c-105 0 -163 81 -163 188
c0 184 89 342 249 342c85 0 138 -43 156 -105h3l18 93h21l-97 -487h85zM223 7c42 0 75 11 110 40c39 32 79 87 93 157l28 142c13 67 -26 153 -145 153c-115 0 -189 -85 -215 -217l-7 -35c-4 -22 -6 -43 -6 -71c0 -93 44 -169 142 -169z" />
    <glyph glyph-name="uni1EAA" unicode="&#x1eaa;" horiz-adv-x="594" 
d="M354 1026c26 0 42 -9 72 -30c25 -17 41 -26 64 -26s44 11 69 33l11 -12c-30 -29 -57 -39 -85 -39c-26 0 -42 10 -72 31c-25 17 -41 25 -64 25s-44 -11 -69 -33l-11 12c30 29 57 39 85 39zM398 914h24l106 -134l-15 -10l-104 127l-148 -127l-13 12zM519 0h-22l-45 234
h-318l-122 -234h-24l366 698h30zM448 253l-81 420h-3l-220 -420h304z" />
    <glyph glyph-name="uni1EAB" unicode="&#x1eab;" horiz-adv-x="567" 
d="M311 847c26 0 42 -9 72 -30c25 -17 41 -26 64 -26s44 11 69 33l11 -12c-30 -29 -57 -39 -85 -39c-26 0 -42 10 -72 31c-25 17 -41 25 -64 25s-44 -11 -69 -33l-11 12c30 29 57 39 85 39zM355 735h24l106 -134l-15 -10l-104 127l-148 -127l-13 12zM491 0h-78
c-15 0 -23 6 -23 19c0 6 1 10 2 16l15 76h-3c-42 -74 -96 -123 -181 -123c-105 0 -163 81 -163 188c0 184 89 342 249 342c85 0 138 -43 156 -105h3l18 93h21l-97 -487h85zM223 7c42 0 75 11 110 40c39 32 79 87 93 157l28 142c13 67 -26 153 -145 153
c-115 0 -189 -85 -215 -217l-7 -35c-4 -22 -6 -43 -6 -71c0 -93 44 -169 142 -169z" />
    <glyph glyph-name="uni1EAC" unicode="&#x1eac;" horiz-adv-x="594" 
d="M230 -134c-16 0 -20 9 -20 17c0 5 1 9 3 15c3 9 7 17 23 17s20 -9 20 -17c0 -5 -1 -9 -3 -15c-3 -9 -7 -17 -23 -17zM401 923h24l106 -134l-15 -10l-104 127l-148 -127l-13 12zM519 0h-22l-45 234h-318l-122 -234h-24l366 698h30zM448 253l-81 420h-3l-220 -420h304z" />
    <glyph glyph-name="uni1EAD" unicode="&#x1ead;" horiz-adv-x="567" 
d="M199 -134c-16 0 -20 9 -20 17c0 5 1 9 3 15c3 9 7 17 23 17s20 -9 20 -17c0 -5 -1 -9 -3 -15c-3 -9 -7 -17 -23 -17zM357 743h24l106 -134l-15 -10l-104 127l-148 -127l-13 12zM491 0h-78c-15 0 -23 6 -23 19c0 6 1 10 2 16l15 76h-3c-42 -74 -96 -123 -181 -123
c-105 0 -163 81 -163 188c0 184 89 342 249 342c85 0 138 -43 156 -105h3l18 93h21l-97 -487h85zM223 7c42 0 75 11 110 40c39 32 79 87 93 157l28 142c13 67 -26 153 -145 153c-115 0 -189 -85 -215 -217l-7 -35c-4 -22 -6 -43 -6 -71c0 -93 44 -169 142 -169z" />
    <glyph glyph-name="uni1EAE" unicode="&#x1eae;" horiz-adv-x="594" 
d="M387 776c-66 0 -93 39 -115 107l16 7l15 -35c18 -43 43 -60 84 -60c46 0 72 13 106 59l26 36l16 -7c-44 -69 -78 -107 -148 -107zM535 1029l-147 -151l-13 11l143 153zM519 0h-22l-45 234h-318l-122 -234h-24l366 698h30zM448 253l-81 420h-3l-220 -420h304z" />
    <glyph glyph-name="uni1EAF" unicode="&#x1eaf;" horiz-adv-x="567" 
d="M343 594c-66 0 -93 39 -115 107l16 7l15 -35c18 -43 43 -60 84 -60c46 0 72 13 106 59l26 36l16 -7c-44 -69 -78 -107 -148 -107zM491 848l-147 -151l-13 11l143 153zM491 0h-78c-15 0 -23 6 -23 19c0 6 1 10 2 16l15 76h-3c-42 -74 -96 -123 -181 -123
c-105 0 -163 81 -163 188c0 184 89 342 249 342c85 0 138 -43 156 -105h3l18 93h21l-97 -487h85zM223 7c42 0 75 11 110 40c39 32 79 87 93 157l28 142c13 67 -26 153 -145 153c-115 0 -189 -85 -215 -217l-7 -35c-4 -22 -6 -43 -6 -71c0 -93 44 -169 142 -169z" />
    <glyph glyph-name="uni1EB0" unicode="&#x1eb0;" horiz-adv-x="594" 
d="M387 776c-66 0 -93 39 -115 107l16 7l15 -35c18 -43 43 -60 84 -60c46 0 72 13 106 59l26 36l16 -7c-44 -69 -78 -107 -148 -107zM400 877l-84 153l19 11l81 -155zM519 0h-22l-45 234h-318l-122 -234h-24l366 698h30zM448 253l-81 420h-3l-220 -420h304z" />
    <glyph glyph-name="uni1EB1" unicode="&#x1eb1;" horiz-adv-x="567" 
d="M343 594c-66 0 -93 39 -115 107l16 7l15 -35c18 -43 43 -60 84 -60c46 0 72 13 106 59l26 36l16 -7c-44 -69 -78 -107 -148 -107zM359 697l-84 153l19 11l81 -155zM491 0h-78c-15 0 -23 6 -23 19c0 6 1 10 2 16l15 76h-3c-42 -74 -96 -123 -181 -123
c-105 0 -163 81 -163 188c0 184 89 342 249 342c85 0 138 -43 156 -105h3l18 93h21l-97 -487h85zM223 7c42 0 75 11 110 40c39 32 79 87 93 157l28 142c13 67 -26 153 -145 153c-115 0 -189 -85 -215 -217l-7 -35c-4 -22 -6 -43 -6 -71c0 -93 44 -169 142 -169z" />
    <glyph glyph-name="uni1EB2" unicode="&#x1eb2;" horiz-adv-x="594" 
d="M340 1009l3 18h133c18 0 24 -6 24 -15s-4 -15 -38 -55l-69 -82l-15 9l102 125h-140zM387 776c-66 0 -93 39 -115 107l16 7l15 -35c18 -43 43 -60 84 -60c46 0 72 13 106 59l26 36l16 -7c-44 -69 -78 -107 -148 -107zM519 0h-22l-45 234h-318l-122 -234h-24l366 698h30z
M448 253l-81 420h-3l-220 -420h304z" />
    <glyph glyph-name="uni1EB3" unicode="&#x1eb3;" horiz-adv-x="567" 
d="M343 594c-66 0 -93 39 -115 107l16 7l15 -35c18 -43 43 -60 84 -60c46 0 72 13 106 59l26 36l16 -7c-44 -69 -78 -107 -148 -107zM291 829l3 18h133c18 0 24 -6 24 -15s-4 -15 -38 -55l-69 -82l-15 9l102 125h-140zM491 0h-78c-15 0 -23 6 -23 19c0 6 1 10 2 16l15 76h-3
c-42 -74 -96 -123 -181 -123c-105 0 -163 81 -163 188c0 184 89 342 249 342c85 0 138 -43 156 -105h3l18 93h21l-97 -487h85zM223 7c42 0 75 11 110 40c39 32 79 87 93 157l28 142c13 67 -26 153 -145 153c-115 0 -189 -85 -215 -217l-7 -35c-4 -22 -6 -43 -6 -71
c0 -93 44 -169 142 -169z" />
    <glyph glyph-name="uni1EB4" unicode="&#x1eb4;" horiz-adv-x="594" 
d="M486 943c-26 0 -42 10 -72 31c-25 17 -41 25 -64 25s-44 -11 -69 -33l-11 12c30 29 57 39 85 39c26 0 42 -9 72 -30c25 -17 41 -26 64 -26s44 11 69 33l11 -12c-30 -29 -57 -39 -85 -39zM387 776c-66 0 -93 39 -115 107l16 7l15 -35c18 -43 43 -60 84 -60
c46 0 72 13 106 59l26 36l16 -7c-44 -69 -78 -107 -148 -107zM519 0h-22l-45 234h-318l-122 -234h-24l366 698h30zM448 253l-81 420h-3l-220 -420h304z" />
    <glyph glyph-name="uni1EB5" unicode="&#x1eb5;" horiz-adv-x="567" 
d="M343 594c-66 0 -93 39 -115 107l16 7l15 -35c18 -43 43 -60 84 -60c46 0 72 13 106 59l26 36l16 -7c-44 -69 -78 -107 -148 -107zM442 762c-26 0 -42 10 -72 31c-25 17 -41 25 -64 25s-44 -11 -69 -33l-11 12c30 29 57 39 85 39c26 0 42 -9 72 -30c25 -17 41 -26 64 -26
s44 11 69 33l11 -12c-30 -29 -57 -39 -85 -39zM491 0h-78c-15 0 -23 6 -23 19c0 6 1 10 2 16l15 76h-3c-42 -74 -96 -123 -181 -123c-105 0 -163 81 -163 188c0 184 89 342 249 342c85 0 138 -43 156 -105h3l18 93h21l-97 -487h85zM223 7c42 0 75 11 110 40
c39 32 79 87 93 157l28 142c13 67 -26 153 -145 153c-115 0 -189 -85 -215 -217l-7 -35c-4 -22 -6 -43 -6 -71c0 -93 44 -169 142 -169z" />
    <glyph glyph-name="uni1EB6" unicode="&#x1eb6;" horiz-adv-x="594" 
d="M230 -134c-16 0 -20 9 -20 17c0 5 1 9 3 15c3 9 7 17 23 17s20 -9 20 -17c0 -5 -1 -9 -3 -15c-3 -9 -7 -17 -23 -17zM387 786c-66 0 -91 43 -115 117l16 7l15 -37c20 -49 43 -68 84 -68c46 0 71 17 107 69l25 36l16 -7c-47 -72 -78 -117 -148 -117zM519 0h-22l-45 234
h-318l-122 -234h-24l366 698h30zM448 253l-81 420h-3l-220 -420h304z" />
    <glyph glyph-name="uni1EB7" unicode="&#x1eb7;" horiz-adv-x="567" 
d="M199 -134c-16 0 -20 9 -20 17c0 5 1 9 3 15c3 9 7 17 23 17s20 -9 20 -17c0 -5 -1 -9 -3 -15c-3 -9 -7 -17 -23 -17zM344 606c-66 0 -91 43 -115 117l16 7l15 -37c20 -49 43 -68 84 -68c46 0 71 17 107 69l25 36l16 -7c-47 -72 -78 -117 -148 -117zM491 0h-78
c-15 0 -23 6 -23 19c0 6 1 10 2 16l15 76h-3c-42 -74 -96 -123 -181 -123c-105 0 -163 81 -163 188c0 184 89 342 249 342c85 0 138 -43 156 -105h3l18 93h21l-97 -487h85zM223 7c42 0 75 11 110 40c39 32 79 87 93 157l28 142c13 67 -26 153 -145 153
c-115 0 -189 -85 -215 -217l-7 -35c-4 -22 -6 -43 -6 -71c0 -93 44 -169 142 -169z" />
    <glyph glyph-name="uni1EB8" unicode="&#x1eb8;" horiz-adv-x="553" 
d="M225 -134c-16 0 -20 9 -20 17c0 5 1 9 3 15c3 9 7 17 23 17s20 -9 20 -17c0 -5 -1 -9 -3 -15c-3 -9 -7 -17 -23 -17zM432 0h-378l140 698h378l-4 -20h-356l-63 -314h344l-4 -20h-344l-65 -324h356z" />
    <glyph glyph-name="uni1EB9" unicode="&#x1eb9;" horiz-adv-x="505" 
d="M221 -134c-16 0 -20 9 -20 17c0 5 1 9 3 15c3 9 7 17 23 17s20 -9 20 -17c0 -5 -1 -9 -3 -15c-3 -9 -7 -17 -23 -17zM237 -12c-113 0 -176 63 -176 199c0 184 101 331 247 331c95 0 158 -47 158 -123c0 -64 -42 -155 -381 -162c-1 -10 -3 -33 -3 -44
c0 -128 52 -182 155 -182c82 0 148 47 189 125l19 -8c-51 -94 -124 -136 -208 -136zM306 499c-112 0 -193 -97 -216 -230l-3 -17c300 5 357 76 357 143c0 61 -41 104 -138 104z" />
    <glyph glyph-name="uni1EBA" unicode="&#x1eba;" horiz-adv-x="553" 
d="M333 899l3 18h133c18 0 24 -6 24 -15s-4 -15 -38 -55l-69 -82l-15 9l102 125h-140zM432 0h-378l140 698h378l-4 -20h-356l-63 -314h344l-4 -20h-344l-65 -324h356z" />
    </font>
</defs>
</svg>
