<?xml version="1.0" standalone="no"?>
<!DOCTYPE svg PUBLIC "-//W3C//DTD SVG 1.1//EN" "http://www.w3.org/Graphics/SVG/1.1/DTD/svg11.dtd" >
<svg xmlns="http://www.w3.org/2000/svg" xmlns:xlink="http://www.w3.org/1999/xlink" version="1.1">
<metadata>
Created by FontForge 20180714 at Tue Aug 14 16:10:38 2018
 By Gisle,,,,
Copyright 2018 IBM Corp. All rights reserved.
</metadata>
<defs>
<font id="Aneliza-Light" horiz-adv-x="600" >
  <font-face 
    font-family="Aneliza Light"
    font-weight="300"
    font-stretch="normal"
    units-per-em="1000"
    panose-1="2 11 4 3 5 2 3 0 2 3"
    ascent="780"
    descent="-220"
    x-height="512"
    cap-height="698"
    bbox="-248 -232 1210 1108"
    underline-thickness="43"
    underline-position="-151"
    stemh="53"
    stemv="57"
    unicode-range="U+0020-FB02"
  />
<missing-glyph horiz-adv-x="472" 
d="M32 0v780h408v-780h-408zM75 43h322v694h-322v-694z" />
    <glyph glyph-name="fi" unicode="fi" horiz-adv-x="546" 
d="M117 0v462h-88v50h88v143c0 52 26 85 80 85h90v-50h-113v-178h278v-512h-57v462h-221v-462h-57zM424 651c-28 0 -39 15 -39 36v10c0 21 11 36 39 36c27 0 39 -15 39 -36v-10c0 -21 -12 -36 -39 -36z" />
    <glyph glyph-name=".notdef" horiz-adv-x="472" 
d="M32 0v780h408v-780h-408zM75 43h322v694h-322v-694z" />
    <glyph glyph-name="space" unicode=" " horiz-adv-x="236" 
 />
    <glyph glyph-name="exclam" unicode="!" horiz-adv-x="272" 
d="M150 181h-29l-16 283v234h62v-234zM136 -9c-33 0 -48 18 -48 45v11c0 27 15 45 48 45c32 0 48 -18 48 -45v-11c0 -27 -16 -45 -48 -45z" />
    <glyph glyph-name="quotedbl" unicode="&#x22;" horiz-adv-x="400" 
d="M310 472h-52v268h52v-268zM142 472h-52v268h52v-268z" />
    <glyph glyph-name="numbersign" unicode="#" horiz-adv-x="713" 
d="M379 0l37 211h-166l-37 -211h-47l36 211h-136v44h144l32 188h-137v44h145l36 211h47l-36 -211h166l36 211h48l-37 -211h137v-44h-145l-31 -188h137v-44h-145l-36 -211h-48zM257 255h166l32 188h-166z" />
    <glyph glyph-name="dollar" unicode="$" horiz-adv-x="578" 
d="M314 -82h-44v82c-105 5 -173 52 -222 117l43 37c45 -58 99 -97 179 -103v286l-12 2c-140 23 -191 90 -191 184c0 109 82 168 203 175v82h44v-81c92 -7 155 -45 198 -106l-44 -33c-34 49 -84 80 -154 87v-263l17 -3c141 -25 189 -92 189 -187c0 -116 -80 -185 -206 -194
v-82zM463 191c0 85 -51 125 -142 138l-7 1v-279c93 8 149 58 149 140zM124 526c0 -82 52 -116 136 -133l10 -2v256c-90 -6 -146 -47 -146 -121z" />
    <glyph glyph-name="percent" unicode="%" horiz-adv-x="908" 
d="M241 0h-56l484 698h56zM221 319c-92 0 -152 64 -152 195c0 132 60 196 152 196s152 -64 152 -196c0 -131 -60 -195 -152 -195zM221 357c60 0 100 42 100 133v49c0 91 -40 133 -100 133s-100 -42 -100 -133v-49c0 -91 40 -133 100 -133zM687 -12c-92 0 -152 64 -152 195
c0 132 60 196 152 196s152 -64 152 -196c0 -131 -60 -195 -152 -195zM687 26c60 0 100 42 100 133v49c0 91 -40 133 -100 133s-100 -42 -100 -133v-49c0 -91 40 -133 100 -133z" />
    <glyph glyph-name="ampersand" unicode="&#x26;" horiz-adv-x="687" 
d="M583 0l-91 95c-34 -51 -102 -107 -212 -107c-132 0 -209 80 -209 187s74 159 153 200c-53 58 -86 108 -86 172c0 93 69 163 176 163c99 0 165 -61 165 -146c0 -94 -75 -146 -174 -197l181 -188c21 52 31 116 33 182h125v-50h-78c-6 -64 -21 -121 -44 -170l135 -141h-74z
M311 662c-70 0 -116 -47 -116 -107v-14c0 -47 33 -92 78 -141c81 40 150 88 150 151v13c0 62 -52 98 -112 98zM131 169c0 -80 62 -130 153 -130c81 0 138 34 175 91l-204 212c-66 -34 -124 -71 -124 -156v-17z" />
    <glyph glyph-name="quotesingle" unicode="'" horiz-adv-x="232" 
d="M142 472h-52v268h52v-268z" />
    <glyph glyph-name="parenleft" unicode="(" horiz-adv-x="334" 
d="M92 312c0 197 84 362 182 448h56c-106 -95 -184 -259 -184 -416v-66c0 -157 80 -323 184 -415h-56c-97 84 -182 250 -182 449z" />
    <glyph glyph-name="parenright" unicode=")" horiz-adv-x="334" 
d="M242 312c0 -199 -85 -365 -182 -449h-56c104 92 184 258 184 415v66c0 157 -78 321 -184 416h56c98 -86 182 -251 182 -448z" />
    <glyph glyph-name="asterisk" unicode="*" horiz-adv-x="416" 
d="M208 532l-86 -125l-40 29l92 121l-145 41l15 49l143 -51l-4 151h50l-4 -151l142 51l16 -49l-145 -41l92 -121l-40 -29z" />
    <glyph glyph-name="plus" unicode="+" 
d="M327 63h-54v218h-208v49h208v218h54v-218h208v-49h-208v-218z" />
    <glyph glyph-name="comma" unicode="," horiz-adv-x="260" 
d="M130 92c33 0 48 -19 48 -46v-13c0 -55 -34 -126 -86 -171h-48c44 45 66 87 74 131c-26 3 -36 20 -36 41v12c0 27 15 46 48 46z" />
    <glyph glyph-name="hyphen" unicode="-" horiz-adv-x="397" 
d="M323 274h-249v61h249v-61z" />
    <glyph glyph-name="period" unicode="." horiz-adv-x="260" 
d="M130 -9c-33 0 -48 18 -48 45v11c0 27 15 45 48 45c32 0 48 -18 48 -45v-11c0 -27 -16 -45 -48 -45z" />
    <glyph glyph-name="slash" unicode="/" horiz-adv-x="356" 
d="M62 -151h-51l252 891h51z" />
    <glyph glyph-name="zero" unicode="0" 
d="M300 -12c-159 0 -236 122 -236 361s77 361 236 361s236 -122 236 -361s-77 -361 -236 -361zM300 40c118 0 173 99 173 262v94c0 163 -55 262 -173 262s-173 -99 -173 -262v-94c0 -163 55 -262 173 -262z" />
    <glyph glyph-name="one" unicode="1" 
d="M546 0h-456v53h204v601h-5l-192 -171l-34 38l199 177h92v-645h192v-53z" />
    <glyph glyph-name="two" unicode="2" 
d="M528 53v-53h-448v61l244 234c65 63 111 132 111 202v19c0 82 -48 140 -144 140c-93 0 -139 -52 -161 -126l-54 20c26 85 90 160 217 160c132 0 206 -80 206 -199c0 -101 -55 -176 -139 -254l-215 -204h383z" />
    <glyph glyph-name="three" unicode="3" 
d="M185 392h83c96 0 153 53 153 128v13c0 78 -58 123 -139 123s-127 -35 -156 -91l-45 32c32 60 94 113 202 113c116 0 202 -65 202 -175c0 -94 -59 -147 -136 -165v-4c82 -14 150 -72 150 -177c0 -121 -89 -201 -225 -201c-112 0 -177 49 -221 114l45 34
c39 -60 88 -94 175 -94c101 0 162 54 162 141v16c0 87 -59 141 -162 141h-88v52z" />
    <glyph glyph-name="four" unicode="4" 
d="M446 0h-57v146h-347v53l318 499h86v-502h108v-50h-108v-146zM386 647l-288 -451h291v451h-3z" />
    <glyph glyph-name="five" unicode="5" 
d="M491 698v-53h-312l-22 -292l6 -1c35 49 78 74 152 74c123 0 205 -80 205 -213c0 -135 -85 -225 -224 -225c-109 0 -173 49 -216 114l45 34c39 -60 84 -94 171 -94c103 0 161 61 161 158v17c0 97 -56 158 -158 158c-73 0 -108 -25 -142 -64l-52 8l25 379h361z" />
    <glyph glyph-name="six" unicode="6" 
d="M301 -12c-148 0 -226 103 -226 256c0 215 130 372 258 454h79c-154 -106 -240 -208 -274 -372l4 -1c34 62 90 102 174 102c124 0 208 -82 208 -213c0 -135 -88 -226 -223 -226zM300 40c101 0 162 63 162 160v17c0 97 -60 159 -162 159c-103 0 -163 -62 -163 -159v-16
c0 -98 61 -161 163 -161z" />
    <glyph glyph-name="seven" unicode="7" 
d="M244 0h-64l280 646h-334v-144h-54v196h449v-53z" />
    <glyph glyph-name="eight" unicode="8" 
d="M300 -12c-152 0 -237 83 -237 198c0 97 58 157 147 177v7c-76 21 -124 81 -124 165c0 106 80 175 214 175s214 -69 214 -175c0 -84 -48 -144 -124 -165v-7c89 -20 147 -80 147 -177c0 -115 -85 -198 -237 -198zM300 40c108 0 173 54 173 139v23c0 86 -65 139 -173 139
s-173 -53 -173 -139v-23c0 -85 65 -139 173 -139zM300 392c96 0 152 46 152 124v18c0 77 -56 124 -152 124s-152 -47 -152 -124v-18c0 -78 56 -124 152 -124z" />
    <glyph glyph-name="nine" unicode="9" 
d="M525 454c0 -215 -130 -372 -258 -454h-78c154 106 239 208 273 372l-4 1c-34 -62 -90 -102 -174 -102c-123 0 -208 82 -208 213c0 135 88 226 224 226c147 0 225 -103 225 -256zM301 322c102 0 162 62 162 159v16c0 98 -61 161 -162 161c-102 0 -163 -63 -163 -160v-17
c0 -97 60 -159 163 -159z" />
    <glyph glyph-name="colon" unicode=":" horiz-adv-x="280" 
d="M140 420c-33 0 -48 18 -48 45v11c0 27 15 45 48 45c32 0 48 -18 48 -45v-11c0 -27 -16 -45 -48 -45zM140 -9c-33 0 -48 18 -48 45v11c0 27 15 45 48 45c32 0 48 -18 48 -45v-11c0 -27 -16 -45 -48 -45z" />
    <glyph glyph-name="semicolon" unicode=";" horiz-adv-x="280" 
d="M140 420c-33 0 -48 18 -48 45v11c0 27 15 45 48 45c32 0 48 -18 48 -45v-11c0 -27 -16 -45 -48 -45zM140 92c33 0 48 -19 48 -46v-13c0 -55 -34 -126 -86 -171h-48c44 45 66 87 74 131c-26 3 -36 20 -36 41v12c0 27 15 46 48 46z" />
    <glyph glyph-name="less" unicode="&#x3c;" 
d="M512 8l-424 252v56l424 252v-60l-369 -217v-6l369 -217v-60z" />
    <glyph glyph-name="equal" unicode="=" 
d="M535 377h-470v49h470v-49zM535 186h-470v49h470v-49z" />
    <glyph glyph-name="greater" unicode="&#x3e;" 
d="M88 8v60l369 217v6l-369 217v60l424 -252v-56z" />
    <glyph glyph-name="question" unicode="?" horiz-adv-x="469" 
d="M242 196h-56v167c117 4 185 61 185 150v19c0 75 -52 126 -135 126c-86 0 -135 -50 -155 -125l-53 19c26 90 92 158 210 158c120 0 195 -73 195 -185c0 -123 -87 -189 -191 -204v-125zM214 -9c-32 0 -47 17 -47 45v11c0 28 15 45 47 45c33 0 48 -17 48 -45v-11
c0 -28 -15 -45 -48 -45z" />
    <glyph glyph-name="at" unicode="@" horiz-adv-x="887" 
d="M678 -77v-44h-234c-220 0 -377 158 -377 414c0 250 157 416 384 416c193 0 369 -119 369 -383c0 -141 -46 -257 -162 -257c-58 0 -92 34 -98 83h-3c-24 -47 -63 -83 -129 -83c-99 0 -173 72 -173 219c0 148 74 221 173 221c66 0 104 -36 122 -77h4v66h50v-315
c0 -49 22 -70 62 -70c66 0 105 74 105 195v46c0 188 -140 311 -321 311c-195 0 -334 -147 -334 -342v-56c0 -203 136 -344 329 -344h233zM437 117c71 0 117 41 117 107v133c0 61 -46 104 -117 104c-82 0 -122 -54 -122 -141v-64c0 -84 40 -139 122 -139z" />
    <glyph glyph-name="A" unicode="A" horiz-adv-x="625" 
d="M599 0h-63l-76 217h-297l-76 -217h-60l247 698h77zM444 269l-131 372h-4l-131 -372h266z" />
    <glyph glyph-name="B" unicode="B" horiz-adv-x="638" 
d="M99 0v698h273c109 0 175 -66 175 -176c0 -97 -55 -140 -107 -152v-4c65 -8 134 -60 134 -169c0 -115 -70 -197 -177 -197h-298zM159 337v-284h222c84 0 129 51 129 124v37c0 72 -45 123 -129 123h-222zM159 645v-256h207c76 0 117 46 117 109v38c0 64 -41 109 -117 109
h-207z" />
    <glyph glyph-name="C" unicode="C" horiz-adv-x="617" 
d="M335 -12c-172 0 -272 123 -272 359c0 235 100 363 272 363c111 0 189 -57 231 -149l-49 -29c-31 76 -94 124 -182 124c-130 0 -208 -98 -208 -270v-79c0 -171 78 -265 208 -265c93 0 157 51 187 131l49 -29c-41 -95 -123 -156 -236 -156z" />
    <glyph glyph-name="D" unicode="D" horiz-adv-x="666" 
d="M99 0v698h222c179 0 282 -117 282 -349s-103 -349 -282 -349h-222zM159 53h163c137 0 217 95 217 250v92c0 155 -80 250 -217 250h-163v-592z" />
    <glyph glyph-name="E" unicode="E" horiz-adv-x="574" 
d="M507 0h-408v698h408v-53h-348v-264h331v-53h-331v-275h348v-53z" />
    <glyph glyph-name="F" unicode="F" horiz-adv-x="550" 
d="M159 0h-60v698h399v-53h-339v-264h316v-53h-316v-328z" />
    <glyph glyph-name="G" unicode="G" horiz-adv-x="684" 
d="M553 0v107h-3c-25 -71 -97 -119 -205 -119c-172 0 -282 125 -282 361c0 235 109 361 286 361c119 0 202 -60 244 -149l-49 -29c-34 77 -103 124 -195 124c-135 0 -222 -98 -222 -264v-85c0 -167 86 -265 227 -265c106 0 196 56 196 170v84h-163v52h222v-348h-56z" />
    <glyph glyph-name="H" unicode="H" horiz-adv-x="701" 
d="M542 0v328h-383v-328h-60v698h60v-317h383v317h60v-698h-60z" />
    <glyph glyph-name="I" unicode="I" horiz-adv-x="390" 
d="M327 0h-264v50h102v598h-102v50h264v-50h-102v-598h102v-50z" />
    <glyph glyph-name="J" unicode="J" horiz-adv-x="493" 
d="M97 698h302v-516c0 -123 -75 -194 -189 -194c-98 0 -166 59 -184 146l53 13c16 -61 59 -106 133 -106c83 0 127 52 127 150v454h-242v53z" />
    <glyph glyph-name="K" unicode="K" horiz-adv-x="610" 
d="M515 0l-243 360l-113 -125v-235h-60v698h60v-393h2l112 129l230 264h73l-263 -297l276 -401h-74z" />
    <glyph glyph-name="L" unicode="L" horiz-adv-x="491" 
d="M467 0h-368v698h60v-645h308v-53z" />
    <glyph glyph-name="M" unicode="M" horiz-adv-x="804" 
d="M99 0v698h82l221 -393h3l221 393h79v-698h-58v621h-4l-241 -427l-241 427h-4v-621h-58z" />
    <glyph glyph-name="N" unicode="N" horiz-adv-x="701" 
d="M527 0l-367 616h-3v-616h-58v698h75l367 -616h3v616h58v-698h-75z" />
    <glyph glyph-name="O" unicode="O" horiz-adv-x="697" 
d="M349 -12c-178 0 -286 125 -286 361s108 361 286 361c177 0 285 -125 285 -361s-108 -361 -285 -361zM349 42c133 0 221 97 221 263v88c0 166 -88 263 -221 263c-134 0 -222 -97 -222 -263v-88c0 -166 88 -263 222 -263z" />
    <glyph glyph-name="P" unicode="P" horiz-adv-x="601" 
d="M159 0h-60v698h274c121 0 187 -76 187 -195c0 -120 -66 -196 -187 -196h-214v-307zM159 645v-285h214c80 0 123 50 123 119v48c0 68 -43 118 -123 118h-214z" />
    <glyph glyph-name="Q" unicode="Q" horiz-adv-x="697" 
d="M488 -106v-51h-101c-41 0 -62 25 -62 61v85c-164 11 -262 135 -262 360c0 236 108 361 286 361c177 0 285 -125 285 -361c0 -221 -94 -344 -252 -359v-96h106zM349 42c133 0 221 97 221 263v88c0 166 -88 263 -221 263c-134 0 -222 -97 -222 -263v-88
c0 -166 88 -263 222 -263z" />
    <glyph glyph-name="R" unicode="R" horiz-adv-x="636" 
d="M159 309v-309h-60v698h274c119 0 187 -72 187 -194c0 -107 -54 -178 -154 -191l172 -313h-67l-167 309h-185zM159 360h214c80 0 123 50 123 119v48c0 68 -43 118 -123 118h-214v-285z" />
    <glyph glyph-name="S" unicode="S" horiz-adv-x="568" 
d="M284 -12c-114 0 -188 47 -242 119l45 37c49 -65 108 -103 199 -103c108 0 168 54 168 146c0 86 -52 119 -141 138l-62 13c-132 27 -190 90 -190 187c0 122 90 185 224 185c104 0 175 -40 221 -107l-45 -33c-39 55 -95 87 -179 87c-100 0 -162 -44 -162 -130
c0 -83 56 -115 143 -133l62 -13c139 -30 188 -95 188 -191c0 -127 -87 -202 -229 -202z" />
    <glyph glyph-name="T" unicode="T" horiz-adv-x="568" 
d="M548 645h-234v-645h-60v645h-234v53h528v-53z" />
    <glyph glyph-name="U" unicode="U" horiz-adv-x="668" 
d="M93 698h60v-431c0 -155 44 -225 181 -225c136 0 181 70 181 225v431h60v-418c0 -205 -64 -292 -243 -292s-239 87 -239 292v418z" />
    <glyph glyph-name="V" unicode="V" horiz-adv-x="594" 
d="M334 0h-76l-234 698h65l206 -637h4l208 637h63z" />
    <glyph glyph-name="W" unicode="W" horiz-adv-x="884" 
d="M270 0h-70l-176 698h64l149 -624h3l165 624h73l163 -624h3l154 624h62l-182 -698h-70l-167 631h-2z" />
    <glyph glyph-name="X" unicode="X" horiz-adv-x="592" 
d="M26 0l231 355l-224 343h71l191 -295h2l193 295h69l-226 -340l233 -358h-72l-198 309h-2l-199 -309h-69z" />
    <glyph glyph-name="Y" unicode="Y" horiz-adv-x="575" 
d="M317 0h-60v283l-241 415h68l202 -352h3l202 352h68l-242 -412v-286z" />
    <glyph glyph-name="Z" unicode="Z" horiz-adv-x="570" 
d="M537 53v-53h-500v55l419 590h-397v53h462v-55l-420 -590h436z" />
    <glyph glyph-name="bracketleft" unicode="[" horiz-adv-x="311" 
d="M247 -138h-148v898h148v-45h-98v-808h98v-45z" />
    <glyph glyph-name="backslash" unicode="\" horiz-adv-x="356" 
d="M341 -151h-52l-249 891h52z" />
    <glyph glyph-name="bracketright" unicode="]" horiz-adv-x="311" 
d="M64 760h148v-898h-148v45h98v808h-98v45z" />
    <glyph glyph-name="asciicircum" unicode="^" 
d="M543 330l-44 -24l-197 338h-4l-197 -338l-44 24l212 368h62z" />
    <glyph glyph-name="underscore" unicode="_" horiz-adv-x="567" 
d="M537 -156h-507v50h507v-50z" />
    <glyph glyph-name="grave" unicode="`" 
d="M302 586l-109 156l52 26l95 -164z" />
    <glyph glyph-name="a" unicode="a" horiz-adv-x="527" 
d="M503 0h-58c-44 0 -62 25 -65 63v18h-5c-23 -57 -75 -93 -155 -93c-107 0 -169 56 -169 151c0 91 60 148 208 148h118v60c0 84 -44 127 -131 127c-68 0 -112 -30 -140 -83l-36 30c28 59 85 103 178 103c119 0 186 -63 186 -171v-303h69v-50zM228 37c83 0 149 43 149 112
v95h-120c-102 0 -146 -35 -146 -92v-24c0 -59 47 -91 117 -91z" />
    <glyph glyph-name="b" unicode="b" horiz-adv-x="574" 
d="M93 0v740h57v-310h3c25 57 78 94 156 94c131 0 211 -99 211 -268s-80 -268 -211 -268c-78 0 -128 37 -156 94h-3v-82h-57zM296 39c102 0 163 71 163 181v72c0 110 -61 181 -163 181c-79 0 -146 -47 -146 -114v-203c0 -72 67 -117 146 -117z" />
    <glyph glyph-name="c" unicode="c" horiz-adv-x="496" 
d="M273 -12c-140 0 -221 99 -221 268s81 268 221 268c94 0 152 -46 182 -113l-48 -24c-24 55 -67 86 -134 86c-104 0 -160 -73 -160 -181v-72c0 -108 56 -181 160 -181c70 0 118 32 147 89l42 -28c-33 -68 -95 -112 -189 -112z" />
    <glyph glyph-name="d" unicode="d" horiz-adv-x="574" 
d="M424 0v82h-3c-27 -57 -78 -94 -156 -94c-131 0 -211 99 -211 268s80 268 211 268c78 0 131 -37 156 -94h3v310h57v-740h-57zM278 39c79 0 146 45 146 117v203c0 67 -67 114 -146 114c-102 0 -163 -71 -163 -181v-72c0 -110 61 -181 163 -181z" />
    <glyph glyph-name="e" unicode="e" horiz-adv-x="543" 
d="M276 -12c-137 0 -224 100 -224 268s87 268 223 268c131 0 216 -102 216 -252v-27h-379v-25c0 -107 62 -182 167 -182c73 0 127 36 155 103l42 -28c-32 -75 -103 -125 -200 -125zM275 476c-99 0 -163 -74 -163 -182v-5h317v8c0 108 -62 179 -154 179z" />
    <glyph glyph-name="f" unicode="f" horiz-adv-x="309" 
d="M117 0v462h-88v50h88v143c0 52 26 85 80 85h90v-50h-113v-178h113v-50h-113v-462h-57z" />
    <glyph glyph-name="g" unicode="g" horiz-adv-x="529" 
d="M513 -60c0 -104 -86 -152 -246 -152c-156 0 -221 48 -221 128c0 58 33 92 88 108v8c-32 13 -48 36 -48 70c0 50 38 75 87 88v4c-59 27 -95 82 -95 156c0 103 73 174 186 174c28 0 54 -4 76 -12h163v-46h-100c30 -27 49 -67 49 -116c0 -104 -74 -175 -187 -175
c-18 0 -36 3 -53 6c-44 -12 -76 -32 -76 -66c0 -30 26 -46 82 -46h119c123 0 176 -49 176 -129zM265 221c78 0 126 41 126 113v32c0 70 -48 112 -126 112c-79 0 -126 -42 -126 -112v-32c0 -72 48 -113 126 -113zM458 -64c0 49 -30 80 -121 80h-166c-44 -15 -71 -44 -71 -88
c0 -53 44 -93 133 -93h64c99 0 161 32 161 101z" />
    <glyph glyph-name="h" unicode="h" horiz-adv-x="563" 
d="M93 0v740h57v-309h3c23 53 69 93 151 93c109 0 173 -70 173 -195v-329h-57v319c0 104 -46 154 -131 154c-72 0 -139 -37 -139 -113v-360h-57z" />
    <glyph glyph-name="i" unicode="i" horiz-adv-x="243" 
d="M121 651c-27 0 -39 15 -39 36v10c0 21 12 36 39 36s39 -15 39 -36v-10c0 -21 -12 -36 -39 -36zM93 0v512h57v-512h-57z" />
    <glyph glyph-name="j" unicode="j" horiz-adv-x="243" 
d="M93 -150v662h57v-627c0 -52 -25 -85 -80 -85h-62v50h85zM121 651c-27 0 -39 15 -39 36v10c0 21 12 36 39 36s39 -15 39 -36v-10c0 -21 -12 -36 -39 -36z" />
    <glyph glyph-name="k" unicode="k" horiz-adv-x="513" 
d="M93 0v740h57v-489h3l80 85l170 176h70l-201 -208l223 -304h-70l-194 268l-81 -82v-186h-57z" />
    <glyph glyph-name="l" unicode="l" horiz-adv-x="264" 
d="M229 0h-73c-41 0 -63 25 -63 62v678h57v-690h79v-50z" />
    <glyph glyph-name="m" unicode="m" horiz-adv-x="876" 
d="M150 0h-57v512h57v-81h3c21 50 61 93 145 93c73 0 133 -34 158 -108h3c19 60 70 108 161 108c109 0 170 -70 170 -195v-329h-57v319c0 103 -43 154 -129 154c-71 0 -134 -38 -134 -114v-359h-57v319c0 104 -44 154 -128 154c-70 0 -135 -37 -135 -113v-360z" />
    <glyph glyph-name="n" unicode="n" horiz-adv-x="563" 
d="M150 0h-57v512h57v-81h3c23 53 69 93 151 93c109 0 173 -70 173 -195v-329h-57v319c0 104 -46 154 -131 154c-72 0 -139 -37 -139 -113v-360z" />
    <glyph glyph-name="o" unicode="o" horiz-adv-x="550" 
d="M275 -12c-135 0 -223 100 -223 268s88 268 223 268s223 -100 223 -268s-88 -268 -223 -268zM275 39c99 0 162 65 162 185v64c0 119 -63 185 -162 185s-162 -65 -162 -185v-64c0 -119 63 -185 162 -185z" />
    <glyph glyph-name="p" unicode="p" horiz-adv-x="574" 
d="M93 -200v712h57v-82h3c25 57 78 94 156 94c131 0 211 -99 211 -268s-80 -268 -211 -268c-78 0 -128 37 -156 94h-3v-282h-57zM296 39c102 0 163 71 163 181v72c0 110 -61 181 -163 181c-79 0 -146 -47 -146 -114v-203c0 -72 67 -117 146 -117z" />
    <glyph glyph-name="q" unicode="q" horiz-adv-x="574" 
d="M424 -200v282h-3c-27 -57 -78 -94 -156 -94c-131 0 -211 99 -211 268s80 268 211 268c78 0 131 -37 156 -94h3v82h57v-712h-57zM278 39c79 0 146 45 146 117v203c0 67 -67 114 -146 114c-102 0 -163 -71 -163 -181v-72c0 -110 61 -181 163 -181z" />
    <glyph glyph-name="r" unicode="r" horiz-adv-x="357" 
d="M150 0h-57v512h57v-92h4c20 48 65 92 153 92h34v-56h-45c-85 0 -146 -40 -146 -106v-350z" />
    <glyph glyph-name="s" unicode="s" horiz-adv-x="477" 
d="M238 -12c-89 0 -151 35 -197 98l42 33c42 -55 91 -82 159 -82c78 0 123 35 123 97c0 54 -31 85 -105 96l-42 7c-93 14 -157 51 -157 143c0 96 75 144 174 144c85 0 137 -33 175 -79l-38 -35c-27 32 -69 65 -140 65c-73 0 -116 -34 -116 -92c0 -59 37 -82 110 -94l41 -6
c104 -16 153 -61 153 -143c0 -95 -69 -152 -182 -152z" />
    <glyph glyph-name="t" unicode="t" horiz-adv-x="335" 
d="M283 0h-102c-41 0 -63 25 -63 63v399h-89v50h58c28 0 36 10 36 39v104h52v-143h116v-50h-116v-412h108v-50z" />
    <glyph glyph-name="u" unicode="u" horiz-adv-x="563" 
d="M413 0v81h-4c-19 -48 -61 -93 -149 -93c-109 0 -174 70 -174 195v329h57v-318c0 -105 47 -155 132 -155c71 0 138 37 138 114v359h57v-512h-57z" />
    <glyph glyph-name="v" unicode="v" horiz-adv-x="476" 
d="M206 0l-185 512h60l157 -451h4l156 451h58l-185 -512h-65z" />
    <glyph glyph-name="w" unicode="w" horiz-adv-x="752" 
d="M177 0l-144 512h56l123 -461h2l136 461h53l137 -461h2l122 461h55l-144 -512h-70l-129 431h-2l-128 -431h-69z" />
    <glyph glyph-name="x" unicode="x" horiz-adv-x="493" 
d="M26 0l190 258l-183 254h67l146 -209h3l149 209h64l-182 -250l187 -262h-67l-151 216h-2l-157 -216h-64z" />
    <glyph glyph-name="y" unicode="y" horiz-adv-x="479" 
d="M243 61l156 451h58l-237 -656c-16 -43 -33 -56 -85 -56h-58v50h86l49 135l-190 527h60l157 -451h4z" />
    <glyph glyph-name="z" unicode="z" horiz-adv-x="446" 
d="M417 0h-386v49l310 413h-301v50h369v-45l-314 -417h322v-50z" />
    <glyph glyph-name="braceleft" unicode="{" horiz-adv-x="332" 
d="M269 -138h-90c-39 0 -59 25 -59 60v269c0 58 -39 87 -97 87v66c58 0 97 29 97 87v269c0 35 20 60 59 60h90v-45h-99v-278c0 -63 -39 -111 -96 -118v-16c57 -7 96 -55 96 -118v-278h99v-45z" />
    <glyph glyph-name="bar" unicode="|" horiz-adv-x="285" 
d="M167 -138h-49v898h49v-898z" />
    <glyph glyph-name="braceright" unicode="}" horiz-adv-x="332" 
d="M63 760h90c39 0 59 -25 59 -60v-269c0 -58 39 -87 97 -87v-66c-58 0 -97 -29 -97 -87v-269c0 -35 -20 -60 -59 -60h-90v45h99v278c0 63 39 111 97 118v16c-58 7 -97 55 -97 118v278h-99v45z" />
    <glyph glyph-name="asciitilde" unicode="~" 
d="M421 245c-45 0 -77 13 -129 37c-46 21 -77 35 -116 35c-35 0 -57 -11 -88 -36l-25 32c29 33 62 52 116 52c45 0 77 -13 129 -37c46 -21 77 -35 116 -35c35 0 57 11 88 36l25 -32c-29 -33 -62 -52 -116 -52z" />
    <glyph glyph-name="uni00A0" unicode="&#xa0;" horiz-adv-x="236" 
 />
    <glyph glyph-name="exclamdown" unicode="&#xa1;" horiz-adv-x="272" 
d="M166 -185h-62v234l17 282h29l16 -282v-234zM136 420c-33 0 -48 18 -48 45v11c0 27 15 45 48 45c32 0 48 -18 48 -45v-11c0 -27 -16 -45 -48 -45z" />
    <glyph glyph-name="cent" unicode="&#xa2;" horiz-adv-x="497" 
d="M292 -114h-50v104c-121 13 -190 110 -190 266c0 157 70 253 190 266v104h50v-103c81 -4 134 -49 163 -112l-46 -23c-24 51 -61 81 -118 85v-434c61 4 103 36 130 88l42 -28c-31 -63 -87 -106 -171 -110v-103zM113 220c0 -97 46 -167 130 -178v429
c-84 -12 -130 -81 -130 -179v-72z" />
    <glyph glyph-name="sterling" unicode="&#xa3;" horiz-adv-x="589" 
d="M520 0h-438v71c56 31 82 92 82 159c0 24 -4 46 -8 66h-92v50h78c-17 50 -37 97 -37 157c0 125 86 207 221 207c95 0 163 -41 208 -116l-46 -32c-37 62 -90 95 -164 95c-95 0 -158 -55 -158 -159c0 -57 20 -104 36 -152h217v-50h-204c4 -19 7 -38 7 -60
c0 -77 -34 -144 -82 -179v-3h380v-54z" />
    <glyph glyph-name="currency" unicode="&#xa4;" horiz-adv-x="602" 
d="M301 123c-59 0 -107 18 -141 51l-105 -106l-35 35l108 108c-21 36 -33 83 -33 138s12 102 33 138l-108 108l35 35l105 -106c34 33 82 51 141 51s107 -18 141 -51l105 106l35 -35l-108 -108c21 -36 33 -83 33 -138s-12 -102 -33 -138l108 -108l-35 -35l-105 106
c-34 -33 -82 -51 -141 -51zM301 171c89 0 145 53 145 150v56c0 97 -56 150 -145 150s-145 -53 -145 -150v-56c0 -97 56 -150 145 -150z" />
    <glyph glyph-name="yen" unicode="&#xa5;" horiz-adv-x="595" 
d="M512 154h-185v-154h-59v154h-185v48h185v113h-185v48h156l-200 335h68l191 -329h4l188 329h66l-200 -335h156v-48h-185v-113h185v-48z" />
    <glyph glyph-name="brokenbar" unicode="&#xa6;" horiz-adv-x="285" 
d="M167 404h-49v356h49v-356zM167 -138h-49v356h49v-356z" />
    <glyph glyph-name="section" unicode="&#xa7;" horiz-adv-x="578" 
d="M442 261c0 65 -40 100 -123 124l-64 19c-13 3 -25 8 -37 13c-50 -28 -82 -67 -82 -123c0 -65 40 -100 122 -124l64 -18c13 -4 25 -9 37 -14c50 29 83 67 83 123zM462 -3c0 -97 -79 -152 -188 -152c-66 0 -121 20 -162 56l33 40c32 -27 73 -46 130 -46
c82 0 131 37 131 101c0 61 -47 90 -112 110l-65 20c-100 31 -149 78 -149 155c0 68 41 118 109 145v6c-45 29 -74 70 -74 127c0 96 79 151 188 151c65 0 121 -19 162 -56l-33 -40c-32 28 -73 46 -130 46c-82 0 -131 -38 -131 -101c0 -61 47 -89 112 -109l64 -20
c101 -32 151 -79 151 -155c0 -69 -42 -119 -110 -146v-5c47 -29 74 -72 74 -127z" />
    <glyph glyph-name="dieresis" unicode="&#xa8;" 
d="M208 627c-28 0 -39 15 -39 36v10c0 21 11 36 39 36c27 0 39 -15 39 -36v-10c0 -21 -12 -36 -39 -36zM392 627c-27 0 -39 15 -39 36v10c0 21 12 36 39 36c28 0 39 -15 39 -36v-10c0 -21 -11 -36 -39 -36z" />
    <glyph glyph-name="copyright" unicode="&#xa9;" horiz-adv-x="748" 
d="M374 -11c-188 0 -329 139 -329 360s141 360 329 360s329 -139 329 -360s-141 -360 -329 -360zM374 32c165 0 279 124 279 290v54c0 166 -114 290 -279 290s-279 -124 -279 -290v-54c0 -166 114 -290 279 -290zM377 153c-98 0 -158 73 -158 195s60 195 159 195
c66 0 109 -35 129 -85l-41 -21c-15 38 -43 61 -88 61c-66 0 -105 -48 -105 -127v-47c0 -80 39 -126 105 -126c47 0 75 24 95 63l40 -23c-22 -49 -68 -85 -136 -85z" />
    <glyph glyph-name="ordfeminine" unicode="&#xaa;" horiz-adv-x="381" 
d="M348 356h-40c-31 0 -44 15 -44 40v11h-4c-15 -29 -49 -57 -111 -57c-70 0 -109 38 -109 94c0 66 46 100 140 100h81v39c0 56 -30 82 -84 82c-45 0 -79 -20 -94 -54l-32 24c19 37 60 69 128 69c79 0 128 -43 128 -118v-189h41v-41zM158 387c54 0 103 26 103 73v49h-82
c-63 0 -92 -20 -92 -55v-11c0 -37 26 -56 71 -56z" />
    <glyph glyph-name="guillemotleft" unicode="&#xab;" horiz-adv-x="497" 
d="M446 129l-18 -39l-195 171v54l195 171l18 -39l-156 -159zM248 129l-18 -39l-195 171v54l195 171l18 -39l-156 -159z" />
    <glyph glyph-name="logicalnot" unicode="&#xac;" 
d="M529 88h-51v193h-413v49h464v-242z" />
    <glyph glyph-name="uni00AD" unicode="&#xad;" horiz-adv-x="397" 
d="M323 274h-249v61h249v-61z" />
    <glyph glyph-name="registered" unicode="&#xae;" horiz-adv-x="472" 
d="M236 298c-111 0 -198 87 -198 206s87 206 198 206s198 -87 198 -206s-87 -206 -198 -206zM236 329c96 0 164 75 164 164v22c0 89 -68 164 -164 164s-164 -75 -164 -164v-22c0 -89 68 -164 164 -164zM196 481v-85h-31v211h86c40 0 64 -23 64 -63c0 -34 -18 -54 -42 -60
l50 -88h-34l-47 85h-46zM196 506h54c22 0 32 9 32 29v16c0 20 -10 30 -32 30h-54v-75z" />
    <glyph glyph-name="macron" unicode="&#xaf;" 
d="M164 645v49h272v-49h-272z" />
    <glyph glyph-name="degree" unicode="&#xb0;" horiz-adv-x="466" 
d="M233 370c-95 0 -166 74 -166 170s71 170 166 170s166 -74 166 -170s-71 -170 -166 -170zM233 416c71 0 115 56 115 124s-44 124 -115 124s-115 -56 -115 -124s44 -124 115 -124z" />
    <glyph glyph-name="plusminus" unicode="&#xb1;" 
d="M327 137h-54v213h-208v49h208v213h54v-213h208v-49h-208v-213zM535 0h-470v49h470v-49z" />
    <glyph glyph-name="twosuperior" unicode="&#xb2;" horiz-adv-x="346" 
d="M307 366v-37h-266v43l133 108c46 38 71 73 71 110v8c0 40 -26 68 -77 68c-52 0 -78 -28 -92 -66l-39 14c16 48 57 90 134 90c79 0 123 -46 123 -107c0 -55 -36 -98 -95 -144l-109 -87h217z" />
    <glyph glyph-name="threesuperior" unicode="&#xb3;" horiz-adv-x="346" 
d="M114 539h43c60 0 85 25 85 63v5c0 37 -28 60 -76 60c-44 0 -70 -17 -90 -46l-32 25c23 32 61 58 123 58c74 0 123 -36 123 -95c0 -48 -32 -76 -75 -85v-3c48 -8 82 -38 82 -90c0 -65 -52 -108 -136 -108c-68 0 -106 29 -130 62l34 25c21 -29 46 -50 96 -50
c57 0 88 27 88 71v6c0 43 -27 65 -87 65h-48v37z" />
    <glyph glyph-name="acute" unicode="&#xb4;" 
d="M407 742l-110 -156l-37 18l95 164z" />
    <glyph glyph-name="mu" unicode="&#xb5;" horiz-adv-x="570" 
d="M150 -200h-57v712h57v-318c0 -105 47 -155 132 -155c71 0 138 37 138 115v358h57v-512h-57v81h-3c-19 -48 -62 -93 -148 -93c-61 0 -101 22 -122 67h-3l6 -100v-155z" />
    <glyph glyph-name="paragraph" unicode="&#xb6;" horiz-adv-x="628" 
d="M248 -149v461c-109 0 -196 81 -196 193c0 111 87 193 196 193h292v-48h-68v-799h-53v799h-118v-799h-53z" />
    <glyph glyph-name="periodcentered" unicode="&#xb7;" horiz-adv-x="316" 
d="M158 255c-33 0 -48 18 -48 45v11c0 27 15 45 48 45c32 0 48 -18 48 -45v-11c0 -27 -16 -45 -48 -45z" />
    <glyph glyph-name="cedilla" unicode="&#xb8;" 
d="M311 -205c-48 0 -79 19 -92 37l28 31c13 -16 34 -28 64 -28c29 0 50 13 50 39c0 21 -13 37 -65 43l-31 3l19 93h38l-17 -79l2 -2c12 3 25 5 36 5c39 0 68 -23 68 -64c0 -49 -44 -78 -100 -78z" />
    <glyph glyph-name="onesuperior" unicode="&#xb9;" horiz-adv-x="364" 
d="M326 329h-269v37h117v295h-5l-104 -95l-26 27l112 105h69v-332h106v-37z" />
    <glyph glyph-name="ordmasculine" unicode="&#xba;" horiz-adv-x="386" 
d="M193 350c-93 0 -148 68 -148 177s55 177 148 177s148 -68 148 -177s-55 -177 -148 -177zM193 389c65 0 99 48 99 112v52c0 64 -34 112 -99 112s-99 -48 -99 -112v-52c0 -64 34 -112 99 -112z" />
    <glyph glyph-name="guillemotright" unicode="&#xbb;" horiz-adv-x="497" 
d="M267 90l-18 39l156 159l-156 159l18 39l195 -171v-54zM69 90l-18 39l156 159l-156 159l18 39l195 -171v-54z" />
    <glyph glyph-name="onequarter" unicode="&#xbc;" horiz-adv-x="851" 
d="M767 0h-44v79h-198v39l180 251h62v-254h60v-36h-60v-79zM723 115v212h-3l-154 -212h157zM233 0h-49l471 698h49zM326 329h-269v37h117v295h-5l-104 -95l-26 27l112 105h69v-332h106v-37z" />
    <glyph glyph-name="onehalf" unicode="&#xbd;" horiz-adv-x="865" 
d="M826 37v-37h-266v43l133 108c46 38 71 74 71 110v8c0 40 -26 68 -77 68c-52 0 -78 -28 -92 -66l-39 14c16 48 57 90 134 90c79 0 123 -46 123 -107c0 -55 -36 -98 -95 -144l-109 -87h217zM233 0h-49l471 698h49zM326 329h-269v37h117v295h-5l-104 -95l-26 27l112 105h69
v-332h106v-37z" />
    <glyph glyph-name="threequarters" unicode="&#xbe;" horiz-adv-x="829" 
d="M745 0h-44v79h-198v39l180 251h62v-254h60v-36h-60v-79zM701 115v212h-3l-154 -212h157zM211 0h-49l471 698h49zM114 539h43c60 0 85 25 85 63v5c0 37 -28 60 -76 60c-44 0 -70 -17 -90 -46l-32 25c23 32 61 58 123 58c74 0 123 -36 123 -95c0 -48 -32 -76 -75 -85v-3
c48 -8 82 -38 82 -90c0 -65 -52 -108 -136 -108c-68 0 -106 29 -130 62l34 25c21 -29 46 -50 96 -50c57 0 88 27 88 71v6c0 43 -27 65 -87 65h-48v37z" />
    <glyph glyph-name="questiondown" unicode="&#xbf;" horiz-adv-x="463" 
d="M231 -198c-120 0 -195 73 -195 185c0 123 87 188 191 203v126h55v-167c-116 -4 -184 -61 -184 -150v-19c0 -76 52 -126 135 -126c85 0 135 50 154 125l53 -19c-25 -90 -91 -158 -209 -158zM256 420c-33 0 -48 18 -48 45v11c0 27 15 45 48 45c32 0 48 -18 48 -45v-11
c0 -27 -16 -45 -48 -45z" />
    <glyph glyph-name="Agrave" unicode="&#xc0;" horiz-adv-x="625" 
d="M315 760l-109 156l52 26l95 -164zM599 0h-63l-76 217h-297l-76 -217h-60l247 698h77zM444 269l-131 372h-4l-131 -372h266z" />
    <glyph glyph-name="Aacute" unicode="&#xc1;" horiz-adv-x="625" 
d="M420 916l-110 -156l-37 18l95 164zM599 0h-63l-76 217h-297l-76 -217h-60l247 698h77zM444 269l-131 372h-4l-131 -372h266z" />
    <glyph glyph-name="Acircumflex" unicode="&#xc2;" horiz-adv-x="625" 
d="M278 930h70l118 -139l-32 -23l-121 120l-121 -120l-32 23zM599 0h-63l-76 217h-297l-76 -217h-60l247 698h77zM444 269l-131 372h-4l-131 -372h266z" />
    <glyph glyph-name="Atilde" unicode="&#xc3;" horiz-adv-x="625" 
d="M385 792c-30 0 -53 13 -79 28c-30 17 -50 24 -68 24c-23 0 -40 -10 -61 -29l-25 29c21 27 50 48 89 48c30 0 53 -13 79 -28c30 -17 50 -24 68 -24c23 0 40 10 61 29l25 -29c-21 -27 -50 -48 -89 -48zM599 0h-63l-76 217h-297l-76 -217h-60l247 698h77zM444 269l-131 372
h-4l-131 -372h266z" />
    <glyph glyph-name="Adieresis" unicode="&#xc4;" horiz-adv-x="625" 
d="M221 800c-28 0 -40 16 -40 37v10c0 21 12 37 40 37c27 0 39 -16 39 -37v-10c0 -21 -12 -37 -39 -37zM405 800c-27 0 -39 16 -39 37v10c0 21 12 37 39 37c28 0 40 -16 40 -37v-10c0 -21 -12 -37 -40 -37zM599 0h-63l-76 217h-297l-76 -217h-60l247 698h77zM444 269
l-131 372h-4l-131 -372h266z" />
    <glyph glyph-name="Aring" unicode="&#xc5;" horiz-adv-x="625" 
d="M313 755c-61 0 -106 44 -106 106c0 61 45 105 106 105s106 -44 106 -105c0 -62 -45 -106 -106 -106zM313 792c39 0 63 23 63 60v17c0 38 -24 60 -63 60s-63 -22 -63 -60v-17c0 -37 24 -60 63 -60zM599 0h-63l-76 217h-297l-76 -217h-60l247 698h77zM444 269l-131 372h-4
l-131 -372h266z" />
    <glyph glyph-name="AE" unicode="&#xc6;" horiz-adv-x="888" 
d="M413 0v216h-235l-113 -216h-62l367 698h452v-53h-349v-264h332v-53h-332v-275h349v-53h-409zM413 645h-12l-198 -376h210v376z" />
    <glyph glyph-name="Ccedilla" unicode="&#xc7;" horiz-adv-x="617" 
d="M335 656c-130 0 -208 -98 -208 -270v-79c0 -171 78 -265 208 -265c93 0 157 51 187 131l49 -29c-39 -90 -115 -150 -218 -155l-12 -55l2 -2c12 3 25 5 36 5c39 0 68 -23 68 -64c0 -49 -44 -78 -100 -78c-48 0 -79 19 -92 37l28 31c13 -16 34 -28 64 -28c29 0 51 13 51 39
c0 21 -14 37 -66 43l-31 3l14 69c-159 8 -252 130 -252 358c0 235 100 363 272 363c111 0 189 -57 231 -149l-49 -29c-31 76 -94 124 -182 124z" />
    <glyph glyph-name="Egrave" unicode="&#xc8;" horiz-adv-x="574" 
d="M304 760l-109 156l52 26l95 -164zM507 0h-408v698h408v-53h-348v-264h331v-53h-331v-275h348v-53z" />
    <glyph glyph-name="Eacute" unicode="&#xc9;" horiz-adv-x="574" 
d="M409 916l-110 -156l-37 18l95 164zM507 0h-408v698h408v-53h-348v-264h331v-53h-331v-275h348v-53z" />
    <glyph glyph-name="Ecircumflex" unicode="&#xca;" horiz-adv-x="574" 
d="M267 930h70l118 -139l-32 -23l-121 120l-121 -120l-32 23zM507 0h-408v698h408v-53h-348v-264h331v-53h-331v-275h348v-53z" />
    <glyph glyph-name="Edieresis" unicode="&#xcb;" horiz-adv-x="574" 
d="M210 800c-28 0 -40 16 -40 37v10c0 21 12 37 40 37c27 0 39 -16 39 -37v-10c0 -21 -12 -37 -39 -37zM394 800c-27 0 -39 16 -39 37v10c0 21 12 37 39 37c28 0 40 -16 40 -37v-10c0 -21 -12 -37 -40 -37zM507 0h-408v698h408v-53h-348v-264h331v-53h-331v-275h348v-53z
" />
    <glyph glyph-name="Igrave" unicode="&#xcc;" horiz-adv-x="390" 
d="M196 760l-109 156l52 26l95 -164zM327 0h-264v50h102v598h-102v50h264v-50h-102v-598h102v-50z" />
    <glyph glyph-name="Iacute" unicode="&#xcd;" horiz-adv-x="390" 
d="M301 916l-110 -156l-37 18l95 164zM327 0h-264v50h102v598h-102v50h264v-50h-102v-598h102v-50z" />
    <glyph glyph-name="Icircumflex" unicode="&#xce;" horiz-adv-x="390" 
d="M159 930h70l118 -139l-32 -23l-121 120l-121 -120l-32 23zM327 0h-264v50h102v598h-102v50h264v-50h-102v-598h102v-50z" />
    <glyph glyph-name="Idieresis" unicode="&#xcf;" horiz-adv-x="390" 
d="M102 800c-28 0 -40 16 -40 37v10c0 21 12 37 40 37c27 0 39 -16 39 -37v-10c0 -21 -12 -37 -39 -37zM286 800c-27 0 -39 16 -39 37v10c0 21 12 37 39 37c28 0 40 -16 40 -37v-10c0 -21 -12 -37 -40 -37zM327 0h-264v50h102v598h-102v50h264v-50h-102v-598h102v-50z" />
    <glyph glyph-name="Eth" unicode="&#xd0;" horiz-adv-x="669" 
d="M102 0v346h-81v46h81v306h222c179 0 282 -117 282 -349s-103 -349 -282 -349h-222zM162 53h163c137 0 217 95 217 250v92c0 155 -80 250 -217 250h-163v-253h150v-46h-150v-293z" />
    <glyph glyph-name="Ntilde" unicode="&#xd1;" horiz-adv-x="701" 
d="M422 792c-30 0 -53 13 -79 28c-30 17 -50 24 -68 24c-23 0 -40 -10 -61 -29l-25 29c21 27 50 48 89 48c30 0 53 -13 79 -28c30 -17 50 -24 68 -24c23 0 40 10 61 29l25 -29c-21 -27 -50 -48 -89 -48zM527 0l-367 616h-3v-616h-58v698h75l367 -616h3v616h58v-698h-75z" />
    <glyph glyph-name="Ograve" unicode="&#xd2;" horiz-adv-x="697" 
d="M351 760l-109 156l52 26l95 -164zM349 -12c-178 0 -286 125 -286 361s108 361 286 361c177 0 285 -125 285 -361s-108 -361 -285 -361zM349 42c133 0 221 97 221 263v88c0 166 -88 263 -221 263c-134 0 -222 -97 -222 -263v-88c0 -166 88 -263 222 -263z" />
    <glyph glyph-name="Oacute" unicode="&#xd3;" horiz-adv-x="697" 
d="M456 916l-110 -156l-37 18l95 164zM349 -12c-178 0 -286 125 -286 361s108 361 286 361c177 0 285 -125 285 -361s-108 -361 -285 -361zM349 42c133 0 221 97 221 263v88c0 166 -88 263 -221 263c-134 0 -222 -97 -222 -263v-88c0 -166 88 -263 222 -263z" />
    <glyph glyph-name="Ocircumflex" unicode="&#xd4;" horiz-adv-x="697" 
d="M314 930h70l118 -139l-32 -23l-121 120l-121 -120l-32 23zM349 -12c-178 0 -286 125 -286 361s108 361 286 361c177 0 285 -125 285 -361s-108 -361 -285 -361zM349 42c133 0 221 97 221 263v88c0 166 -88 263 -221 263c-134 0 -222 -97 -222 -263v-88
c0 -166 88 -263 222 -263z" />
    <glyph glyph-name="Otilde" unicode="&#xd5;" horiz-adv-x="697" 
d="M421 792c-30 0 -53 13 -79 28c-30 17 -50 24 -68 24c-23 0 -40 -10 -61 -29l-25 29c21 27 50 48 89 48c30 0 53 -13 79 -28c30 -17 50 -24 68 -24c23 0 40 10 61 29l25 -29c-21 -27 -50 -48 -89 -48zM349 -12c-178 0 -286 125 -286 361s108 361 286 361
c177 0 285 -125 285 -361s-108 -361 -285 -361zM349 42c133 0 221 97 221 263v88c0 166 -88 263 -221 263c-134 0 -222 -97 -222 -263v-88c0 -166 88 -263 222 -263z" />
    <glyph glyph-name="Odieresis" unicode="&#xd6;" horiz-adv-x="697" 
d="M257 800c-28 0 -40 16 -40 37v10c0 21 12 37 40 37c27 0 39 -16 39 -37v-10c0 -21 -12 -37 -39 -37zM441 800c-27 0 -39 16 -39 37v10c0 21 12 37 39 37c28 0 40 -16 40 -37v-10c0 -21 -12 -37 -40 -37zM349 -12c-178 0 -286 125 -286 361s108 361 286 361
c177 0 285 -125 285 -361s-108 -361 -285 -361zM349 42c133 0 221 97 221 263v88c0 166 -88 263 -221 263c-134 0 -222 -97 -222 -263v-88c0 -166 88 -263 222 -263z" />
    <glyph glyph-name="multiply" unicode="&#xd7;" 
d="M468 100l-168 170l-168 -170l-35 35l168 170l-168 170l35 35l168 -170l168 170l35 -35l-168 -170l168 -170z" />
    <glyph glyph-name="Oslash" unicode="&#xd8;" horiz-adv-x="697" 
d="M349 -12c-73 0 -133 21 -179 62l-62 -90l-42 27l69 98c-47 61 -72 149 -72 264c0 236 108 361 286 361c71 0 131 -21 178 -61l62 89l42 -27l-69 -98c47 -61 72 -149 72 -264c0 -236 -108 -361 -285 -361zM127 305c0 -69 15 -126 42 -169l325 466c-37 36 -86 54 -145 54
c-134 0 -222 -97 -222 -263v-88zM570 393c0 70 -15 127 -42 169l-325 -466c37 -36 87 -54 146 -54c133 0 221 97 221 263v88z" />
    <glyph glyph-name="Ugrave" unicode="&#xd9;" horiz-adv-x="668" 
d="M334 760l-109 156l52 26l95 -164zM93 698h60v-431c0 -155 44 -225 181 -225c136 0 181 70 181 225v431h60v-418c0 -205 -64 -292 -243 -292s-239 87 -239 292v418z" />
    <glyph glyph-name="Uacute" unicode="&#xda;" horiz-adv-x="668" 
d="M439 916l-110 -156l-37 18l95 164zM93 698h60v-431c0 -155 44 -225 181 -225c136 0 181 70 181 225v431h60v-418c0 -205 -64 -292 -243 -292s-239 87 -239 292v418z" />
    <glyph glyph-name="Ucircumflex" unicode="&#xdb;" horiz-adv-x="668" 
d="M297 930h70l118 -139l-32 -23l-121 120l-121 -120l-32 23zM93 698h60v-431c0 -155 44 -225 181 -225c136 0 181 70 181 225v431h60v-418c0 -205 -64 -292 -243 -292s-239 87 -239 292v418z" />
    <glyph glyph-name="Udieresis" unicode="&#xdc;" horiz-adv-x="668" 
d="M240 800c-28 0 -40 16 -40 37v10c0 21 12 37 40 37c27 0 39 -16 39 -37v-10c0 -21 -12 -37 -39 -37zM424 800c-27 0 -39 16 -39 37v10c0 21 12 37 39 37c28 0 40 -16 40 -37v-10c0 -21 -12 -37 -40 -37zM93 698h60v-431c0 -155 44 -225 181 -225c136 0 181 70 181 225
v431h60v-418c0 -205 -64 -292 -243 -292s-239 87 -239 292v418z" />
    <glyph glyph-name="Yacute" unicode="&#xdd;" horiz-adv-x="575" 
d="M394 916l-110 -156l-37 18l95 164zM317 0h-60v283l-241 415h68l202 -352h3l202 352h68l-242 -412v-286z" />
    <glyph glyph-name="Thorn" unicode="&#xde;" horiz-adv-x="601" 
d="M159 0h-60v698h60v-149h214c121 0 187 -76 187 -195s-66 -195 -187 -195h-214v-159zM159 496v-284h214c80 0 123 50 123 119v46c0 69 -43 119 -123 119h-214z" />
    <glyph glyph-name="germandbls" unicode="&#xdf;" horiz-adv-x="642" 
d="M606 140c0 -95 -66 -152 -173 -152c-82 0 -140 29 -183 88l40 33c40 -51 84 -72 146 -72c74 0 115 35 115 97c0 53 -24 81 -85 95l-36 8c-79 19 -137 50 -137 139c0 91 75 139 188 140v9c0 116 -51 178 -152 178s-151 -62 -151 -178v-525h-57v462h-88v50h88v9
c0 140 75 231 208 231c132 0 208 -91 208 -231v-50h-35c-93 0 -154 -27 -154 -92c0 -56 31 -76 90 -91l35 -8c89 -22 133 -60 133 -140z" />
    <glyph glyph-name="agrave" unicode="&#xe0;" horiz-adv-x="528" 
d="M253 586l-109 156l52 26l95 -164zM503 0h-58c-44 0 -62 25 -65 63v18h-5c-23 -57 -75 -93 -155 -93c-107 0 -169 56 -169 151c0 91 60 148 208 148h118v60c0 84 -44 127 -131 127c-68 0 -112 -30 -140 -83l-36 30c28 59 85 103 178 103c119 0 186 -63 186 -171v-303h69
v-50zM228 37c83 0 149 43 149 112v95h-120c-102 0 -146 -35 -146 -92v-24c0 -59 47 -91 117 -91z" />
    <glyph glyph-name="aacute" unicode="&#xe1;" horiz-adv-x="528" 
d="M358 742l-110 -156l-37 18l95 164zM503 0h-58c-44 0 -62 25 -65 63v18h-5c-23 -57 -75 -93 -155 -93c-107 0 -169 56 -169 151c0 91 60 148 208 148h118v60c0 84 -44 127 -131 127c-68 0 -112 -30 -140 -83l-36 30c28 59 85 103 178 103c119 0 186 -63 186 -171v-303h69
v-50zM228 37c83 0 149 43 149 112v95h-120c-102 0 -146 -35 -146 -92v-24c0 -59 47 -91 117 -91z" />
    <glyph glyph-name="acircumflex" unicode="&#xe2;" horiz-adv-x="528" 
d="M216 756h70l118 -139l-32 -23l-121 121l-121 -121l-32 23zM503 0h-58c-44 0 -62 25 -65 63v18h-5c-23 -57 -75 -93 -155 -93c-107 0 -169 56 -169 151c0 91 60 148 208 148h118v60c0 84 -44 127 -131 127c-68 0 -112 -30 -140 -83l-36 30c28 59 85 103 178 103
c119 0 186 -63 186 -171v-303h69v-50zM228 37c83 0 149 43 149 112v95h-120c-102 0 -146 -35 -146 -92v-24c0 -59 47 -91 117 -91z" />
    <glyph glyph-name="atilde" unicode="&#xe3;" horiz-adv-x="528" 
d="M323 618c-30 0 -53 12 -79 28c-30 18 -50 25 -68 25c-23 0 -40 -11 -61 -30l-25 29c21 27 50 48 89 48c30 0 53 -12 79 -28c30 -18 50 -25 68 -25c23 0 40 11 61 30l25 -29c-21 -27 -50 -48 -89 -48zM503 0h-58c-44 0 -62 25 -65 63v18h-5c-23 -57 -75 -93 -155 -93
c-107 0 -169 56 -169 151c0 91 60 148 208 148h118v60c0 84 -44 127 -131 127c-68 0 -112 -30 -140 -83l-36 30c28 59 85 103 178 103c119 0 186 -63 186 -171v-303h69v-50zM228 37c83 0 149 43 149 112v95h-120c-102 0 -146 -35 -146 -92v-24c0 -59 47 -91 117 -91z" />
    <glyph glyph-name="adieresis" unicode="&#xe4;" horiz-adv-x="528" 
d="M159 627c-28 0 -39 15 -39 36v10c0 21 11 36 39 36c27 0 39 -15 39 -36v-10c0 -21 -12 -36 -39 -36zM343 627c-27 0 -39 15 -39 36v10c0 21 12 36 39 36c28 0 39 -15 39 -36v-10c0 -21 -11 -36 -39 -36zM503 0h-58c-44 0 -62 25 -65 63v18h-5c-23 -57 -75 -93 -155 -93
c-107 0 -169 56 -169 151c0 91 60 148 208 148h118v60c0 84 -44 127 -131 127c-68 0 -112 -30 -140 -83l-36 30c28 59 85 103 178 103c119 0 186 -63 186 -171v-303h69v-50zM228 37c83 0 149 43 149 112v95h-120c-102 0 -146 -35 -146 -92v-24c0 -59 47 -91 117 -91z" />
    <glyph glyph-name="aring" unicode="&#xe5;" horiz-adv-x="528" 
d="M251 581c-61 0 -106 44 -106 106c0 61 45 105 106 105s106 -44 106 -105c0 -62 -45 -106 -106 -106zM251 618c39 0 63 23 63 60v17c0 38 -24 60 -63 60s-63 -22 -63 -60v-17c0 -37 24 -60 63 -60zM503 0h-58c-44 0 -62 25 -65 63v18h-5c-23 -57 -75 -93 -155 -93
c-107 0 -169 56 -169 151c0 91 60 148 208 148h118v60c0 84 -44 127 -131 127c-68 0 -112 -30 -140 -83l-36 30c28 59 85 103 178 103c119 0 186 -63 186 -171v-303h69v-50zM228 37c83 0 149 43 149 112v95h-120c-102 0 -146 -35 -146 -92v-24c0 -59 47 -91 117 -91z" />
    <glyph glyph-name="ae" unicode="&#xe6;" horiz-adv-x="863" 
d="M375 245h-120c-102 -1 -146 -36 -146 -93v-24c0 -59 46 -91 117 -91c82 0 149 43 149 112v96zM432 289h317v8c0 108 -62 179 -154 179c-99 0 -163 -74 -163 -182v-5zM599 38c74 0 126 35 155 102l42 -27c-32 -76 -102 -125 -194 -125c-103 0 -173 60 -192 123h-4
c-13 -62 -83 -123 -189 -123c-104 0 -168 56 -168 149s62 152 208 152h118v58c0 85 -45 128 -129 128c-70 0 -113 -29 -142 -84l-36 30c28 58 85 103 179 103c110 0 152 -65 162 -123h4c20 62 88 123 187 123c128 0 211 -102 211 -252v-27h-379v-25c0 -107 62 -182 167 -182
z" />
    <glyph glyph-name="ccedilla" unicode="&#xe7;" horiz-adv-x="496" 
d="M273 524c94 0 152 -46 182 -112l-48 -25c-24 55 -67 86 -134 86c-104 0 -160 -73 -160 -181v-72c0 -108 56 -181 160 -181c70 0 118 32 147 89l42 -28c-31 -63 -87 -107 -172 -111l-12 -55l2 -2c12 3 25 5 36 5c39 0 68 -23 68 -64c0 -49 -44 -78 -100 -78
c-48 0 -79 19 -92 37l28 31c13 -16 34 -28 64 -28c29 0 51 13 51 39c0 21 -14 37 -66 43l-31 3l14 69c-128 9 -200 107 -200 267c0 169 81 268 221 268z" />
    <glyph glyph-name="egrave" unicode="&#xe8;" horiz-adv-x="543" 
d="M277 586l-109 156l52 26l95 -164zM276 -12c-137 0 -224 100 -224 268s87 268 223 268c131 0 216 -102 216 -252v-27h-379v-25c0 -107 62 -182 167 -182c73 0 127 36 155 103l42 -28c-32 -75 -103 -125 -200 -125zM275 476c-99 0 -163 -74 -163 -182v-5h317v8
c0 108 -62 179 -154 179z" />
    <glyph glyph-name="eacute" unicode="&#xe9;" horiz-adv-x="543" 
d="M382 742l-110 -156l-37 18l95 164zM276 -12c-137 0 -224 100 -224 268s87 268 223 268c131 0 216 -102 216 -252v-27h-379v-25c0 -107 62 -182 167 -182c73 0 127 36 155 103l42 -28c-32 -75 -103 -125 -200 -125zM275 476c-99 0 -163 -74 -163 -182v-5h317v8
c0 108 -62 179 -154 179z" />
    <glyph glyph-name="ecircumflex" unicode="&#xea;" horiz-adv-x="543" 
d="M240 756h70l118 -139l-32 -23l-121 121l-121 -121l-32 23zM276 -12c-137 0 -224 100 -224 268s87 268 223 268c131 0 216 -102 216 -252v-27h-379v-25c0 -107 62 -182 167 -182c73 0 127 36 155 103l42 -28c-32 -75 -103 -125 -200 -125zM275 476
c-99 0 -163 -74 -163 -182v-5h317v8c0 108 -62 179 -154 179z" />
    <glyph glyph-name="edieresis" unicode="&#xeb;" horiz-adv-x="543" 
d="M183 627c-28 0 -39 15 -39 36v10c0 21 11 36 39 36c27 0 39 -15 39 -36v-10c0 -21 -12 -36 -39 -36zM367 627c-27 0 -39 15 -39 36v10c0 21 12 36 39 36c28 0 39 -15 39 -36v-10c0 -21 -11 -36 -39 -36zM276 -12c-137 0 -224 100 -224 268s87 268 223 268
c131 0 216 -102 216 -252v-27h-379v-25c0 -107 62 -182 167 -182c73 0 127 36 155 103l42 -28c-32 -75 -103 -125 -200 -125zM275 476c-99 0 -163 -74 -163 -182v-5h317v8c0 108 -62 179 -154 179z" />
    <glyph glyph-name="igrave" unicode="&#xec;" horiz-adv-x="243" 
d="M123 586l-109 156l52 26l95 -164zM150 0h-57v512h57v-512z" />
    <glyph glyph-name="iacute" unicode="&#xed;" horiz-adv-x="243" 
d="M228 742l-110 -156l-37 18l95 164zM150 0h-57v512h57v-512z" />
    <glyph glyph-name="icircumflex" unicode="&#xee;" horiz-adv-x="243" 
d="M86 756h70l118 -139l-32 -23l-121 121l-121 -121l-32 23zM150 0h-57v512h57v-512z" />
    <glyph glyph-name="idieresis" unicode="&#xef;" horiz-adv-x="243" 
d="M29 627c-28 0 -39 15 -39 36v10c0 21 11 36 39 36c27 0 39 -15 39 -36v-10c0 -21 -12 -36 -39 -36zM213 627c-27 0 -39 15 -39 36v10c0 21 12 36 39 36c28 0 39 -15 39 -36v-10c0 -21 -11 -36 -39 -36zM150 0h-57v512h57v-512z" />
    <glyph glyph-name="eth" unicode="&#xf0;" horiz-adv-x="551" 
d="M389 753l24 -31l-90 -64c88 -86 172 -222 172 -396c0 -178 -91 -274 -221 -274c-135 0 -222 102 -222 259c0 155 87 255 222 255c66 0 117 -30 143 -88l4 2c-23 83 -77 153 -139 213l-90 -65l-23 31l84 60c-37 30 -81 61 -124 85h89c24 -14 48 -32 75 -56zM274 37
c95 0 160 69 160 178v60c0 109 -65 178 -160 178s-160 -68 -160 -178v-60c0 -109 65 -178 160 -178z" />
    <glyph glyph-name="ntilde" unicode="&#xf1;" horiz-adv-x="563" 
d="M358 618c-30 0 -53 12 -79 28c-30 18 -50 25 -68 25c-23 0 -40 -11 -61 -30l-25 29c21 27 50 48 89 48c30 0 53 -12 79 -28c30 -18 50 -25 68 -25c23 0 40 11 61 30l25 -29c-21 -27 -50 -48 -89 -48zM150 0h-57v512h57v-81h3c23 53 69 93 151 93c109 0 173 -70 173 -195
v-329h-57v319c0 104 -46 154 -131 154c-72 0 -139 -37 -139 -113v-360z" />
    <glyph glyph-name="ograve" unicode="&#xf2;" horiz-adv-x="550" 
d="M277 586l-109 156l52 26l95 -164zM275 -12c-135 0 -223 100 -223 268s88 268 223 268s223 -100 223 -268s-88 -268 -223 -268zM275 39c99 0 162 65 162 185v64c0 119 -63 185 -162 185s-162 -65 -162 -185v-64c0 -119 63 -185 162 -185z" />
    <glyph glyph-name="oacute" unicode="&#xf3;" horiz-adv-x="550" 
d="M382 742l-110 -156l-37 18l95 164zM275 -12c-135 0 -223 100 -223 268s88 268 223 268s223 -100 223 -268s-88 -268 -223 -268zM275 39c99 0 162 65 162 185v64c0 119 -63 185 -162 185s-162 -65 -162 -185v-64c0 -119 63 -185 162 -185z" />
    <glyph glyph-name="ocircumflex" unicode="&#xf4;" horiz-adv-x="550" 
d="M240 756h70l118 -139l-32 -23l-121 121l-121 -121l-32 23zM275 -12c-135 0 -223 100 -223 268s88 268 223 268s223 -100 223 -268s-88 -268 -223 -268zM275 39c99 0 162 65 162 185v64c0 119 -63 185 -162 185s-162 -65 -162 -185v-64c0 -119 63 -185 162 -185z" />
    <glyph glyph-name="otilde" unicode="&#xf5;" horiz-adv-x="550" 
d="M347 618c-30 0 -53 12 -79 28c-30 18 -50 25 -68 25c-23 0 -40 -11 -61 -30l-25 29c21 27 50 48 89 48c30 0 53 -12 79 -28c30 -18 50 -25 68 -25c23 0 40 11 61 30l25 -29c-21 -27 -50 -48 -89 -48zM275 -12c-135 0 -223 100 -223 268s88 268 223 268s223 -100 223 -268
s-88 -268 -223 -268zM275 39c99 0 162 65 162 185v64c0 119 -63 185 -162 185s-162 -65 -162 -185v-64c0 -119 63 -185 162 -185z" />
    <glyph glyph-name="odieresis" unicode="&#xf6;" horiz-adv-x="550" 
d="M183 627c-28 0 -39 15 -39 36v10c0 21 11 36 39 36c27 0 39 -15 39 -36v-10c0 -21 -12 -36 -39 -36zM367 627c-27 0 -39 15 -39 36v10c0 21 12 36 39 36c28 0 39 -15 39 -36v-10c0 -21 -11 -36 -39 -36zM275 -12c-135 0 -223 100 -223 268s88 268 223 268
s223 -100 223 -268s-88 -268 -223 -268zM275 39c99 0 162 65 162 185v64c0 119 -63 185 -162 185s-162 -65 -162 -185v-64c0 -119 63 -185 162 -185z" />
    <glyph glyph-name="divide" unicode="&#xf7;" 
d="M535 281h-470v49h470v-49zM300 63c-37 0 -51 17 -51 40v17c0 23 14 39 51 39s51 -16 51 -39v-17c0 -23 -14 -40 -51 -40zM300 451c-37 0 -51 17 -51 40v16c0 23 14 40 51 40s51 -17 51 -40v-16c0 -23 -14 -40 -51 -40z" />
    <glyph glyph-name="oslash" unicode="&#xf8;" horiz-adv-x="556" 
d="M69 -35l-33 25l68 84c-31 45 -49 107 -49 182c0 168 88 268 223 268c59 0 108 -19 146 -54l65 81l32 -25l-70 -87c32 -45 50 -107 50 -183c0 -168 -88 -268 -223 -268c-59 0 -109 19 -147 55zM278 39c99 0 162 65 162 185v64c0 43 -8 80 -24 108l-252 -313
c28 -29 67 -44 114 -44zM116 224c0 -42 8 -78 23 -107l252 313c-27 28 -66 43 -113 43c-99 0 -162 -65 -162 -185v-64z" />
    <glyph glyph-name="ugrave" unicode="&#xf9;" horiz-adv-x="563" 
d="M280 586l-109 156l52 26l95 -164zM413 0v81h-4c-19 -48 -61 -93 -149 -93c-109 0 -174 70 -174 195v329h57v-318c0 -105 47 -155 132 -155c71 0 138 37 138 114v359h57v-512h-57z" />
    <glyph glyph-name="uacute" unicode="&#xfa;" horiz-adv-x="563" 
d="M385 742l-110 -156l-37 18l95 164zM413 0v81h-4c-19 -48 -61 -93 -149 -93c-109 0 -174 70 -174 195v329h57v-318c0 -105 47 -155 132 -155c71 0 138 37 138 114v359h57v-512h-57z" />
    <glyph glyph-name="ucircumflex" unicode="&#xfb;" horiz-adv-x="563" 
d="M243 756h70l118 -139l-32 -23l-121 121l-121 -121l-32 23zM413 0v81h-4c-19 -48 -61 -93 -149 -93c-109 0 -174 70 -174 195v329h57v-318c0 -105 47 -155 132 -155c71 0 138 37 138 114v359h57v-512h-57z" />
    <glyph glyph-name="udieresis" unicode="&#xfc;" horiz-adv-x="563" 
d="M186 627c-28 0 -39 15 -39 36v10c0 21 11 36 39 36c27 0 39 -15 39 -36v-10c0 -21 -12 -36 -39 -36zM370 627c-27 0 -39 15 -39 36v10c0 21 12 36 39 36c28 0 39 -15 39 -36v-10c0 -21 -11 -36 -39 -36zM413 0v81h-4c-19 -48 -61 -93 -149 -93c-109 0 -174 70 -174 195
v329h57v-318c0 -105 47 -155 132 -155c71 0 138 37 138 114v359h57v-512h-57z" />
    <glyph glyph-name="yacute" unicode="&#xfd;" horiz-adv-x="481" 
d="M348 742l-110 -156l-37 18l95 164zM243 61l156 451h58l-237 -656c-16 -43 -33 -56 -85 -56h-58v50h86l49 135l-190 527h60l157 -451h4z" />
    <glyph glyph-name="thorn" unicode="&#xfe;" horiz-adv-x="574" 
d="M93 -200v940h57v-310h3c25 57 78 94 156 94c131 0 211 -99 211 -268s-80 -268 -211 -268c-78 0 -128 37 -156 94h-3v-282h-57zM296 39c102 0 163 71 163 181v72c0 110 -61 181 -163 181c-79 0 -146 -47 -146 -114v-203c0 -72 67 -117 146 -117z" />
    <glyph glyph-name="ydieresis" unicode="&#xff;" horiz-adv-x="481" 
d="M149 627c-28 0 -39 15 -39 36v10c0 21 11 36 39 36c27 0 39 -15 39 -36v-10c0 -21 -12 -36 -39 -36zM333 627c-27 0 -39 15 -39 36v10c0 21 12 36 39 36c28 0 39 -15 39 -36v-10c0 -21 -11 -36 -39 -36zM243 61l156 451h58l-237 -656c-16 -43 -33 -56 -85 -56h-58v50h86
l49 135l-190 527h60l157 -451h4z" />
    <glyph glyph-name="Amacron" unicode="&#x100;" horiz-adv-x="625" 
d="M177 819v49h272v-49h-272zM599 0h-63l-76 217h-297l-76 -217h-60l247 698h77zM444 269l-131 372h-4l-131 -372h266z" />
    <glyph glyph-name="amacron" unicode="&#x101;" horiz-adv-x="528" 
d="M115 645v49h272v-49h-272zM503 0h-58c-44 0 -62 25 -65 63v18h-5c-23 -57 -75 -93 -155 -93c-107 0 -169 56 -169 151c0 91 60 148 208 148h118v60c0 84 -44 127 -131 127c-68 0 -112 -30 -140 -83l-36 30c28 59 85 103 178 103c119 0 186 -63 186 -171v-303h69v-50z
M228 37c83 0 149 43 149 112v95h-120c-102 0 -146 -35 -146 -92v-24c0 -59 47 -91 117 -91z" />
    <glyph glyph-name="Abreve" unicode="&#x102;" horiz-adv-x="625" 
d="M313 774c-92 0 -119 60 -144 122l33 16l19 -31c25 -42 44 -61 92 -61s67 19 92 61l19 31l33 -16c-25 -62 -52 -122 -144 -122zM599 0h-63l-76 217h-297l-76 -217h-60l247 698h77zM444 269l-131 372h-4l-131 -372h266z" />
    <glyph glyph-name="abreve" unicode="&#x103;" horiz-adv-x="528" 
d="M251 600c-92 0 -119 60 -144 122l33 16l19 -31c25 -42 44 -61 92 -61s67 19 92 61l19 31l33 -16c-25 -62 -52 -122 -144 -122zM503 0h-58c-44 0 -62 25 -65 63v18h-5c-23 -57 -75 -93 -155 -93c-107 0 -169 56 -169 151c0 91 60 148 208 148h118v60
c0 84 -44 127 -131 127c-68 0 -112 -30 -140 -83l-36 30c28 59 85 103 178 103c119 0 186 -63 186 -171v-303h69v-50zM228 37c83 0 149 43 149 112v95h-120c-102 0 -146 -35 -146 -92v-24c0 -59 47 -91 117 -91z" />
    <glyph glyph-name="Aogonek" unicode="&#x104;" horiz-adv-x="625" 
d="M27 0l247 698h77l248 -698c-80 -66 -103 -94 -103 -127c0 -27 17 -38 42 -38c24 0 42 10 53 24l30 -28c-13 -20 -41 -36 -83 -36c-50 0 -89 24 -89 73c0 47 38 87 104 130l-1 2h-16l-76 217h-297l-76 -217h-60zM445 269l-132 372h-4l-131 -372h267z" />
    <glyph glyph-name="aogonek" unicode="&#x105;" horiz-adv-x="527" 
d="M521 -169c-12 -20 -41 -36 -83 -36c-49 0 -89 22 -89 71c0 46 38 87 107 132l-1 2h-12c-39 0 -63 28 -63 66v15h-5c-23 -57 -75 -93 -155 -93c-107 0 -169 56 -169 151c0 91 60 148 208 148h118v60c0 84 -44 126 -131 126c-68 0 -112 -29 -140 -82l-36 30
c28 59 85 103 178 103c119 0 186 -63 186 -171v-303h69v-50c-83 -67 -107 -94 -107 -127c0 -27 18 -38 42 -38s42 10 53 24zM228 37c83 0 149 43 149 112v95h-120c-102 0 -146 -35 -146 -92v-24c0 -59 47 -91 117 -91z" />
    <glyph glyph-name="Cacute" unicode="&#x106;" horiz-adv-x="617" 
d="M441 916l-110 -156l-37 18l95 164zM335 -12c-172 0 -272 123 -272 359c0 235 100 363 272 363c111 0 189 -57 231 -149l-49 -29c-31 76 -94 124 -182 124c-130 0 -208 -98 -208 -270v-79c0 -171 78 -265 208 -265c93 0 157 51 187 131l49 -29
c-41 -95 -123 -156 -236 -156z" />
    <glyph glyph-name="cacute" unicode="&#x107;" horiz-adv-x="497" 
d="M381 742l-110 -156l-37 18l95 164zM273 -12c-140 0 -221 99 -221 268s81 268 221 268c94 0 152 -46 182 -113l-48 -24c-24 55 -67 86 -134 86c-104 0 -160 -73 -160 -181v-72c0 -108 56 -181 160 -181c70 0 118 32 147 89l42 -28c-33 -68 -95 -112 -189 -112z" />
    <glyph glyph-name="Ccircumflex" unicode="&#x108;" horiz-adv-x="617" 
d="M299 930h70l118 -139l-32 -23l-121 120l-121 -120l-32 23zM335 -12c-172 0 -272 123 -272 359c0 235 100 363 272 363c111 0 189 -57 231 -149l-49 -29c-31 76 -94 124 -182 124c-130 0 -208 -98 -208 -270v-79c0 -171 78 -265 208 -265c93 0 157 51 187 131l49 -29
c-41 -95 -123 -156 -236 -156z" />
    <glyph glyph-name="ccircumflex" unicode="&#x109;" horiz-adv-x="497" 
d="M239 756h70l118 -139l-32 -23l-121 121l-121 -121l-32 23zM273 -12c-140 0 -221 99 -221 268s81 268 221 268c94 0 152 -46 182 -113l-48 -24c-24 55 -67 86 -134 86c-104 0 -160 -73 -160 -181v-72c0 -108 56 -181 160 -181c70 0 118 32 147 89l42 -28
c-33 -68 -95 -112 -189 -112z" />
    <glyph glyph-name="Cdotaccent" unicode="&#x10a;" horiz-adv-x="617" 
d="M334 796c-30 0 -43 17 -43 41v11c0 24 13 41 43 41s43 -17 43 -41v-11c0 -24 -13 -41 -43 -41zM335 -12c-172 0 -272 123 -272 359c0 235 100 363 272 363c111 0 189 -57 231 -149l-49 -29c-31 76 -94 124 -182 124c-130 0 -208 -98 -208 -270v-79
c0 -171 78 -265 208 -265c93 0 157 51 187 131l49 -29c-41 -95 -123 -156 -236 -156z" />
    <glyph glyph-name="cdotaccent" unicode="&#x10b;" horiz-adv-x="497" 
d="M274 626c-27 0 -40 15 -40 36v10c0 21 13 36 40 36s40 -15 40 -36v-10c0 -21 -13 -36 -40 -36zM273 -12c-140 0 -221 99 -221 268s81 268 221 268c94 0 152 -46 182 -113l-48 -24c-24 55 -67 86 -134 86c-104 0 -160 -73 -160 -181v-72c0 -108 56 -181 160 -181
c70 0 118 32 147 89l42 -28c-33 -68 -95 -112 -189 -112z" />
    <glyph glyph-name="Ccaron" unicode="&#x10c;" horiz-adv-x="617" 
d="M369 774h-70l-118 140l32 23l121 -121l121 121l32 -23zM335 -12c-172 0 -272 123 -272 359c0 235 100 363 272 363c111 0 189 -57 231 -149l-49 -29c-31 76 -94 124 -182 124c-130 0 -208 -98 -208 -270v-79c0 -171 78 -265 208 -265c93 0 157 51 187 131l49 -29
c-41 -95 -123 -156 -236 -156z" />
    <glyph glyph-name="ccaron" unicode="&#x10d;" horiz-adv-x="497" 
d="M309 601h-70l-118 139l32 23l121 -121l121 121l32 -23zM273 -12c-140 0 -221 99 -221 268s81 268 221 268c94 0 152 -46 182 -113l-48 -24c-24 55 -67 86 -134 86c-104 0 -160 -73 -160 -181v-72c0 -108 56 -181 160 -181c70 0 118 32 147 89l42 -28
c-33 -68 -95 -112 -189 -112z" />
    <glyph glyph-name="Dcaron" unicode="&#x10e;" horiz-adv-x="666" 
d="M339 774h-70l-118 140l32 23l121 -121l121 121l32 -23zM99 0v698h222c179 0 282 -117 282 -349s-103 -349 -282 -349h-222zM159 53h163c137 0 217 95 217 250v92c0 155 -80 250 -217 250h-163v-592z" />
    <glyph glyph-name="dcaron" unicode="&#x10f;" horiz-adv-x="574" 
d="M632 740l-41 -181h-39l14 181h66zM424 0v82h-3c-27 -57 -78 -94 -156 -94c-131 0 -211 99 -211 268s80 268 211 268c78 0 131 -37 156 -94h3v310h57v-740h-57zM278 39c79 0 146 45 146 117v203c0 67 -67 114 -146 114c-102 0 -163 -71 -163 -181v-72
c0 -110 61 -181 163 -181z" />
    <glyph glyph-name="Dcroat" unicode="&#x110;" horiz-adv-x="669" 
d="M102 0v346h-81v46h81v306h222c179 0 282 -117 282 -349s-103 -349 -282 -349h-222zM162 53h163c137 0 217 95 217 250v92c0 155 -80 250 -217 250h-163v-253h150v-46h-150v-293z" />
    <glyph glyph-name="dcroat" unicode="&#x111;" horiz-adv-x="577" 
d="M424 0v82h-3c-27 -57 -78 -94 -156 -94c-131 0 -211 99 -211 268s80 268 211 268c78 0 131 -37 156 -94h3v186h-155v45h155v79h57v-79h65v-45h-65v-616h-57zM278 39c79 0 146 45 146 117v203c0 67 -67 114 -146 114c-102 0 -163 -71 -163 -181v-72
c0 -110 61 -181 163 -181z" />
    <glyph glyph-name="Emacron" unicode="&#x112;" horiz-adv-x="574" 
d="M166 819v49h272v-49h-272zM507 0h-408v698h408v-53h-348v-264h331v-53h-331v-275h348v-53z" />
    <glyph glyph-name="emacron" unicode="&#x113;" horiz-adv-x="543" 
d="M139 645v49h272v-49h-272zM276 -12c-137 0 -224 100 -224 268s87 268 223 268c131 0 216 -102 216 -252v-27h-379v-25c0 -107 62 -182 167 -182c73 0 127 36 155 103l42 -28c-32 -75 -103 -125 -200 -125zM275 476c-99 0 -163 -74 -163 -182v-5h317v8
c0 108 -62 179 -154 179z" />
    <glyph glyph-name="Ebreve" unicode="&#x114;" horiz-adv-x="574" 
d="M302 774c-92 0 -119 60 -144 122l33 16l19 -31c25 -42 44 -61 92 -61s67 19 92 61l19 31l33 -16c-25 -62 -52 -122 -144 -122zM507 0h-408v698h408v-53h-348v-264h331v-53h-331v-275h348v-53z" />
    <glyph glyph-name="ebreve" unicode="&#x115;" horiz-adv-x="543" 
d="M275 600c-92 0 -119 60 -144 122l33 16l19 -31c25 -42 44 -61 92 -61s67 19 92 61l19 31l33 -16c-25 -62 -52 -122 -144 -122zM276 -12c-137 0 -224 100 -224 268s87 268 223 268c131 0 216 -102 216 -252v-27h-379v-25c0 -107 62 -182 167 -182c73 0 127 36 155 103
l42 -28c-32 -75 -103 -125 -200 -125zM275 476c-99 0 -163 -74 -163 -182v-5h317v8c0 108 -62 179 -154 179z" />
    <glyph glyph-name="Edotaccent" unicode="&#x116;" horiz-adv-x="574" 
d="M302 796c-30 0 -43 17 -43 41v11c0 24 13 41 43 41s43 -17 43 -41v-11c0 -24 -13 -41 -43 -41zM507 0h-408v698h408v-53h-348v-264h331v-53h-331v-275h348v-53z" />
    <glyph glyph-name="edotaccent" unicode="&#x117;" horiz-adv-x="543" 
d="M275 626c-27 0 -40 15 -40 36v10c0 21 13 36 40 36s40 -15 40 -36v-10c0 -21 -13 -36 -40 -36zM276 -12c-137 0 -224 100 -224 268s87 268 223 268c131 0 216 -102 216 -252v-27h-379v-25c0 -107 62 -182 167 -182c73 0 127 36 155 103l42 -28
c-32 -75 -103 -125 -200 -125zM275 476c-99 0 -163 -74 -163 -182v-5h317v8c0 108 -62 179 -154 179z" />
    <glyph glyph-name="Eogonek" unicode="&#x118;" horiz-adv-x="574" 
d="M99 0v698h408v-53h-348v-264h331v-53h-331v-275h348v-53c-82 -67 -106 -94 -106 -127c0 -27 17 -38 42 -38c24 0 41 10 53 24l30 -28c-13 -20 -41 -36 -83 -36c-50 0 -89 23 -89 72c0 46 37 88 105 131l-1 2h-359z" />
    <glyph glyph-name="eogonek" unicode="&#x119;" horiz-adv-x="543" 
d="M339 -205c-49 0 -88 23 -88 74c0 50 39 91 98 128l-3 4c-17 -7 -39 -13 -70 -13c-137 0 -224 100 -224 268s87 268 223 268c131 0 216 -102 216 -252v-27h-379v-25c0 -107 62 -182 167 -182c73 0 127 36 155 103l42 -28c-14 -32 -31 -55 -55 -75
c-56 -51 -123 -105 -123 -163c0 -29 17 -40 42 -40c24 0 42 10 53 24l29 -28c-12 -20 -40 -36 -83 -36zM112 289h317v8c0 108 -62 179 -154 179c-99 0 -163 -74 -163 -182v-5z" />
    <glyph glyph-name="Ecaron" unicode="&#x11a;" horiz-adv-x="574" 
d="M337 774h-70l-118 140l32 23l121 -121l121 121l32 -23zM507 0h-408v698h408v-53h-348v-264h331v-53h-331v-275h348v-53z" />
    <glyph glyph-name="ecaron" unicode="&#x11b;" horiz-adv-x="543" 
d="M310 601h-70l-118 139l32 23l121 -121l121 121l32 -23zM276 -12c-137 0 -224 100 -224 268s87 268 223 268c131 0 216 -102 216 -252v-27h-379v-25c0 -107 62 -182 167 -182c73 0 127 36 155 103l42 -28c-32 -75 -103 -125 -200 -125zM275 476c-99 0 -163 -74 -163 -182
v-5h317v8c0 108 -62 179 -154 179z" />
    <glyph glyph-name="Gcircumflex" unicode="&#x11c;" horiz-adv-x="684" 
d="M314 930h70l118 -139l-32 -23l-121 120l-121 -120l-32 23zM553 0v107h-3c-25 -71 -97 -119 -205 -119c-172 0 -282 125 -282 361c0 235 109 361 286 361c119 0 202 -60 244 -149l-49 -29c-34 77 -103 124 -195 124c-135 0 -222 -98 -222 -264v-85
c0 -167 86 -265 227 -265c106 0 196 56 196 170v84h-163v52h222v-348h-56z" />
    <glyph glyph-name="gcircumflex" unicode="&#x11d;" horiz-adv-x="529" 
d="M513 -60c0 -104 -86 -152 -246 -152c-156 0 -221 48 -221 128c0 58 33 92 88 108v8c-32 13 -48 36 -48 70c0 50 38 75 87 88v4c-59 27 -95 82 -95 156c0 103 73 174 186 174c28 0 54 -4 76 -12h163v-46h-100c30 -27 49 -67 49 -116c0 -104 -74 -175 -187 -175
c-18 0 -36 3 -53 6c-44 -12 -76 -32 -76 -66c0 -30 26 -46 82 -46h119c123 0 176 -49 176 -129zM265 221c78 0 126 41 126 113v32c0 70 -48 112 -126 112c-79 0 -126 -42 -126 -112v-32c0 -72 48 -113 126 -113zM458 -64c0 49 -30 80 -121 80h-166c-44 -15 -71 -44 -71 -88
c0 -53 44 -93 133 -93h64c99 0 161 32 161 101zM230 756h70l118 -139l-32 -23l-121 121l-121 -121l-32 23z" />
    <glyph glyph-name="Gbreve" unicode="&#x11e;" horiz-adv-x="684" 
d="M349 774c-92 0 -119 60 -144 122l33 16l19 -31c25 -42 44 -61 92 -61s67 19 92 61l19 31l33 -16c-25 -62 -52 -122 -144 -122zM553 0v107h-3c-25 -71 -97 -119 -205 -119c-172 0 -282 125 -282 361c0 235 109 361 286 361c119 0 202 -60 244 -149l-49 -29
c-34 77 -103 124 -195 124c-135 0 -222 -98 -222 -264v-85c0 -167 86 -265 227 -265c106 0 196 56 196 170v84h-163v52h222v-348h-56z" />
    <glyph glyph-name="gbreve" unicode="&#x11f;" horiz-adv-x="529" 
d="M265 600c-92 0 -119 60 -144 122l33 16l19 -31c25 -42 44 -61 92 -61s67 19 92 61l19 31l33 -16c-25 -62 -52 -122 -144 -122zM513 -60c0 -104 -86 -152 -246 -152c-156 0 -221 48 -221 128c0 58 33 92 88 108v8c-32 13 -48 36 -48 70c0 50 38 75 87 88v4
c-59 27 -95 82 -95 156c0 103 73 174 186 174c28 0 54 -4 76 -12h163v-46h-100c30 -27 49 -67 49 -116c0 -104 -74 -175 -187 -175c-18 0 -36 3 -53 6c-44 -12 -76 -32 -76 -66c0 -30 26 -46 82 -46h119c123 0 176 -49 176 -129zM265 221c78 0 126 41 126 113v32
c0 70 -48 112 -126 112c-79 0 -126 -42 -126 -112v-32c0 -72 48 -113 126 -113zM458 -64c0 49 -30 80 -121 80h-166c-44 -15 -71 -44 -71 -88c0 -53 44 -93 133 -93h64c99 0 161 32 161 101z" />
    <glyph glyph-name="Gdotaccent" unicode="&#x120;" horiz-adv-x="684" 
d="M349 796c-30 0 -43 17 -43 41v11c0 24 13 41 43 41s43 -17 43 -41v-11c0 -24 -13 -41 -43 -41zM553 0v107h-3c-25 -71 -97 -119 -205 -119c-172 0 -282 125 -282 361c0 235 109 361 286 361c119 0 202 -60 244 -149l-49 -29c-34 77 -103 124 -195 124
c-135 0 -222 -98 -222 -264v-85c0 -167 86 -265 227 -265c106 0 196 56 196 170v84h-163v52h222v-348h-56z" />
    <glyph glyph-name="gdotaccent" unicode="&#x121;" horiz-adv-x="529" 
d="M265 626c-27 0 -40 15 -40 36v10c0 21 13 36 40 36s40 -15 40 -36v-10c0 -21 -13 -36 -40 -36zM513 -60c0 -104 -86 -152 -246 -152c-156 0 -221 48 -221 128c0 58 33 92 88 108v8c-32 13 -48 36 -48 70c0 50 38 75 87 88v4c-59 27 -95 82 -95 156c0 103 73 174 186 174
c28 0 54 -4 76 -12h163v-46h-100c30 -27 49 -67 49 -116c0 -104 -74 -175 -187 -175c-18 0 -36 3 -53 6c-44 -12 -76 -32 -76 -66c0 -30 26 -46 82 -46h119c123 0 176 -49 176 -129zM265 221c78 0 126 41 126 113v32c0 70 -48 112 -126 112c-79 0 -126 -42 -126 -112v-32
c0 -72 48 -113 126 -113zM458 -64c0 49 -30 80 -121 80h-166c-44 -15 -71 -44 -71 -88c0 -53 44 -93 133 -93h64c99 0 161 32 161 101z" />
    <glyph glyph-name="Gcommaaccent" unicode="&#x122;" horiz-adv-x="684" 
d="M345 -66c27 0 40 -14 40 -37v-11c0 -42 -24 -89 -54 -118h-42c27 29 42 57 48 85c-22 3 -32 17 -32 35v9c0 23 13 37 40 37zM553 0v107h-3c-25 -71 -97 -119 -205 -119c-172 0 -282 125 -282 361c0 235 109 361 286 361c119 0 202 -60 244 -149l-49 -29
c-34 77 -103 124 -195 124c-135 0 -222 -98 -222 -264v-85c0 -167 86 -265 227 -265c106 0 196 56 196 170v84h-163v52h222v-348h-56z" />
    <glyph glyph-name="gcommaaccent" unicode="&#x123;" horiz-adv-x="529" 
d="M265 597c-26 0 -39 14 -39 37v11c0 42 24 88 54 118h42c-28 -30 -42 -58 -49 -85c23 -3 33 -17 33 -35v-9c0 -23 -14 -37 -41 -37zM513 -60c0 -104 -86 -152 -246 -152c-156 0 -221 48 -221 128c0 58 33 92 88 108v8c-32 13 -48 36 -48 70c0 50 38 75 87 88v4
c-59 27 -95 82 -95 156c0 103 73 174 186 174c28 0 54 -4 76 -12h163v-46h-100c30 -27 49 -67 49 -116c0 -104 -74 -175 -187 -175c-18 0 -36 3 -53 6c-44 -12 -76 -32 -76 -66c0 -30 26 -46 82 -46h119c123 0 176 -49 176 -129zM265 221c78 0 126 41 126 113v32
c0 70 -48 112 -126 112c-79 0 -126 -42 -126 -112v-32c0 -72 48 -113 126 -113zM458 -64c0 49 -30 80 -121 80h-166c-44 -15 -71 -44 -71 -88c0 -53 44 -93 133 -93h64c99 0 161 32 161 101z" />
    <glyph glyph-name="Hcircumflex" unicode="&#x124;" horiz-adv-x="701" 
d="M316 930h70l118 -139l-32 -23l-121 120l-121 -120l-32 23zM542 0v328h-383v-328h-60v698h60v-317h383v317h60v-698h-60z" />
    <glyph glyph-name="hcircumflex" unicode="&#x125;" horiz-adv-x="563" 
d="M87 914h70l118 -139l-32 -23l-121 121l-121 -121l-32 23zM93 0v740h57v-309h3c23 53 69 93 151 93c109 0 173 -70 173 -195v-329h-57v319c0 104 -46 154 -131 154c-72 0 -139 -37 -139 -113v-360h-57z" />
    <glyph glyph-name="Hbar" unicode="&#x126;" horiz-adv-x="707" 
d="M545 0v328h-383v-328h-60v526h-75v46h75v126h60v-126h383v126h60v-126h75v-46h-75v-526h-60zM162 381h383v145h-383v-145z" />
    <glyph glyph-name="hbar" unicode="&#x127;" horiz-adv-x="563" 
d="M150 0h-57v616h-65v45h65v79h57v-79h155v-45h-155v-185h3c22 53 68 93 150 93c109 0 174 -70 174 -195v-329h-57v319c0 104 -47 154 -132 154c-71 0 -138 -37 -138 -113v-360z" />
    <glyph glyph-name="Itilde" unicode="&#x128;" horiz-adv-x="390" 
d="M266 792c-30 0 -53 13 -79 28c-30 17 -50 24 -68 24c-23 0 -40 -10 -61 -29l-25 29c21 27 50 48 89 48c30 0 53 -13 79 -28c30 -17 50 -24 68 -24c23 0 40 10 61 29l25 -29c-21 -27 -50 -48 -89 -48zM327 0h-264v50h102v598h-102v50h264v-50h-102v-598h102v-50z" />
    <glyph glyph-name="itilde" unicode="&#x129;" horiz-adv-x="243" 
d="M193 618c-30 0 -53 12 -79 28c-30 18 -50 25 -68 25c-23 0 -40 -11 -61 -30l-25 29c21 27 50 48 89 48c30 0 53 -12 79 -28c30 -18 50 -25 68 -25c23 0 40 11 61 30l25 -29c-21 -27 -50 -48 -89 -48zM150 0h-57v512h57v-512z" />
    <glyph glyph-name="Imacron" unicode="&#x12a;" horiz-adv-x="390" 
d="M58 819v49h272v-49h-272zM327 0h-264v50h102v598h-102v50h264v-50h-102v-598h102v-50z" />
    <glyph glyph-name="imacron" unicode="&#x12b;" horiz-adv-x="243" 
d="M-15 645v49h272v-49h-272zM150 0h-57v512h57v-512z" />
    <glyph glyph-name="Ibreve" unicode="&#x12c;" horiz-adv-x="390" 
d="M194 774c-92 0 -119 60 -144 122l33 16l19 -31c25 -42 44 -61 92 -61s67 19 92 61l19 31l33 -16c-25 -62 -52 -122 -144 -122zM327 0h-264v50h102v598h-102v50h264v-50h-102v-598h102v-50z" />
    <glyph glyph-name="ibreve" unicode="&#x12d;" horiz-adv-x="243" 
d="M121 600c-92 0 -119 60 -144 122l33 16l19 -31c25 -42 44 -61 92 -61s67 19 92 61l19 31l33 -16c-25 -62 -52 -122 -144 -122zM150 0h-57v512h57v-512z" />
    <glyph glyph-name="Iogonek" unicode="&#x12e;" horiz-adv-x="389" 
d="M63 0v50h102v598h-102v50h263v-50h-102v-598h102v-50c-83 -67 -106 -94 -106 -127c0 -27 17 -38 42 -38c24 0 41 10 52 24l30 -28c-12 -20 -41 -36 -83 -36c-49 0 -88 23 -88 72c0 46 32 85 105 131l-1 2h-214z" />
    <glyph glyph-name="iogonek" unicode="&#x12f;" horiz-adv-x="243" 
d="M93 0v512h57v-512c-75 -69 -95 -94 -95 -126c0 -28 17 -39 42 -39c24 0 42 10 53 24l30 -28c-13 -20 -41 -36 -83 -36c-50 0 -89 24 -89 73s40 86 97 130l-1 2h-11zM121 651c-27 0 -38 15 -38 36v10c0 21 11 36 38 36c28 0 39 -15 39 -36v-10c0 -21 -11 -36 -39 -36z" />
    <glyph glyph-name="Idotaccent" unicode="&#x130;" horiz-adv-x="390" 
d="M194 796c-30 0 -43 17 -43 41v11c0 24 13 41 43 41s43 -17 43 -41v-11c0 -24 -13 -41 -43 -41zM327 0h-264v50h102v598h-102v50h264v-50h-102v-598h102v-50z" />
    <glyph glyph-name="dotlessi" unicode="&#x131;" horiz-adv-x="243" 
d="M150 0h-57v512h57v-512z" />
    <glyph glyph-name="IJ" unicode="&#x132;" horiz-adv-x="640" 
d="M318 698h229v-482c0 -144 -85 -228 -231 -228c-129 0 -199 60 -220 158l54 13c19 -74 68 -117 168 -117c107 0 169 54 169 164v438h-169v54zM93 290v408h60v-408h-60z" />
    <glyph glyph-name="ij" unicode="&#x133;" horiz-adv-x="486" 
d="M336 -150v662h57v-627c0 -52 -25 -85 -80 -85h-62v50h85zM364 651c-27 0 -39 15 -39 36v10c0 21 12 36 39 36s39 -15 39 -36v-10c0 -21 -12 -36 -39 -36zM121 651c-27 0 -39 15 -39 36v10c0 21 12 36 39 36s39 -15 39 -36v-10c0 -21 -12 -36 -39 -36zM93 0v512h57v-512
h-57z" />
    <glyph glyph-name="Jcircumflex" unicode="&#x134;" horiz-adv-x="492" 
d="M216 930h70l118 -139l-32 -23l-121 120l-121 -120l-32 23zM97 698h302v-516c0 -123 -75 -194 -189 -194c-98 0 -166 59 -184 146l53 13c16 -61 59 -106 133 -106c83 0 127 52 127 150v454h-242v53z" />
    <glyph glyph-name="jcircumflex" unicode="&#x135;" horiz-adv-x="243" 
d="M86 756h70l118 -139l-32 -23l-121 121l-121 -121l-32 23zM8 -200v50h85v662h57v-627c0 -52 -25 -85 -80 -85h-62z" />
    <glyph glyph-name="Kcommaaccent" unicode="&#x136;" horiz-adv-x="610" 
d="M327 -66c27 0 40 -14 40 -37v-11c0 -42 -24 -89 -54 -118h-42c27 29 42 57 48 85c-22 3 -32 17 -32 35v9c0 23 13 37 40 37zM515 0l-243 360l-113 -125v-235h-60v698h60v-393h2l112 129l230 264h73l-263 -297l276 -401h-74z" />
    <glyph glyph-name="kcommaaccent" unicode="&#x137;" horiz-adv-x="513" 
d="M283 -66c27 0 40 -14 40 -37v-11c0 -42 -24 -89 -54 -118h-42c27 29 42 57 48 85c-22 3 -32 17 -32 35v9c0 23 13 37 40 37zM93 0v740h57v-489h3l80 85l170 176h70l-201 -208l223 -304h-70l-194 268l-81 -82v-186h-57z" />
    <glyph glyph-name="kgreenlandic" unicode="&#x138;" horiz-adv-x="513" 
d="M425 0l-194 265l-81 -83v-182h-57v512h57v-264h3l81 85l174 179h70l-205 -210l222 -302h-70z" />
    <glyph glyph-name="Lacute" unicode="&#x139;" horiz-adv-x="491" 
d="M236 916l-110 -156l-37 18l95 164zM467 0h-368v698h60v-645h308v-53z" />
    <glyph glyph-name="lacute" unicode="&#x13a;" horiz-adv-x="264" 
d="M228 942l-110 -156l-37 18l95 164zM229 0h-73c-41 0 -63 25 -63 62v678h57v-690h79v-50z" />
    <glyph glyph-name="Lcommaaccent" unicode="&#x13b;" horiz-adv-x="491" 
d="M296 -66c27 0 40 -14 40 -37v-11c0 -42 -24 -89 -54 -118h-42c27 29 42 57 48 85c-22 3 -32 17 -32 35v9c0 23 13 37 40 37zM467 0h-368v698h60v-645h308v-53z" />
    <glyph glyph-name="lcommaaccent" unicode="&#x13c;" horiz-adv-x="264" 
d="M163 -66c27 0 40 -14 40 -37v-11c0 -42 -24 -89 -54 -118h-42c27 29 42 57 48 85c-22 3 -32 17 -32 35v9c0 23 13 37 40 37zM229 0h-73c-41 0 -63 25 -63 62v678h57v-690h79v-50z" />
    <glyph glyph-name="Lcaron" unicode="&#x13d;" horiz-adv-x="491" 
d="M325 740l-41 -181h-39l14 181h66zM467 0h-368v698h60v-645h308v-53z" />
    <glyph glyph-name="lcaron" unicode="&#x13e;" horiz-adv-x="264" 
d="M302 740l-41 -181h-39l14 181h66zM229 0h-73c-41 0 -63 25 -63 62v678h57v-690h79v-50z" />
    <glyph glyph-name="Ldot" unicode="&#x13f;" horiz-adv-x="491" 
d="M375 283c-27 0 -40 15 -40 36v10c0 21 13 36 40 36s40 -15 40 -36v-10c0 -21 -13 -36 -40 -36zM467 0h-368v698h60v-645h308v-53z" />
    <glyph glyph-name="ldot" unicode="&#x140;" horiz-adv-x="326" 
d="M283 247c-27 0 -40 15 -40 36v10c0 21 13 36 40 36s40 -15 40 -36v-10c0 -21 -13 -36 -40 -36zM229 0h-73c-41 0 -63 25 -63 62v678h57v-690h79v-50z" />
    <glyph glyph-name="Lslash" unicode="&#x141;" horiz-adv-x="494" 
d="M470 54v-54h-368v283l-101 -32v48l101 34v365h60v-345l190 62v-51l-190 -61v-249h308z" />
    <glyph glyph-name="lslash" unicode="&#x142;" horiz-adv-x="270" 
d="M232 50v-50h-73c-41 0 -63 25 -63 62v273l-72 -23v49l72 23v356h57v-336l99 32v-49l-99 -33v-304h79z" />
    <glyph glyph-name="Nacute" unicode="&#x143;" horiz-adv-x="701" 
d="M457 916l-110 -156l-37 18l95 164zM527 0l-367 616h-3v-616h-58v698h75l367 -616h3v616h58v-698h-75z" />
    <glyph glyph-name="nacute" unicode="&#x144;" horiz-adv-x="563" 
d="M393 742l-110 -156l-37 18l95 164zM150 0h-57v512h57v-81h3c23 53 69 93 151 93c109 0 173 -70 173 -195v-329h-57v319c0 104 -46 154 -131 154c-72 0 -139 -37 -139 -113v-360z" />
    <glyph glyph-name="Ncommaaccent" unicode="&#x145;" horiz-adv-x="701" 
d="M350 -66c27 0 40 -14 40 -37v-11c0 -42 -24 -89 -54 -118h-42c27 29 42 57 48 85c-22 3 -32 17 -32 35v9c0 23 13 37 40 37zM527 0l-367 616h-3v-616h-58v698h75l367 -616h3v616h58v-698h-75z" />
    <glyph glyph-name="ncommaaccent" unicode="&#x146;" horiz-adv-x="563" 
d="M285 -66c27 0 40 -14 40 -37v-11c0 -42 -24 -89 -54 -118h-42c27 29 42 57 48 85c-22 3 -32 17 -32 35v9c0 23 13 37 40 37zM150 0h-57v512h57v-81h3c23 53 69 93 151 93c109 0 173 -70 173 -195v-329h-57v319c0 104 -46 154 -131 154c-72 0 -139 -37 -139 -113v-360z
" />
    <glyph glyph-name="Ncaron" unicode="&#x147;" horiz-adv-x="701" 
d="M385 774h-70l-118 140l32 23l121 -121l121 121l32 -23zM527 0l-367 616h-3v-616h-58v698h75l367 -616h3v616h58v-698h-75z" />
    <glyph glyph-name="ncaron" unicode="&#x148;" horiz-adv-x="563" 
d="M321 601h-70l-118 139l32 23l121 -121l121 121l32 -23zM150 0h-57v512h57v-81h3c23 53 69 93 151 93c109 0 173 -70 173 -195v-329h-57v319c0 104 -46 154 -131 154c-72 0 -139 -37 -139 -113v-360z" />
    <glyph glyph-name="napostrophe" unicode="&#x149;" horiz-adv-x="823" 
d="M410 0h-57v512h57v-81h3c23 53 69 93 151 93c109 0 173 -70 173 -195v-329h-57v319c0 104 -46 154 -131 154c-72 0 -139 -37 -139 -113v-360zM134 750c33 0 48 -19 48 -46v-13c0 -55 -34 -126 -86 -171h-48c44 45 66 87 74 131c-25 3 -36 20 -36 41v12c0 27 15 46 48 46z
" />
    <glyph glyph-name="Eng" unicode="&#x14a;" horiz-adv-x="701" 
d="M157 0h-58v698h75l367 -616h3v616h58v-810c0 -53 -26 -88 -81 -88h-63v53h86v147h-17l-367 616h-3v-616z" />
    <glyph glyph-name="eng" unicode="&#x14b;" horiz-adv-x="563" 
d="M336 -200v50h84v469c0 104 -46 154 -131 154c-72 0 -139 -37 -139 -113v-360h-57v512h57v-81h3c23 53 69 93 151 93c109 0 173 -70 173 -195v-446c0 -51 -24 -83 -79 -83h-62z" />
    <glyph glyph-name="Omacron" unicode="&#x14c;" horiz-adv-x="697" 
d="M213 819v49h272v-49h-272zM349 -12c-178 0 -286 125 -286 361s108 361 286 361c177 0 285 -125 285 -361s-108 -361 -285 -361zM349 42c133 0 221 97 221 263v88c0 166 -88 263 -221 263c-134 0 -222 -97 -222 -263v-88c0 -166 88 -263 222 -263z" />
    <glyph glyph-name="omacron" unicode="&#x14d;" horiz-adv-x="550" 
d="M139 645v49h272v-49h-272zM275 -12c-135 0 -223 100 -223 268s88 268 223 268s223 -100 223 -268s-88 -268 -223 -268zM275 39c99 0 162 65 162 185v64c0 119 -63 185 -162 185s-162 -65 -162 -185v-64c0 -119 63 -185 162 -185z" />
    <glyph glyph-name="Obreve" unicode="&#x14e;" horiz-adv-x="697" 
d="M349 774c-92 0 -119 60 -144 122l33 16l19 -31c25 -42 44 -61 92 -61s67 19 92 61l19 31l33 -16c-25 -62 -52 -122 -144 -122zM349 -12c-178 0 -286 125 -286 361s108 361 286 361c177 0 285 -125 285 -361s-108 -361 -285 -361zM349 42c133 0 221 97 221 263v88
c0 166 -88 263 -221 263c-134 0 -222 -97 -222 -263v-88c0 -166 88 -263 222 -263z" />
    <glyph glyph-name="obreve" unicode="&#x14f;" horiz-adv-x="550" 
d="M275 600c-92 0 -119 60 -144 122l33 16l19 -31c25 -42 44 -61 92 -61s67 19 92 61l19 31l33 -16c-25 -62 -52 -122 -144 -122zM275 -12c-135 0 -223 100 -223 268s88 268 223 268s223 -100 223 -268s-88 -268 -223 -268zM275 39c99 0 162 65 162 185v64
c0 119 -63 185 -162 185s-162 -65 -162 -185v-64c0 -119 63 -185 162 -185z" />
    <glyph glyph-name="Ohungarumlaut" unicode="&#x150;" horiz-adv-x="697" 
d="M383 917l-110 -157l-35 18l95 163zM543 917l-110 -157l-35 18l95 163zM349 -12c-178 0 -286 125 -286 361s108 361 286 361c177 0 285 -125 285 -361s-108 -361 -285 -361zM349 42c133 0 221 97 221 263v88c0 166 -88 263 -221 263c-134 0 -222 -97 -222 -263v-88
c0 -166 88 -263 222 -263z" />
    <glyph glyph-name="ohungarumlaut" unicode="&#x151;" horiz-adv-x="550" 
d="M309 743l-110 -157l-35 18l95 163zM469 743l-110 -157l-35 18l95 163zM275 -12c-135 0 -223 100 -223 268s88 268 223 268s223 -100 223 -268s-88 -268 -223 -268zM275 39c99 0 162 65 162 185v64c0 119 -63 185 -162 185s-162 -65 -162 -185v-64
c0 -119 63 -185 162 -185z" />
    <glyph glyph-name="OE" unicode="&#x152;" horiz-adv-x="977" 
d="M911 0h-409c-35 -6 -87 -12 -134 -12c-193 0 -305 124 -305 361s112 361 305 361c47 0 99 -6 134 -12h409v-53h-349v-264h332v-53h-332v-275h349v-53zM374 42c46 0 93 6 128 16v582c-35 10 -82 16 -128 16c-162 0 -247 -97 -247 -263v-88c0 -166 85 -263 247 -263z" />
    <glyph glyph-name="oe" unicode="&#x153;" horiz-adv-x="929" 
d="M276 39c98 0 162 66 162 185v64c0 120 -64 185 -162 185c-100 0 -163 -65 -163 -185v-64c0 -119 63 -185 163 -185zM498 289h317v8c0 108 -61 179 -153 179c-100 0 -164 -74 -164 -182v-5zM667 -12c-100 0 -167 50 -196 132h-4c-28 -81 -99 -132 -191 -132
c-136 0 -224 100 -224 268s88 268 224 268c93 0 162 -46 192 -131h4c29 82 96 131 190 131c130 0 215 -102 215 -252v-27h-379v-25c0 -109 61 -182 169 -182c72 0 124 36 153 103l42 -28c-29 -70 -100 -125 -195 -125z" />
    <glyph glyph-name="Racute" unicode="&#x154;" horiz-adv-x="636" 
d="M413 916l-110 -156l-37 18l95 164zM159 309v-309h-60v698h274c119 0 187 -72 187 -194c0 -107 -54 -178 -154 -191l172 -313h-67l-167 309h-185zM159 360h214c80 0 123 50 123 119v48c0 68 -43 118 -123 118h-214v-285z" />
    <glyph glyph-name="racute" unicode="&#x155;" horiz-adv-x="357" 
d="M327 742l-110 -156l-37 18l95 164zM150 0h-57v512h57v-92h4c20 48 65 92 153 92h34v-56h-45c-85 0 -146 -40 -146 -106v-350z" />
    <glyph glyph-name="Rcommaaccent" unicode="&#x156;" horiz-adv-x="636" 
d="M317 -66c27 0 40 -14 40 -37v-11c0 -42 -24 -89 -54 -118h-42c27 29 42 57 48 85c-22 3 -32 17 -32 35v9c0 23 13 37 40 37zM159 309v-309h-60v698h274c119 0 187 -72 187 -194c0 -107 -54 -178 -154 -191l172 -313h-67l-167 309h-185zM159 360h214c80 0 123 50 123 119
v48c0 68 -43 118 -123 118h-214v-285z" />
    <glyph glyph-name="rcommaaccent" unicode="&#x157;" horiz-adv-x="357" 
d="M123 -66c27 0 40 -14 40 -37v-11c0 -42 -24 -89 -54 -118h-42c27 29 42 57 48 85c-22 3 -32 17 -32 35v9c0 23 13 37 40 37zM150 0h-57v512h57v-92h4c20 48 65 92 153 92h34v-56h-45c-85 0 -146 -40 -146 -106v-350z" />
    <glyph glyph-name="Rcaron" unicode="&#x158;" horiz-adv-x="636" 
d="M341 774h-70l-118 140l32 23l121 -121l121 121l32 -23zM159 309v-309h-60v698h274c119 0 187 -72 187 -194c0 -107 -54 -178 -154 -191l172 -313h-67l-167 309h-185zM159 360h214c80 0 123 50 123 119v48c0 68 -43 118 -123 118h-214v-285z" />
    <glyph glyph-name="rcaron" unicode="&#x159;" horiz-adv-x="357" 
d="M255 601h-70l-118 139l32 23l121 -121l121 121l32 -23zM150 0h-57v512h57v-92h4c20 48 65 92 153 92h34v-56h-45c-85 0 -146 -40 -146 -106v-350z" />
    <glyph glyph-name="Sacute" unicode="&#x15a;" horiz-adv-x="568" 
d="M387 916l-110 -156l-37 18l95 164zM284 -12c-114 0 -188 47 -242 119l45 37c49 -65 108 -103 199 -103c108 0 168 54 168 146c0 86 -52 119 -141 138l-62 13c-132 27 -190 90 -190 187c0 122 90 185 224 185c104 0 175 -40 221 -107l-45 -33c-39 55 -95 87 -179 87
c-100 0 -162 -44 -162 -130c0 -83 56 -115 143 -133l62 -13c139 -30 188 -95 188 -191c0 -127 -87 -202 -229 -202z" />
    <glyph glyph-name="sacute" unicode="&#x15b;" horiz-adv-x="477" 
d="M339 742l-110 -156l-37 18l95 164zM238 -12c-89 0 -151 35 -197 98l42 33c42 -55 91 -82 159 -82c78 0 123 35 123 97c0 54 -31 85 -105 96l-42 7c-93 14 -157 51 -157 143c0 96 75 144 174 144c85 0 137 -33 175 -79l-38 -35c-27 32 -69 65 -140 65
c-73 0 -116 -34 -116 -92c0 -59 37 -82 110 -94l41 -6c104 -16 153 -61 153 -143c0 -95 -69 -152 -182 -152z" />
    <glyph glyph-name="Scircumflex" unicode="&#x15c;" horiz-adv-x="568" 
d="M245 930h70l118 -139l-32 -23l-121 120l-121 -120l-32 23zM284 -12c-114 0 -188 47 -242 119l45 37c49 -65 108 -103 199 -103c108 0 168 54 168 146c0 86 -52 119 -141 138l-62 13c-132 27 -190 90 -190 187c0 122 90 185 224 185c104 0 175 -40 221 -107l-45 -33
c-39 55 -95 87 -179 87c-100 0 -162 -44 -162 -130c0 -83 56 -115 143 -133l62 -13c139 -30 188 -95 188 -191c0 -127 -87 -202 -229 -202z" />
    <glyph glyph-name="scircumflex" unicode="&#x15d;" horiz-adv-x="477" 
d="M197 756h70l118 -139l-32 -23l-121 121l-121 -121l-32 23zM238 -12c-89 0 -151 35 -197 98l42 33c42 -55 91 -82 159 -82c78 0 123 35 123 97c0 54 -31 85 -105 96l-42 7c-93 14 -157 51 -157 143c0 96 75 144 174 144c85 0 137 -33 175 -79l-38 -35
c-27 32 -69 65 -140 65c-73 0 -116 -34 -116 -92c0 -59 37 -82 110 -94l41 -6c104 -16 153 -61 153 -143c0 -95 -69 -152 -182 -152z" />
    <glyph glyph-name="Scedilla" unicode="&#x15e;" horiz-adv-x="568" 
d="M282 657c-100 0 -162 -44 -162 -130c0 -83 56 -115 143 -133l62 -13c139 -30 188 -95 188 -191c0 -123 -82 -197 -214 -201l-12 -55l2 -2c12 3 25 5 36 5c39 0 67 -23 67 -64c0 -49 -43 -78 -99 -78c-48 0 -79 19 -92 37l28 31c13 -16 34 -28 64 -28c29 0 50 13 50 39
c0 21 -13 37 -65 43l-31 3l14 69c-101 5 -169 51 -219 118l45 37c49 -65 108 -103 199 -103c108 0 168 54 168 146c0 86 -52 118 -141 138l-62 13c-132 27 -190 90 -190 187c0 122 90 185 224 185c104 0 175 -40 221 -107l-45 -33c-39 55 -95 87 -179 87z" />
    <glyph glyph-name="scedilla" unicode="&#x15f;" horiz-adv-x="477" 
d="M349 -127c0 -49 -43 -78 -99 -78c-48 0 -79 19 -92 37l28 31c13 -16 34 -28 64 -28c29 0 50 13 50 39c0 21 -13 37 -65 43l-31 3l14 69c-78 5 -134 39 -177 97l42 33c42 -55 91 -82 159 -82c78 0 123 35 123 97c0 54 -31 85 -105 96l-42 7c-93 14 -157 51 -157 143
c0 96 75 144 174 144c85 0 137 -33 175 -79l-38 -35c-27 32 -69 65 -140 65c-73 0 -116 -34 -116 -92c0 -59 37 -83 110 -94l41 -6c104 -16 153 -61 153 -143c0 -90 -63 -146 -164 -151l-12 -55l2 -2c12 3 25 5 36 5c39 0 67 -23 67 -64z" />
    <glyph glyph-name="Scaron" unicode="&#x160;" horiz-adv-x="568" 
d="M315 774h-70l-118 140l32 23l121 -121l121 121l32 -23zM284 -12c-114 0 -188 47 -242 119l45 37c49 -65 108 -103 199 -103c108 0 168 54 168 146c0 86 -52 119 -141 138l-62 13c-132 27 -190 90 -190 187c0 122 90 185 224 185c104 0 175 -40 221 -107l-45 -33
c-39 55 -95 87 -179 87c-100 0 -162 -44 -162 -130c0 -83 56 -115 143 -133l62 -13c139 -30 188 -95 188 -191c0 -127 -87 -202 -229 -202z" />
    <glyph glyph-name="scaron" unicode="&#x161;" horiz-adv-x="477" 
d="M267 601h-70l-118 139l32 23l121 -121l121 121l32 -23zM238 -12c-89 0 -151 35 -197 98l42 33c42 -55 91 -82 159 -82c78 0 123 35 123 97c0 54 -31 85 -105 96l-42 7c-93 14 -157 51 -157 143c0 96 75 144 174 144c85 0 137 -33 175 -79l-38 -35c-27 32 -69 65 -140 65
c-73 0 -116 -34 -116 -92c0 -59 37 -82 110 -94l41 -6c104 -16 153 -61 153 -143c0 -95 -69 -152 -182 -152z" />
    <glyph glyph-name="uni0162" unicode="&#x162;" horiz-adv-x="568" 
d="M284 -66c27 0 40 -14 40 -37v-11c0 -42 -24 -89 -54 -118h-42c27 29 42 57 48 85c-22 3 -32 17 -32 35v9c0 23 13 37 40 37zM548 645h-234v-645h-60v645h-234v53h528v-53z" />
    <glyph glyph-name="uni0163" unicode="&#x163;" horiz-adv-x="335" 
d="M204 -66c27 0 40 -14 40 -37v-11c0 -42 -24 -89 -54 -118h-42c27 29 42 57 48 85c-22 3 -32 17 -32 35v9c0 23 13 37 40 37zM283 0h-102c-41 0 -63 25 -63 63v399h-89v50h58c28 0 36 10 36 39v104h52v-143h116v-50h-116v-412h108v-50z" />
    <glyph glyph-name="Tcaron" unicode="&#x164;" horiz-adv-x="568" 
d="M319 774h-70l-118 140l32 23l121 -121l121 121l32 -23zM548 645h-234v-645h-60v645h-234v53h528v-53z" />
    <glyph glyph-name="tcaron" unicode="&#x165;" horiz-adv-x="335" 
d="M336 747l-41 -181h-39l14 181h66zM283 0h-102c-41 0 -63 25 -63 63v399h-89v50h58c28 0 36 10 36 39v104h52v-143h116v-50h-116v-412h108v-50z" />
    <glyph glyph-name="Tbar" unicode="&#x166;" horiz-adv-x="574" 
d="M491 349h-174v-349h-60v349h-174v46h174v250h-234v53h528v-53h-234v-250h174v-46z" />
    <glyph glyph-name="tbar" unicode="&#x167;" horiz-adv-x="341" 
d="M286 50v-50h-102c-41 0 -63 24 -63 63v197h-66v45h66v157h-89v50h58c28 0 36 10 36 39v104h52v-143h116v-50h-116v-157h95v-45h-95v-210h108z" />
    <glyph glyph-name="Utilde" unicode="&#x168;" horiz-adv-x="668" 
d="M404 792c-30 0 -53 13 -79 28c-30 17 -50 24 -68 24c-23 0 -40 -10 -61 -29l-25 29c21 27 50 48 89 48c30 0 53 -13 79 -28c30 -17 50 -24 68 -24c23 0 40 10 61 29l25 -29c-21 -27 -50 -48 -89 -48zM93 698h60v-431c0 -155 44 -225 181 -225c136 0 181 70 181 225v431
h60v-418c0 -205 -64 -292 -243 -292s-239 87 -239 292v418z" />
    <glyph glyph-name="utilde" unicode="&#x169;" horiz-adv-x="563" 
d="M350 618c-30 0 -53 12 -79 28c-30 18 -50 25 -68 25c-23 0 -40 -11 -61 -30l-25 29c21 27 50 48 89 48c30 0 53 -12 79 -28c30 -18 50 -25 68 -25c23 0 40 11 61 30l25 -29c-21 -27 -50 -48 -89 -48zM413 0v81h-4c-19 -48 -61 -93 -149 -93c-109 0 -174 70 -174 195v329
h57v-318c0 -105 47 -155 132 -155c71 0 138 37 138 114v359h57v-512h-57z" />
    <glyph glyph-name="Umacron" unicode="&#x16a;" horiz-adv-x="668" 
d="M196 819v49h272v-49h-272zM93 698h60v-431c0 -155 44 -225 181 -225c136 0 181 70 181 225v431h60v-418c0 -205 -64 -292 -243 -292s-239 87 -239 292v418z" />
    <glyph glyph-name="umacron" unicode="&#x16b;" horiz-adv-x="563" 
d="M142 645v49h272v-49h-272zM413 0v81h-4c-19 -48 -61 -93 -149 -93c-109 0 -174 70 -174 195v329h57v-318c0 -105 47 -155 132 -155c71 0 138 37 138 114v359h57v-512h-57z" />
    <glyph glyph-name="Ubreve" unicode="&#x16c;" horiz-adv-x="668" 
d="M332 774c-92 0 -119 60 -144 122l33 16l19 -31c25 -42 44 -61 92 -61s67 19 92 61l19 31l33 -16c-25 -62 -52 -122 -144 -122zM93 698h60v-431c0 -155 44 -225 181 -225c136 0 181 70 181 225v431h60v-418c0 -205 -64 -292 -243 -292s-239 87 -239 292v418z" />
    <glyph glyph-name="ubreve" unicode="&#x16d;" horiz-adv-x="563" 
d="M278 600c-92 0 -119 60 -144 122l33 16l19 -31c25 -42 44 -61 92 -61s67 19 92 61l19 31l33 -16c-25 -62 -52 -122 -144 -122zM413 0v81h-4c-19 -48 -61 -93 -149 -93c-109 0 -174 70 -174 195v329h57v-318c0 -105 47 -155 132 -155c71 0 138 37 138 114v359h57v-512h-57
z" />
    <glyph glyph-name="Uring" unicode="&#x16e;" horiz-adv-x="668" 
d="M332 755c-61 0 -106 44 -106 106c0 61 45 105 106 105s106 -44 106 -105c0 -62 -45 -106 -106 -106zM332 792c39 0 63 23 63 60v17c0 38 -24 60 -63 60s-63 -22 -63 -60v-17c0 -37 24 -60 63 -60zM93 698h60v-431c0 -155 44 -225 181 -225c136 0 181 70 181 225v431h60
v-418c0 -205 -64 -292 -243 -292s-239 87 -239 292v418z" />
    <glyph glyph-name="uring" unicode="&#x16f;" horiz-adv-x="563" 
d="M278 581c-61 0 -106 44 -106 106c0 61 45 105 106 105s106 -44 106 -105c0 -62 -45 -106 -106 -106zM278 618c39 0 63 23 63 60v17c0 38 -24 60 -63 60s-63 -22 -63 -60v-17c0 -37 24 -60 63 -60zM413 0v81h-4c-19 -48 -61 -93 -149 -93c-109 0 -174 70 -174 195v329h57
v-318c0 -105 47 -155 132 -155c71 0 138 37 138 114v359h57v-512h-57z" />
    <glyph glyph-name="Uhungarumlaut" unicode="&#x170;" horiz-adv-x="668" 
d="M366 917l-110 -157l-35 18l95 163zM526 917l-110 -157l-35 18l95 163zM93 698h60v-431c0 -155 44 -225 181 -225c136 0 181 70 181 225v431h60v-418c0 -205 -64 -292 -243 -292s-239 87 -239 292v418z" />
    <glyph glyph-name="uhungarumlaut" unicode="&#x171;" horiz-adv-x="563" 
d="M312 743l-110 -157l-35 18l95 163zM472 743l-110 -157l-35 18l95 163zM413 0v81h-4c-19 -48 -61 -93 -149 -93c-109 0 -174 70 -174 195v329h57v-318c0 -105 47 -155 132 -155c71 0 138 37 138 114v359h57v-512h-57z" />
    <glyph glyph-name="Uogonek" unicode="&#x172;" horiz-adv-x="668" 
d="M93 698h60v-431c0 -155 44 -225 181 -225c136 0 181 70 181 225v431h60v-418c0 -136 -24 -215 -111 -283c-73 -57 -103 -87 -103 -123c0 -27 17 -39 42 -39c24 0 41 10 53 24l29 -28c-12 -20 -40 -36 -83 -36c-48 0 -88 24 -88 72s37 87 109 132l-1 2
c-27 -9 -57 -13 -90 -13c-179 0 -239 87 -239 292v418z" />
    <glyph glyph-name="uogonek" unicode="&#x173;" horiz-adv-x="563" 
d="M470 0c-78 -68 -99 -92 -99 -125c0 -28 17 -40 42 -40c24 0 41 10 53 24l30 -28c-13 -20 -41 -36 -83 -36c-50 0 -89 24 -89 74c0 46 37 84 101 129l-1 2h-11v81h-4c-19 -48 -61 -93 -149 -93c-109 0 -174 70 -174 195v329h57v-318c0 -105 47 -155 132 -155
c71 0 138 37 138 114v359h57v-512z" />
    <glyph glyph-name="Wcircumflex" unicode="&#x174;" horiz-adv-x="884" 
d="M406 930h70l118 -139l-32 -23l-121 120l-121 -120l-32 23zM270 0h-70l-176 698h64l149 -624h3l165 624h73l163 -624h3l154 624h62l-182 -698h-70l-167 631h-2z" />
    <glyph glyph-name="wcircumflex" unicode="&#x175;" horiz-adv-x="751" 
d="M341 756h70l118 -139l-32 -23l-121 121l-121 -121l-32 23zM177 0l-144 512h56l123 -461h2l136 461h53l137 -461h2l122 461h55l-144 -512h-70l-129 431h-2l-128 -431h-69z" />
    <glyph glyph-name="Ycircumflex" unicode="&#x176;" horiz-adv-x="575" 
d="M252 930h70l118 -139l-32 -23l-121 120l-121 -120l-32 23zM317 0h-60v283l-241 415h68l202 -352h3l202 352h68l-242 -412v-286z" />
    <glyph glyph-name="ycircumflex" unicode="&#x177;" horiz-adv-x="481" 
d="M206 756h70l118 -139l-32 -23l-121 121l-121 -121l-32 23zM243 61l156 451h58l-237 -656c-16 -43 -33 -56 -85 -56h-58v50h86l49 135l-190 527h60l157 -451h4z" />
    <glyph glyph-name="Ydieresis" unicode="&#x178;" horiz-adv-x="575" 
d="M195 800c-28 0 -40 16 -40 37v10c0 21 12 37 40 37c27 0 39 -16 39 -37v-10c0 -21 -12 -37 -39 -37zM379 800c-27 0 -39 16 -39 37v10c0 21 12 37 39 37c28 0 40 -16 40 -37v-10c0 -21 -12 -37 -40 -37zM317 0h-60v283l-241 415h68l202 -352h3l202 352h68l-242 -412v-286
z" />
    <glyph glyph-name="Zacute" unicode="&#x179;" horiz-adv-x="570" 
d="M398 916l-110 -156l-37 18l95 164zM537 53v-53h-500v55l419 590h-397v53h462v-55l-420 -590h436z" />
    <glyph glyph-name="zacute" unicode="&#x17a;" horiz-adv-x="446" 
d="M330 742l-110 -156l-37 18l95 164zM417 0h-386v49l310 413h-301v50h369v-45l-314 -417h322v-50z" />
    <glyph glyph-name="Zdotaccent" unicode="&#x17b;" horiz-adv-x="570" 
d="M291 796c-30 0 -43 17 -43 41v11c0 24 13 41 43 41s43 -17 43 -41v-11c0 -24 -13 -41 -43 -41zM537 53v-53h-500v55l419 590h-397v53h462v-55l-420 -590h436z" />
    <glyph glyph-name="zdotaccent" unicode="&#x17c;" horiz-adv-x="446" 
d="M223 626c-27 0 -40 15 -40 36v10c0 21 13 36 40 36s40 -15 40 -36v-10c0 -21 -13 -36 -40 -36zM417 0h-386v49l310 413h-301v50h369v-45l-314 -417h322v-50z" />
    <glyph glyph-name="Zcaron" unicode="&#x17d;" horiz-adv-x="570" 
d="M326 774h-70l-118 140l32 23l121 -121l121 121l32 -23zM537 53v-53h-500v55l419 590h-397v53h462v-55l-420 -590h436z" />
    <glyph glyph-name="zcaron" unicode="&#x17e;" horiz-adv-x="446" 
d="M258 601h-70l-118 139l32 23l121 -121l121 121l32 -23zM417 0h-386v49l310 413h-301v50h369v-45l-314 -417h322v-50z" />
    <glyph glyph-name="uni018F" unicode="&#x18f;" horiz-adv-x="697" 
d="M63 349v14h508v26c0 171 -85 267 -219 267c-99 0 -176 -55 -211 -152l-50 25c39 110 134 181 261 181c180 0 282 -130 282 -361s-106 -361 -286 -361s-285 121 -285 361zM348 42c130 0 223 99 223 267v4h-446v-4c0 -168 93 -267 223 -267z" />
    <glyph glyph-name="florin" unicode="&#x192;" horiz-adv-x="486" 
d="M-3 -134l5 50h158l39 389h-155l6 52h154l26 258c5 50 35 83 90 83h142l-5 -50h-166l-29 -291h185l-6 -52h-185l-35 -356c-5 -50 -35 -83 -90 -83h-134z" />
    <glyph glyph-name="Ohorn" unicode="&#x1a0;" horiz-adv-x="697" 
d="M587 811h51v-102c0 -29 -11 -49 -50 -49h-74c82 -63 120 -169 120 -311c0 -236 -108 -361 -285 -361c-178 0 -286 125 -286 361s108 361 286 361c33 0 63 -3 92 -12h146v113zM349 42c133 0 221 97 221 263v88c0 166 -88 263 -221 263c-134 0 -222 -97 -222 -263v-88
c0 -166 88 -263 222 -263z" />
    <glyph glyph-name="ohorn" unicode="&#x1a1;" horiz-adv-x="550" 
d="M446 620h51v-95c0 -30 -11 -50 -49 -50h-33c52 -45 83 -117 83 -219c0 -168 -88 -268 -223 -268s-223 100 -223 268s88 268 223 268c26 0 54 -4 76 -12h95v108zM275 39c99 0 162 65 162 185v64c0 119 -63 185 -162 185s-162 -65 -162 -185v-64c0 -119 63 -185 162 -185z
" />
    <glyph glyph-name="Uhorn" unicode="&#x1af;" horiz-adv-x="668" 
d="M93 698h60v-431c0 -155 44 -225 181 -225c136 0 181 70 181 225v431h87v112h51v-102c0 -29 -11 -49 -50 -49h-28v-379c0 -205 -64 -292 -243 -292s-239 87 -239 292v418z" />
    <glyph glyph-name="uhorn" unicode="&#x1b0;" horiz-adv-x="564" 
d="M552 624v-102c0 -29 -11 -49 -50 -49h-31v-473h-57v81h-4c-19 -48 -62 -93 -150 -93c-109 0 -174 70 -174 195v329h57v-318c0 -105 47 -155 132 -155c71 0 139 37 139 114v359h87v112h51z" />
    <glyph glyph-name="Aringacute" unicode="&#x1fa;" horiz-adv-x="625" 
d="M413 1088l-91 -104l-35 15l76 109zM313 749c-61 0 -106 44 -106 106c0 61 45 105 106 105s106 -44 106 -105c0 -62 -45 -106 -106 -106zM313 786c39 0 63 23 63 60v17c0 38 -24 60 -63 60s-63 -22 -63 -60v-17c0 -37 24 -60 63 -60zM599 0h-63l-76 217h-297l-76 -217h-60
l247 698h77zM444 269l-131 372h-4l-131 -372h266z" />
    <glyph glyph-name="aringacute" unicode="&#x1fb;" horiz-adv-x="528" 
d="M348 911l-90 -103l-31 20l77 110zM251 575c-61 0 -106 44 -106 106c0 61 45 105 106 105s106 -44 106 -105c0 -62 -45 -106 -106 -106zM251 612c39 0 63 23 63 60v17c0 38 -24 60 -63 60s-63 -22 -63 -60v-17c0 -37 24 -60 63 -60zM503 0h-58c-44 0 -62 25 -65 63v18h-5
c-23 -57 -75 -93 -155 -93c-107 0 -169 56 -169 151c0 91 60 148 208 148h118v60c0 84 -44 127 -131 127c-68 0 -112 -30 -140 -83l-36 30c28 59 85 103 178 103c119 0 186 -63 186 -171v-303h69v-50zM228 37c83 0 149 43 149 112v95h-120c-102 0 -146 -35 -146 -92v-24
c0 -59 47 -91 117 -91z" />
    <glyph glyph-name="AEacute" unicode="&#x1fc;" horiz-adv-x="889" 
d="M702 916l-110 -156l-37 18l95 164zM413 0v216h-235l-113 -216h-62l367 698h452v-53h-349v-264h332v-53h-332v-275h349v-53h-409zM413 645h-12l-198 -376h210v376z" />
    <glyph glyph-name="aeacute" unicode="&#x1fd;" horiz-adv-x="863" 
d="M526 742l-110 -156l-37 18l95 164zM375 245h-120c-102 -1 -146 -36 -146 -93v-24c0 -59 46 -91 117 -91c82 0 149 43 149 112v96zM432 289h317v8c0 108 -62 179 -154 179c-99 0 -163 -74 -163 -182v-5zM599 38c74 0 126 35 155 102l42 -27c-32 -76 -102 -125 -194 -125
c-103 0 -173 60 -192 123h-4c-13 -62 -83 -123 -189 -123c-104 0 -168 56 -168 149s62 152 208 152h118v58c0 85 -45 128 -129 128c-70 0 -113 -29 -142 -84l-36 30c28 58 85 103 179 103c110 0 152 -65 162 -123h4c20 62 88 123 187 123c128 0 211 -102 211 -252v-27h-379
v-25c0 -107 62 -182 167 -182z" />
    <glyph glyph-name="Oslashacute" unicode="&#x1fe;" horiz-adv-x="697" 
d="M456 916l-110 -156l-37 18l95 164zM349 -12c-73 0 -133 21 -179 62l-62 -90l-42 27l69 98c-47 61 -72 149 -72 264c0 236 108 361 286 361c71 0 131 -21 178 -61l62 89l42 -27l-69 -98c47 -61 72 -149 72 -264c0 -236 -108 -361 -285 -361zM127 305
c0 -69 15 -126 42 -169l325 466c-37 36 -86 54 -145 54c-134 0 -222 -97 -222 -263v-88zM570 393c0 70 -15 127 -42 169l-325 -466c37 -36 87 -54 146 -54c133 0 221 97 221 263v88z" />
    <glyph glyph-name="oslashacute" unicode="&#x1ff;" horiz-adv-x="559" 
d="M387 742l-110 -156l-37 18l95 164zM69 -35l-33 25l68 84c-31 45 -49 107 -49 182c0 168 88 268 223 268c59 0 108 -19 146 -54l65 81l32 -25l-70 -87c32 -45 50 -107 50 -183c0 -168 -88 -268 -223 -268c-59 0 -109 19 -147 55zM278 39c99 0 162 65 162 185v64
c0 43 -8 80 -24 108l-252 -313c28 -29 67 -44 114 -44zM116 224c0 -42 8 -78 23 -107l252 313c-27 28 -66 43 -113 43c-99 0 -162 -65 -162 -185v-64z" />
    <glyph glyph-name="Scommaaccent" unicode="&#x218;" horiz-adv-x="568" 
d="M282 -66c27 0 40 -14 40 -37v-11c0 -42 -24 -89 -54 -118h-42c27 29 42 57 48 85c-22 3 -32 17 -32 35v9c0 23 13 37 40 37zM284 -12c-114 0 -188 47 -242 119l45 37c49 -65 108 -103 199 -103c108 0 168 54 168 146c0 86 -52 119 -141 138l-62 13
c-132 27 -190 90 -190 187c0 122 90 185 224 185c104 0 175 -40 221 -107l-45 -33c-39 55 -95 87 -179 87c-100 0 -162 -44 -162 -130c0 -83 56 -115 143 -133l62 -13c139 -30 188 -95 188 -191c0 -127 -87 -202 -229 -202z" />
    <glyph glyph-name="scommaaccent" unicode="&#x219;" horiz-adv-x="477" 
d="M239 -66c27 0 40 -14 40 -37v-11c0 -42 -24 -89 -54 -118h-42c27 29 42 57 48 85c-22 3 -32 17 -32 35v9c0 23 13 37 40 37zM238 -12c-89 0 -151 35 -197 98l42 33c42 -55 91 -82 159 -82c78 0 123 35 123 97c0 54 -31 85 -105 96l-42 7c-93 14 -157 51 -157 143
c0 96 75 144 174 144c85 0 137 -33 175 -79l-38 -35c-27 32 -69 65 -140 65c-73 0 -116 -34 -116 -92c0 -59 37 -82 110 -94l41 -6c104 -16 153 -61 153 -143c0 -95 -69 -152 -182 -152z" />
    <glyph glyph-name="uni021A" unicode="&#x21a;" horiz-adv-x="568" 
d="M284 -66c27 0 40 -14 40 -37v-11c0 -42 -24 -89 -54 -118h-42c27 29 42 57 48 85c-22 3 -32 17 -32 35v9c0 23 13 37 40 37zM548 645h-234v-645h-60v645h-234v53h528v-53z" />
    <glyph glyph-name="uni021B" unicode="&#x21b;" horiz-adv-x="335" 
d="M204 -66c27 0 40 -14 40 -37v-11c0 -42 -24 -89 -54 -118h-42c27 29 42 57 48 85c-22 3 -32 17 -32 35v9c0 23 13 37 40 37zM283 0h-102c-41 0 -63 25 -63 63v399h-89v50h58c28 0 36 10 36 39v104h52v-143h116v-50h-116v-412h108v-50z" />
    <glyph glyph-name="uni0237" unicode="&#x237;" horiz-adv-x="243" 
d="M8 -200v50h85v662h57v-627c0 -52 -25 -85 -80 -85h-62z" />
    <glyph glyph-name="uni0259" unicode="&#x259;" horiz-adv-x="543" 
d="M52 267h378v25c0 107 -61 182 -167 182c-72 0 -126 -36 -155 -103l-41 28c32 75 102 125 199 125c137 0 225 -100 225 -268s-87 -268 -223 -268c-132 0 -216 102 -216 252v27zM114 223v-8c0 -108 62 -179 154 -179c99 0 162 74 162 182v5h-316z" />
    <glyph glyph-name="uni02BB" unicode="&#x2bb;" 
d="M300 597c-26 0 -39 14 -39 37v11c0 42 24 88 54 118h42c-28 -30 -42 -58 -49 -85c23 -3 33 -17 33 -35v-9c0 -23 -14 -37 -41 -37z" />
    <glyph glyph-name="uni02BC" unicode="&#x2bc;" 
d="M355 740l-41 -181h-39l14 181h66z" />
    <glyph glyph-name="circumflex" unicode="&#x2c6;" 
d="M265 756h70l118 -139l-32 -23l-121 121l-121 -121l-32 23z" />
    <glyph glyph-name="caron" unicode="&#x2c7;" 
d="M335 601h-70l-118 139l32 23l121 -121l121 121l32 -23z" />
    <glyph glyph-name="breve" unicode="&#x2d8;" 
d="M300 600c-92 0 -119 60 -144 122l33 16l19 -31c25 -42 44 -61 92 -61s67 19 92 61l19 31l33 -16c-25 -62 -52 -122 -144 -122z" />
    <glyph glyph-name="dotaccent" unicode="&#x2d9;" 
d="M300 626c-27 0 -40 15 -40 36v10c0 21 13 36 40 36s40 -15 40 -36v-10c0 -21 -13 -36 -40 -36z" />
    <glyph glyph-name="ring" unicode="&#x2da;" 
d="M300 581c-61 0 -106 44 -106 106c0 61 45 105 106 105s106 -44 106 -105c0 -62 -45 -106 -106 -106zM300 618c39 0 63 23 63 60v17c0 38 -24 60 -63 60s-63 -22 -63 -60v-17c0 -37 24 -60 63 -60z" />
    <glyph glyph-name="ogonek" unicode="&#x2db;" 
d="M252 -205c-49 0 -89 23 -89 72c0 48 37 88 111 136l-5 15l40 2l8 -20c-83 -67 -106 -94 -106 -127c0 -27 17 -38 41 -38s42 10 53 24l30 -28c-12 -20 -41 -36 -83 -36z" />
    <glyph glyph-name="tilde" unicode="&#x2dc;" 
d="M372 618c-30 0 -53 12 -79 28c-30 18 -50 25 -68 25c-23 0 -40 -11 -61 -30l-25 29c21 27 50 48 89 48c30 0 53 -12 79 -28c30 -18 50 -25 68 -25c23 0 40 11 61 30l25 -29c-21 -27 -50 -48 -89 -48z" />
    <glyph glyph-name="hungarumlaut" unicode="&#x2dd;" 
d="M334 743l-110 -157l-35 18l95 163zM494 743l-110 -157l-35 18l95 163z" />
    <glyph glyph-name="uni0300" unicode="&#x300;" horiz-adv-x="0" 
d="M2 586l-109 156l52 26l95 -164z" />
    <glyph glyph-name="uni0301" unicode="&#x301;" horiz-adv-x="0" 
d="M107 742l-110 -156l-37 18l95 164z" />
    <glyph glyph-name="uni0302" unicode="&#x302;" horiz-adv-x="0" 
d="M-35 756h70l118 -139l-32 -23l-121 121l-121 -121l-32 23z" />
    <glyph glyph-name="uni0303" unicode="&#x303;" horiz-adv-x="0" 
d="M72 618c-30 0 -53 12 -79 28c-30 18 -50 25 -68 25c-23 0 -40 -11 -61 -30l-25 29c21 27 50 48 89 48c30 0 53 -12 79 -28c30 -18 50 -25 68 -25c23 0 40 11 61 30l25 -29c-21 -27 -50 -48 -89 -48z" />
    <glyph glyph-name="uni0304" unicode="&#x304;" horiz-adv-x="0" 
d="M-136 645v49h272v-49h-272z" />
    <glyph glyph-name="uni0306" unicode="&#x306;" horiz-adv-x="0" 
d="M0 600c-92 0 -119 60 -144 122l33 16l19 -31c25 -42 44 -61 92 -61s67 19 92 61l19 31l33 -16c-25 -62 -52 -122 -144 -122z" />
    <glyph glyph-name="uni0307" unicode="&#x307;" horiz-adv-x="0" 
d="M0 626c-27 0 -40 15 -40 36v10c0 21 13 36 40 36s40 -15 40 -36v-10c0 -21 -13 -36 -40 -36z" />
    <glyph glyph-name="uni0308" unicode="&#x308;" horiz-adv-x="0" 
d="M-92 627c-28 0 -39 15 -39 36v10c0 21 11 36 39 36c27 0 39 -15 39 -36v-10c0 -21 -12 -36 -39 -36zM92 627c-27 0 -39 15 -39 36v10c0 21 12 36 39 36c28 0 39 -15 39 -36v-10c0 -21 -11 -36 -39 -36z" />
    <glyph glyph-name="uni0309" unicode="&#x309;" horiz-adv-x="0" 
d="M-80 710v44h120c37 0 51 -18 51 -40c0 -21 -12 -47 -41 -86l-34 -48l-35 17l66 113h-127z" />
    <glyph glyph-name="uni030A" unicode="&#x30a;" horiz-adv-x="0" 
d="M0 581c-61 0 -106 44 -106 106c0 61 45 105 106 105s106 -44 106 -105c0 -62 -45 -106 -106 -106zM0 618c39 0 63 23 63 60v17c0 38 -24 60 -63 60s-63 -22 -63 -60v-17c0 -37 24 -60 63 -60z" />
    <glyph glyph-name="uni030B" unicode="&#x30b;" horiz-adv-x="0" 
d="M34 743l-110 -157l-35 18l95 163zM194 743l-110 -157l-35 18l95 163z" />
    <glyph glyph-name="uni030C" unicode="&#x30c;" horiz-adv-x="0" 
d="M35 601h-70l-118 139l32 23l121 -121l121 121l32 -23z" />
    <glyph glyph-name="uni0312" unicode="&#x312;" horiz-adv-x="0" 
d="M0 597c-26 0 -39 14 -39 37v11c0 42 24 88 54 118h42c-28 -30 -42 -58 -49 -85c23 -3 33 -17 33 -35v-9c0 -23 -14 -37 -41 -37z" />
    <glyph glyph-name="uni0315" unicode="&#x315;" horiz-adv-x="0" 
d="M80 740l-41 -181h-39l14 181h66z" />
    <glyph glyph-name="uni031B" unicode="&#x31b;" horiz-adv-x="0" 
d="M57 624v-102c0 -29 -11 -49 -50 -49h-83v39h82v112h51z" />
    <glyph glyph-name="uni0323" unicode="&#x323;" horiz-adv-x="0" 
d="M0 -155c-27 0 -40 15 -40 37v8c0 22 13 37 40 37s40 -15 40 -37v-8c0 -22 -13 -37 -40 -37z" />
    <glyph glyph-name="uni0326" unicode="&#x326;" horiz-adv-x="0" 
d="M0 -66c27 0 40 -14 40 -37v-11c0 -42 -24 -89 -54 -118h-42c27 29 42 57 48 85c-22 3 -32 17 -32 35v9c0 23 13 37 40 37z" />
    <glyph glyph-name="uni0327" unicode="&#x327;" horiz-adv-x="0" 
d="M11 -205c-48 0 -79 19 -92 37l28 31c13 -16 34 -28 64 -28c29 0 50 13 50 39c0 21 -13 37 -65 43l-31 3l19 93h38l-17 -79l2 -2c12 3 25 5 36 5c39 0 68 -23 68 -64c0 -49 -44 -78 -100 -78z" />
    <glyph glyph-name="uni0328" unicode="&#x328;" horiz-adv-x="0" 
d="M-65 -205c-49 0 -89 23 -89 72c0 48 37 88 111 136l-5 15l40 2l8 -20c-83 -67 -106 -94 -106 -127c0 -27 17 -38 41 -38s42 10 53 24l30 -28c-12 -20 -41 -36 -83 -36z" />
    <glyph glyph-name="uni037E" unicode="&#x37e;" horiz-adv-x="280" 
d="M139 411c-33 0 -48 18 -48 45v11c0 27 15 45 48 45c32 0 48 -18 48 -45v-11c0 -27 -16 -45 -48 -45zM140 92c33 0 48 -19 48 -46v-13c0 -55 -34 -126 -86 -171h-48c44 45 66 87 74 131c-26 3 -36 20 -36 41v12c0 27 15 46 48 46z" />
    <glyph glyph-name="tonos" unicode="&#x384;" 
d="M384 759l-60 -173l-41 6l44 177z" />
    <glyph glyph-name="dieresistonos" unicode="&#x385;" 
d="M193 627c-25 0 -36 15 -36 37v9c0 21 11 36 36 36s37 -15 37 -36v-9c0 -22 -12 -37 -37 -37zM407 627c-25 0 -37 15 -37 37v9c0 21 12 36 37 36s36 -15 36 -36v-9c0 -22 -11 -37 -36 -37zM353 759l-60 -173l-37 6l45 177z" />
    <glyph glyph-name="Alphatonos" unicode="&#x386;" horiz-adv-x="625" 
d="M156 759l-60 -173l-41 6l44 177zM599 0h-63l-76 217h-297l-76 -217h-60l247 698h77zM444 269l-131 372h-4l-131 -372h266z" />
    <glyph glyph-name="anoteleia" unicode="&#x387;" horiz-adv-x="280" 
d="M140 411c-33 0 -48 18 -48 45v11c0 27 15 45 48 45c32 0 48 -18 48 -45v-11c0 -27 -16 -45 -48 -45z" />
    <glyph glyph-name="Epsilontonos" unicode="&#x388;" horiz-adv-x="598" 
d="M78 759l-60 -173l-41 6l44 177zM531 0h-408v698h408v-53h-348v-264h331v-53h-331v-275h348v-53z" />
    <glyph glyph-name="Etatonos" unicode="&#x389;" horiz-adv-x="725" 
d="M78 759l-60 -173l-41 6l44 177zM566 0v328h-383v-328h-60v698h60v-317h383v317h60v-698h-60z" />
    <glyph glyph-name="Iotatonos" unicode="&#x38a;" horiz-adv-x="445" 
d="M78 759l-60 -173l-41 6l44 177zM382 0h-264v50h102v598h-102v50h264v-50h-102v-598h102v-50z" />
    <glyph glyph-name="Omicrontonos" unicode="&#x38c;" horiz-adv-x="700" 
d="M78 759l-60 -173l-41 6l44 177zM351 -12c-178 0 -286 125 -286 361s108 361 286 361c177 0 285 -125 285 -361s-108 -361 -285 -361zM351 42c133 0 221 97 221 263v88c0 166 -88 263 -221 263c-134 0 -222 -97 -222 -263v-88c0 -166 88 -263 222 -263z" />
    <glyph glyph-name="Upsilontonos" unicode="&#x38e;" horiz-adv-x="657" 
d="M78 759l-60 -173l-41 6l44 177zM399 0h-60v283l-241 415h68l202 -352h3l202 352h68l-242 -412v-286z" />
    <glyph glyph-name="Omegatonos" unicode="&#x38f;" horiz-adv-x="703" 
d="M78 759l-60 -173l-41 6l44 177zM67 0v53h166v13c-103 58 -166 157 -166 312c0 184 94 332 288 332c193 0 287 -148 287 -332c0 -155 -63 -254 -166 -312v-13h166v-53h-217v87c68 29 153 125 153 256v80c0 126 -86 233 -223 233c-138 0 -224 -107 -224 -233v-80
c0 -131 85 -227 153 -256v-87h-217z" />
    <glyph glyph-name="iotadieresistonos" unicode="&#x390;" horiz-adv-x="285" 
d="M258 50v-50h-102c-41 0 -63 25 -63 63v449h57v-462h108zM28 627c-25 0 -36 15 -36 37v9c0 21 11 36 36 36s37 -15 37 -36v-9c0 -22 -12 -37 -37 -37zM242 627c-25 0 -37 15 -37 37v9c0 21 12 36 37 36s36 -15 36 -36v-9c0 -22 -11 -37 -36 -37zM188 759l-60 -173l-37 6
l45 177z" />
    <glyph glyph-name="Alpha" unicode="&#x391;" horiz-adv-x="625" 
d="M599 0h-63l-76 217h-297l-76 -217h-60l247 698h77zM444 269l-131 372h-4l-131 -372h266z" />
    <glyph glyph-name="Beta" unicode="&#x392;" horiz-adv-x="638" 
d="M99 0v698h273c109 0 175 -66 175 -176c0 -97 -55 -140 -107 -152v-4c65 -8 134 -60 134 -169c0 -115 -70 -197 -177 -197h-298zM159 337v-284h222c84 0 129 51 129 124v37c0 72 -45 123 -129 123h-222zM159 645v-256h207c76 0 117 46 117 109v38c0 64 -41 109 -117 109
h-207z" />
    <glyph glyph-name="Gamma" unicode="&#x393;" horiz-adv-x="502" 
d="M99 0v698h370v-53h-310v-645h-60z" />
    <glyph glyph-name="uni0394" unicode="&#x394;" horiz-adv-x="626" 
d="M42 0v53l232 645h78l232 -645v-53h-542zM521 53l-207 588h-4l-207 -588h418z" />
    <glyph glyph-name="Epsilon" unicode="&#x395;" horiz-adv-x="574" 
d="M507 0h-408v698h408v-53h-348v-264h331v-53h-331v-275h348v-53z" />
    <glyph glyph-name="Zeta" unicode="&#x396;" horiz-adv-x="570" 
d="M537 53v-53h-500v55l419 590h-397v53h462v-55l-420 -590h436z" />
    <glyph glyph-name="Eta" unicode="&#x397;" horiz-adv-x="701" 
d="M542 0v328h-383v-328h-60v698h60v-317h383v317h60v-698h-60z" />
    <glyph glyph-name="Theta" unicode="&#x398;" horiz-adv-x="697" 
d="M349 -12c-178 0 -286 125 -286 361s108 361 286 361c177 0 285 -125 285 -361s-108 -361 -285 -361zM349 42c133 0 221 97 221 263v88c0 166 -88 263 -221 263c-134 0 -222 -97 -222 -263v-88c0 -166 88 -263 222 -263zM504 327h-311v53h311v-53z" />
    <glyph glyph-name="Iota" unicode="&#x399;" horiz-adv-x="390" 
d="M327 0h-264v50h102v598h-102v50h264v-50h-102v-598h102v-50z" />
    <glyph glyph-name="Kappa" unicode="&#x39a;" horiz-adv-x="610" 
d="M515 0l-243 360l-113 -125v-235h-60v698h60v-393h2l112 129l230 264h73l-263 -297l276 -401h-74z" />
    <glyph glyph-name="Lambda" unicode="&#x39b;" horiz-adv-x="614" 
d="M268 698h77l242 -698h-62l-120 354l-97 287h-5l-97 -288l-119 -353h-60z" />
    <glyph glyph-name="Mu" unicode="&#x39c;" horiz-adv-x="804" 
d="M99 0v698h82l221 -393h3l221 393h79v-698h-58v621h-4l-241 -427l-241 427h-4v-621h-58z" />
    <glyph glyph-name="Nu" unicode="&#x39d;" horiz-adv-x="701" 
d="M527 0l-367 616h-3v-616h-58v698h75l367 -616h3v616h58v-698h-75z" />
    <glyph glyph-name="Xi" unicode="&#x39e;" horiz-adv-x="573" 
d="M67 645v53h439v-53h-439zM104 328v53h365v-53h-365zM67 0v53h439v-53h-439z" />
    <glyph glyph-name="Omicron" unicode="&#x39f;" horiz-adv-x="697" 
d="M349 -12c-178 0 -286 125 -286 361s108 361 286 361c177 0 285 -125 285 -361s-108 -361 -285 -361zM349 42c133 0 221 97 221 263v88c0 166 -88 263 -221 263c-134 0 -222 -97 -222 -263v-88c0 -166 88 -263 222 -263z" />
    <glyph glyph-name="Pi" unicode="&#x3a0;" horiz-adv-x="687" 
d="M99 0v698h488v-698h-60v645h-368v-645h-60z" />
    <glyph glyph-name="Rho" unicode="&#x3a1;" horiz-adv-x="601" 
d="M159 0h-60v698h274c121 0 187 -76 187 -195c0 -120 -66 -196 -187 -196h-214v-307zM159 645v-285h214c80 0 123 50 123 119v48c0 68 -43 118 -123 118h-214z" />
    <glyph glyph-name="Sigma" unicode="&#x3a3;" horiz-adv-x="570" 
d="M507 0h-463v55l259 298l-252 290v55h456v-53h-388l253 -291l-262 -301h397v-53z" />
    <glyph glyph-name="Tau" unicode="&#x3a4;" horiz-adv-x="568" 
d="M548 645h-234v-645h-60v645h-234v53h528v-53z" />
    <glyph glyph-name="Upsilon" unicode="&#x3a5;" horiz-adv-x="575" 
d="M317 0h-60v283l-241 415h68l202 -352h3l202 352h68l-242 -412v-286z" />
    <glyph glyph-name="Phi" unicode="&#x3a6;" horiz-adv-x="842" 
d="M391 -29v62h-25c-199 0 -307 133 -307 321s108 321 307 321h25v50h60v-50h25c199 0 307 -133 307 -321s-108 -321 -307 -321h-25v-62h-60zM392 84v540h-26c-155 0 -243 -108 -243 -239v-62c0 -131 88 -239 243 -239h26zM450 84h26c155 0 243 108 243 239v62
c0 131 -88 239 -243 239h-26v-540z" />
    <glyph glyph-name="Chi" unicode="&#x3a7;" horiz-adv-x="592" 
d="M26 0l231 355l-224 343h71l191 -295h2l193 295h69l-226 -340l233 -358h-72l-198 309h-2l-199 -309h-69z" />
    <glyph glyph-name="Psi" unicode="&#x3a8;" horiz-adv-x="774" 
d="M357 0v205c-172 0 -284 77 -284 268v225h60v-226c0 -161 90 -217 224 -217v443h60v-443c134 0 224 56 224 217v226h60v-225c0 -191 -112 -268 -284 -268v-205h-60z" />
    <glyph glyph-name="uni03A9" unicode="&#x3a9;" horiz-adv-x="703" 
d="M67 0v53h166v13c-103 58 -166 157 -166 312c0 184 94 332 288 332c193 0 287 -148 287 -332c0 -155 -63 -254 -166 -312v-13h166v-53h-217v87c68 29 153 125 153 256v80c0 126 -86 233 -223 233c-138 0 -224 -107 -224 -233v-80c0 -131 85 -227 153 -256v-87h-217z" />
    <glyph glyph-name="Iotadieresis" unicode="&#x3aa;" horiz-adv-x="390" 
d="M103 800c-28 0 -40 16 -40 37v10c0 21 12 37 40 37c27 0 39 -16 39 -37v-10c0 -21 -12 -37 -39 -37zM287 800c-27 0 -39 16 -39 37v10c0 21 12 37 39 37c28 0 40 -16 40 -37v-10c0 -21 -12 -37 -40 -37zM327 0h-264v50h102v598h-102v50h264v-50h-102v-598h102v-50z" />
    <glyph glyph-name="Upsilondieresis" unicode="&#x3ab;" horiz-adv-x="575" 
d="M196 800c-28 0 -40 16 -40 37v10c0 21 12 37 40 37c27 0 39 -16 39 -37v-10c0 -21 -12 -37 -39 -37zM380 800c-27 0 -39 16 -39 37v10c0 21 12 37 39 37c28 0 40 -16 40 -37v-10c0 -21 -12 -37 -40 -37zM317 0h-60v283l-241 415h68l202 -352h3l202 352h68l-242 -412v-286
z" />
    <glyph glyph-name="alphatonos" unicode="&#x3ac;" horiz-adv-x="640" 
d="M602 50v-50h-50c-40 0 -60 16 -69 64l-27 137h-4c-36 -152 -94 -213 -199 -213c-117 0 -199 100 -199 268s82 268 199 268c105 0 169 -58 201 -213h3l26 94l38 107h62l-100 -253l61 -209h58zM253 39c73 0 111 34 149 147l25 70l-25 75c-35 111 -77 142 -149 142
c-75 0 -138 -66 -138 -186v-62c0 -120 63 -186 138 -186zM344 759l-60 -173l-41 6l44 177z" />
    <glyph glyph-name="epsilontonos" unicode="&#x3ad;" horiz-adv-x="521" 
d="M350 759l-60 -173l-41 6l44 177zM442 122l41 -29c-38 -67 -105 -105 -216 -105c-132 0 -198 57 -198 146c0 70 44 115 123 129v4c-68 12 -109 50 -109 114c0 87 72 143 193 143c102 0 164 -38 199 -90l-41 -33c-28 42 -75 72 -158 72c-92 0 -132 -38 -132 -85v-12
c0 -49 43 -88 111 -88h122v-48h-122c-80 0 -125 -35 -125 -93v-15c0 -59 50 -93 140 -93c87 0 141 29 172 83z" />
    <glyph glyph-name="etatonos" unicode="&#x3ae;" horiz-adv-x="570" 
d="M157 0h-57v462h-69v50h63c41 0 63 -25 63 -62v-19h3c23 53 69 93 151 93c109 0 173 -70 173 -195v-529h-57v519c0 104 -46 154 -131 154c-72 0 -139 -37 -139 -113v-360zM370 759l-60 -173l-41 6l44 177z" />
    <glyph glyph-name="iotatonos" unicode="&#x3af;" horiz-adv-x="285" 
d="M258 50v-50h-102c-41 0 -63 25 -63 63v449h57v-462h108zM204 759l-60 -173l-41 6l44 177z" />
    <glyph glyph-name="upsilondieresistonos" unicode="&#x3b0;" horiz-adv-x="560" 
d="M143 512v-285c0 -135 42 -188 137 -188c94 0 137 53 137 188v285h57v-273c0 -177 -64 -251 -194 -251c-131 0 -194 74 -194 251v273h57zM179 627c-25 0 -36 15 -36 37v9c0 21 11 36 36 36s37 -15 37 -36v-9c0 -22 -12 -37 -37 -37zM393 627c-25 0 -37 15 -37 37v9
c0 21 12 36 37 36s36 -15 36 -36v-9c0 -22 -11 -37 -36 -37zM339 759l-60 -173l-37 6l45 177z" />
    <glyph glyph-name="alpha" unicode="&#x3b1;" horiz-adv-x="640" 
d="M602 50v-50h-50c-40 0 -60 16 -69 64l-27 137h-4c-36 -152 -94 -213 -199 -213c-117 0 -199 100 -199 268s82 268 199 268c105 0 169 -58 201 -213h3l26 94l38 107h62l-100 -253l61 -209h58zM253 39c73 0 111 34 149 147l25 70l-25 75c-35 111 -77 142 -149 142
c-75 0 -138 -66 -138 -186v-62c0 -120 63 -186 138 -186z" />
    <glyph glyph-name="beta" unicode="&#x3b2;" horiz-adv-x="578" 
d="M93 -200v718c0 145 67 234 201 234c110 0 189 -67 189 -178c0 -98 -61 -152 -127 -166v-4c89 -13 163 -69 163 -197c0 -127 -80 -219 -210 -219c-77 0 -130 33 -156 79h-3v-267h-57zM232 379v50h64c83 0 126 53 126 126v25c0 72 -49 121 -131 121
c-96 0 -141 -57 -141 -176v-386c0 -61 68 -100 146 -100c105 0 162 67 162 154v33c0 95 -60 153 -158 153h-68z" />
    <glyph glyph-name="gamma" unicode="&#x3b3;" horiz-adv-x="489" 
d="M222 -200v200l-160 462h-54v50h46c33 0 53 -10 64 -43l91 -267l40 -135h4l45 135l115 310h55l-189 -512v-200h-57z" />
    <glyph glyph-name="delta" unicode="&#x3b4;" horiz-adv-x="550" 
d="M455 690h-226l-64 4v-3l144 -122c150 -127 189 -210 189 -321c0 -162 -87 -260 -223 -260s-223 101 -223 259c0 170 101 264 235 265v7l-17 16l-157 140v65h342v-50zM437 243c0 91 -20 148 -120 247c-126 -8 -204 -92 -204 -217v-52c0 -115 63 -182 162 -182
s162 66 162 179v25z" />
    <glyph glyph-name="epsilon" unicode="&#x3b5;" horiz-adv-x="521" 
d="M442 122l41 -29c-38 -67 -105 -105 -216 -105c-132 0 -198 57 -198 146c0 70 44 115 123 129v4c-68 12 -109 50 -109 114c0 87 72 143 193 143c102 0 164 -38 199 -90l-41 -33c-28 42 -75 72 -158 72c-92 0 -132 -38 -132 -85v-12c0 -49 43 -88 111 -88h122v-48h-122
c-80 0 -125 -35 -125 -93v-15c0 -59 50 -93 140 -93c87 0 141 29 172 83z" />
    <glyph glyph-name="zeta" unicode="&#x3b6;" horiz-adv-x="428" 
d="M67 690v50h344v-45l-194 -241c-80 -98 -105 -164 -105 -223v-14c0 -82 43 -128 159 -159l71 -18c35 -9 50 -29 50 -54c0 -8 -2 -17 -4 -26l-32 -119l-54 14l35 132l-74 19c-159 41 -212 99 -212 218c0 67 25 135 117 249l177 218v3l-59 -4h-219z" />
    <glyph glyph-name="eta" unicode="&#x3b7;" horiz-adv-x="570" 
d="M157 0h-57v462h-69v50h63c41 0 63 -25 63 -62v-19h3c23 53 69 93 151 93c109 0 173 -70 173 -195v-529h-57v519c0 104 -46 154 -131 154c-72 0 -139 -37 -139 -113v-360z" />
    <glyph glyph-name="theta" unicode="&#x3b8;" horiz-adv-x="557" 
d="M278 752c136 0 217 -92 217 -382s-81 -382 -217 -382s-217 92 -217 382s81 382 217 382zM122 439v-44h312v44c0 195 -58 263 -156 263s-156 -68 -156 -263zM278 38c98 0 156 68 156 263v44h-312v-44c0 -195 58 -263 156 -263z" />
    <glyph glyph-name="iota" unicode="&#x3b9;" horiz-adv-x="285" 
d="M258 50v-50h-102c-41 0 -63 25 -63 63v449h57v-462h108z" />
    <glyph glyph-name="kappa" unicode="&#x3ba;" horiz-adv-x="513" 
d="M427 0l-202 255l-75 -79v-176h-57v512h57v-270h3l61 67l171 182c14 16 28 21 49 21h47v-50h-55l-161 -171l232 -291h-70z" />
    <glyph glyph-name="lambda" unicode="&#x3bb;" horiz-adv-x="493" 
d="M210 513l-59 177h-89v50h81c37 0 53 -14 63 -42l216 -648h61v-50h-53c-36 0 -53 14 -62 42l-73 217l-58 193h-4l-67 -194l-99 -258h-57z" />
    <glyph glyph-name="uni03BC" unicode="&#x3bc;" horiz-adv-x="577" 
d="M150 -200h-57v712h57v-318c0 -105 47 -155 132 -155c71 0 138 37 138 115v358h57v-462h70v-50h-63c-42 0 -64 25 -64 62v19h-4c-22 -57 -67 -93 -139 -93c-69 0 -115 34 -136 94h-4l13 -139v-143z" />
    <glyph glyph-name="nu" unicode="&#x3bd;" horiz-adv-x="495" 
d="M287 0h-67l-158 462h-54v50h46c33 0 53 -10 64 -43l70 -211l64 -197h4l69 197l94 254h55z" />
    <glyph glyph-name="xi" unicode="&#x3be;" horiz-adv-x="459" 
d="M421 690h-125c-89 0 -140 -57 -140 -136v-14c0 -77 47 -123 125 -123h84v-50h-83c-112 0 -163 -56 -163 -139v-15c0 -79 42 -123 164 -154l74 -19c35 -9 49 -29 49 -54c0 -8 -1 -17 -3 -26l-32 -119l-54 14l35 132l-76 19c-164 42 -218 97 -218 214c0 88 56 159 154 172
v4c-79 20 -117 69 -117 151c0 65 35 118 100 137v6h-137v50h363v-50z" />
    <glyph glyph-name="omicron" unicode="&#x3bf;" horiz-adv-x="550" 
d="M275 -12c-135 0 -223 100 -223 268s88 268 223 268s223 -100 223 -268s-88 -268 -223 -268zM275 39c99 0 162 65 162 185v64c0 119 -63 185 -162 185s-162 -65 -162 -185v-64c0 -119 63 -185 162 -185z" />
    <glyph glyph-name="pi" unicode="&#x3c0;" horiz-adv-x="610" 
d="M471 462v-412h68v-50h-62c-42 0 -63 25 -63 61v401h-236v-462h-57v462h-95v50h549v-50h-104z" />
    <glyph glyph-name="rho" unicode="&#x3c1;" horiz-adv-x="545" 
d="M65 -200v479c0 147 76 245 215 245c137 0 212 -95 212 -266c0 -174 -79 -270 -212 -270c-75 0 -130 34 -155 78h-3v-266h-57zM268 39c107 0 163 69 163 185v64c0 116 -56 185 -154 185s-155 -69 -155 -190v-144c0 -61 70 -100 146 -100z" />
    <glyph glyph-name="sigma1" unicode="&#x3c2;" horiz-adv-x="485" 
d="M325 -145l35 132l-104 28c-136 36 -204 107 -204 250c0 161 82 259 216 259c86 0 145 -44 176 -113l-48 -24c-24 55 -67 86 -130 86c-96 0 -153 -73 -153 -176v-54c0 -96 54 -151 168 -181l84 -22c35 -9 49 -29 49 -54c0 -8 -1 -17 -4 -26l-32 -119z" />
    <glyph glyph-name="sigma" unicode="&#x3c3;" horiz-adv-x="570" 
d="M544 462h-147v-5c69 -37 101 -101 101 -207c0 -162 -87 -262 -223 -262s-223 100 -223 262c0 161 84 262 233 262h259v-50zM351 462h-66c-108 0 -172 -68 -172 -184v-56c0 -117 63 -183 162 -183s162 66 162 183v56c0 80 -27 137 -86 184z" />
    <glyph glyph-name="tau" unicode="&#x3c4;" horiz-adv-x="479" 
d="M374 0h-110c-41 0 -63 25 -63 63v399h-175v50h419v-50h-187v-412h116v-50z" />
    <glyph glyph-name="upsilon" unicode="&#x3c5;" horiz-adv-x="560" 
d="M143 512v-285c0 -135 42 -188 137 -188c94 0 137 53 137 188v285h57v-273c0 -177 -64 -251 -194 -251c-131 0 -194 74 -194 251v273h57z" />
    <glyph glyph-name="phi" unicode="&#x3c6;" horiz-adv-x="699" 
d="M310 -200v188c-155 0 -256 98 -256 265c0 138 49 227 137 271l32 -41c-74 -36 -108 -105 -108 -209v-43c0 -127 78 -192 195 -192v234c0 177 61 251 165 251c108 0 167 -74 167 -253c0 -190 -101 -283 -275 -283v-188h-57zM367 292v-253c135 0 214 60 214 196v61
c0 129 -38 177 -106 177c-65 0 -108 -42 -108 -181z" />
    <glyph glyph-name="chi" unicode="&#x3c7;" horiz-adv-x="481" 
d="M11 512h56c35 0 50 -10 64 -42l110 -253h3l150 295h62l-182 -344l137 -318h64v-50h-56c-35 0 -51 11 -64 42l-116 275h-2l-156 -317h-62l187 365l-131 297h-64v50z" />
    <glyph glyph-name="psi" unicode="&#x3c8;" horiz-adv-x="713" 
d="M385 -200h-57v188c-160 0 -242 86 -242 259v265h57v-285c0 -132 63 -188 185 -188v671h57v-671c122 0 185 56 185 188v285h57v-265c0 -173 -82 -259 -242 -259v-188z" />
    <glyph glyph-name="omega" unicode="&#x3c9;" horiz-adv-x="721" 
d="M389 349v-129c0 -139 43 -181 107 -181c69 0 107 48 107 177v51c0 107 -35 181 -108 216l32 41c89 -43 137 -130 137 -283c0 -179 -61 -253 -162 -253c-80 0 -126 51 -140 133h-4c-14 -82 -59 -133 -139 -133c-101 0 -162 74 -162 253c0 150 49 239 137 283l32 -41
c-74 -36 -108 -105 -108 -216v-51c0 -129 38 -177 107 -177c64 0 107 42 107 181v129h57z" />
    <glyph glyph-name="iotadieresis" unicode="&#x3ca;" horiz-adv-x="285" 
d="M258 50v-50h-102c-41 0 -63 25 -63 63v449h57v-462h108zM37 627c-28 0 -39 15 -39 36v10c0 21 11 36 39 36c27 0 39 -15 39 -36v-10c0 -21 -12 -36 -39 -36zM221 627c-27 0 -39 15 -39 36v10c0 21 12 36 39 36c28 0 39 -15 39 -36v-10c0 -21 -11 -36 -39 -36z" />
    <glyph glyph-name="upsilondieresis" unicode="&#x3cb;" horiz-adv-x="560" 
d="M143 512v-285c0 -135 42 -188 137 -188c94 0 137 53 137 188v285h57v-273c0 -177 -64 -251 -194 -251c-131 0 -194 74 -194 251v273h57zM188 627c-28 0 -39 15 -39 36v10c0 21 11 36 39 36c27 0 39 -15 39 -36v-10c0 -21 -12 -36 -39 -36zM372 627c-27 0 -39 15 -39 36
v10c0 21 12 36 39 36c28 0 39 -15 39 -36v-10c0 -21 -11 -36 -39 -36z" />
    <glyph glyph-name="omicrontonos" unicode="&#x3cc;" horiz-adv-x="550" 
d="M275 -12c-135 0 -223 100 -223 268s88 268 223 268s223 -100 223 -268s-88 -268 -223 -268zM275 39c99 0 162 65 162 185v64c0 119 -63 185 -162 185s-162 -65 -162 -185v-64c0 -119 63 -185 162 -185zM352 759l-60 -173l-41 6l44 177z" />
    <glyph glyph-name="upsilontonos" unicode="&#x3cd;" horiz-adv-x="560" 
d="M143 512v-285c0 -135 42 -188 137 -188c94 0 137 53 137 188v285h57v-273c0 -177 -64 -251 -194 -251c-131 0 -194 74 -194 251v273h57zM355 759l-60 -173l-41 6l44 177z" />
    <glyph glyph-name="omegatonos" unicode="&#x3ce;" horiz-adv-x="721" 
d="M435 759l-60 -173l-41 6l44 177zM389 349v-129c0 -139 43 -181 107 -181c69 0 107 48 107 177v51c0 107 -35 181 -108 216l32 41c89 -43 137 -130 137 -283c0 -179 -61 -253 -162 -253c-80 0 -126 51 -140 133h-4c-14 -82 -59 -133 -139 -133c-101 0 -162 74 -162 253
c0 150 49 239 137 283l32 -41c-74 -36 -108 -105 -108 -216v-51c0 -129 38 -177 107 -177c64 0 107 42 107 181v129h57z" />
    <glyph glyph-name="uni0400" unicode="&#x400;" horiz-adv-x="574" 
d="M304 760l-109 156l52 26l95 -164zM507 0h-408v698h408v-53h-348v-264h331v-53h-331v-275h348v-53z" />
    <glyph glyph-name="uni0401" unicode="&#x401;" horiz-adv-x="574" 
d="M210 800c-28 0 -40 16 -40 37v10c0 21 12 37 40 37c27 0 39 -16 39 -37v-10c0 -21 -12 -37 -39 -37zM394 800c-27 0 -39 16 -39 37v10c0 21 12 37 39 37c28 0 40 -16 40 -37v-10c0 -21 -12 -37 -40 -37zM507 0h-408v698h408v-53h-348v-264h331v-53h-331v-275h348v-53z
" />
    <glyph glyph-name="uni0402" unicode="&#x402;" horiz-adv-x="781" 
d="M512 -164v53h84c38 21 63 68 63 166v136c0 132 -64 187 -181 187c-68 0 -126 -9 -164 -25v-353h-60v645h-234v53h528v-53h-234v-239h5c39 16 96 25 162 25c160 0 238 -77 238 -240v-136c0 -157 -57 -219 -155 -219h-52z" />
    <glyph glyph-name="uni0403" unicode="&#x403;" horiz-adv-x="502" 
d="M389 916l-110 -156l-37 18l95 164zM99 0v698h370v-53h-310v-645h-60z" />
    <glyph glyph-name="uni0404" unicode="&#x404;" horiz-adv-x="623" 
d="M338 -12c-176 0 -275 123 -275 359c0 235 99 363 275 363c115 0 192 -57 234 -149l-49 -29c-31 76 -93 124 -185 124c-134 0 -211 -98 -211 -270v-6h315v-53h-315v-20c0 -171 77 -265 211 -265c97 0 160 51 191 131l48 -29c-41 -95 -122 -156 -239 -156z" />
    <glyph glyph-name="uni0405" unicode="&#x405;" horiz-adv-x="568" 
d="M284 -12c-114 0 -188 47 -242 119l45 37c49 -65 108 -103 199 -103c108 0 168 54 168 146c0 86 -52 119 -141 138l-62 13c-132 27 -190 90 -190 187c0 122 90 185 224 185c104 0 175 -40 221 -107l-45 -33c-39 55 -95 87 -179 87c-100 0 -162 -44 -162 -130
c0 -83 56 -115 143 -133l62 -13c139 -30 188 -95 188 -191c0 -127 -87 -202 -229 -202z" />
    <glyph glyph-name="uni0406" unicode="&#x406;" horiz-adv-x="390" 
d="M327 0h-264v50h102v598h-102v50h264v-50h-102v-598h102v-50z" />
    <glyph glyph-name="uni0407" unicode="&#x407;" horiz-adv-x="390" 
d="M102 800c-28 0 -40 16 -40 37v10c0 21 12 37 40 37c27 0 39 -16 39 -37v-10c0 -21 -12 -37 -39 -37zM286 800c-27 0 -39 16 -39 37v10c0 21 12 37 39 37c28 0 40 -16 40 -37v-10c0 -21 -12 -37 -40 -37zM327 0h-264v50h102v598h-102v50h264v-50h-102v-598h102v-50z" />
    <glyph glyph-name="uni0408" unicode="&#x408;" horiz-adv-x="493" 
d="M97 698h302v-516c0 -123 -75 -194 -189 -194c-98 0 -166 59 -184 146l53 13c16 -61 59 -106 133 -106c83 0 127 52 127 150v454h-242v53z" />
    <glyph glyph-name="uni0409" unicode="&#x409;" horiz-adv-x="1000" 
d="M9 0v53h69c62 61 97 178 97 455v190h371v-288h219c121 0 187 -77 187 -205s-66 -205 -187 -205h-279v645h-254v-141c0 -282 -39 -411 -99 -471c-24 -24 -49 -33 -86 -33h-38zM546 53h219c80 0 123 52 123 128v48c0 77 -43 128 -123 128h-219v-304z" />
    <glyph glyph-name="uni040A" unicode="&#x40a;" horiz-adv-x="1036" 
d="M99 0v698h60v-323h362v323h60v-296h220c121 0 187 -75 187 -201c0 -125 -66 -201 -187 -201h-280v322h-362v-322h-60zM581 53h220c80 0 122 50 122 124v48c0 75 -42 124 -122 124h-220v-296z" />
    <glyph glyph-name="uni040B" unicode="&#x40b;" horiz-adv-x="791" 
d="M254 0v645h-234v53h528v-53h-234v-239h5c39 16 97 25 165 25c167 0 245 -77 245 -241v-190h-60v190c0 133 -64 188 -188 188c-70 0 -129 -9 -167 -25v-353h-60z" />
    <glyph glyph-name="uni040C" unicode="&#x40c;" horiz-adv-x="644" 
d="M422 916l-110 -156l-37 18l95 164zM99 0v698h60v-317h145l157 265c23 39 43 52 75 52h46v-53h-60l-144 -243c-19 -31 -29 -40 -49 -45v-4c23 -4 38 -14 59 -49l153 -251h60v-53h-57c-28 0 -48 14 -70 50l-170 279h-145v-329h-60z" />
    <glyph glyph-name="uni040D" unicode="&#x40d;" horiz-adv-x="701" 
d="M351 760l-109 156l52 26l95 -164zM99 0v698h58v-500l-6 -116h3l58 105l337 511h53v-698h-58v500l7 116h-3l-59 -105l-336 -511h-54z" />
    <glyph glyph-name="uni040E" unicode="&#x40e;" horiz-adv-x="587" 
d="M303 774c-69 0 -106 36 -130 83l-17 33l50 22l35 -76c17 -13 40 -19 62 -19s45 6 62 19l35 76l50 -22l-17 -33c-24 -47 -61 -83 -130 -83zM149 0v53h98l40 100l-263 545h65l177 -368l46 -103h4l39 105l146 366h62l-255 -636c-20 -49 -42 -62 -94 -62h-65z" />
    <glyph glyph-name="uni040F" unicode="&#x40f;" horiz-adv-x="686" 
d="M315 -150v150h-216v698h60v-645h368v645h60v-698h-216v-150h-56z" />
    <glyph glyph-name="uni0410" unicode="&#x410;" horiz-adv-x="625" 
d="M599 0h-63l-76 217h-297l-76 -217h-60l247 698h77zM444 269l-131 372h-4l-131 -372h266z" />
    <glyph glyph-name="uni0411" unicode="&#x411;" horiz-adv-x="624" 
d="M99 0v698h405v-53h-345v-235h219c120 0 186 -77 186 -205s-66 -205 -186 -205h-279zM159 53h219c80 0 122 52 122 128v48c0 77 -42 128 -122 128h-219v-304z" />
    <glyph glyph-name="uni0412" unicode="&#x412;" horiz-adv-x="638" 
d="M99 0v698h273c109 0 175 -66 175 -176c0 -97 -55 -140 -107 -152v-4c65 -8 134 -60 134 -169c0 -115 -70 -197 -177 -197h-298zM159 337v-284h222c84 0 129 51 129 124v37c0 72 -45 123 -129 123h-222zM159 645v-256h207c76 0 117 46 117 109v38c0 64 -41 109 -117 109
h-207z" />
    <glyph glyph-name="uni0413" unicode="&#x413;" horiz-adv-x="502" 
d="M99 0v698h370v-53h-310v-645h-60z" />
    <glyph glyph-name="uni0414" unicode="&#x414;" horiz-adv-x="703" 
d="M10 -150v203h72c61 88 95 229 95 447v198h393v-645h94v-203h-56v150h-542v-150h-56zM153 53h357v592h-275v-148c0 -220 -32 -360 -82 -440v-4z" />
    <glyph glyph-name="uni0415" unicode="&#x415;" horiz-adv-x="574" 
d="M507 0h-408v698h408v-53h-348v-264h331v-53h-331v-275h348v-53z" />
    <glyph glyph-name="uni0416" unicode="&#x416;" horiz-adv-x="945" 
d="M43 0v53h60l129 246c18 34 36 48 59 54v4c-20 5 -36 20 -52 51l-119 237h-60v53h49c32 0 54 -14 73 -52l133 -265h128v317h59v-317h128l133 265c19 38 41 52 73 52h49v-53h-60l-119 -237c-16 -31 -32 -46 -52 -51v-4c23 -6 41 -20 59 -54l129 -246h60v-53h-57
c-30 0 -49 13 -69 51l-146 278h-128v-329h-59v329h-128l-146 -278c-20 -38 -39 -51 -69 -51h-57z" />
    <glyph glyph-name="uni0417" unicode="&#x417;" horiz-adv-x="586" 
d="M282 -12c-109 0 -186 42 -236 117l44 35c43 -65 103 -98 192 -98c108 0 176 49 176 139v19c0 78 -57 130 -167 130h-110v53h105c102 0 156 49 156 134v18c0 74 -56 121 -154 121c-90 0 -142 -34 -173 -87l-46 29c41 69 108 112 219 112c141 0 219 -71 219 -179
c0 -99 -54 -154 -136 -171v-4c87 -11 151 -63 151 -165c0 -123 -91 -203 -240 -203z" />
    <glyph glyph-name="uni0418" unicode="&#x418;" horiz-adv-x="701" 
d="M99 0v698h58v-500l-6 -116h3l58 105l337 511h53v-698h-58v500l7 116h-3l-59 -105l-336 -511h-54z" />
    <glyph glyph-name="uni0419" unicode="&#x419;" horiz-adv-x="701" 
d="M348 774c-69 0 -106 36 -130 83l-17 33l50 22l35 -76c17 -13 40 -19 62 -19s45 6 62 19l35 76l50 -22l-17 -33c-24 -47 -61 -83 -130 -83zM99 0v698h58v-500l-6 -116h3l58 105l337 511h53v-698h-58v500l7 116h-3l-59 -105l-336 -511h-54z" />
    <glyph glyph-name="uni041A" unicode="&#x41a;" horiz-adv-x="644" 
d="M99 0v698h60v-317h145l157 265c23 39 43 52 75 52h46v-53h-60l-144 -243c-19 -31 -29 -40 -49 -45v-4c23 -4 38 -14 59 -49l153 -251h60v-53h-57c-28 0 -48 14 -70 50l-170 279h-145v-329h-60z" />
    <glyph glyph-name="uni041B" unicode="&#x41b;" horiz-adv-x="666" 
d="M9 0v53h69c62 61 97 178 97 455v190h393v-698h-60v645h-275v-141c0 -282 -40 -411 -100 -471c-24 -24 -49 -33 -86 -33h-38z" />
    <glyph glyph-name="uni041C" unicode="&#x41c;" horiz-adv-x="804" 
d="M99 0v698h82l221 -393h3l221 393h79v-698h-58v621h-4l-241 -427l-241 427h-4v-621h-58z" />
    <glyph glyph-name="uni041D" unicode="&#x41d;" horiz-adv-x="701" 
d="M542 0v328h-383v-328h-60v698h60v-317h383v317h60v-698h-60z" />
    <glyph glyph-name="uni041E" unicode="&#x41e;" horiz-adv-x="697" 
d="M349 -12c-178 0 -286 125 -286 361s108 361 286 361c177 0 285 -125 285 -361s-108 -361 -285 -361zM349 42c133 0 221 97 221 263v88c0 166 -88 263 -221 263c-134 0 -222 -97 -222 -263v-88c0 -166 88 -263 222 -263z" />
    <glyph glyph-name="uni041F" unicode="&#x41f;" horiz-adv-x="686" 
d="M99 0v698h488v-698h-60v645h-368v-645h-60z" />
    <glyph glyph-name="uni0420" unicode="&#x420;" horiz-adv-x="601" 
d="M159 0h-60v698h274c121 0 187 -76 187 -195c0 -120 -66 -196 -187 -196h-214v-307zM159 645v-285h214c80 0 123 50 123 119v48c0 68 -43 118 -123 118h-214z" />
    <glyph glyph-name="uni0421" unicode="&#x421;" horiz-adv-x="617" 
d="M335 -12c-172 0 -272 123 -272 359c0 235 100 363 272 363c111 0 189 -57 231 -149l-49 -29c-31 76 -94 124 -182 124c-130 0 -208 -98 -208 -270v-79c0 -171 78 -265 208 -265c93 0 157 51 187 131l49 -29c-41 -95 -123 -156 -236 -156z" />
    <glyph glyph-name="uni0422" unicode="&#x422;" horiz-adv-x="568" 
d="M548 645h-234v-645h-60v645h-234v53h528v-53z" />
    <glyph glyph-name="uni0423" unicode="&#x423;" horiz-adv-x="587" 
d="M149 0v53h98l40 100l-263 545h65l177 -368l46 -103h4l39 105l146 366h62l-255 -636c-20 -49 -42 -62 -94 -62h-65z" />
    <glyph glyph-name="uni0424" unicode="&#x424;" horiz-adv-x="832" 
d="M386 -29v90h-41c-183 0 -291 123 -291 287s109 287 292 287h40v90h60v-90h40c183 0 292 -123 292 -287s-109 -287 -292 -287h-40v-90h-60zM345 112h42v473h-41c-140 0 -228 -99 -228 -206v-62c0 -107 87 -205 227 -205zM445 112h41c140 0 228 98 228 205v62
c0 107 -88 206 -228 206h-41v-473z" />
    <glyph glyph-name="uni0425" unicode="&#x425;" horiz-adv-x="592" 
d="M26 0l231 355l-224 343h71l191 -295h2l193 295h69l-226 -340l233 -358h-72l-198 309h-2l-199 -309h-69z" />
    <glyph glyph-name="uni0426" unicode="&#x426;" horiz-adv-x="720" 
d="M626 -150v150h-527v698h60v-645h368v645h60v-645h94v-203h-55z" />
    <glyph glyph-name="uni0427" unicode="&#x427;" horiz-adv-x="636" 
d="M477 0v287h-5c-39 -15 -97 -25 -165 -25c-168 0 -245 77 -245 241v195h60v-195c0 -132 64 -188 187 -188c71 0 129 9 168 25v358h60v-698h-60z" />
    <glyph glyph-name="uni0428" unicode="&#x428;" horiz-adv-x="936" 
d="M99 0v698h60v-645h279v645h60v-645h279v645h60v-698h-738z" />
    <glyph glyph-name="uni0429" unicode="&#x429;" horiz-adv-x="970" 
d="M875 -150v150h-776v698h60v-645h279v645h60v-645h279v645h60v-645h94v-203h-56z" />
    <glyph glyph-name="uni042A" unicode="&#x42a;" horiz-adv-x="735" 
d="M212 0v645h-192v53h252v-288h229c120 0 186 -77 186 -205s-66 -205 -186 -205h-289zM272 53h229c80 0 122 52 122 128v48c0 77 -42 128 -122 128h-229v-304z" />
    <glyph glyph-name="uni042B" unicode="&#x42b;" horiz-adv-x="854" 
d="M99 0v698h60v-288h219c120 0 186 -77 186 -205s-66 -205 -186 -205h-279zM159 53h219c80 0 122 52 122 128v48c0 77 -42 128 -122 128h-219v-304zM695 0v698h60v-698h-60z" />
    <glyph glyph-name="uni042C" unicode="&#x42c;" horiz-adv-x="622" 
d="M99 0v698h60v-288h229c120 0 186 -77 186 -205s-66 -205 -186 -205h-289zM159 53h229c80 0 122 52 122 128v48c0 77 -42 128 -122 128h-229v-304z" />
    <glyph glyph-name="uni042D" unicode="&#x42d;" horiz-adv-x="623" 
d="M181 327v53h315v11c0 171 -77 265 -211 265c-91 0 -154 -48 -185 -124l-49 29c42 92 120 149 234 149c176 0 275 -123 275 -359c0 -235 -99 -363 -275 -363c-117 0 -198 61 -239 156l48 29c31 -80 93 -131 191 -131c134 0 211 98 211 270v15h-315z" />
    <glyph glyph-name="uni042E" unicode="&#x42e;" horiz-adv-x="939" 
d="M598 -12c-174 0 -272 116 -279 340h-160v-328h-60v698h60v-317h162c7 214 105 329 277 329c176 0 278 -121 278 -361s-102 -361 -278 -361zM598 42c132 0 214 93 214 263v88c0 170 -82 263 -214 263c-133 0 -214 -93 -214 -263v-88c0 -170 81 -263 214 -263z" />
    <glyph glyph-name="uni042F" unicode="&#x42f;" horiz-adv-x="636" 
d="M38 0v53h60l108 207c17 34 29 46 52 52v5h-3c-121 2 -179 76 -179 187c0 122 68 194 187 194h274v-698h-60v309h-180l-134 -260c-20 -37 -38 -49 -67 -49h-58zM263 360h214v285h-214c-80 0 -122 -50 -122 -118v-48c0 -69 42 -119 122 -119z" />
    <glyph glyph-name="uni0430" unicode="&#x430;" horiz-adv-x="527" 
d="M503 0h-58c-44 0 -62 25 -65 63v18h-5c-23 -57 -75 -93 -155 -93c-107 0 -169 56 -169 151c0 91 60 148 208 148h118v60c0 84 -44 127 -131 127c-68 0 -112 -30 -140 -83l-36 30c28 59 85 103 178 103c119 0 186 -63 186 -171v-303h69v-50zM228 37c83 0 149 43 149 112
v95h-120c-102 0 -146 -35 -146 -92v-24c0 -59 47 -91 117 -91z" />
    <glyph glyph-name="uni0431" unicode="&#x431;" horiz-adv-x="556" 
d="M280 -12c-107 0 -182 54 -212 172c-9 38 -12 81 -12 133c0 317 66 426 258 442l151 12v-57l-157 -13c-143 -12 -177 -82 -191 -278h3c32 81 89 113 167 113c133 0 217 -96 217 -263c0 -159 -87 -261 -224 -261zM283 39c94 0 160 65 160 180v56c0 121 -64 186 -165 186
c-104 0 -160 -63 -160 -162v-74c0 -121 64 -186 165 -186z" />
    <glyph glyph-name="uni0432" unicode="&#x432;" horiz-adv-x="555" 
d="M93 0v512h247c78 0 126 -48 126 -128c0 -65 -33 -102 -93 -113v-4c76 -8 113 -53 113 -120c0 -83 -49 -147 -134 -147h-259zM150 48h187c57 0 88 35 88 84v26c0 48 -33 83 -94 83h-181v-193zM150 288h173c54 0 82 32 82 77v25c0 44 -27 74 -78 74h-177v-176z" />
    <glyph glyph-name="uni0433" unicode="&#x433;" horiz-adv-x="438" 
d="M93 0v512h314v-50h-257v-462h-57z" />
    <glyph glyph-name="uni0434" unicode="&#x434;" horiz-adv-x="578" 
d="M7 -140v190h56c46 72 75 179 75 312v150h325v-462h81v-190h-53v140h-431v-140h-53zM124 50h282v412h-213v-102c0 -140 -31 -246 -69 -310z" />
    <glyph glyph-name="uni0435" unicode="&#x435;" horiz-adv-x="543" 
d="M276 -12c-137 0 -224 100 -224 268s87 268 223 268c131 0 216 -102 216 -252v-27h-379v-25c0 -107 62 -182 167 -182c73 0 127 36 155 103l42 -28c-32 -75 -103 -125 -200 -125zM275 476c-99 0 -163 -74 -163 -182v-5h317v8c0 108 -62 179 -154 179z" />
    <glyph glyph-name="uni0436" unicode="&#x436;" horiz-adv-x="759" 
d="M41 0v50h59l78 167c15 32 31 44 52 48v4c-21 6 -35 18 -50 47l-73 146h-59v50h48c31 0 52 -14 68 -47l87 -174h100v221h57v-221h100l87 174c16 33 37 47 68 47h48v-50h-59l-73 -146c-15 -29 -29 -41 -50 -47v-4c21 -4 37 -16 52 -48l78 -167h59v-50h-56
c-27 0 -47 12 -64 49l-90 193h-100v-242h-57v242h-100l-90 -193c-17 -37 -37 -49 -64 -49h-56z" />
    <glyph glyph-name="uni0437" unicode="&#x437;" horiz-adv-x="498" 
d="M231 -12c-100 0 -156 38 -193 101l43 33c29 -53 78 -83 150 -83c88 0 138 38 138 94v16c0 58 -44 91 -117 91h-106v48h100c68 0 112 35 112 87v14c0 51 -42 84 -124 84c-74 0 -118 -30 -147 -81l-39 31c32 60 89 101 188 101c120 0 182 -52 182 -135
c0 -67 -38 -106 -101 -119v-4c72 -10 113 -53 113 -123c0 -95 -76 -155 -199 -155z" />
    <glyph glyph-name="uni0438" unicode="&#x438;" horiz-adv-x="584" 
d="M93 0v512h56v-332l-6 -103h4l53 91l238 344h53v-512h-56v332l6 103h-4l-54 -91l-238 -344h-52z" />
    <glyph glyph-name="uni0439" unicode="&#x439;" horiz-adv-x="584" 
d="M291 600c-69 0 -106 36 -130 83l-17 33l50 22l35 -76c17 -13 40 -19 62 -19s45 6 62 19l35 76l50 -22l-17 -33c-24 -47 -61 -83 -130 -83zM93 0v512h56v-332l-6 -103h4l53 91l238 344h53v-512h-56v332l6 103h-4l-54 -91l-238 -344h-52z" />
    <glyph glyph-name="uni043A" unicode="&#x43a;" horiz-adv-x="538" 
d="M93 0v512h57v-221h110l117 179c22 34 37 42 65 42h47v-50h-59l-98 -150c-19 -29 -28 -37 -49 -43v-4c23 -4 37 -13 58 -49l98 -166h59v-50h-57c-25 0 -44 10 -64 44l-117 198h-110v-242h-57z" />
    <glyph glyph-name="uni043B" unicode="&#x43b;" horiz-adv-x="555" 
d="M6 0v50h64c38 47 67 133 67 314v148h325v-512h-57v462h-213v-100c0 -197 -36 -295 -77 -336c-20 -19 -42 -26 -73 -26h-36z" />
    <glyph glyph-name="uni043C" unicode="&#x43c;" horiz-adv-x="690" 
d="M93 0v512h77l174 -293h4l173 293h76v-512h-56v443h-5l-32 -57l-159 -266l-159 266l-32 57h-5v-443h-56z" />
    <glyph glyph-name="uni043D" unicode="&#x43d;" horiz-adv-x="583" 
d="M93 0v512h57v-221h284v221h57v-512h-57v241h-284v-241h-57z" />
    <glyph glyph-name="uni043E" unicode="&#x43e;" horiz-adv-x="550" 
d="M275 -12c-135 0 -223 100 -223 268s88 268 223 268s223 -100 223 -268s-88 -268 -223 -268zM275 39c99 0 162 65 162 185v64c0 119 -63 185 -162 185s-162 -65 -162 -185v-64c0 -119 63 -185 162 -185z" />
    <glyph glyph-name="uni043F" unicode="&#x43f;" horiz-adv-x="571" 
d="M93 0v512h385v-512h-57v462h-271v-462h-57z" />
    <glyph glyph-name="uni0440" unicode="&#x440;" horiz-adv-x="574" 
d="M93 -200v712h57v-82h3c25 57 78 94 156 94c131 0 211 -99 211 -268s-80 -268 -211 -268c-78 0 -128 37 -156 94h-3v-282h-57zM296 39c102 0 163 71 163 181v72c0 110 -61 181 -163 181c-79 0 -146 -47 -146 -114v-203c0 -72 67 -117 146 -117z" />
    <glyph glyph-name="uni0441" unicode="&#x441;" horiz-adv-x="496" 
d="M273 -12c-140 0 -221 99 -221 268s81 268 221 268c94 0 152 -46 182 -113l-48 -24c-24 55 -67 86 -134 86c-104 0 -160 -73 -160 -181v-72c0 -108 56 -181 160 -181c70 0 118 32 147 89l42 -28c-33 -68 -95 -112 -189 -112z" />
    <glyph glyph-name="uni0442" unicode="&#x442;" horiz-adv-x="475" 
d="M209 0v462h-183v50h423v-50h-183v-462h-57z" />
    <glyph glyph-name="uni0443" unicode="&#x443;" horiz-adv-x="479" 
d="M243 61l156 451h58l-237 -656c-16 -43 -33 -56 -85 -56h-58v50h86l49 135l-190 527h60l157 -451h4z" />
    <glyph glyph-name="uni0444" unicode="&#x444;" horiz-adv-x="741" 
d="M342 -200v259h-3c-24 -40 -60 -71 -115 -71c-114 0 -168 88 -168 268s54 268 168 268c55 0 91 -31 115 -71h3v257h57v-257h3c24 40 60 71 115 71c114 0 168 -88 168 -268s-54 -268 -168 -268c-55 0 -91 31 -115 71h-3v-259h-57zM237 39c68 0 106 41 106 86v262
c0 45 -38 86 -106 86c-84 0 -119 -59 -119 -181v-72c0 -122 35 -181 119 -181zM504 39c84 0 119 59 119 181v72c0 122 -35 181 -119 181c-68 0 -106 -41 -106 -86v-262c0 -45 38 -86 106 -86z" />
    <glyph glyph-name="uni0445" unicode="&#x445;" horiz-adv-x="493" 
d="M26 0l190 258l-183 254h67l146 -209h3l149 209h64l-182 -250l187 -262h-67l-151 216h-2l-157 -216h-64z" />
    <glyph glyph-name="uni0446" unicode="&#x446;" horiz-adv-x="593" 
d="M506 -140v140h-413v512h57v-462h270v462h57v-462h82v-190h-53z" />
    <glyph glyph-name="uni0447" unicode="&#x447;" horiz-adv-x="532" 
d="M382 0v253h-5c-27 -39 -72 -70 -154 -70c-106 0 -169 51 -169 160v169h57v-164c0 -79 44 -114 127 -114c85 0 144 33 144 90v188h57v-512h-57z" />
    <glyph glyph-name="uni0448" unicode="&#x448;" horiz-adv-x="791" 
d="M93 0v512h57v-462h217v462h57v-462h217v462h57v-512h-605z" />
    <glyph glyph-name="uni0449" unicode="&#x449;" horiz-adv-x="813" 
d="M727 -140v140h-634v512h57v-462h217v462h57v-462h217v462h57v-462h82v-190h-53z" />
    <glyph glyph-name="uni044A" unicode="&#x44a;" horiz-adv-x="589" 
d="M166 0v462h-140v50h197v-197h156c103 0 164 -61 164 -157c0 -98 -60 -158 -164 -158h-213zM223 50h149c72 0 110 34 110 90v36c0 56 -38 89 -110 89h-149v-215z" />
    <glyph glyph-name="uni044B" unicode="&#x44b;" horiz-adv-x="704" 
d="M93 0v512h57v-197h142c103 0 165 -61 165 -158s-60 -157 -164 -157h-200zM150 50h136c72 0 109 34 109 90v36c0 56 -37 89 -109 89h-136v-215zM554 0v512h57v-512h-57z" />
    <glyph glyph-name="uni044C" unicode="&#x44c;" horiz-adv-x="516" 
d="M93 0v512h57v-197h155c104 0 165 -61 165 -158s-60 -157 -164 -157h-213zM150 50h149c72 0 109 34 109 90v36c0 56 -37 89 -109 89h-149v-215z" />
    <glyph glyph-name="uni044D" unicode="&#x44d;" horiz-adv-x="506" 
d="M152 234v49h240v9c0 109 -56 181 -163 181c-71 0 -116 -31 -145 -90l-43 28c32 68 94 113 188 113c142 0 224 -99 224 -268s-82 -268 -224 -268c-100 0 -157 46 -188 111l47 25c24 -53 68 -85 141 -85c107 0 163 72 163 181v14h-240z" />
    <glyph glyph-name="uni044E" unicode="&#x44e;" horiz-adv-x="763" 
d="M493 -12c-129 0 -212 92 -217 254h-126v-242h-57v512h57v-221h127c11 150 92 233 216 233c134 0 218 -97 218 -268s-84 -268 -218 -268zM493 39c97 0 156 63 156 185v64c0 122 -59 185 -156 185s-156 -63 -156 -185v-64c0 -122 59 -185 156 -185z" />
    <glyph glyph-name="uni044F" unicode="&#x44f;" horiz-adv-x="528" 
d="M39 0v50h57l54 112c12 26 28 40 48 44v3c-91 7 -140 63 -140 148c0 95 61 155 164 155h214v-512h-57v204h-148l-74 -154c-17 -39 -37 -50 -64 -50h-54zM230 253h149v209h-149c-72 0 -110 -34 -110 -90v-30c0 -56 38 -89 110 -89z" />
    <glyph glyph-name="uni0450" unicode="&#x450;" horiz-adv-x="543" 
d="M277 586l-109 156l52 26l95 -164zM276 -12c-137 0 -224 100 -224 268s87 268 223 268c131 0 216 -102 216 -252v-27h-379v-25c0 -107 62 -182 167 -182c73 0 127 36 155 103l42 -28c-32 -75 -103 -125 -200 -125zM275 476c-99 0 -163 -74 -163 -182v-5h317v8
c0 108 -62 179 -154 179z" />
    <glyph glyph-name="uni0451" unicode="&#x451;" horiz-adv-x="543" 
d="M183 627c-28 0 -39 15 -39 36v10c0 21 11 36 39 36c27 0 39 -15 39 -36v-10c0 -21 -12 -36 -39 -36zM367 627c-27 0 -39 15 -39 36v10c0 21 12 36 39 36c28 0 39 -15 39 -36v-10c0 -21 -11 -36 -39 -36zM276 -12c-137 0 -224 100 -224 268s87 268 223 268
c131 0 216 -102 216 -252v-27h-379v-25c0 -107 62 -182 167 -182c73 0 127 36 155 103l42 -28c-32 -75 -103 -125 -200 -125zM275 476c-99 0 -163 -74 -163 -182v-5h317v8c0 108 -62 179 -154 179z" />
    <glyph glyph-name="uni0452" unicode="&#x452;" horiz-adv-x="564" 
d="M335 -200v50h85v469c0 104 -46 154 -131 154c-72 0 -139 -37 -139 -113v-360h-57v616h-65v45h65v79h57v-79h155v-45h-155v-185h3c22 54 69 93 151 93c109 0 173 -70 173 -195v-446c0 -51 -25 -83 -79 -83h-63z" />
    <glyph glyph-name="uni0453" unicode="&#x453;" horiz-adv-x="438" 
d="M358 742l-110 -156l-37 18l95 164zM93 0v512h314v-50h-257v-462h-57z" />
    <glyph glyph-name="uni0454" unicode="&#x454;" horiz-adv-x="506" 
d="M277 -12c-144 0 -225 99 -225 268s81 268 225 268c96 0 154 -46 184 -113l-48 -24c-24 55 -67 86 -136 86c-109 0 -163 -73 -163 -181v-9h240v-49h-240v-14c0 -108 54 -181 163 -181c72 0 120 32 149 89l42 -28c-33 -68 -95 -112 -191 -112z" />
    <glyph glyph-name="uni0455" unicode="&#x455;" horiz-adv-x="477" 
d="M238 -12c-89 0 -151 35 -197 98l42 33c42 -55 91 -82 159 -82c78 0 123 35 123 97c0 54 -31 85 -105 96l-42 7c-93 14 -157 51 -157 143c0 96 75 144 174 144c85 0 137 -33 175 -79l-38 -35c-27 32 -69 65 -140 65c-73 0 -116 -34 -116 -92c0 -59 37 -82 110 -94l41 -6
c104 -16 153 -61 153 -143c0 -95 -69 -152 -182 -152z" />
    <glyph glyph-name="uni0456" unicode="&#x456;" horiz-adv-x="243" 
d="M121 651c-27 0 -39 15 -39 36v10c0 21 12 36 39 36s39 -15 39 -36v-10c0 -21 -12 -36 -39 -36zM93 0v512h57v-512h-57z" />
    <glyph glyph-name="uni0457" unicode="&#x457;" horiz-adv-x="243" 
d="M29 627c-28 0 -39 15 -39 36v10c0 21 11 36 39 36c27 0 39 -15 39 -36v-10c0 -21 -12 -36 -39 -36zM213 627c-27 0 -39 15 -39 36v10c0 21 12 36 39 36c28 0 39 -15 39 -36v-10c0 -21 -11 -36 -39 -36zM150 0h-57v512h57v-512z" />
    <glyph glyph-name="uni0458" unicode="&#x458;" horiz-adv-x="243" 
d="M93 -150v662h57v-627c0 -52 -25 -85 -80 -85h-62v50h85zM121 651c-27 0 -39 15 -39 36v10c0 21 12 36 39 36s39 -15 39 -36v-10c0 -21 -12 -36 -39 -36z" />
    <glyph glyph-name="uni0459" unicode="&#x459;" horiz-adv-x="790" 
d="M6 0v50h64c38 47 67 133 67 314v148h300v-197h142c104 0 165 -61 165 -158s-60 -157 -164 -157h-200v462h-188v-100c0 -197 -36 -295 -77 -336c-20 -19 -42 -26 -73 -26h-36zM437 50h136c72 0 110 34 110 90v36c0 56 -38 89 -110 89h-136v-215z" />
    <glyph glyph-name="uni045A" unicode="&#x45a;" horiz-adv-x="822" 
d="M93 0v512h57v-228h262v228h57v-201h143c103 0 164 -59 164 -156s-60 -155 -164 -155h-200v234h-262v-234h-57zM469 50h136c72 0 110 32 110 88v36c0 56 -38 87 -110 87h-136v-211z" />
    <glyph glyph-name="uni045B" unicode="&#x45b;" horiz-adv-x="563" 
d="M150 0h-57v616h-65v45h65v79h57v-79h155v-45h-155v-185h3c22 53 68 93 150 93c109 0 174 -70 174 -195v-329h-57v319c0 104 -47 154 -132 154c-71 0 -138 -37 -138 -113v-360z" />
    <glyph glyph-name="uni045C" unicode="&#x45c;" horiz-adv-x="538" 
d="M382 742l-110 -156l-37 18l95 164zM93 0v512h57v-221h110l117 179c22 34 37 42 65 42h47v-50h-59l-98 -150c-19 -29 -28 -37 -49 -43v-4c23 -4 37 -13 58 -49l98 -166h59v-50h-57c-25 0 -44 10 -64 44l-117 198h-110v-242h-57z" />
    <glyph glyph-name="uni045D" unicode="&#x45d;" horiz-adv-x="584" 
d="M293 586l-109 156l52 26l95 -164zM93 0v512h56v-332l-6 -103h4l53 91l238 344h53v-512h-56v332l6 103h-4l-54 -91l-238 -344h-52z" />
    <glyph glyph-name="uni045E" unicode="&#x45e;" horiz-adv-x="479" 
d="M240 600c-69 0 -106 36 -130 83l-17 33l50 22l35 -76c17 -13 40 -19 62 -19s45 6 62 19l35 76l50 -22l-17 -33c-24 -47 -61 -83 -130 -83zM243 61l156 451h58l-237 -656c-16 -43 -33 -56 -85 -56h-58v50h86l49 135l-190 527h60l157 -451h4z" />
    <glyph glyph-name="uni045F" unicode="&#x45f;" horiz-adv-x="571" 
d="M259 -140v140h-166v512h57v-462h271v462h57v-512h-166v-140h-53z" />
    <glyph glyph-name="uni0472" unicode="&#x472;" horiz-adv-x="697" 
d="M349 -12c-178 0 -286 125 -286 361s108 361 286 361c177 0 285 -125 285 -361s-108 -361 -285 -361zM349 42c133 0 221 97 221 263v22h-443v-22c0 -166 88 -263 222 -263zM127 393v-13h443v13c0 166 -88 263 -221 263c-134 0 -222 -97 -222 -263z" />
    <glyph glyph-name="uni0473" unicode="&#x473;" horiz-adv-x="552" 
d="M276 -12c-136 0 -224 100 -224 268s88 268 224 268s224 -100 224 -268s-88 -268 -224 -268zM276 39c99 0 163 66 163 185v14h-325v-14c0 -119 63 -185 162 -185zM114 288v-5h325v5c0 120 -64 185 -163 185s-162 -65 -162 -185z" />
    <glyph glyph-name="uni0490" unicode="&#x490;" horiz-adv-x="502" 
d="M99 0v698h314v150h56v-203h-310v-645h-60z" />
    <glyph glyph-name="uni0491" unicode="&#x491;" horiz-adv-x="438" 
d="M93 0v512h262v140h52v-190h-257v-462h-57z" />
    <glyph glyph-name="uni0492" unicode="&#x492;" horiz-adv-x="522" 
d="M119 0v348h-100v47h100v303h370v-53h-310v-250h206v-47h-206v-348h-60z" />
    <glyph glyph-name="uni0493" unicode="&#x493;" horiz-adv-x="452" 
d="M107 0v241h-78v44h78v227h315v-50h-258v-177h173v-44h-173v-241h-57z" />
    <glyph glyph-name="uni0494" unicode="&#x494;" horiz-adv-x="626" 
d="M346 -164v53h84c45 22 74 77 74 179v87c0 131 -64 187 -188 187c-61 0 -122 -9 -157 -24v-318h-60v698h362v-53h-302v-273h5c37 14 95 23 155 23c167 0 245 -78 245 -240v-87c0 -158 -68 -232 -166 -232h-52z" />
    <glyph glyph-name="uni0495" unicode="&#x495;" horiz-adv-x="533" 
d="M299 -200v50h86c21 24 35 63 35 143v115c0 98 -39 131 -127 131c-84 0 -143 -33 -143 -90v-149h-57v512h314v-50h-257v-242h4c27 39 73 70 155 70c110 0 168 -49 168 -176v-130c0 -128 -49 -184 -118 -184h-60z" />
    <glyph glyph-name="uni0496" unicode="&#x496;" horiz-adv-x="956" 
d="M875 -150v150h-30c-30 0 -49 13 -69 51l-146 278h-128v-329h-59v329h-128l-146 -278c-20 -38 -39 -51 -69 -51h-57v53h60l129 246c18 34 36 48 59 54v4c-20 5 -36 20 -52 51l-119 237h-60v53h49c32 0 54 -14 73 -52l133 -265h128v317h59v-317h128l133 265
c19 38 41 52 73 52h49v-53h-60l-119 -237c-16 -31 -32 -46 -52 -51v-4c23 -6 41 -20 59 -54l129 -246h88v-203h-55z" />
    <glyph glyph-name="uni0497" unicode="&#x497;" horiz-adv-x="764" 
d="M684 -140v140h-22c-27 0 -47 12 -64 49l-90 193h-100v-242h-57v242h-100l-90 -193c-17 -37 -37 -49 -64 -49h-56v50h59l78 167c15 32 31 44 52 48v4c-21 6 -35 18 -50 47l-73 146h-59v50h48c31 0 52 -14 68 -47l87 -174h100v221h57v-221h100l87 174c16 33 37 47 68 47h48
v-50h-59l-73 -146c-15 -29 -29 -41 -50 -47v-4c21 -4 37 -16 52 -48l78 -167h78v-190h-53z" />
    <glyph glyph-name="uni0498" unicode="&#x498;" horiz-adv-x="586" 
d="M256 -150v139c-93 5 -164 47 -210 116l44 35c43 -65 103 -98 192 -98c108 0 176 49 176 139v19c0 78 -57 130 -167 130h-110v53h105c102 0 156 49 156 134v18c0 74 -56 121 -154 121c-90 0 -142 -34 -173 -87l-46 29c41 69 108 112 219 112c141 0 219 -71 219 -179
c0 -99 -54 -154 -136 -171v-4c87 -11 151 -63 151 -165c0 -115 -79 -192 -210 -202v-139h-56z" />
    <glyph glyph-name="uni0499" unicode="&#x499;" horiz-adv-x="498" 
d="M206 -140v129c-85 6 -134 43 -168 100l43 33c29 -53 78 -83 151 -83c87 0 137 38 137 94v16c0 58 -44 91 -117 91h-106v48h100c69 0 112 35 112 87v14c0 51 -41 84 -124 84c-73 0 -118 -30 -146 -81l-40 31c32 60 90 101 188 101c121 0 183 -52 183 -135
c0 -67 -38 -106 -101 -119v-4c72 -10 112 -53 112 -123c0 -87 -65 -146 -171 -154v-129h-53z" />
    <glyph glyph-name="uni049A" unicode="&#x49a;" horiz-adv-x="653" 
d="M573 -150v150h-29c-28 0 -48 14 -70 50l-170 279h-145v-329h-60v698h60v-317h145l157 265c23 39 43 52 75 52h46v-53h-60l-144 -243c-19 -31 -29 -40 -49 -45v-4c23 -4 38 -14 59 -49l153 -251h88v-203h-56z" />
    <glyph glyph-name="uni049B" unicode="&#x49b;" horiz-adv-x="545" 
d="M465 -140v140h-24c-25 0 -44 10 -64 44l-117 198h-110v-242h-57v512h57v-221h110l117 179c22 34 37 42 65 42h47v-50h-59l-98 -150c-19 -29 -28 -37 -49 -43v-4c23 -4 37 -13 58 -49l98 -166h79v-190h-53z" />
    <glyph glyph-name="uni049C" unicode="&#x49c;" horiz-adv-x="666" 
d="M99 0v698h60v-317h67v161h47v-161h60l151 266c22 38 42 51 74 51h46v-53h-60l-137 -241c-18 -32 -29 -42 -49 -47v-4c23 -4 37 -16 58 -52l147 -248h60v-53h-57c-28 0 -47 15 -68 50l-165 279h-60v-160h-47v160h-67v-329h-60z" />
    <glyph glyph-name="uni049D" unicode="&#x49d;" horiz-adv-x="564" 
d="M93 0v512h57v-221h53v123h44v-123h45l111 179c22 35 37 42 65 42h47v-50h-59l-93 -150c-18 -30 -29 -38 -48 -43v-4c24 -4 35 -12 55 -47l95 -168h59v-50h-57c-25 0 -44 10 -63 44l-112 198h-45v-122h-44v122h-53v-242h-57z" />
    <glyph glyph-name="uni04A0" unicode="&#x4a0;" horiz-adv-x="757" 
d="M212 0v645h-192v53h252v-317h145l157 265c23 39 43 52 75 52h46v-53h-60l-144 -243c-19 -31 -29 -40 -49 -45v-4c23 -4 38 -14 59 -49l153 -251h60v-53h-57c-28 0 -48 14 -70 50l-170 279h-145v-329h-60z" />
    <glyph glyph-name="uni04A1" unicode="&#x4a1;" horiz-adv-x="612" 
d="M166 0v462h-140v50h197v-221h110l117 179c22 34 37 42 65 42h47v-50h-59l-98 -150c-19 -29 -28 -37 -49 -43v-4c23 -4 37 -13 58 -49l98 -166h59v-50h-57c-25 0 -44 10 -64 44l-117 198h-110v-242h-57z" />
    <glyph glyph-name="uni04A2" unicode="&#x4a2;" horiz-adv-x="735" 
d="M640 -150v150h-98v327h-383v-327h-60v698h60v-318h383v318h60v-645h94v-203h-56z" />
    <glyph glyph-name="uni04A3" unicode="&#x4a3;" horiz-adv-x="606" 
d="M519 -140v140h-85v241h-284v-241h-57v512h57v-221h284v221h57v-462h81v-190h-53z" />
    <glyph glyph-name="uni04A4" unicode="&#x4a4;" horiz-adv-x="923" 
d="M99 0v698h60v-318h361v318h370v-53h-310v-645h-60v327h-361v-327h-60z" />
    <glyph glyph-name="uni04A5" unicode="&#x4a5;" horiz-adv-x="759" 
d="M93 0v512h57v-221h262v221h315v-50h-258v-462h-57v241h-262v-241h-57z" />
    <glyph glyph-name="uni04AA" unicode="&#x4aa;" horiz-adv-x="617" 
d="M308 -150v139c-155 12 -245 134 -245 358c0 235 100 363 272 363c111 0 189 -57 231 -149l-49 -29c-31 76 -94 124 -182 124c-130 0 -208 -98 -208 -270v-79c0 -171 78 -265 208 -265c93 0 157 51 187 131l49 -29c-38 -87 -110 -145 -207 -154v-140h-56z" />
    <glyph glyph-name="uni04AB" unicode="&#x4ab;" horiz-adv-x="497" 
d="M249 -140v129c-125 11 -197 108 -197 267c0 169 81 268 221 268c94 0 152 -46 182 -113l-48 -24c-24 55 -67 86 -134 86c-104 0 -160 -73 -160 -181v-72c0 -108 56 -181 160 -181c70 0 118 32 147 89l42 -28c-29 -61 -82 -102 -160 -111v-129h-53z" />
    <glyph glyph-name="uni04AE" unicode="&#x4ae;" horiz-adv-x="575" 
d="M317 0h-60v283l-241 415h68l202 -352h3l202 352h68l-242 -412v-286z" />
    <glyph glyph-name="uni04AF" unicode="&#x4af;" horiz-adv-x="475" 
d="M209 -200v200l-189 512h57l114 -310l44 -135h4l46 135l115 310h55l-189 -512v-200h-57z" />
    <glyph glyph-name="uni04B0" unicode="&#x4b0;" horiz-adv-x="575" 
d="M257 0v236h-172v47h172l-241 415h68l203 -353h3l201 353h68l-243 -415h172v-47h-172v-236h-59z" />
    <glyph glyph-name="uni04B1" unicode="&#x4b1;" horiz-adv-x="475" 
d="M209 -200v155h-127v45h127l-189 512h57l114 -310l44 -135h4l46 135l115 310h55l-189 -512h126v-45h-126v-155h-57z" />
    <glyph glyph-name="uni04B2" unicode="&#x4b2;" horiz-adv-x="623" 
d="M564 -150v150h-70l-198 309h-2l-199 -309h-69l231 355l-224 343h71l191 -295h2l193 295h69l-226 -340l199 -305h87v-203h-55z" />
    <glyph glyph-name="uni04B3" unicode="&#x4b3;" horiz-adv-x="515" 
d="M457 -140v140h-57l-151 216h-2l-157 -216h-64l190 258l-183 254h67l146 -209h3l149 209h64l-182 -250l151 -212h79v-190h-53z" />
    <glyph glyph-name="uni04B6" unicode="&#x4b6;" horiz-adv-x="670" 
d="M575 -150v150h-98v287h-5c-39 -15 -97 -25 -165 -25c-168 0 -245 77 -245 241v195h60v-195c0 -132 64 -188 187 -188c71 0 129 9 168 25v358h60v-645h94v-203h-56z" />
    <glyph glyph-name="uni04B7" unicode="&#x4b7;" horiz-adv-x="554" 
d="M467 -140v140h-85v253h-5c-27 -39 -72 -70 -154 -70c-106 0 -169 51 -169 160v169h57v-164c0 -79 44 -114 127 -114c85 0 144 33 144 90v188h57v-462h81v-190h-53z" />
    <glyph glyph-name="uni04B8" unicode="&#x4b8;" horiz-adv-x="636" 
d="M477 0v287h-5c-36 -14 -86 -23 -146 -25v-148h-47v148c-148 9 -217 87 -217 241v195h60v-195c0 -121 53 -178 157 -187v173h47v-174c63 1 115 11 151 25v358h60v-698h-60z" />
    <glyph glyph-name="uni04B9" unicode="&#x4b9;" horiz-adv-x="532" 
d="M382 0v253h-5c-20 -30 -57 -59 -109 -66v-96h-44v92c-108 0 -170 52 -170 160v169h57v-164c0 -75 40 -110 113 -114v151h44v-150c66 7 114 38 114 89v188h57v-512h-57z" />
    <glyph glyph-name="uni04BA" unicode="&#x4ba;" horiz-adv-x="636" 
d="M99 0v698h60v-287h5c39 15 97 25 165 25c167 0 245 -77 245 -241v-195h-60v195c0 132 -64 188 -188 188c-70 0 -129 -9 -167 -25v-358h-60z" />
    <glyph glyph-name="uni04BB" unicode="&#x4bb;" horiz-adv-x="563" 
d="M93 0v740h57v-309h3c23 53 69 93 151 93c109 0 173 -70 173 -195v-329h-57v319c0 104 -46 154 -131 154c-72 0 -139 -37 -139 -113v-360h-57z" />
    <glyph glyph-name="uni04C0" unicode="&#x4c0;" horiz-adv-x="390" 
d="M327 0h-264v50h102v598h-102v50h264v-50h-102v-598h102v-50z" />
    <glyph glyph-name="uni04C1" unicode="&#x4c1;" horiz-adv-x="945" 
d="M474 774c-69 0 -106 36 -130 83l-17 33l50 22l35 -76c17 -13 40 -19 62 -19s45 6 62 19l35 76l50 -22l-17 -33c-24 -47 -61 -83 -130 -83zM43 0v53h60l129 246c18 34 36 48 59 54v4c-20 5 -36 20 -52 51l-119 237h-60v53h49c32 0 54 -14 73 -52l133 -265h128v317h59v-317
h128l133 265c19 38 41 52 73 52h49v-53h-60l-119 -237c-16 -31 -32 -46 -52 -51v-4c23 -6 41 -20 59 -54l129 -246h60v-53h-57c-30 0 -49 13 -69 51l-146 278h-128v-329h-59v329h-128l-146 -278c-20 -38 -39 -51 -69 -51h-57z" />
    <glyph glyph-name="uni04C2" unicode="&#x4c2;" horiz-adv-x="759" 
d="M378 600c-69 0 -106 36 -130 83l-17 33l50 22l35 -76c17 -13 40 -19 62 -19s45 6 62 19l35 76l50 -22l-17 -33c-24 -47 -61 -83 -130 -83zM41 0v50h59l78 167c15 32 31 44 52 48v4c-21 6 -35 18 -50 47l-73 146h-59v50h48c31 0 52 -14 68 -47l87 -174h100v221h57v-221
h100l87 174c16 33 37 47 68 47h48v-50h-59l-73 -146c-15 -29 -29 -41 -50 -47v-4c21 -4 37 -16 52 -48l78 -167h59v-50h-56c-27 0 -47 12 -64 49l-90 193h-100v-242h-57v242h-100l-90 -193c-17 -37 -37 -49 -64 -49h-56z" />
    <glyph glyph-name="uni04CF" unicode="&#x4cf;" horiz-adv-x="243" 
d="M93 0v740h57v-740h-57z" />
    <glyph glyph-name="uni04D0" unicode="&#x4d0;" horiz-adv-x="625" 
d="M312 774c-69 0 -106 36 -130 83l-17 33l50 22l35 -76c17 -13 40 -19 62 -19s45 6 62 19l35 76l50 -22l-17 -33c-24 -47 -61 -83 -130 -83zM599 0h-63l-76 217h-297l-76 -217h-60l247 698h77zM444 269l-131 372h-4l-131 -372h266z" />
    <glyph glyph-name="uni04D1" unicode="&#x4d1;" horiz-adv-x="527" 
d="M251 600c-69 0 -106 36 -130 83l-17 33l50 22l35 -76c17 -13 40 -19 62 -19s45 6 62 19l35 76l50 -22l-17 -33c-24 -47 -61 -83 -130 -83zM503 0h-58c-44 0 -62 25 -65 63v18h-5c-23 -57 -75 -93 -155 -93c-107 0 -169 56 -169 151c0 91 60 148 208 148h118v60
c0 84 -44 127 -131 127c-68 0 -112 -30 -140 -83l-36 30c28 59 85 103 178 103c119 0 186 -63 186 -171v-303h69v-50zM228 37c83 0 149 43 149 112v95h-120c-102 0 -146 -35 -146 -92v-24c0 -59 47 -91 117 -91z" />
    <glyph glyph-name="uni04D2" unicode="&#x4d2;" horiz-adv-x="625" 
d="M221 800c-28 0 -40 16 -40 37v10c0 21 12 37 40 37c27 0 39 -16 39 -37v-10c0 -21 -12 -37 -39 -37zM405 800c-27 0 -39 16 -39 37v10c0 21 12 37 39 37c28 0 40 -16 40 -37v-10c0 -21 -12 -37 -40 -37zM599 0h-63l-76 217h-297l-76 -217h-60l247 698h77zM444 269
l-131 372h-4l-131 -372h266z" />
    <glyph glyph-name="uni04D3" unicode="&#x4d3;" horiz-adv-x="527" 
d="M159 627c-28 0 -39 15 -39 36v10c0 21 11 36 39 36c27 0 39 -15 39 -36v-10c0 -21 -12 -36 -39 -36zM343 627c-27 0 -39 15 -39 36v10c0 21 12 36 39 36c28 0 39 -15 39 -36v-10c0 -21 -11 -36 -39 -36zM503 0h-58c-44 0 -62 25 -65 63v18h-5c-23 -57 -75 -93 -155 -93
c-107 0 -169 56 -169 151c0 91 60 148 208 148h118v60c0 84 -44 127 -131 127c-68 0 -112 -30 -140 -83l-36 30c28 59 85 103 178 103c119 0 186 -63 186 -171v-303h69v-50zM228 37c83 0 149 43 149 112v95h-120c-102 0 -146 -35 -146 -92v-24c0 -59 47 -91 117 -91z" />
    <glyph glyph-name="uni04D4" unicode="&#x4d4;" horiz-adv-x="888" 
d="M413 0v216h-235l-113 -216h-62l367 698h452v-53h-349v-264h332v-53h-332v-275h349v-53h-409zM413 645h-12l-198 -376h210v376z" />
    <glyph glyph-name="uni04D5" unicode="&#x4d5;" horiz-adv-x="863" 
d="M375 245h-120c-102 -1 -146 -36 -146 -93v-24c0 -59 46 -91 117 -91c82 0 149 43 149 112v96zM432 289h317v8c0 108 -62 179 -154 179c-99 0 -163 -74 -163 -182v-5zM599 38c74 0 126 35 155 102l42 -27c-32 -76 -102 -125 -194 -125c-103 0 -173 60 -192 123h-4
c-13 -62 -83 -123 -189 -123c-104 0 -168 56 -168 149s62 152 208 152h118v58c0 85 -45 128 -129 128c-70 0 -113 -29 -142 -84l-36 30c28 58 85 103 179 103c110 0 152 -65 162 -123h4c20 62 88 123 187 123c128 0 211 -102 211 -252v-27h-379v-25c0 -107 62 -182 167 -182
z" />
    <glyph glyph-name="uni04D6" unicode="&#x4d6;" horiz-adv-x="574" 
d="M301 774c-69 0 -106 36 -130 83l-17 33l50 22l35 -76c17 -13 40 -19 62 -19s45 6 62 19l35 76l50 -22l-17 -33c-24 -47 -61 -83 -130 -83zM507 0h-408v698h408v-53h-348v-264h331v-53h-331v-275h348v-53z" />
    <glyph glyph-name="uni04D7" unicode="&#x4d7;" horiz-adv-x="543" 
d="M275 600c-69 0 -106 36 -130 83l-17 33l50 22l35 -76c17 -13 40 -19 62 -19s45 6 62 19l35 76l50 -22l-17 -33c-24 -47 -61 -83 -130 -83zM276 -12c-137 0 -224 100 -224 268s87 268 223 268c131 0 216 -102 216 -252v-27h-379v-25c0 -107 62 -182 167 -182
c73 0 127 36 155 103l42 -28c-32 -75 -103 -125 -200 -125zM275 476c-99 0 -163 -74 -163 -182v-5h317v8c0 108 -62 179 -154 179z" />
    <glyph glyph-name="uni04D8" unicode="&#x4d8;" horiz-adv-x="697" 
d="M63 349v14h508v26c0 171 -85 267 -219 267c-99 0 -176 -55 -211 -152l-50 25c39 110 134 181 261 181c180 0 282 -130 282 -361s-106 -361 -286 -361s-285 121 -285 361zM348 42c130 0 223 99 223 267v4h-446v-4c0 -168 93 -267 223 -267z" />
    <glyph glyph-name="uni04D9" unicode="&#x4d9;" horiz-adv-x="543" 
d="M52 267h378v25c0 107 -61 182 -167 182c-72 0 -126 -36 -155 -103l-41 28c32 75 102 125 199 125c137 0 225 -100 225 -268s-87 -268 -223 -268c-132 0 -216 102 -216 252v27zM114 223v-8c0 -108 62 -179 154 -179c99 0 162 74 162 182v5h-316z" />
    <glyph glyph-name="uni04DC" unicode="&#x4dc;" horiz-adv-x="945" 
d="M383 800c-28 0 -40 16 -40 37v10c0 21 12 37 40 37c27 0 39 -16 39 -37v-10c0 -21 -12 -37 -39 -37zM567 800c-27 0 -39 16 -39 37v10c0 21 12 37 39 37c28 0 40 -16 40 -37v-10c0 -21 -12 -37 -40 -37zM43 0v53h60l129 246c18 34 36 48 59 54v4c-20 5 -36 20 -52 51
l-119 237h-60v53h49c32 0 54 -14 73 -52l133 -265h128v317h59v-317h128l133 265c19 38 41 52 73 52h49v-53h-60l-119 -237c-16 -31 -32 -46 -52 -51v-4c23 -6 41 -20 59 -54l129 -246h60v-53h-57c-30 0 -49 13 -69 51l-146 278h-128v-329h-59v329h-128l-146 -278
c-20 -38 -39 -51 -69 -51h-57z" />
    <glyph glyph-name="uni04DD" unicode="&#x4dd;" horiz-adv-x="759" 
d="M286 627c-28 0 -39 15 -39 36v10c0 21 11 36 39 36c27 0 39 -15 39 -36v-10c0 -21 -12 -36 -39 -36zM470 627c-27 0 -39 15 -39 36v10c0 21 12 36 39 36c28 0 39 -15 39 -36v-10c0 -21 -11 -36 -39 -36zM41 0v50h59l78 167c15 32 31 44 52 48v4c-21 6 -35 18 -50 47
l-73 146h-59v50h48c31 0 52 -14 68 -47l87 -174h100v221h57v-221h100l87 174c16 33 37 47 68 47h48v-50h-59l-73 -146c-15 -29 -29 -41 -50 -47v-4c21 -4 37 -16 52 -48l78 -167h59v-50h-56c-27 0 -47 12 -64 49l-90 193h-100v-242h-57v242h-100l-90 -193
c-17 -37 -37 -49 -64 -49h-56z" />
    <glyph glyph-name="uni04DE" unicode="&#x4de;" horiz-adv-x="586" 
d="M196 800c-28 0 -40 16 -40 37v10c0 21 12 37 40 37c27 0 39 -16 39 -37v-10c0 -21 -12 -37 -39 -37zM380 800c-27 0 -39 16 -39 37v10c0 21 12 37 39 37c28 0 40 -16 40 -37v-10c0 -21 -12 -37 -40 -37zM282 -12c-109 0 -186 42 -236 117l44 35c43 -65 103 -98 192 -98
c108 0 176 49 176 139v19c0 78 -57 130 -167 130h-110v53h105c102 0 156 49 156 134v18c0 74 -56 121 -154 121c-90 0 -142 -34 -173 -87l-46 29c41 69 108 112 219 112c141 0 219 -71 219 -179c0 -99 -54 -154 -136 -171v-4c87 -11 151 -63 151 -165
c0 -123 -91 -203 -240 -203z" />
    <glyph glyph-name="uni04DF" unicode="&#x4df;" horiz-adv-x="498" 
d="M143 627c-28 0 -39 15 -39 36v10c0 21 11 36 39 36c27 0 39 -15 39 -36v-10c0 -21 -12 -36 -39 -36zM327 627c-27 0 -39 15 -39 36v10c0 21 12 36 39 36c28 0 39 -15 39 -36v-10c0 -21 -11 -36 -39 -36zM231 -12c-100 0 -156 38 -193 101l43 33c29 -53 78 -83 150 -83
c88 0 138 38 138 94v16c0 58 -44 91 -117 91h-106v48h100c68 0 112 35 112 87v14c0 51 -42 84 -124 84c-74 0 -118 -30 -147 -81l-39 31c32 60 89 101 188 101c120 0 182 -52 182 -135c0 -67 -38 -106 -101 -119v-4c72 -10 113 -53 113 -123c0 -95 -76 -155 -199 -155z" />
    <glyph glyph-name="uni04E2" unicode="&#x4e2;" horiz-adv-x="701" 
d="M213 819v49h272v-49h-272zM99 0v698h58v-500l-6 -116h3l58 105l337 511h53v-698h-58v500l7 116h-3l-59 -105l-336 -511h-54z" />
    <glyph glyph-name="uni04E3" unicode="&#x4e3;" horiz-adv-x="584" 
d="M155 645v49h272v-49h-272zM93 0v512h56v-332l-6 -103h4l53 91l238 344h53v-512h-56v332l6 103h-4l-54 -91l-238 -344h-52z" />
    <glyph glyph-name="uni04E4" unicode="&#x4e4;" horiz-adv-x="701" 
d="M257 800c-28 0 -40 16 -40 37v10c0 21 12 37 40 37c27 0 39 -16 39 -37v-10c0 -21 -12 -37 -39 -37zM441 800c-27 0 -39 16 -39 37v10c0 21 12 37 39 37c28 0 40 -16 40 -37v-10c0 -21 -12 -37 -40 -37zM99 0v698h58v-500l-6 -116h3l58 105l337 511h53v-698h-58v500
l7 116h-3l-59 -105l-336 -511h-54z" />
    <glyph glyph-name="uni04E5" unicode="&#x4e5;" horiz-adv-x="584" 
d="M199 627c-28 0 -39 15 -39 36v10c0 21 11 36 39 36c27 0 39 -15 39 -36v-10c0 -21 -12 -36 -39 -36zM383 627c-27 0 -39 15 -39 36v10c0 21 12 36 39 36c28 0 39 -15 39 -36v-10c0 -21 -11 -36 -39 -36zM93 0v512h56v-332l-6 -103h4l53 91l238 344h53v-512h-56v332l6 103
h-4l-54 -91l-238 -344h-52z" />
    <glyph glyph-name="uni04E6" unicode="&#x4e6;" horiz-adv-x="697" 
d="M257 800c-28 0 -40 16 -40 37v10c0 21 12 37 40 37c27 0 39 -16 39 -37v-10c0 -21 -12 -37 -39 -37zM441 800c-27 0 -39 16 -39 37v10c0 21 12 37 39 37c28 0 40 -16 40 -37v-10c0 -21 -12 -37 -40 -37zM349 -12c-178 0 -286 125 -286 361s108 361 286 361
c177 0 285 -125 285 -361s-108 -361 -285 -361zM349 42c133 0 221 97 221 263v88c0 166 -88 263 -221 263c-134 0 -222 -97 -222 -263v-88c0 -166 88 -263 222 -263z" />
    <glyph glyph-name="uni04E7" unicode="&#x4e7;" horiz-adv-x="550" 
d="M183 627c-28 0 -39 15 -39 36v10c0 21 11 36 39 36c27 0 39 -15 39 -36v-10c0 -21 -12 -36 -39 -36zM367 627c-27 0 -39 15 -39 36v10c0 21 12 36 39 36c28 0 39 -15 39 -36v-10c0 -21 -11 -36 -39 -36zM275 -12c-135 0 -223 100 -223 268s88 268 223 268
s223 -100 223 -268s-88 -268 -223 -268zM275 39c99 0 162 65 162 185v64c0 119 -63 185 -162 185s-162 -65 -162 -185v-64c0 -119 63 -185 162 -185z" />
    <glyph glyph-name="uni04E8" unicode="&#x4e8;" horiz-adv-x="697" 
d="M349 -12c-178 0 -286 125 -286 361s108 361 286 361c177 0 285 -125 285 -361s-108 -361 -285 -361zM349 42c133 0 221 97 221 263v22h-443v-22c0 -166 88 -263 222 -263zM127 393v-13h443v13c0 166 -88 263 -221 263c-134 0 -222 -97 -222 -263z" />
    <glyph glyph-name="uni04E9" unicode="&#x4e9;" horiz-adv-x="552" 
d="M276 -12c-136 0 -224 100 -224 268s88 268 224 268s224 -100 224 -268s-88 -268 -224 -268zM276 39c99 0 163 66 163 185v14h-325v-14c0 -119 63 -185 162 -185zM114 288v-5h325v5c0 120 -64 185 -163 185s-162 -65 -162 -185z" />
    <glyph glyph-name="uni04EE" unicode="&#x4ee;" horiz-adv-x="587" 
d="M168 819v49h272v-49h-272zM149 0v53h98l40 100l-263 545h65l177 -368l46 -103h4l39 105l146 366h62l-255 -636c-20 -49 -42 -62 -94 -62h-65z" />
    <glyph glyph-name="uni04EF" unicode="&#x4ef;" horiz-adv-x="479" 
d="M104 645v49h272v-49h-272zM243 61l156 451h58l-237 -656c-16 -43 -33 -56 -85 -56h-58v50h86l49 135l-190 527h60l157 -451h4z" />
    <glyph glyph-name="uni04F0" unicode="&#x4f0;" horiz-adv-x="587" 
d="M212 800c-28 0 -40 16 -40 37v10c0 21 12 37 40 37c27 0 39 -16 39 -37v-10c0 -21 -12 -37 -39 -37zM396 800c-27 0 -39 16 -39 37v10c0 21 12 37 39 37c28 0 40 -16 40 -37v-10c0 -21 -12 -37 -40 -37zM149 0v53h98l40 100l-263 545h65l177 -368l46 -103h4l39 105
l146 366h62l-255 -636c-20 -49 -42 -62 -94 -62h-65z" />
    <glyph glyph-name="uni04F1" unicode="&#x4f1;" horiz-adv-x="479" 
d="M148 627c-28 0 -39 15 -39 36v10c0 21 11 36 39 36c27 0 39 -15 39 -36v-10c0 -21 -12 -36 -39 -36zM332 627c-27 0 -39 15 -39 36v10c0 21 12 36 39 36c28 0 39 -15 39 -36v-10c0 -21 -11 -36 -39 -36zM243 61l156 451h58l-237 -656c-16 -43 -33 -56 -85 -56h-58v50h86
l49 135l-190 527h60l157 -451h4z" />
    <glyph glyph-name="uni04F2" unicode="&#x4f2;" horiz-adv-x="587" 
d="M338 917l-110 -157l-35 18l95 163zM498 917l-110 -157l-35 18l95 163zM149 0v53h98l40 100l-263 545h65l177 -368l46 -103h4l39 105l146 366h62l-255 -636c-20 -49 -42 -62 -94 -62h-65z" />
    <glyph glyph-name="uni04F3" unicode="&#x4f3;" horiz-adv-x="479" 
d="M274 743l-110 -157l-35 18l95 163zM434 743l-110 -157l-35 18l95 163zM243 61l156 451h58l-237 -656c-16 -43 -33 -56 -85 -56h-58v50h86l49 135l-190 527h60l157 -451h4z" />
    <glyph glyph-name="uni04F4" unicode="&#x4f4;" horiz-adv-x="636" 
d="M207 800c-28 0 -40 16 -40 37v10c0 21 12 37 40 37c27 0 39 -16 39 -37v-10c0 -21 -12 -37 -39 -37zM391 800c-27 0 -39 16 -39 37v10c0 21 12 37 39 37c28 0 40 -16 40 -37v-10c0 -21 -12 -37 -40 -37zM477 0v287h-5c-39 -15 -97 -25 -165 -25c-168 0 -245 77 -245 241
v195h60v-195c0 -132 64 -188 187 -188c71 0 129 9 168 25v358h60v-698h-60z" />
    <glyph glyph-name="uni04F5" unicode="&#x4f5;" horiz-adv-x="532" 
d="M154 627c-28 0 -39 15 -39 36v10c0 21 11 36 39 36c27 0 39 -15 39 -36v-10c0 -21 -12 -36 -39 -36zM338 627c-27 0 -39 15 -39 36v10c0 21 12 36 39 36c28 0 39 -15 39 -36v-10c0 -21 -11 -36 -39 -36zM382 0v253h-5c-27 -39 -72 -70 -154 -70c-106 0 -169 51 -169 160
v169h57v-164c0 -79 44 -114 127 -114c85 0 144 33 144 90v188h57v-512h-57z" />
    <glyph glyph-name="uni04F8" unicode="&#x4f8;" horiz-adv-x="854" 
d="M335 800c-28 0 -40 16 -40 37v10c0 21 12 37 40 37c27 0 39 -16 39 -37v-10c0 -21 -12 -37 -39 -37zM519 800c-27 0 -39 16 -39 37v10c0 21 12 37 39 37c28 0 40 -16 40 -37v-10c0 -21 -12 -37 -40 -37zM99 0v698h60v-288h219c120 0 186 -77 186 -205s-66 -205 -186 -205
h-279zM159 53h219c80 0 122 52 122 128v48c0 77 -42 128 -122 128h-219v-304zM695 0v698h60v-698h-60z" />
    <glyph glyph-name="uni04F9" unicode="&#x4f9;" horiz-adv-x="704" 
d="M260 627c-28 0 -39 15 -39 36v10c0 21 11 36 39 36c27 0 39 -15 39 -36v-10c0 -21 -12 -36 -39 -36zM444 627c-27 0 -39 15 -39 36v10c0 21 12 36 39 36c28 0 39 -15 39 -36v-10c0 -21 -11 -36 -39 -36zM93 0v512h57v-197h142c103 0 165 -61 165 -158s-60 -157 -164 -157
h-200zM150 50h136c72 0 109 34 109 90v36c0 56 -37 89 -109 89h-136v-215zM554 0v512h57v-512h-57z" />
    <glyph glyph-name="uni0E3F" unicode="&#xe3f;" horiz-adv-x="629" 
d="M330 21v-103h-44v103h-187v656h187v103h44v-103h33c109 0 174 -64 174 -166c0 -86 -47 -128 -109 -142v-5c74 -11 137 -55 137 -158c0 -108 -71 -185 -178 -185h-57zM158 386h128v237h-128v-237zM329 623v-237h35c76 0 111 41 111 102v35c0 61 -35 100 -111 100h-35z
M158 75h128v261h-128v-261zM329 336v-261h44c84 0 130 44 130 111v38c0 67 -46 112 -130 112h-44z" />
    <glyph glyph-name="Wgrave" unicode="&#x1e80;" horiz-adv-x="884" 
d="M443 760l-109 156l52 26l95 -164zM270 0h-70l-176 698h64l149 -624h3l165 624h73l163 -624h3l154 624h62l-182 -698h-70l-167 631h-2z" />
    <glyph glyph-name="wgrave" unicode="&#x1e81;" horiz-adv-x="751" 
d="M378 586l-109 156l52 26l95 -164zM177 0l-144 512h56l123 -461h2l136 461h53l137 -461h2l122 461h55l-144 -512h-70l-129 431h-2l-128 -431h-69z" />
    <glyph glyph-name="Wacute" unicode="&#x1e82;" horiz-adv-x="884" 
d="M548 916l-110 -156l-37 18l95 164zM270 0h-70l-176 698h64l149 -624h3l165 624h73l163 -624h3l154 624h62l-182 -698h-70l-167 631h-2z" />
    <glyph glyph-name="wacute" unicode="&#x1e83;" horiz-adv-x="751" 
d="M483 742l-110 -156l-37 18l95 164zM177 0l-144 512h56l123 -461h2l136 461h53l137 -461h2l122 461h55l-144 -512h-70l-129 431h-2l-128 -431h-69z" />
    <glyph glyph-name="Wdieresis" unicode="&#x1e84;" horiz-adv-x="884" 
d="M349 800c-28 0 -40 16 -40 37v10c0 21 12 37 40 37c27 0 39 -16 39 -37v-10c0 -21 -12 -37 -39 -37zM533 800c-27 0 -39 16 -39 37v10c0 21 12 37 39 37c28 0 40 -16 40 -37v-10c0 -21 -12 -37 -40 -37zM270 0h-70l-176 698h64l149 -624h3l165 624h73l163 -624h3l154 624
h62l-182 -698h-70l-167 631h-2z" />
    <glyph glyph-name="wdieresis" unicode="&#x1e85;" horiz-adv-x="751" 
d="M284 627c-28 0 -39 15 -39 36v10c0 21 11 36 39 36c27 0 39 -15 39 -36v-10c0 -21 -12 -36 -39 -36zM468 627c-27 0 -39 15 -39 36v10c0 21 12 36 39 36c28 0 39 -15 39 -36v-10c0 -21 -11 -36 -39 -36zM177 0l-144 512h56l123 -461h2l136 461h53l137 -461h2l122 461h55
l-144 -512h-70l-129 431h-2l-128 -431h-69z" />
    <glyph glyph-name="uni1E9E" unicode="&#x1e9e;" horiz-adv-x="692" 
d="M639 194c0 -133 -83 -206 -211 -206c-90 0 -151 33 -194 92l42 35c36 -47 84 -76 152 -76c90 0 147 50 147 137v35c0 86 -54 139 -164 139h-67v55l189 240h-374v-645h-60v698h495v-59l-185 -235v-4c148 -1 230 -73 230 -206z" />
    <glyph glyph-name="uni1EA0" unicode="&#x1ea0;" horiz-adv-x="625" 
d="M316 -155c-27 0 -40 15 -40 37v8c0 22 13 37 40 37s40 -15 40 -37v-8c0 -22 -13 -37 -40 -37zM599 0h-63l-76 217h-297l-76 -217h-60l247 698h77zM444 269l-131 372h-4l-131 -372h266z" />
    <glyph glyph-name="uni1EA1" unicode="&#x1ea1;" horiz-adv-x="528" 
d="M237 -155c-27 0 -40 15 -40 37v8c0 22 13 37 40 37s40 -15 40 -37v-8c0 -22 -13 -37 -40 -37zM503 0h-58c-44 0 -62 25 -65 63v18h-5c-23 -57 -75 -93 -155 -93c-107 0 -169 56 -169 151c0 91 60 148 208 148h118v60c0 84 -44 127 -131 127c-68 0 -112 -30 -140 -83
l-36 30c28 59 85 103 178 103c119 0 186 -63 186 -171v-303h69v-50zM228 37c83 0 149 43 149 112v95h-120c-102 0 -146 -35 -146 -92v-24c0 -59 47 -91 117 -91z" />
    <glyph glyph-name="uni1EA2" unicode="&#x1ea2;" horiz-adv-x="625" 
d="M233 884v44h120c37 0 51 -18 51 -41c0 -20 -12 -46 -41 -85l-34 -48l-35 17l66 113h-127zM599 0h-63l-76 217h-297l-76 -217h-60l247 698h77zM444 269l-131 372h-4l-131 -372h266z" />
    <glyph glyph-name="uni1EA3" unicode="&#x1ea3;" horiz-adv-x="528" 
d="M171 710v44h120c37 0 51 -18 51 -40c0 -21 -12 -47 -41 -86l-34 -48l-35 17l66 113h-127zM503 0h-58c-44 0 -62 25 -65 63v18h-5c-23 -57 -75 -93 -155 -93c-107 0 -169 56 -169 151c0 91 60 148 208 148h118v60c0 84 -44 127 -131 127c-68 0 -112 -30 -140 -83l-36 30
c28 59 85 103 178 103c119 0 186 -63 186 -171v-303h69v-50zM228 37c83 0 149 43 149 112v95h-120c-102 0 -146 -35 -146 -92v-24c0 -59 47 -91 117 -91z" />
    <glyph glyph-name="uni1EA4" unicode="&#x1ea4;" horiz-adv-x="625" 
d="M561 1028l-110 -156l-35 17l95 164zM278 915h70l117 -134l-30 -22l-122 118l-122 -118l-30 22zM599 0h-63l-76 217h-297l-76 -217h-60l247 698h77zM444 269l-131 372h-4l-131 -372h266z" />
    <glyph glyph-name="uni1EA5" unicode="&#x1ea5;" horiz-adv-x="528" 
d="M499 854l-110 -156l-35 18l95 163zM216 741h70l117 -134l-30 -22l-122 118l-122 -118l-30 22zM503 0h-58c-44 0 -62 25 -65 63v18h-5c-23 -57 -75 -93 -155 -93c-107 0 -169 56 -169 151c0 91 60 148 208 148h118v60c0 84 -44 127 -131 127c-68 0 -112 -30 -140 -83
l-36 30c28 59 85 103 178 103c119 0 186 -63 186 -171v-303h69v-50zM228 37c83 0 149 43 149 112v95h-120c-102 0 -146 -35 -146 -92v-24c0 -59 47 -91 117 -91z" />
    <glyph glyph-name="uni1EA6" unicode="&#x1ea6;" horiz-adv-x="625" 
d="M175 872l-110 156l50 25l95 -164zM278 915h70l117 -134l-30 -22l-122 118l-122 -118l-30 22zM599 0h-63l-76 217h-297l-76 -217h-60l247 698h77zM444 269l-131 372h-4l-131 -372h266z" />
    <glyph glyph-name="uni1EA7" unicode="&#x1ea7;" horiz-adv-x="528" 
d="M113 698l-110 156l50 25l95 -163zM216 741h70l117 -134l-30 -22l-122 118l-122 -118l-30 22zM503 0h-58c-44 0 -62 25 -65 63v18h-5c-23 -57 -75 -93 -155 -93c-107 0 -169 56 -169 151c0 91 60 148 208 148h118v60c0 84 -44 127 -131 127c-68 0 -112 -30 -140 -83
l-36 30c28 59 85 103 178 103c119 0 186 -63 186 -171v-303h69v-50zM228 37c83 0 149 43 149 112v95h-120c-102 0 -146 -35 -146 -92v-24c0 -59 47 -91 117 -91z" />
    <glyph glyph-name="uni1EA8" unicode="&#x1ea8;" horiz-adv-x="625" 
d="M359 999v42h120c37 0 51 -18 51 -41c0 -20 -13 -46 -42 -85l-33 -48l-34 17l67 115h-129zM278 915h70l117 -134l-30 -22l-122 118l-122 -118l-30 22zM599 0h-63l-76 217h-297l-76 -217h-60l247 698h77zM444 269l-131 372h-4l-131 -372h266z" />
    <glyph glyph-name="uni1EA9" unicode="&#x1ea9;" horiz-adv-x="528" 
d="M297 825v42h120c37 0 51 -18 51 -40c0 -21 -13 -46 -42 -86l-33 -48l-34 17l67 115h-129zM216 741h70l117 -134l-30 -22l-122 118l-122 -118l-30 22zM503 0h-58c-44 0 -62 25 -65 63v18h-5c-23 -57 -75 -93 -155 -93c-107 0 -169 56 -169 151c0 91 60 148 208 148h118v60
c0 84 -44 127 -131 127c-68 0 -112 -30 -140 -83l-36 30c28 59 85 103 178 103c119 0 186 -63 186 -171v-303h69v-50zM228 37c83 0 149 43 149 112v95h-120c-102 0 -146 -35 -146 -92v-24c0 -59 47 -91 117 -91z" />
    <glyph glyph-name="uni1EAA" unicode="&#x1eaa;" horiz-adv-x="625" 
d="M241 1043c31 0 53 -12 79 -27c31 -18 51 -25 69 -25c22 0 40 11 60 30l24 -27c-20 -27 -49 -47 -88 -47c-31 0 -53 12 -79 27c-31 18 -51 25 -69 25c-22 0 -40 -11 -60 -30l-24 27c20 27 49 47 88 47zM278 915h70l117 -134l-30 -22l-122 118l-122 -118l-30 22zM599 0h-63
l-76 217h-297l-76 -217h-60l247 698h77zM444 269l-131 372h-4l-131 -372h266z" />
    <glyph glyph-name="uni1EAB" unicode="&#x1eab;" horiz-adv-x="528" 
d="M179 870c31 0 53 -13 79 -28c31 -18 51 -25 69 -25c22 0 40 11 60 30l24 -27c-20 -27 -49 -48 -88 -48c-31 0 -53 13 -79 28c-31 18 -51 25 -69 25c-22 0 -40 -11 -60 -30l-24 27c20 27 49 48 88 48zM216 741h70l117 -134l-30 -22l-122 118l-122 -118l-30 22zM503 0h-58
c-44 0 -62 25 -65 63v18h-5c-23 -57 -75 -93 -155 -93c-107 0 -169 56 -169 151c0 91 60 148 208 148h118v60c0 84 -44 127 -131 127c-68 0 -112 -30 -140 -83l-36 30c28 59 85 103 178 103c119 0 186 -63 186 -171v-303h69v-50zM228 37c83 0 149 43 149 112v95h-120
c-102 0 -146 -35 -146 -92v-24c0 -59 47 -91 117 -91z" />
    <glyph glyph-name="uni1EAC" unicode="&#x1eac;" horiz-adv-x="625" 
d="M316 -155c-27 0 -40 15 -40 37v8c0 22 13 37 40 37s40 -15 40 -37v-8c0 -22 -13 -37 -40 -37zM278 930h70l118 -139l-32 -23l-121 120l-121 -120l-32 23zM599 0h-63l-76 217h-297l-76 -217h-60l247 698h77zM444 269l-131 372h-4l-131 -372h266z" />
    <glyph glyph-name="uni1EAD" unicode="&#x1ead;" horiz-adv-x="528" 
d="M237 -155c-27 0 -40 15 -40 37v8c0 22 13 37 40 37s40 -15 40 -37v-8c0 -22 -13 -37 -40 -37zM216 756h70l118 -139l-32 -23l-121 121l-121 -121l-32 23zM503 0h-58c-44 0 -62 25 -65 63v18h-5c-23 -57 -75 -93 -155 -93c-107 0 -169 56 -169 151c0 91 60 148 208 148
h118v60c0 84 -44 127 -131 127c-68 0 -112 -30 -140 -83l-36 30c28 59 85 103 178 103c119 0 186 -63 186 -171v-303h69v-50zM228 37c83 0 149 43 149 112v95h-120c-102 0 -146 -35 -146 -92v-24c0 -59 47 -91 117 -91z" />
    <glyph glyph-name="uni1EAE" unicode="&#x1eae;" horiz-adv-x="625" 
d="M313 763c-92 0 -120 58 -144 118l33 16l20 -34c22 -39 43 -57 91 -57s69 18 91 57l20 34l33 -16c-24 -60 -52 -118 -144 -118zM421 1028l-109 -156l-36 17l95 164zM599 0h-63l-76 217h-297l-76 -217h-60l247 698h77zM444 269l-131 372h-4l-131 -372h266z" />
    <glyph glyph-name="uni1EAF" unicode="&#x1eaf;" horiz-adv-x="528" 
d="M251 589c-92 0 -121 58 -145 118l33 16l19 -30c24 -40 45 -61 93 -61s69 21 93 61l19 30l33 -16c-24 -60 -53 -118 -145 -118zM359 854l-109 -156l-36 18l95 163zM503 0h-58c-44 0 -62 25 -65 63v18h-5c-23 -57 -75 -93 -155 -93c-107 0 -169 56 -169 151
c0 91 60 148 208 148h118v60c0 84 -44 127 -131 127c-68 0 -112 -30 -140 -83l-36 30c28 59 85 103 178 103c119 0 186 -63 186 -171v-303h69v-50zM228 37c83 0 149 43 149 112v95h-120c-102 0 -146 -35 -146 -92v-24c0 -59 47 -91 117 -91z" />
    <glyph glyph-name="uni1EB0" unicode="&#x1eb0;" horiz-adv-x="625" 
d="M313 763c-92 0 -120 58 -144 118l33 16l20 -34c22 -39 43 -57 91 -57s69 18 91 57l20 34l33 -16c-24 -60 -52 -118 -144 -118zM314 872l-109 156l50 25l95 -164zM599 0h-63l-76 217h-297l-76 -217h-60l247 698h77zM444 269l-131 372h-4l-131 -372h266z" />
    <glyph glyph-name="uni1EB1" unicode="&#x1eb1;" horiz-adv-x="528" 
d="M251 589c-92 0 -121 58 -145 118l33 16l19 -30c24 -40 45 -61 93 -61s69 21 93 61l19 30l33 -16c-24 -60 -53 -118 -145 -118zM252 698l-109 156l50 25l95 -163zM503 0h-58c-44 0 -62 25 -65 63v18h-5c-23 -57 -75 -93 -155 -93c-107 0 -169 56 -169 151
c0 91 60 148 208 148h118v60c0 84 -44 127 -131 127c-68 0 -112 -30 -140 -83l-36 30c28 59 85 103 178 103c119 0 186 -63 186 -171v-303h69v-50zM228 37c83 0 149 43 149 112v95h-120c-102 0 -146 -35 -146 -92v-24c0 -59 47 -91 117 -91z" />
    <glyph glyph-name="uni1EB2" unicode="&#x1eb2;" horiz-adv-x="625" 
d="M230 999v42h111c37 0 51 -18 51 -41c0 -20 -13 -46 -42 -85l-33 -48l-34 17l67 115h-120zM313 763c-92 0 -120 58 -144 118l33 16l20 -34c22 -39 43 -57 91 -57s69 18 91 57l20 34l33 -16c-24 -60 -52 -118 -144 -118zM599 0h-63l-76 217h-297l-76 -217h-60l247 698h77z
M444 269l-131 372h-4l-131 -372h266z" />
    <glyph glyph-name="uni1EB3" unicode="&#x1eb3;" horiz-adv-x="528" 
d="M251 589c-92 0 -121 58 -145 118l33 16l19 -30c24 -40 45 -61 93 -61s69 21 93 61l19 30l33 -16c-24 -60 -53 -118 -145 -118zM168 825v42h111c37 0 51 -18 51 -40c0 -21 -13 -46 -42 -86l-33 -48l-34 17l67 115h-120zM503 0h-58c-44 0 -62 25 -65 63v18h-5
c-23 -57 -75 -93 -155 -93c-107 0 -169 56 -169 151c0 91 60 148 208 148h118v60c0 84 -44 127 -131 127c-68 0 -112 -30 -140 -83l-36 30c28 59 85 103 178 103c119 0 186 -63 186 -171v-303h69v-50zM228 37c83 0 149 43 149 112v95h-120c-102 0 -146 -35 -146 -92v-24
c0 -59 47 -91 117 -91z" />
    <glyph glyph-name="uni1EB4" unicode="&#x1eb4;" horiz-adv-x="625" 
d="M385 942c-31 0 -53 13 -79 28c-31 18 -51 25 -69 25c-22 0 -40 -11 -60 -30l-24 27c20 27 49 48 88 48c31 0 53 -13 79 -28c31 -18 51 -25 69 -25c22 0 40 11 60 30l24 -27c-20 -27 -49 -48 -88 -48zM313 763c-92 0 -120 58 -144 118l33 16l20 -34c22 -39 43 -57 91 -57
s69 18 91 57l20 34l33 -16c-24 -60 -52 -118 -144 -118zM599 0h-63l-76 217h-297l-76 -217h-60l247 698h77zM444 269l-131 372h-4l-131 -372h266z" />
    <glyph glyph-name="uni1EB5" unicode="&#x1eb5;" horiz-adv-x="528" 
d="M251 589c-92 0 -121 58 -145 118l33 16l19 -30c24 -40 45 -61 93 -61s69 21 93 61l19 30l33 -16c-24 -60 -53 -118 -145 -118zM323 768c-31 0 -53 13 -79 28c-31 18 -51 25 -69 25c-22 0 -40 -11 -60 -30l-24 27c20 27 49 48 88 48c31 0 53 -13 79 -28
c31 -18 51 -25 69 -25c22 0 40 11 60 30l24 -27c-20 -27 -49 -48 -88 -48zM503 0h-58c-44 0 -62 25 -65 63v18h-5c-23 -57 -75 -93 -155 -93c-107 0 -169 56 -169 151c0 91 60 148 208 148h118v60c0 84 -44 127 -131 127c-68 0 -112 -30 -140 -83l-36 30
c28 59 85 103 178 103c119 0 186 -63 186 -171v-303h69v-50zM228 37c83 0 149 43 149 112v95h-120c-102 0 -146 -35 -146 -92v-24c0 -59 47 -91 117 -91z" />
    <glyph glyph-name="uni1EB6" unicode="&#x1eb6;" horiz-adv-x="625" 
d="M316 -155c-27 0 -40 15 -40 37v8c0 22 13 37 40 37s40 -15 40 -37v-8c0 -22 -13 -37 -40 -37zM313 774c-92 0 -119 60 -144 122l33 16l19 -31c25 -42 44 -61 92 -61s67 19 92 61l19 31l33 -16c-25 -62 -52 -122 -144 -122zM599 0h-63l-76 217h-297l-76 -217h-60l247 698
h77zM444 269l-131 372h-4l-131 -372h266z" />
    <glyph glyph-name="uni1EB7" unicode="&#x1eb7;" horiz-adv-x="528" 
d="M237 -155c-27 0 -40 15 -40 37v8c0 22 13 37 40 37s40 -15 40 -37v-8c0 -22 -13 -37 -40 -37zM251 600c-92 0 -119 60 -144 122l33 16l19 -31c25 -42 44 -61 92 -61s67 19 92 61l19 31l33 -16c-25 -62 -52 -122 -144 -122zM503 0h-58c-44 0 -62 25 -65 63v18h-5
c-23 -57 -75 -93 -155 -93c-107 0 -169 56 -169 151c0 91 60 148 208 148h118v60c0 84 -44 127 -131 127c-68 0 -112 -30 -140 -83l-36 30c28 59 85 103 178 103c119 0 186 -63 186 -171v-303h69v-50zM228 37c83 0 149 43 149 112v95h-120c-102 0 -146 -35 -146 -92v-24
c0 -59 47 -91 117 -91z" />
    <glyph glyph-name="uni1EB8" unicode="&#x1eb8;" horiz-adv-x="574" 
d="M302 -155c-27 0 -40 15 -40 37v8c0 22 13 37 40 37s40 -15 40 -37v-8c0 -22 -13 -37 -40 -37zM507 0h-408v698h408v-53h-348v-264h331v-53h-331v-275h348v-53z" />
    <glyph glyph-name="uni1EB9" unicode="&#x1eb9;" horiz-adv-x="543" 
d="M279 -155c-27 0 -40 15 -40 37v8c0 22 13 37 40 37s40 -15 40 -37v-8c0 -22 -13 -37 -40 -37zM276 -12c-137 0 -224 100 -224 268s87 268 223 268c131 0 216 -102 216 -252v-27h-379v-25c0 -107 62 -182 167 -182c73 0 127 36 155 103l42 -28
c-32 -75 -103 -125 -200 -125zM275 476c-99 0 -163 -74 -163 -182v-5h317v8c0 108 -62 179 -154 179z" />
    <glyph glyph-name="uni1EBA" unicode="&#x1eba;" horiz-adv-x="574" 
d="M222 884v44h120c37 0 51 -18 51 -41c0 -20 -12 -46 -41 -85l-34 -48l-35 17l66 113h-127zM507 0h-408v698h408v-53h-348v-264h331v-53h-331v-275h348v-53z" />
    <glyph glyph-name="uni1EBB" unicode="&#x1ebb;" horiz-adv-x="543" 
d="M195 710v44h120c37 0 51 -18 51 -40c0 -21 -12 -47 -41 -86l-34 -48l-35 17l66 113h-127zM276 -12c-137 0 -224 100 -224 268s87 268 223 268c131 0 216 -102 216 -252v-27h-379v-25c0 -107 62 -182 167 -182c73 0 127 36 155 103l42 -28c-32 -75 -103 -125 -200 -125z
M275 476c-99 0 -163 -74 -163 -182v-5h317v8c0 108 -62 179 -154 179z" />
    <glyph glyph-name="uni1EBC" unicode="&#x1ebc;" horiz-adv-x="574" 
d="M374 792c-30 0 -53 13 -79 28c-30 17 -50 24 -68 24c-23 0 -40 -10 -61 -29l-25 29c21 27 50 48 89 48c30 0 53 -13 79 -28c30 -17 50 -24 68 -24c23 0 40 10 61 29l25 -29c-21 -27 -50 -48 -89 -48zM507 0h-408v698h408v-53h-348v-264h331v-53h-331v-275h348v-53z" />
    <glyph glyph-name="uni1EBD" unicode="&#x1ebd;" horiz-adv-x="543" 
d="M347 618c-30 0 -53 12 -79 28c-30 18 -50 25 -68 25c-23 0 -40 -11 -61 -30l-25 29c21 27 50 48 89 48c30 0 53 -12 79 -28c30 -18 50 -25 68 -25c23 0 40 11 61 30l25 -29c-21 -27 -50 -48 -89 -48zM276 -12c-137 0 -224 100 -224 268s87 268 223 268
c131 0 216 -102 216 -252v-27h-379v-25c0 -107 62 -182 167 -182c73 0 127 36 155 103l42 -28c-32 -75 -103 -125 -200 -125zM275 476c-99 0 -163 -74 -163 -182v-5h317v8c0 108 -62 179 -154 179z" />
    <glyph glyph-name="uni1EBE" unicode="&#x1ebe;" horiz-adv-x="574" 
d="M550 1028l-110 -156l-35 17l95 164zM267 915h70l117 -134l-30 -22l-122 118l-122 -118l-30 22zM507 0h-408v698h408v-53h-348v-264h331v-53h-331v-275h348v-53z" />
    <glyph glyph-name="uni1EBF" unicode="&#x1ebf;" horiz-adv-x="543" 
d="M523 854l-110 -156l-35 18l95 163zM240 741h70l117 -134l-30 -22l-122 118l-122 -118l-30 22zM276 -12c-137 0 -224 100 -224 268s87 268 223 268c131 0 216 -102 216 -252v-27h-379v-25c0 -107 62 -182 167 -182c73 0 127 36 155 103l42 -28
c-32 -75 -103 -125 -200 -125zM275 476c-99 0 -163 -74 -163 -182v-5h317v8c0 108 -62 179 -154 179z" />
    <glyph glyph-name="uni1EC0" unicode="&#x1ec0;" horiz-adv-x="574" 
d="M164 872l-110 156l50 25l95 -164zM267 915h70l117 -134l-30 -22l-122 118l-122 -118l-30 22zM507 0h-408v698h408v-53h-348v-264h331v-53h-331v-275h348v-53z" />
    <glyph glyph-name="uni1EC1" unicode="&#x1ec1;" horiz-adv-x="543" 
d="M137 698l-110 156l50 25l95 -163zM240 741h70l117 -134l-30 -22l-122 118l-122 -118l-30 22zM276 -12c-137 0 -224 100 -224 268s87 268 223 268c131 0 216 -102 216 -252v-27h-379v-25c0 -107 62 -182 167 -182c73 0 127 36 155 103l42 -28c-32 -75 -103 -125 -200 -125
zM275 476c-99 0 -163 -74 -163 -182v-5h317v8c0 108 -62 179 -154 179z" />
    <glyph glyph-name="uni1EC2" unicode="&#x1ec2;" horiz-adv-x="574" 
d="M348 999v42h120c37 0 51 -18 51 -41c0 -20 -13 -46 -42 -85l-33 -48l-34 17l67 115h-129zM267 915h70l117 -134l-30 -22l-122 118l-122 -118l-30 22zM507 0h-408v698h408v-53h-348v-264h331v-53h-331v-275h348v-53z" />
    <glyph glyph-name="uni1EC3" unicode="&#x1ec3;" horiz-adv-x="543" 
d="M321 825v42h120c37 0 51 -18 51 -40c0 -21 -13 -46 -42 -86l-33 -48l-34 17l67 115h-129zM240 741h70l117 -134l-30 -22l-122 118l-122 -118l-30 22zM276 -12c-137 0 -224 100 -224 268s87 268 223 268c131 0 216 -102 216 -252v-27h-379v-25c0 -107 62 -182 167 -182
c73 0 127 36 155 103l42 -28c-32 -75 -103 -125 -200 -125zM275 476c-99 0 -163 -74 -163 -182v-5h317v8c0 108 -62 179 -154 179z" />
    <glyph glyph-name="uni1EC4" unicode="&#x1ec4;" horiz-adv-x="574" 
d="M230 1043c31 0 53 -12 79 -27c31 -18 51 -25 69 -25c22 0 40 11 60 30l24 -27c-20 -27 -49 -47 -88 -47c-31 0 -53 12 -79 27c-31 18 -51 25 -69 25c-22 0 -40 -11 -60 -30l-24 27c20 27 49 47 88 47zM267 915h70l117 -134l-30 -22l-122 118l-122 -118l-30 22zM507 0
h-408v698h408v-53h-348v-264h331v-53h-331v-275h348v-53z" />
    <glyph glyph-name="uni1EC5" unicode="&#x1ec5;" horiz-adv-x="543" 
d="M203 870c31 0 53 -13 79 -28c31 -18 51 -25 69 -25c22 0 40 11 60 30l24 -27c-20 -27 -49 -48 -88 -48c-31 0 -53 13 -79 28c-31 18 -51 25 -69 25c-22 0 -40 -11 -60 -30l-24 27c20 27 49 48 88 48zM240 741h70l117 -134l-30 -22l-122 118l-122 -118l-30 22zM276 -12
c-137 0 -224 100 -224 268s87 268 223 268c131 0 216 -102 216 -252v-27h-379v-25c0 -107 62 -182 167 -182c73 0 127 36 155 103l42 -28c-32 -75 -103 -125 -200 -125zM275 476c-99 0 -163 -74 -163 -182v-5h317v8c0 108 -62 179 -154 179z" />
    <glyph glyph-name="uni1EC6" unicode="&#x1ec6;" horiz-adv-x="574" 
d="M302 -155c-27 0 -40 15 -40 37v8c0 22 13 37 40 37s40 -15 40 -37v-8c0 -22 -13 -37 -40 -37zM267 930h70l118 -139l-32 -23l-121 120l-121 -120l-32 23zM507 0h-408v698h408v-53h-348v-264h331v-53h-331v-275h348v-53z" />
    <glyph glyph-name="uni1EC7" unicode="&#x1ec7;" horiz-adv-x="543" 
d="M279 -155c-27 0 -40 15 -40 37v8c0 22 13 37 40 37s40 -15 40 -37v-8c0 -22 -13 -37 -40 -37zM240 756h70l118 -139l-32 -23l-121 121l-121 -121l-32 23zM276 -12c-137 0 -224 100 -224 268s87 268 223 268c131 0 216 -102 216 -252v-27h-379v-25
c0 -107 62 -182 167 -182c73 0 127 36 155 103l42 -28c-32 -75 -103 -125 -200 -125zM275 476c-99 0 -163 -74 -163 -182v-5h317v8c0 108 -62 179 -154 179z" />
    <glyph glyph-name="uni1EC8" unicode="&#x1ec8;" horiz-adv-x="390" 
d="M114 884v44h120c37 0 51 -18 51 -41c0 -20 -12 -46 -41 -85l-34 -48l-35 17l66 113h-127zM327 0h-264v50h102v598h-102v50h264v-50h-102v-598h102v-50z" />
    <glyph glyph-name="uni1EC9" unicode="&#x1ec9;" horiz-adv-x="243" 
d="M41 710v44h120c37 0 51 -18 51 -40c0 -21 -12 -47 -41 -86l-34 -48l-35 17l66 113h-127zM150 0h-57v512h57v-512z" />
    <glyph glyph-name="uni1ECA" unicode="&#x1eca;" horiz-adv-x="390" 
d="M194 -155c-27 0 -40 15 -40 37v8c0 22 13 37 40 37s40 -15 40 -37v-8c0 -22 -13 -37 -40 -37zM327 0h-264v50h102v598h-102v50h264v-50h-102v-598h102v-50z" />
    <glyph glyph-name="uni1ECB" unicode="&#x1ecb;" horiz-adv-x="243" 
d="M121 -155c-27 0 -40 15 -40 37v8c0 22 13 37 40 37s40 -15 40 -37v-8c0 -22 -13 -37 -40 -37zM121 651c-27 0 -39 15 -39 36v10c0 21 12 36 39 36s39 -15 39 -36v-10c0 -21 -12 -36 -39 -36zM93 0v512h57v-512h-57z" />
    <glyph glyph-name="uni1ECC" unicode="&#x1ecc;" horiz-adv-x="697" 
d="M349 -155c-27 0 -40 15 -40 37v8c0 22 13 37 40 37s40 -15 40 -37v-8c0 -22 -13 -37 -40 -37zM349 -12c-178 0 -286 125 -286 361s108 361 286 361c177 0 285 -125 285 -361s-108 -361 -285 -361zM349 42c133 0 221 97 221 263v88c0 166 -88 263 -221 263
c-134 0 -222 -97 -222 -263v-88c0 -166 88 -263 222 -263z" />
    <glyph glyph-name="uni1ECD" unicode="&#x1ecd;" horiz-adv-x="550" 
d="M275 -155c-27 0 -40 15 -40 37v8c0 22 13 37 40 37s40 -15 40 -37v-8c0 -22 -13 -37 -40 -37zM275 -12c-135 0 -223 100 -223 268s88 268 223 268s223 -100 223 -268s-88 -268 -223 -268zM275 39c99 0 162 65 162 185v64c0 119 -63 185 -162 185s-162 -65 -162 -185v-64
c0 -119 63 -185 162 -185z" />
    <glyph glyph-name="uni1ECE" unicode="&#x1ece;" horiz-adv-x="697" 
d="M269 884v44h120c37 0 51 -18 51 -41c0 -20 -12 -46 -41 -85l-34 -48l-35 17l66 113h-127zM349 -12c-178 0 -286 125 -286 361s108 361 286 361c177 0 285 -125 285 -361s-108 -361 -285 -361zM349 42c133 0 221 97 221 263v88c0 166 -88 263 -221 263
c-134 0 -222 -97 -222 -263v-88c0 -166 88 -263 222 -263z" />
    <glyph glyph-name="uni1ECF" unicode="&#x1ecf;" horiz-adv-x="550" 
d="M195 710v44h120c37 0 51 -18 51 -40c0 -21 -12 -47 -41 -86l-34 -48l-35 17l66 113h-127zM275 -12c-135 0 -223 100 -223 268s88 268 223 268s223 -100 223 -268s-88 -268 -223 -268zM275 39c99 0 162 65 162 185v64c0 119 -63 185 -162 185s-162 -65 -162 -185v-64
c0 -119 63 -185 162 -185z" />
    <glyph glyph-name="uni1ED0" unicode="&#x1ed0;" horiz-adv-x="697" 
d="M597 1028l-110 -156l-35 17l95 164zM314 915h70l117 -134l-30 -22l-122 118l-122 -118l-30 22zM349 -12c-178 0 -286 125 -286 361s108 361 286 361c177 0 285 -125 285 -361s-108 -361 -285 -361zM349 42c133 0 221 97 221 263v88c0 166 -88 263 -221 263
c-134 0 -222 -97 -222 -263v-88c0 -166 88 -263 222 -263z" />
    <glyph glyph-name="uni1ED1" unicode="&#x1ed1;" horiz-adv-x="550" 
d="M523 854l-110 -156l-35 18l95 163zM240 741h70l117 -134l-30 -22l-122 118l-122 -118l-30 22zM275 -12c-135 0 -223 100 -223 268s88 268 223 268s223 -100 223 -268s-88 -268 -223 -268zM275 39c99 0 162 65 162 185v64c0 119 -63 185 -162 185s-162 -65 -162 -185v-64
c0 -119 63 -185 162 -185z" />
    <glyph glyph-name="uni1ED2" unicode="&#x1ed2;" horiz-adv-x="697" 
d="M211 872l-110 156l50 25l95 -164zM314 915h70l117 -134l-30 -22l-122 118l-122 -118l-30 22zM349 -12c-178 0 -286 125 -286 361s108 361 286 361c177 0 285 -125 285 -361s-108 -361 -285 -361zM349 42c133 0 221 97 221 263v88c0 166 -88 263 -221 263
c-134 0 -222 -97 -222 -263v-88c0 -166 88 -263 222 -263z" />
    <glyph glyph-name="uni1ED3" unicode="&#x1ed3;" horiz-adv-x="550" 
d="M137 698l-110 156l50 25l95 -163zM240 741h70l117 -134l-30 -22l-122 118l-122 -118l-30 22zM275 -12c-135 0 -223 100 -223 268s88 268 223 268s223 -100 223 -268s-88 -268 -223 -268zM275 39c99 0 162 65 162 185v64c0 119 -63 185 -162 185s-162 -65 -162 -185v-64
c0 -119 63 -185 162 -185z" />
    <glyph glyph-name="uni1ED4" unicode="&#x1ed4;" horiz-adv-x="697" 
d="M395 999v42h120c37 0 51 -18 51 -41c0 -20 -13 -46 -42 -85l-33 -48l-34 17l67 115h-129zM314 915h70l117 -134l-30 -22l-122 118l-122 -118l-30 22zM349 -12c-178 0 -286 125 -286 361s108 361 286 361c177 0 285 -125 285 -361s-108 -361 -285 -361zM349 42
c133 0 221 97 221 263v88c0 166 -88 263 -221 263c-134 0 -222 -97 -222 -263v-88c0 -166 88 -263 222 -263z" />
    <glyph glyph-name="uni1ED5" unicode="&#x1ed5;" horiz-adv-x="550" 
d="M321 825v42h120c37 0 51 -18 51 -40c0 -21 -13 -46 -42 -86l-33 -48l-34 17l67 115h-129zM240 741h70l117 -134l-30 -22l-122 118l-122 -118l-30 22zM275 -12c-135 0 -223 100 -223 268s88 268 223 268s223 -100 223 -268s-88 -268 -223 -268zM275 39
c99 0 162 65 162 185v64c0 119 -63 185 -162 185s-162 -65 -162 -185v-64c0 -119 63 -185 162 -185z" />
    <glyph glyph-name="uni1ED6" unicode="&#x1ed6;" horiz-adv-x="697" 
d="M277 1043c31 0 53 -12 79 -27c31 -18 51 -25 69 -25c22 0 40 11 60 30l24 -27c-20 -27 -49 -47 -88 -47c-31 0 -53 12 -79 27c-31 18 -51 25 -69 25c-22 0 -40 -11 -60 -30l-24 27c20 27 49 47 88 47zM314 915h70l117 -134l-30 -22l-122 118l-122 -118l-30 22zM349 -12
c-178 0 -286 125 -286 361s108 361 286 361c177 0 285 -125 285 -361s-108 -361 -285 -361zM349 42c133 0 221 97 221 263v88c0 166 -88 263 -221 263c-134 0 -222 -97 -222 -263v-88c0 -166 88 -263 222 -263z" />
    <glyph glyph-name="uni1ED7" unicode="&#x1ed7;" horiz-adv-x="550" 
d="M203 870c31 0 53 -13 79 -28c31 -18 51 -25 69 -25c22 0 40 11 60 30l24 -27c-20 -27 -49 -48 -88 -48c-31 0 -53 13 -79 28c-31 18 -51 25 -69 25c-22 0 -40 -11 -60 -30l-24 27c20 27 49 48 88 48zM240 741h70l117 -134l-30 -22l-122 118l-122 -118l-30 22zM275 -12
c-135 0 -223 100 -223 268s88 268 223 268s223 -100 223 -268s-88 -268 -223 -268zM275 39c99 0 162 65 162 185v64c0 119 -63 185 -162 185s-162 -65 -162 -185v-64c0 -119 63 -185 162 -185z" />
    <glyph glyph-name="uni1ED8" unicode="&#x1ed8;" horiz-adv-x="697" 
d="M349 -155c-27 0 -40 15 -40 37v8c0 22 13 37 40 37s40 -15 40 -37v-8c0 -22 -13 -37 -40 -37zM314 930h70l118 -139l-32 -23l-121 120l-121 -120l-32 23zM349 -12c-178 0 -286 125 -286 361s108 361 286 361c177 0 285 -125 285 -361s-108 -361 -285 -361zM349 42
c133 0 221 97 221 263v88c0 166 -88 263 -221 263c-134 0 -222 -97 -222 -263v-88c0 -166 88 -263 222 -263z" />
    <glyph glyph-name="uni1ED9" unicode="&#x1ed9;" horiz-adv-x="550" 
d="M275 -155c-27 0 -40 15 -40 37v8c0 22 13 37 40 37s40 -15 40 -37v-8c0 -22 -13 -37 -40 -37zM240 756h70l118 -139l-32 -23l-121 121l-121 -121l-32 23zM275 -12c-135 0 -223 100 -223 268s88 268 223 268s223 -100 223 -268s-88 -268 -223 -268zM275 39
c99 0 162 65 162 185v64c0 119 -63 185 -162 185s-162 -65 -162 -185v-64c0 -119 63 -185 162 -185z" />
    <glyph glyph-name="uni1EDA" unicode="&#x1eda;" horiz-adv-x="697" 
d="M456 916l-110 -156l-37 18l95 164zM587 811h51v-102c0 -29 -11 -49 -50 -49h-74c82 -63 120 -169 120 -311c0 -236 -108 -361 -285 -361c-178 0 -286 125 -286 361s108 361 286 361c33 0 63 -3 92 -12h146v113zM349 42c133 0 221 97 221 263v88c0 166 -88 263 -221 263
c-134 0 -222 -97 -222 -263v-88c0 -166 88 -263 222 -263z" />
    <glyph glyph-name="uni1EDB" unicode="&#x1edb;" horiz-adv-x="550" 
d="M383 742l-110 -156l-37 18l95 164zM446 620h51v-95c0 -30 -11 -50 -49 -50h-33c52 -45 83 -117 83 -219c0 -168 -88 -268 -223 -268s-223 100 -223 268s88 268 223 268c26 0 54 -4 76 -12h95v108zM275 39c99 0 162 65 162 185v64c0 119 -63 185 -162 185
s-162 -65 -162 -185v-64c0 -119 63 -185 162 -185z" />
    <glyph glyph-name="uni1EDC" unicode="&#x1edc;" horiz-adv-x="697" 
d="M351 760l-109 156l52 26l95 -164zM587 811h51v-102c0 -29 -11 -49 -50 -49h-74c82 -63 120 -169 120 -311c0 -236 -108 -361 -285 -361c-178 0 -286 125 -286 361s108 361 286 361c33 0 63 -3 92 -12h146v113zM349 42c133 0 221 97 221 263v88c0 166 -88 263 -221 263
c-134 0 -222 -97 -222 -263v-88c0 -166 88 -263 222 -263z" />
    <glyph glyph-name="uni1EDD" unicode="&#x1edd;" horiz-adv-x="550" 
d="M278 586l-109 156l52 26l95 -164zM446 620h51v-95c0 -30 -11 -50 -49 -50h-33c52 -45 83 -117 83 -219c0 -168 -88 -268 -223 -268s-223 100 -223 268s88 268 223 268c26 0 54 -4 76 -12h95v108zM275 39c99 0 162 65 162 185v64c0 119 -63 185 -162 185
s-162 -65 -162 -185v-64c0 -119 63 -185 162 -185z" />
    <glyph glyph-name="uni1EDE" unicode="&#x1ede;" horiz-adv-x="697" 
d="M269 884v44h120c37 0 51 -18 51 -41c0 -20 -12 -46 -41 -85l-34 -48l-35 17l66 113h-127zM587 811h51v-102c0 -29 -11 -49 -50 -49h-74c82 -63 120 -169 120 -311c0 -236 -108 -361 -285 -361c-178 0 -286 125 -286 361s108 361 286 361c33 0 63 -3 92 -12h146v113z
M349 42c133 0 221 97 221 263v88c0 166 -88 263 -221 263c-134 0 -222 -97 -222 -263v-88c0 -166 88 -263 222 -263z" />
    <glyph glyph-name="uni1EDF" unicode="&#x1edf;" horiz-adv-x="550" 
d="M196 710v44h120c37 0 51 -18 51 -40c0 -21 -12 -47 -41 -86l-34 -48l-35 17l66 113h-127zM446 620h51v-95c0 -30 -11 -50 -49 -50h-33c52 -45 83 -117 83 -219c0 -168 -88 -268 -223 -268s-223 100 -223 268s88 268 223 268c26 0 54 -4 76 -12h95v108zM275 39
c99 0 162 65 162 185v64c0 119 -63 185 -162 185s-162 -65 -162 -185v-64c0 -119 63 -185 162 -185z" />
    <glyph glyph-name="uni1EE0" unicode="&#x1ee0;" horiz-adv-x="697" 
d="M422 795c-28 0 -48 11 -73 25c-26 15 -42 22 -60 22c-22 0 -40 -10 -60 -29l-25 29c20 27 49 47 86 47c28 0 48 -11 73 -25c26 -15 42 -22 60 -22c22 0 40 10 60 29l25 -29c-20 -27 -49 -47 -86 -47zM587 811h51v-102c0 -29 -11 -49 -50 -49h-74
c82 -63 120 -169 120 -311c0 -236 -108 -361 -285 -361c-178 0 -286 125 -286 361s108 361 286 361c33 0 63 -3 92 -12h146v113zM349 42c133 0 221 97 221 263v88c0 166 -88 263 -221 263c-134 0 -222 -97 -222 -263v-88c0 -166 88 -263 222 -263z" />
    <glyph glyph-name="uni1EE1" unicode="&#x1ee1;" horiz-adv-x="550" 
d="M326 621c-28 0 -48 11 -73 25c-26 15 -42 22 -60 22c-22 0 -40 -10 -60 -29l-25 29c20 27 49 47 86 47c28 0 48 -11 73 -25c26 -15 42 -22 60 -22c22 0 40 10 60 29l25 -29c-20 -27 -49 -47 -86 -47zM446 620h51v-95c0 -30 -11 -50 -49 -50h-33c52 -45 83 -117 83 -219
c0 -168 -88 -268 -223 -268s-223 100 -223 268s88 268 223 268c26 0 54 -4 76 -12h95v108zM275 39c99 0 162 65 162 185v64c0 119 -63 185 -162 185s-162 -65 -162 -185v-64c0 -119 63 -185 162 -185z" />
    <glyph glyph-name="uni1EE2" unicode="&#x1ee2;" horiz-adv-x="697" 
d="M351 -155c-27 0 -40 15 -40 37v8c0 22 13 37 40 37s40 -15 40 -37v-8c0 -22 -13 -37 -40 -37zM587 811h51v-102c0 -29 -11 -49 -50 -49h-74c82 -63 120 -169 120 -311c0 -236 -108 -361 -285 -361c-178 0 -286 125 -286 361s108 361 286 361c33 0 63 -3 92 -12h146v113z
M349 42c133 0 221 97 221 263v88c0 166 -88 263 -221 263c-134 0 -222 -97 -222 -263v-88c0 -166 88 -263 222 -263z" />
    <glyph glyph-name="uni1EE3" unicode="&#x1ee3;" horiz-adv-x="550" 
d="M276 -155c-27 0 -40 15 -40 37v8c0 22 13 37 40 37s40 -15 40 -37v-8c0 -22 -13 -37 -40 -37zM446 620h51v-95c0 -30 -11 -50 -49 -50h-33c52 -45 83 -117 83 -219c0 -168 -88 -268 -223 -268s-223 100 -223 268s88 268 223 268c26 0 54 -4 76 -12h95v108zM275 39
c99 0 162 65 162 185v64c0 119 -63 185 -162 185s-162 -65 -162 -185v-64c0 -119 63 -185 162 -185z" />
    <glyph glyph-name="uni1EE4" unicode="&#x1ee4;" horiz-adv-x="668" 
d="M333 -155c-27 0 -40 15 -40 37v8c0 22 13 37 40 37s40 -15 40 -37v-8c0 -22 -13 -37 -40 -37zM93 698h60v-431c0 -155 44 -225 181 -225c136 0 181 70 181 225v431h60v-418c0 -205 -64 -292 -243 -292s-239 87 -239 292v418z" />
    <glyph glyph-name="uni1EE5" unicode="&#x1ee5;" horiz-adv-x="563" 
d="M274 -155c-27 0 -40 15 -40 37v8c0 22 13 37 40 37s40 -15 40 -37v-8c0 -22 -13 -37 -40 -37zM413 0v81h-4c-19 -48 -61 -93 -149 -93c-109 0 -174 70 -174 195v329h57v-318c0 -105 47 -155 132 -155c71 0 138 37 138 114v359h57v-512h-57z" />
    <glyph glyph-name="uni1EE6" unicode="&#x1ee6;" horiz-adv-x="668" 
d="M252 884v44h120c37 0 51 -18 51 -41c0 -20 -12 -46 -41 -85l-34 -48l-35 17l66 113h-127zM93 698h60v-431c0 -155 44 -225 181 -225c136 0 181 70 181 225v431h60v-418c0 -205 -64 -292 -243 -292s-239 87 -239 292v418z" />
    <glyph glyph-name="uni1EE7" unicode="&#x1ee7;" horiz-adv-x="563" 
d="M198 710v44h120c37 0 51 -18 51 -40c0 -21 -12 -47 -41 -86l-34 -48l-35 17l66 113h-127zM413 0v81h-4c-19 -48 -61 -93 -149 -93c-109 0 -174 70 -174 195v329h57v-318c0 -105 47 -155 132 -155c71 0 138 37 138 114v359h57v-512h-57z" />
    <glyph glyph-name="uni1EE8" unicode="&#x1ee8;" horiz-adv-x="668" 
d="M439 916l-110 -156l-37 18l95 164zM93 698h60v-431c0 -155 44 -225 181 -225c136 0 181 70 181 225v431h87v112h51v-102c0 -29 -11 -49 -50 -49h-28v-379c0 -205 -64 -292 -243 -292s-239 87 -239 292v418z" />
    <glyph glyph-name="uni1EE9" unicode="&#x1ee9;" horiz-adv-x="564" 
d="M385 742l-110 -156l-37 18l95 164zM552 624v-102c0 -29 -11 -49 -50 -49h-31v-473h-57v81h-4c-19 -48 -62 -93 -150 -93c-109 0 -174 70 -174 195v329h57v-318c0 -105 47 -155 132 -155c71 0 139 37 139 114v359h87v112h51z" />
    <glyph glyph-name="uni1EEA" unicode="&#x1eea;" horiz-adv-x="668" 
d="M334 760l-109 156l52 26l95 -164zM93 698h60v-431c0 -155 44 -225 181 -225c136 0 181 70 181 225v431h87v112h51v-102c0 -29 -11 -49 -50 -49h-28v-379c0 -205 -64 -292 -243 -292s-239 87 -239 292v418z" />
    <glyph glyph-name="uni1EEB" unicode="&#x1eeb;" horiz-adv-x="564" 
d="M280 586l-109 156l52 26l95 -164zM552 624v-102c0 -29 -11 -49 -50 -49h-31v-473h-57v81h-4c-19 -48 -62 -93 -150 -93c-109 0 -174 70 -174 195v329h57v-318c0 -105 47 -155 132 -155c71 0 139 37 139 114v359h87v112h51z" />
    <glyph glyph-name="uni1EEC" unicode="&#x1eec;" horiz-adv-x="668" 
d="M252 884v44h120c37 0 51 -18 51 -41c0 -20 -12 -46 -41 -85l-34 -48l-35 17l66 113h-127zM93 698h60v-431c0 -155 44 -225 181 -225c136 0 181 70 181 225v431h87v112h51v-102c0 -29 -11 -49 -50 -49h-28v-379c0 -205 -64 -292 -243 -292s-239 87 -239 292v418z" />
    <glyph glyph-name="uni1EED" unicode="&#x1eed;" horiz-adv-x="564" 
d="M198 710v44h120c37 0 51 -18 51 -40c0 -21 -12 -47 -41 -86l-34 -48l-35 17l66 113h-127zM552 624v-102c0 -29 -11 -49 -50 -49h-31v-473h-57v81h-4c-19 -48 -62 -93 -150 -93c-109 0 -174 70 -174 195v329h57v-318c0 -105 47 -155 132 -155c71 0 139 37 139 114v359h87
v112h51z" />
    <glyph glyph-name="uni1EEE" unicode="&#x1eee;" horiz-adv-x="668" 
d="M406 795c-28 0 -48 11 -73 25c-26 15 -42 22 -60 22c-22 0 -40 -10 -60 -29l-25 29c20 27 49 47 86 47c28 0 48 -11 73 -25c26 -15 42 -22 60 -22c22 0 40 10 60 29l25 -29c-20 -27 -49 -47 -86 -47zM93 698h60v-431c0 -155 44 -225 181 -225c136 0 181 70 181 225v431
h87v112h51v-102c0 -29 -11 -49 -50 -49h-28v-379c0 -205 -64 -292 -243 -292s-239 87 -239 292v418z" />
    <glyph glyph-name="uni1EEF" unicode="&#x1eef;" horiz-adv-x="564" 
d="M356 621c-28 0 -48 11 -73 25c-26 15 -42 22 -60 22c-22 0 -40 -10 -60 -29l-25 29c20 27 49 47 86 47c28 0 48 -11 73 -25c26 -15 42 -22 60 -22c22 0 40 10 60 29l25 -29c-20 -27 -49 -47 -86 -47zM552 624v-102c0 -29 -11 -49 -50 -49h-31v-473h-57v81h-4
c-19 -48 -62 -93 -150 -93c-109 0 -174 70 -174 195v329h57v-318c0 -105 47 -155 132 -155c71 0 139 37 139 114v359h87v112h51z" />
    <glyph glyph-name="uni1EF0" unicode="&#x1ef0;" horiz-adv-x="668" 
d="M333 -155c-27 0 -40 15 -40 37v8c0 22 13 37 40 37s40 -15 40 -37v-8c0 -22 -13 -37 -40 -37zM93 698h60v-431c0 -155 44 -225 181 -225c136 0 181 70 181 225v431h87v112h51v-102c0 -29 -11 -49 -50 -49h-28v-379c0 -205 -64 -292 -243 -292s-239 87 -239 292v418z" />
    <glyph glyph-name="uni1EF1" unicode="&#x1ef1;" horiz-adv-x="564" 
d="M273 -155c-27 0 -40 15 -40 37v8c0 22 13 37 40 37s40 -15 40 -37v-8c0 -22 -13 -37 -40 -37zM552 624v-102c0 -29 -11 -49 -50 -49h-31v-473h-57v81h-4c-19 -48 -62 -93 -150 -93c-109 0 -174 70 -174 195v329h57v-318c0 -105 47 -155 132 -155c71 0 139 37 139 114v359
h87v112h51z" />
    <glyph glyph-name="Ygrave" unicode="&#x1ef2;" horiz-adv-x="575" 
d="M289 760l-109 156l52 26l95 -164zM317 0h-60v283l-241 415h68l202 -352h3l202 352h68l-242 -412v-286z" />
    <glyph glyph-name="ygrave" unicode="&#x1ef3;" horiz-adv-x="481" 
d="M243 586l-109 156l52 26l95 -164zM243 61l156 451h58l-237 -656c-16 -43 -33 -56 -85 -56h-58v50h86l49 135l-190 527h60l157 -451h4z" />
    <glyph glyph-name="uni1EF4" unicode="&#x1ef4;" horiz-adv-x="575" 
d="M288 -155c-27 0 -40 15 -40 37v8c0 22 13 37 40 37s40 -15 40 -37v-8c0 -22 -13 -37 -40 -37zM317 0h-60v283l-241 415h68l202 -352h3l202 352h68l-242 -412v-286z" />
    <glyph glyph-name="uni1EF5" unicode="&#x1ef5;" horiz-adv-x="481" 
d="M378 -155c-27 0 -40 15 -40 37v8c0 22 13 37 40 37s40 -15 40 -37v-8c0 -22 -13 -37 -40 -37zM243 61l156 451h58l-237 -656c-16 -43 -33 -56 -85 -56h-58v50h86l49 135l-190 527h60l157 -451h4z" />
    <glyph glyph-name="uni1EF6" unicode="&#x1ef6;" horiz-adv-x="575" 
d="M207 884v44h120c37 0 51 -18 51 -41c0 -20 -12 -46 -41 -85l-34 -48l-35 17l66 113h-127zM317 0h-60v283l-241 415h68l202 -352h3l202 352h68l-242 -412v-286z" />
    <glyph glyph-name="uni1EF7" unicode="&#x1ef7;" horiz-adv-x="481" 
d="M161 710v44h120c37 0 51 -18 51 -40c0 -21 -12 -47 -41 -86l-34 -48l-35 17l66 113h-127zM243 61l156 451h58l-237 -656c-16 -43 -33 -56 -85 -56h-58v50h86l49 135l-190 527h60l157 -451h4z" />
    <glyph glyph-name="uni1EF8" unicode="&#x1ef8;" horiz-adv-x="575" 
d="M359 792c-30 0 -53 13 -79 28c-30 17 -50 24 -68 24c-23 0 -40 -10 -61 -29l-25 29c21 27 50 48 89 48c30 0 53 -13 79 -28c30 -17 50 -24 68 -24c23 0 40 10 61 29l25 -29c-21 -27 -50 -48 -89 -48zM317 0h-60v283l-241 415h68l202 -352h3l202 352h68l-242 -412v-286z
" />
    <glyph glyph-name="uni1EF9" unicode="&#x1ef9;" horiz-adv-x="481" 
d="M313 618c-30 0 -53 12 -79 28c-30 18 -50 25 -68 25c-23 0 -40 -11 -61 -30l-25 29c21 27 50 48 89 48c30 0 53 -12 79 -28c30 -18 50 -25 68 -25c23 0 40 11 61 30l25 -29c-21 -27 -50 -48 -89 -48zM243 61l156 451h58l-237 -656c-16 -43 -33 -56 -85 -56h-58v50h86
l49 135l-190 527h60l157 -451h4z" />
    <glyph glyph-name="endash" unicode="&#x2013;" horiz-adv-x="588" 
d="M552 278h-516v53h516v-53z" />
    <glyph glyph-name="emdash" unicode="&#x2014;" horiz-adv-x="780" 
d="M744 278h-708v53h708v-53z" />
    <glyph glyph-name="quoteleft" unicode="&#x2018;" horiz-adv-x="260" 
d="M125 510c-32 0 -47 18 -47 46v13c0 54 34 126 86 171h48c-44 -45 -66 -88 -75 -131c26 -4 37 -20 37 -41v-12c0 -28 -15 -46 -49 -46z" />
    <glyph glyph-name="quoteright" unicode="&#x2019;" horiz-adv-x="260" 
d="M134 750c33 0 48 -19 48 -46v-13c0 -55 -34 -126 -86 -171h-48c44 45 66 87 74 131c-25 3 -36 20 -36 41v12c0 27 15 46 48 46z" />
    <glyph glyph-name="quotesinglbase" unicode="&#x201a;" horiz-adv-x="260" 
d="M128 107c33 0 48 -19 48 -46v-13c0 -55 -34 -126 -86 -171h-48c44 45 66 87 74 131c-25 3 -36 20 -36 41v12c0 27 15 46 48 46z" />
    <glyph glyph-name="quotedblleft" unicode="&#x201c;" horiz-adv-x="446" 
d="M311 510c-32 0 -47 18 -47 46v13c0 54 34 126 86 171h48c-44 -45 -66 -88 -75 -131c26 -4 37 -20 37 -41v-12c0 -28 -15 -46 -49 -46zM125 510c-32 0 -47 18 -47 46v13c0 54 34 126 86 171h48c-44 -45 -66 -88 -75 -131c26 -4 37 -20 37 -41v-12c0 -28 -15 -46 -49 -46z
" />
    </font>
</defs>
</svg>
