<?xml version="1.0" standalone="no"?>
<!DOCTYPE svg PUBLIC "-//W3C//DTD SVG 1.1//EN" "http://www.w3.org/Graphics/SVG/1.1/DTD/svg11.dtd" >
<svg xmlns="http://www.w3.org/2000/svg" xmlns:xlink="http://www.w3.org/1999/xlink" version="1.1">
<metadata>
Created by FontForge 20180714 at Tue Aug 14 16:17:51 2018
 By Gisle,,,,
Copyright 2018 IBM Corp. All rights reserved.
</metadata>
<defs>
<font id="Aneliza-Regular" horiz-adv-x="600" >
  <font-face 
    font-family="Aneliza"
    font-weight="400"
    font-stretch="normal"
    units-per-em="1000"
    panose-1="2 11 5 3 5 2 3 0 2 3"
    ascent="780"
    descent="-220"
    x-height="516"
    cap-height="698"
    bbox="-260 -245 1241 1119"
    underline-thickness="60"
    underline-position="-125"
    stemh="74"
    stemv="80"
    unicode-range="U+0020-FB02"
  />
<missing-glyph horiz-adv-x="472" 
d="M32 0v780h408v-780h-408zM92 60h288v660h-288v-660z" />
    <glyph glyph-name="fi" unicode="fi" horiz-adv-x="567" 
d="M113 0v446h-84v70h84v104c0 71 37 120 113 120h78v-70h-111v-154h289v-516h-80v446h-209v-446h-80zM442 637c-34 0 -49 18 -49 45v13c0 27 15 45 49 45s49 -18 49 -45v-13c0 -27 -15 -45 -49 -45z" />
    <glyph glyph-name=".notdef" horiz-adv-x="472" 
d="M32 0v780h408v-780h-408zM92 60h288v660h-288v-660z" />
    <glyph glyph-name="space" unicode=" " horiz-adv-x="236" 
 />
    <glyph glyph-name="exclam" unicode="!" horiz-adv-x="284" 
d="M162 185h-40l-24 310v203h88v-203zM142 -12c-42 0 -61 23 -61 58v13c0 35 19 58 61 58s61 -23 61 -58v-13c0 -35 -19 -58 -61 -58z" />
    <glyph glyph-name="quotedbl" unicode="&#x22;" horiz-adv-x="419" 
d="M334 460h-72v280h72v-280zM157 460h-72v280h72v-280z" />
    <glyph glyph-name="numbersign" unicode="#" horiz-adv-x="713" 
d="M370 0l36 205h-154l-36 -205h-64l36 205h-128v60h138l28 168h-127v60h138l35 205h64l-35 -205h154l35 205h64l-35 -205h128v-60h-139l-28 -168h128v-60h-138l-36 -205h-64zM262 265h154l28 168h-154z" />
    <glyph glyph-name="dollar" unicode="$" horiz-adv-x="598" 
d="M332 -82h-62v82c-101 7 -169 54 -218 119l59 53c43 -57 93 -92 160 -101v257c-137 31 -198 87 -198 190c0 107 81 169 197 180v82h62v-81c90 -8 155 -47 203 -113l-61 -46c-33 46 -79 78 -143 87v-234l9 -2c138 -31 199 -86 199 -191c0 -114 -80 -188 -207 -200v-82z
M460 195c0 67 -36 100 -129 122v-246c79 10 129 56 129 124zM152 524c0 -68 39 -96 119 -118v221c-72 -9 -119 -45 -119 -103z" />
    <glyph glyph-name="percent" unicode="%" horiz-adv-x="927" 
d="M260 0h-77l484 698h77zM223 314c-101 0 -158 70 -158 198s57 198 158 198s158 -70 158 -198s-57 -198 -158 -198zM223 366c58 0 86 40 86 116v60c0 76 -28 116 -86 116s-86 -40 -86 -116v-60c0 -76 28 -116 86 -116zM704 -12c-101 0 -158 70 -158 198s57 198 158 198
s158 -70 158 -198s-57 -198 -158 -198zM704 40c58 0 86 40 86 116v60c0 76 -28 116 -86 116s-86 -40 -86 -116v-60c0 -76 28 -116 86 -116z" />
    <glyph glyph-name="ampersand" unicode="&#x26;" horiz-adv-x="694" 
d="M564 0l-75 82c-28 -35 -90 -94 -203 -94c-138 0 -214 86 -214 193c0 104 71 158 143 197c-48 50 -79 102 -79 164c0 94 72 168 181 168c99 0 168 -61 168 -150c0 -92 -72 -144 -160 -193l157 -169c20 51 30 110 33 169h136v-68h-71c-9 -58 -26 -110 -48 -154l136 -145
h-104zM313 643c-57 0 -98 -41 -98 -94v-12c0 -40 27 -80 67 -125c63 34 126 79 126 134v12c0 54 -44 85 -95 85zM293 58c67 0 116 28 151 72l-187 202c-54 -29 -102 -62 -102 -140v-15c0 -73 54 -119 138 -119z" />
    <glyph glyph-name="quotesingle" unicode="'" horiz-adv-x="242" 
d="M157 460h-72v280h72v-280z" />
    <glyph glyph-name="parenleft" unicode="(" horiz-adv-x="335" 
d="M83 312c0 193 79 361 181 448h76c-111 -100 -182 -266 -182 -406v-86c0 -140 74 -309 182 -405h-76c-99 84 -181 254 -181 449z" />
    <glyph glyph-name="parenright" unicode=")" horiz-adv-x="335" 
d="M252 312c0 -195 -82 -365 -181 -449h-76c108 96 182 265 182 405v86c0 140 -71 306 -182 406h76c102 -87 181 -255 181 -448z" />
    <glyph glyph-name="asterisk" unicode="*" horiz-adv-x="450" 
d="M225 511l-82 -123l-56 41l91 116l-142 39l22 67l138 -51l-6 147h70l-6 -147l138 51l22 -67l-142 -39l91 -116l-56 -41z" />
    <glyph glyph-name="plus" unicode="+" 
d="M338 62h-76v209h-195v68h195v209h76v-209h195v-68h-195v-209z" />
    <glyph glyph-name="comma" unicode="," horiz-adv-x="272" 
d="M136 117c42 0 61 -24 61 -59v-14c0 -54 -34 -128 -91 -177h-67c40 42 64 77 75 124c-27 6 -39 26 -39 53v14c0 35 19 59 61 59z" />
    <glyph glyph-name="hyphen" unicode="-" horiz-adv-x="399" 
d="M330 261h-261v86h261v-86z" />
    <glyph glyph-name="period" unicode="." horiz-adv-x="272" 
d="M136 -12c-42 0 -61 24 -61 58v13c0 34 19 58 61 58s61 -24 61 -58v-13c0 -34 -19 -58 -61 -58z" />
    <glyph glyph-name="slash" unicode="/" horiz-adv-x="383" 
d="M81 -151h-72l261 891h72z" />
    <glyph glyph-name="zero" unicode="0" 
d="M300 -12c-167 0 -240 133 -240 361s73 361 240 361s240 -133 240 -361s-73 -361 -240 -361zM300 61c109 0 152 96 152 231v114c0 135 -43 231 -152 231s-152 -96 -152 -231v-114c0 -135 43 -231 152 -231z" />
    <glyph glyph-name="one" unicode="1" 
d="M547 0h-459v74h195v562h-7l-176 -164l-49 53l185 173h131v-624h180v-74z" />
    <glyph glyph-name="two" unicode="2" 
d="M533 74v-74h-458v86l228 210c65 60 115 130 115 197v12c0 77 -43 130 -129 130s-126 -52 -145 -118l-75 29c27 82 89 164 224 164c136 0 214 -84 214 -203c0 -108 -64 -184 -153 -264l-188 -169h367z" />
    <glyph glyph-name="three" unicode="3" 
d="M185 402h76c94 0 142 49 142 116v7c0 73 -51 110 -125 110c-72 0 -115 -34 -144 -87l-62 48c35 56 96 114 208 114c118 0 212 -63 212 -176c0 -90 -60 -144 -134 -163v-4c75 -15 147 -71 147 -176c0 -120 -95 -203 -237 -203c-121 0 -183 59 -226 119l63 48
c36 -55 77 -92 162 -92c98 0 150 47 150 129v8c0 82 -52 129 -150 129h-82v73z" />
    <glyph glyph-name="four" unicode="4" 
d="M455 0h-80v137h-337v74l292 487h125v-491h101v-70h-101v-137zM370 633l-253 -426h258v426h-5z" />
    <glyph glyph-name="five" unicode="5" 
d="M498 698v-74h-306l-20 -266h7c33 47 70 77 143 77c120 0 208 -81 208 -216c0 -136 -88 -231 -235 -231c-116 0 -176 59 -218 119l63 48c36 -55 71 -92 155 -92c95 0 146 53 146 145v10c0 92 -51 145 -146 145c-64 0 -96 -27 -125 -59l-71 10l25 384h374z" />
    <glyph glyph-name="six" unicode="6" 
d="M301 -12c-145 0 -234 102 -234 268c0 207 137 369 249 442h108c-149 -109 -232 -200 -270 -362l5 -2c33 57 83 100 168 100c120 0 206 -83 206 -215c0 -137 -92 -231 -232 -231zM300 61c92 0 146 53 146 147v8c0 94 -54 147 -146 147s-146 -53 -146 -147v-8
c0 -94 54 -147 146 -147z" />
    <glyph glyph-name="seven" unicode="7" 
d="M265 0h-90l267 626h-298v-130h-75v202h458v-74z" />
    <glyph glyph-name="eight" unicode="8" 
d="M300 -12c-159 0 -242 87 -242 202c0 95 57 150 141 173v8c-73 25 -120 84 -120 164c0 106 82 175 221 175s221 -69 221 -175c0 -80 -47 -139 -120 -164v-8c84 -23 141 -78 141 -173c0 -115 -83 -202 -242 -202zM300 61c97 0 153 46 153 125v21c0 79 -56 125 -153 125
s-153 -46 -153 -125v-21c0 -79 56 -125 153 -125zM300 402c87 0 134 39 134 110v15c0 71 -47 110 -134 110s-134 -39 -134 -110v-15c0 -71 47 -110 134 -110z" />
    <glyph glyph-name="nine" unicode="9" 
d="M533 442c0 -207 -137 -369 -249 -442h-108c149 109 232 200 270 362l-5 2c-33 -57 -83 -100 -168 -100c-120 0 -206 83 -206 215c0 137 92 231 232 231c145 0 234 -102 234 -268zM300 335c92 0 146 53 146 147v8c0 94 -54 147 -146 147s-146 -53 -146 -147v-8
c0 -94 54 -147 146 -147z" />
    <glyph glyph-name="colon" unicode=":" horiz-adv-x="292" 
d="M146 399c-42 0 -61 24 -61 58v13c0 34 19 58 61 58s61 -24 61 -58v-13c0 -34 -19 -58 -61 -58zM146 -12c-42 0 -61 24 -61 58v13c0 34 19 58 61 58s61 -24 61 -58v-13c0 -34 -19 -58 -61 -58z" />
    <glyph glyph-name="semicolon" unicode=";" horiz-adv-x="292" 
d="M146 399c-42 0 -61 24 -61 58v13c0 34 19 58 61 58s61 -24 61 -58v-13c0 -34 -19 -58 -61 -58zM146 117c42 0 61 -24 61 -59v-14c0 -54 -34 -128 -91 -177h-67c40 42 64 77 75 124c-27 6 -39 26 -39 53v14c0 35 19 59 61 59z" />
    <glyph glyph-name="less" unicode="&#x3c;" 
d="M510 -12l-420 249v80l420 249v-84l-345 -201v-8l345 -201v-84z" />
    <glyph glyph-name="equal" unicode="=" 
d="M533 372h-466v68h466v-68zM533 172h-466v68h466v-68z" />
    <glyph glyph-name="greater" unicode="&#x3e;" 
d="M90 -12v84l345 201v8l-345 201v84l420 -249v-80z" />
    <glyph glyph-name="question" unicode="?" horiz-adv-x="477" 
d="M256 208h-77v164c109 5 175 55 175 139v14c0 68 -47 112 -118 112c-77 0 -123 -50 -139 -117l-74 28c25 86 91 162 216 162c123 0 201 -74 201 -189c0 -128 -96 -188 -184 -205v-108zM218 -12c-42 0 -61 23 -61 58v13c0 35 19 58 61 58s61 -23 61 -58v-13
c0 -35 -19 -58 -61 -58z" />
    <glyph glyph-name="at" unicode="@" horiz-adv-x="891" 
d="M679 -60v-61h-232c-230 0 -382 162 -382 409c0 248 155 420 391 420c188 0 370 -109 370 -385c0 -138 -48 -254 -174 -254c-63 0 -95 35 -101 86h-4c-26 -53 -63 -86 -124 -86c-93 0 -174 71 -174 220s81 220 174 220c61 0 96 -34 114 -77h4v68h69v-304
c0 -52 18 -66 55 -66c62 0 95 69 95 180v46c0 176 -133 292 -305 292c-191 0 -323 -143 -323 -327v-59c0 -189 127 -322 316 -322h231zM437 135c70 0 104 35 104 96v122c0 51 -33 90 -104 90s-104 -45 -104 -114v-80c0 -69 33 -114 104 -114z" />
    <glyph glyph-name="A" unicode="A" horiz-adv-x="641" 
d="M618 0h-88l-70 206h-282l-70 -206h-85l244 698h107zM439 280l-118 340h-5l-118 -340h241z" />
    <glyph glyph-name="B" unicode="B" horiz-adv-x="653" 
d="M93 0v698h287c115 0 186 -71 186 -180c0 -104 -67 -141 -113 -148v-6c50 -3 137 -46 137 -162c0 -115 -77 -202 -180 -202h-317zM177 324v-250h207c72 0 116 38 116 108v34c0 70 -44 108 -116 108h-207zM177 624v-228h193c66 0 106 35 106 97v34c0 62 -40 97 -106 97
h-193z" />
    <glyph glyph-name="C" unicode="C" horiz-adv-x="621" 
d="M339 -12c-176 0 -281 124 -281 357s105 365 281 365c116 0 196 -56 240 -153l-68 -41c-28 72 -86 119 -172 119c-120 0 -191 -95 -191 -238v-104c0 -143 71 -230 191 -230c89 0 150 50 178 126l67 -42c-44 -98 -129 -159 -245 -159z" />
    <glyph glyph-name="D" unicode="D" horiz-adv-x="671" 
d="M93 0v698h234c174 0 286 -116 286 -349s-112 -349 -286 -349h-234zM177 74h150c115 0 196 80 196 218v114c0 138 -81 218 -196 218h-150v-550z" />
    <glyph glyph-name="E" unicode="E" horiz-adv-x="583" 
d="M519 0h-426v698h426v-74h-342v-234h322v-74h-322v-242h342v-74z" />
    <glyph glyph-name="F" unicode="F" horiz-adv-x="559" 
d="M177 0h-84v698h416v-74h-332v-234h303v-74h-303v-316z" />
    <glyph glyph-name="G" unicode="G" horiz-adv-x="695" 
d="M545 0v102h-3c-17 -65 -88 -114 -194 -114c-171 0 -290 127 -290 361c0 232 118 361 297 361c125 0 209 -62 254 -153l-69 -42c-32 74 -97 120 -185 120c-123 0 -207 -91 -207 -229v-113c0 -138 82 -230 215 -230c97 0 178 50 178 153v69h-154v74h236v-359h-78z" />
    <glyph glyph-name="H" unicode="H" horiz-adv-x="707" 
d="M530 0v316h-353v-316h-84v698h84v-308h353v308h84v-698h-84z" />
    <glyph glyph-name="I" unicode="I" horiz-adv-x="400" 
d="M340 0h-280v70h98v558h-98v70h280v-70h-98v-558h98v-70z" />
    <glyph glyph-name="J" unicode="J" horiz-adv-x="510" 
d="M98 698h324v-517c0 -118 -82 -193 -200 -193c-108 0 -175 64 -194 159l76 18c13 -60 49 -102 120 -102c72 0 114 44 114 133v428h-240v74z" />
    <glyph glyph-name="K" unicode="K" horiz-adv-x="634" 
d="M508 0l-232 343l-99 -110v-233h-84v698h84v-371h3l100 121l211 250h103l-260 -299l278 -399h-104z" />
    <glyph glyph-name="L" unicode="L" horiz-adv-x="501" 
d="M474 0h-381v698h84v-624h297v-74z" />
    <glyph glyph-name="M" unicode="M" horiz-adv-x="812" 
d="M93 0v698h112l200 -376h5l201 376h108v-698h-82v588h-5l-59 -117l-167 -304l-167 304l-59 117h-5v-588h-82z" />
    <glyph glyph-name="N" unicode="N" horiz-adv-x="707" 
d="M517 0l-255 426l-84 155h-3v-581h-82v698h97l255 -426l84 -155h3v581h82v-698h-97z" />
    <glyph glyph-name="O" unicode="O" horiz-adv-x="708" 
d="M354 -12c-180 0 -296 127 -296 361s116 361 296 361s296 -127 296 -361s-116 -361 -296 -361zM354 63c121 0 206 90 206 228v116c0 138 -85 228 -206 228s-206 -90 -206 -228v-116c0 -138 85 -228 206 -228z" />
    <glyph glyph-name="P" unicode="P" horiz-adv-x="606" 
d="M177 0h-84v698h278c125 0 195 -77 195 -200s-70 -200 -195 -200h-194v-298zM177 624v-252h194c66 0 105 36 105 100v52c0 64 -39 100 -105 100h-194z" />
    <glyph glyph-name="Q" unicode="Q" horiz-adv-x="708" 
d="M508 -94v-70h-103c-55 0 -84 35 -84 82v71c-161 15 -263 141 -263 360c0 234 116 361 296 361s296 -127 296 -361c0 -213 -96 -337 -249 -358v-85h107zM354 63c121 0 206 90 206 228v116c0 138 -85 228 -206 228s-206 -90 -206 -228v-116c0 -138 85 -228 206 -228z" />
    <glyph glyph-name="R" unicode="R" horiz-adv-x="640" 
d="M177 300v-300h-84v698h278c122 0 195 -71 195 -198c0 -102 -49 -171 -140 -192l160 -308h-95l-151 300h-163zM177 372h194c66 0 105 36 105 100v52c0 64 -39 100 -105 100h-194v-252z" />
    <glyph glyph-name="S" unicode="S" horiz-adv-x="581" 
d="M289 -12c-112 0 -191 46 -247 122l62 52c49 -65 107 -100 188 -100c100 0 154 52 154 132c0 66 -37 99 -129 120l-57 13c-127 29 -197 85 -197 192c0 124 94 191 231 191c105 0 179 -40 231 -114l-63 -46c-38 53 -91 86 -172 86c-89 0 -144 -39 -144 -114
c0 -66 43 -96 131 -116l57 -13c136 -31 195 -91 195 -195c0 -128 -90 -210 -240 -210z" />
    <glyph glyph-name="T" unicode="T" horiz-adv-x="572" 
d="M550 624h-222v-624h-84v624h-222v74h528v-74z" />
    <glyph glyph-name="U" unicode="U" horiz-adv-x="678" 
d="M88 698h84v-432c0 -133 43 -203 167 -203s167 70 167 203v432h84v-412c0 -203 -68 -298 -254 -298s-248 95 -248 298v412z" />
    <glyph glyph-name="V" unicode="V" horiz-adv-x="609" 
d="M354 0h-102l-232 698h90l115 -352l77 -262h5l79 262l116 352h87z" />
    <glyph glyph-name="W" unicode="W" horiz-adv-x="891" 
d="M283 0h-93l-170 698h89l75 -336l58 -261h2l65 261l88 336h96l85 -336l65 -260h3l60 260l79 336h86l-179 -698h-93l-91 348l-64 256h-2l-66 -256z" />
    <glyph glyph-name="X" unicode="X" horiz-adv-x="613" 
d="M24 0l228 355l-222 343h101l175 -278h2l179 278h96l-224 -340l230 -358h-101l-183 293h-2l-183 -293h-96z" />
    <glyph glyph-name="Y" unicode="Y" horiz-adv-x="593" 
d="M337 0h-84v276l-240 422h96l186 -336h3l186 336h96l-243 -419v-279z" />
    <glyph glyph-name="Z" unicode="Z" horiz-adv-x="580" 
d="M544 74v-74h-508v76l403 548h-382v74h473v-76l-404 -548h418z" />
    <glyph glyph-name="bracketleft" unicode="[" horiz-adv-x="317" 
d="M257 -138h-164v898h164v-63h-95v-772h95v-63z" />
    <glyph glyph-name="backslash" unicode="\" horiz-adv-x="383" 
d="M371 -151h-72l-259 891h72z" />
    <glyph glyph-name="bracketright" unicode="]" horiz-adv-x="317" 
d="M60 760h164v-898h-164v63h95v772h-95v63z" />
    <glyph glyph-name="asciicircum" unicode="^" 
d="M550 328l-61 -32l-187 328h-4l-187 -328l-61 32l207 370h86z" />
    <glyph glyph-name="underscore" unicode="_" horiz-adv-x="565" 
d="M535 -165h-505v70h505v-70z" />
    <glyph glyph-name="grave" unicode="`" 
d="M293 585l-106 159l73 35l85 -170z" />
    <glyph glyph-name="a" unicode="a" horiz-adv-x="534" 
d="M505 0h-45c-59 0 -83 36 -89 84h-5c-22 -63 -77 -96 -149 -96c-109 0 -173 60 -173 156c0 97 70 151 220 151h102v51c0 73 -40 113 -122 113c-62 0 -103 -30 -131 -77l-48 45c28 55 90 101 183 101c124 0 198 -65 198 -174v-284h59v-70zM230 56c79 0 136 41 136 94v85
h-106c-91 0 -132 -28 -132 -78v-21c0 -51 40 -80 102 -80z" />
    <glyph glyph-name="b" unicode="b" horiz-adv-x="580" 
d="M85 0v740h80v-308h4c27 65 80 96 151 96c129 0 210 -105 210 -270s-81 -270 -210 -270c-71 0 -120 32 -151 96h-4v-84h-80zM298 60c90 0 146 62 146 154v88c0 92 -56 154 -146 154c-73 0 -133 -42 -133 -99v-192c0 -67 60 -105 133 -105z" />
    <glyph glyph-name="c" unicode="c" horiz-adv-x="503" 
d="M277 -12c-145 0 -230 105 -230 270s85 270 230 270c102 0 163 -50 193 -121l-67 -34c-19 53 -63 84 -126 84c-95 0 -144 -65 -144 -155v-88c0 -90 49 -155 144 -155c65 0 112 31 140 90l58 -39c-33 -74 -100 -122 -198 -122z" />
    <glyph glyph-name="d" unicode="d" horiz-adv-x="580" 
d="M415 0v84h-4c-31 -64 -80 -96 -151 -96c-129 0 -210 105 -210 270s81 270 210 270c71 0 124 -31 151 -96h4v308h80v-740h-80zM282 60c73 0 133 38 133 105v192c0 57 -60 99 -133 99c-90 0 -146 -62 -146 -154v-88c0 -92 56 -154 146 -154z" />
    <glyph glyph-name="e" unicode="e" horiz-adv-x="549" 
d="M279 -12c-140 0 -232 106 -232 270s92 270 232 270c138 0 223 -106 223 -252v-38h-371v-24c0 -89 57 -156 153 -156c65 0 115 32 142 89l57 -41c-33 -70 -107 -118 -204 -118zM279 461c-87 0 -148 -66 -148 -156v-7h285v11c0 91 -55 152 -137 152z" />
    <glyph glyph-name="f" unicode="f" horiz-adv-x="324" 
d="M113 0v446h-84v70h84v104c0 71 37 120 113 120h78v-70h-111v-154h111v-70h-111v-446h-80z" />
    <glyph glyph-name="g" unicode="g" horiz-adv-x="531" 
d="M520 -57c0 -106 -84 -155 -250 -155c-161 0 -227 46 -227 127c0 56 31 86 82 100v11c-29 14 -46 37 -46 72c0 52 37 77 89 90v4c-61 29 -97 86 -97 158c0 105 77 178 194 178c28 0 55 -4 78 -12h161v-64h-80c23 -26 37 -60 37 -102c0 -105 -77 -178 -195 -178
c-17 0 -35 2 -50 5c-34 -9 -68 -26 -68 -58c0 -31 32 -39 79 -39h110c128 0 183 -52 183 -137zM266 236c68 0 111 32 111 100v28c0 68 -43 100 -111 100s-111 -32 -111 -100v-28c0 -68 43 -100 111 -100zM445 -63c0 41 -27 68 -107 68h-172c-33 -15 -48 -38 -48 -70
c0 -45 31 -82 112 -82h74c89 0 141 28 141 84z" />
    <glyph glyph-name="h" unicode="h" horiz-adv-x="568" 
d="M85 0v740h80v-308h4c25 58 69 96 146 96c106 0 173 -72 173 -197v-331h-80v317c0 92 -40 139 -117 139c-64 0 -126 -32 -126 -98v-358h-80z" />
    <glyph glyph-name="i" unicode="i" horiz-adv-x="250" 
d="M125 637c-34 0 -49 18 -49 45v13c0 27 15 45 49 45s49 -18 49 -45v-13c0 -27 -15 -45 -49 -45zM85 0v516h80v-516h-80z" />
    <glyph glyph-name="j" unicode="j" horiz-adv-x="250" 
d="M85 -130v646h80v-596c0 -71 -35 -120 -112 -120h-52v70h84zM125 637c-34 0 -49 18 -49 45v13c0 27 15 45 49 45s49 -18 49 -45v-13c0 -27 -15 -45 -49 -45z" />
    <glyph glyph-name="k" unicode="k" horiz-adv-x="527" 
d="M85 0v740h80v-469h4l79 88l146 157h97l-191 -204l210 -312h-97l-171 263l-77 -79v-184h-80z" />
    <glyph glyph-name="l" unicode="l" horiz-adv-x="272" 
d="M241 0h-71c-55 0 -85 35 -85 83v657h80v-670h76v-70z" />
    <glyph glyph-name="m" unicode="m" horiz-adv-x="873" 
d="M165 0h-80v516h80v-84h4c23 53 59 96 139 96c68 0 130 -31 158 -105h2c19 56 69 105 157 105c105 0 168 -72 168 -197v-331h-80v317c0 91 -35 139 -113 139c-63 0 -121 -32 -121 -98v-358h-80v317c0 92 -35 139 -111 139c-63 0 -123 -32 -123 -98v-358z" />
    <glyph glyph-name="n" unicode="n" horiz-adv-x="568" 
d="M165 0h-80v516h80v-84h4c25 58 69 96 146 96c106 0 173 -72 173 -197v-331h-80v317c0 92 -40 139 -117 139c-64 0 -126 -32 -126 -98v-358z" />
    <glyph glyph-name="o" unicode="o" horiz-adv-x="560" 
d="M280 -12c-138 0 -233 106 -233 270s95 270 233 270s233 -106 233 -270s-95 -270 -233 -270zM280 59c86 0 147 53 147 162v74c0 109 -61 162 -147 162s-147 -53 -147 -162v-74c0 -109 61 -162 147 -162z" />
    <glyph glyph-name="p" unicode="p" horiz-adv-x="580" 
d="M85 -200v716h80v-84h4c27 65 80 96 151 96c129 0 210 -105 210 -270s-81 -270 -210 -270c-71 0 -120 32 -151 96h-4v-284h-80zM298 60c90 0 146 62 146 154v88c0 92 -56 154 -146 154c-73 0 -133 -42 -133 -99v-192c0 -67 60 -105 133 -105z" />
    <glyph glyph-name="q" unicode="q" horiz-adv-x="580" 
d="M415 -200v284h-4c-31 -64 -80 -96 -151 -96c-129 0 -210 105 -210 270s81 270 210 270c71 0 124 -31 151 -96h4v84h80v-716h-80zM282 60c73 0 133 38 133 105v192c0 57 -60 99 -133 99c-90 0 -146 -62 -146 -154v-88c0 -92 56 -154 146 -154z" />
    <glyph glyph-name="r" unicode="r" horiz-adv-x="367" 
d="M165 0h-80v516h80v-95h5c18 49 65 95 149 95h31v-80h-47c-86 0 -138 -37 -138 -86v-350z" />
    <glyph glyph-name="s" unicode="s" horiz-adv-x="487" 
d="M240 -12c-95 0 -158 40 -204 101l57 46c40 -50 88 -79 153 -79c68 0 108 31 108 84c0 40 -22 71 -90 81l-41 6c-95 14 -166 53 -166 149c0 102 79 152 184 152c83 0 138 -31 180 -83l-53 -48c-23 32 -67 63 -133 63s-101 -31 -101 -80c0 -50 35 -70 99 -80l40 -6
c114 -17 158 -67 158 -145c0 -100 -73 -161 -191 -161z" />
    <glyph glyph-name="t" unicode="t" horiz-adv-x="351" 
d="M299 0h-100c-55 0 -85 35 -85 85v361h-85v70h48c34 0 45 12 45 47v96h72v-143h113v-70h-113v-376h105v-70z" />
    <glyph glyph-name="u" unicode="u" horiz-adv-x="568" 
d="M403 0v84h-4c-20 -49 -59 -96 -145 -96c-106 0 -174 72 -174 197v331h80v-317c0 -92 41 -139 118 -139c63 0 125 31 125 99v357h80v-516h-80z" />
    <glyph glyph-name="v" unicode="v" horiz-adv-x="492" 
d="M292 0h-93l-181 516h80l90 -256l56 -176h5l56 176l92 256h77z" />
    <glyph glyph-name="w" unicode="w" horiz-adv-x="768" 
d="M169 0l-138 516h78l55 -223l55 -226h2l63 226l65 223h71l67 -223l64 -226h2l53 226l56 223h75l-137 -516h-99l-72 248l-45 157h-2l-44 -157l-72 -248h-97z" />
    <glyph glyph-name="x" unicode="x" horiz-adv-x="507" 
d="M21 0l191 260l-183 256h94l131 -192h3l136 192h89l-182 -250l186 -266h-94l-134 202h-3l-145 -202h-89z" />
    <glyph glyph-name="y" unicode="y" horiz-adv-x="499" 
d="M278 165l125 351h79l-231 -636c-23 -62 -44 -80 -120 -80h-41v70h81l39 110l-193 536h80l124 -351l24 -84h5z" />
    <glyph glyph-name="z" unicode="z" horiz-adv-x="464" 
d="M431 0h-398v67l293 379h-284v70h381v-60l-299 -386h307v-70z" />
    <glyph glyph-name="braceleft" unicode="{" horiz-adv-x="343" 
d="M283 -138h-84c-53 0 -80 36 -80 82v240c0 57 -41 88 -97 88v78c56 0 97 31 97 88v240c0 46 27 82 80 82h84v-63h-95v-250c0 -63 -39 -117 -95 -128v-16c56 -11 95 -65 95 -128v-250h95v-63z" />
    <glyph glyph-name="bar" unicode="|" horiz-adv-x="314" 
d="M191 -138h-68v898h68v-898z" />
    <glyph glyph-name="braceright" unicode="}" horiz-adv-x="343" 
d="M60 760h84c53 0 80 -36 80 -82v-240c0 -57 41 -88 97 -88v-78c-56 0 -97 -31 -97 -88v-240c0 -46 -27 -82 -80 -82h-84v63h95v250c0 63 39 117 95 128v16c-56 11 -95 65 -95 128v250h-95v63z" />
    <glyph glyph-name="asciitilde" unicode="~" 
d="M419 236c-49 0 -83 15 -129 37c-37 18 -72 34 -113 34c-33 0 -53 -10 -83 -32l-33 44c27 33 60 55 120 55c49 0 83 -15 129 -37c37 -18 72 -34 113 -34c33 0 53 10 83 32l33 -44c-27 -33 -60 -55 -120 -55z" />
    <glyph glyph-name="uni00A0" unicode="&#xa0;" horiz-adv-x="236" 
 />
    <glyph glyph-name="exclamdown" unicode="&#xa1;" horiz-adv-x="284" 
d="M185 -182h-88v203l24 310h40l24 -310v-203zM142 399c-42 0 -61 23 -61 58v13c0 35 19 58 61 58s61 -23 61 -58v-13c0 -35 -19 -58 -61 -58z" />
    <glyph glyph-name="cent" unicode="&#xa2;" horiz-adv-x="514" 
d="M305 -114h-70v105c-120 17 -188 118 -188 267c0 150 69 250 188 267v105h70v-103c83 -7 136 -54 164 -118l-64 -35c-18 47 -52 75 -101 82v-396c52 6 90 36 114 88l58 -39c-29 -67 -87 -113 -171 -120v-103zM133 214c0 -76 35 -136 103 -151v390
c-68 -14 -103 -74 -103 -151v-88z" />
    <glyph glyph-name="sterling" unicode="&#xa3;" horiz-adv-x="595" 
d="M525 0h-443v100c56 24 72 81 72 137c0 17 -2 34 -4 49h-90v70h71c-15 45 -31 88 -31 143c0 124 85 211 230 211c102 0 169 -43 214 -114l-63 -46c-34 53 -81 86 -154 86c-86 0 -140 -48 -140 -145c0 -51 15 -93 28 -135h216v-70h-198c2 -13 3 -26 3 -40
c0 -75 -35 -139 -75 -166v-5h364v-75z" />
    <glyph glyph-name="currency" unicode="&#xa4;" horiz-adv-x="612" 
d="M306 119c-56 0 -103 16 -138 45l-102 -102l-48 47l106 106c-21 37 -32 82 -32 134s11 97 32 134l-106 106l48 47l102 -102c35 29 82 45 138 45s103 -16 138 -45l102 102l48 -47l-106 -106c21 -37 32 -82 32 -134s-11 -97 -32 -134l106 -106l-48 -47l-102 102
c-35 -29 -82 -45 -138 -45zM306 186c77 0 129 43 129 131v64c0 88 -52 131 -129 131s-129 -43 -129 -131v-64c0 -88 52 -131 129 -131z" />
    <glyph glyph-name="yen" unicode="&#xa5;" horiz-adv-x="605" 
d="M520 145h-176v-145h-83v145h-176v67h176v96h-176v67h136l-187 323h94l175 -315h5l170 315h93l-187 -323h136v-67h-176v-96h176v-67z" />
    <glyph glyph-name="brokenbar" unicode="&#xa6;" horiz-adv-x="314" 
d="M191 406h-68v354h68v-354zM191 -138h-68v354h68v-354z" />
    <glyph glyph-name="section" unicode="&#xa7;" horiz-adv-x="586" 
d="M475 4c0 -98 -81 -159 -198 -159c-60 0 -121 16 -167 56l46 56c32 -27 72 -43 122 -43c74 0 118 34 118 88c0 50 -39 77 -104 97l-63 19c-107 32 -153 86 -153 153c0 64 40 115 109 143v7c-44 29 -74 72 -74 131c0 96 79 158 197 158c60 0 121 -16 168 -56l-47 -56
c-32 27 -72 43 -122 43c-74 0 -118 -34 -118 -88c0 -50 39 -77 104 -97l63 -19c108 -32 154 -86 154 -153c0 -64 -40 -115 -110 -143v-6c48 -30 75 -74 75 -131zM431 263c0 56 -37 90 -117 112l-62 17c-11 3 -22 7 -32 11c-40 -28 -65 -64 -65 -111c0 -56 36 -90 116 -112
l62 -17c11 -3 22 -7 32 -11c40 29 66 64 66 111z" />
    <glyph glyph-name="dieresis" unicode="&#xa8;" 
d="M207 618c-34 0 -49 18 -49 46v11c0 28 15 46 49 46s49 -18 49 -46v-11c0 -28 -15 -46 -49 -46zM393 618c-34 0 -49 18 -49 46v11c0 28 15 46 49 46s49 -18 49 -46v-11c0 -28 -15 -46 -49 -46z" />
    <glyph glyph-name="copyright" unicode="&#xa9;" horiz-adv-x="776" 
d="M388 -11c-187 0 -334 138 -334 360s147 360 334 360s334 -138 334 -360s-147 -360 -334 -360zM388 49c156 0 266 115 266 270v60c0 155 -110 270 -266 270s-266 -115 -266 -270v-60c0 -155 110 -270 266 -270zM396 155c-104 0 -165 76 -165 194s61 194 165 194
c67 0 110 -35 133 -87l-57 -32c-15 35 -37 56 -76 56c-58 0 -89 -41 -89 -99v-65c0 -58 31 -99 89 -99c42 0 65 24 85 60l54 -34c-23 -51 -69 -88 -139 -88z" />
    <glyph glyph-name="ordfeminine" unicode="&#xaa;" horiz-adv-x="399" 
d="M360 406v-56h-34c-39 0 -62 17 -62 53h-4c-15 -31 -50 -59 -111 -59c-70 0 -109 40 -109 98c0 71 54 104 149 104h71v28c0 53 -26 78 -75 78c-45 0 -77 -22 -91 -52l-42 34c20 34 63 70 136 70c83 0 135 -46 135 -127v-171h37zM260 500h-73c-54 0 -84 -16 -84 -47v-10
c0 -33 21 -48 60 -48c51 0 97 25 97 64v41z" />
    <glyph glyph-name="guillemotleft" unicode="&#xab;" horiz-adv-x="513" 
d="M461 134l-24 -54l-192 166v76l192 166l24 -54l-137 -150zM252 134l-24 -54l-192 166v76l192 166l24 -54l-137 -150z" />
    <glyph glyph-name="logicalnot" unicode="&#xac;" 
d="M533 78h-69v193h-397v68h466v-261z" />
    <glyph glyph-name="uni00AD" unicode="&#xad;" horiz-adv-x="399" 
d="M330 261h-261v86h261v-86z" />
    <glyph glyph-name="registered" unicode="&#xae;" horiz-adv-x="476" 
d="M238 298c-108 0 -198 89 -198 206s90 206 198 206s198 -89 198 -206s-90 -206 -198 -206zM238 338c91 0 155 75 155 155v22c0 80 -64 155 -155 155s-155 -75 -155 -155v-22c0 -80 64 -155 155 -155zM203 476v-80h-40v209h90c40 0 64 -26 64 -63c0 -32 -17 -52 -39 -61
l49 -85h-45l-44 80h-35zM203 508h48c15 0 23 7 23 21v22c0 13 -8 21 -23 21h-48v-64z" />
    <glyph glyph-name="macron" unicode="&#xaf;" 
d="M160 637v68h280v-68h-280z" />
    <glyph glyph-name="degree" unicode="&#xb0;" horiz-adv-x="468" 
d="M234 366c-95 0 -168 74 -168 172s73 172 168 172s168 -74 168 -172s-73 -172 -168 -172zM234 430c60 0 98 48 98 108s-38 108 -98 108s-98 -48 -98 -108s38 -108 98 -108z" />
    <glyph glyph-name="plusminus" unicode="&#xb1;" 
d="M338 152h-76v199h-195v68h195v199h76v-199h195v-68h-195v-199zM533 0h-466v68h466v-68z" />
    <glyph glyph-name="twosuperior" unicode="&#xb2;" horiz-adv-x="346" 
d="M311 379v-50h-272v57l130 105c39 32 62 62 62 98v6c0 34 -23 57 -65 57c-46 0 -67 -26 -78 -58l-54 20c16 47 56 90 136 90c82 0 128 -45 128 -109c0 -58 -39 -98 -95 -141l-97 -75h205z" />
    <glyph glyph-name="threesuperior" unicode="&#xb3;" horiz-adv-x="346" 
d="M115 546h40c51 0 75 22 75 52v4c0 33 -25 52 -65 52c-39 0 -65 -17 -83 -45l-43 34c23 33 62 61 128 61c75 0 130 -35 130 -95c0 -48 -36 -76 -78 -85v-3c45 -8 84 -37 84 -90c0 -65 -56 -108 -143 -108c-73 0 -111 32 -136 66l47 34c19 -29 43 -50 89 -50
c50 0 77 23 77 61v6c0 38 -27 55 -77 55h-45v51z" />
    <glyph glyph-name="acute" unicode="&#xb4;" 
d="M413 744l-106 -159l-52 24l85 170z" />
    <glyph glyph-name="mu" unicode="&#xb5;" horiz-adv-x="573" 
d="M165 -200h-80v716h80v-317c0 -92 41 -139 117 -139c64 0 126 32 126 100v356h80v-516h-80v84h-4c-20 -49 -60 -96 -142 -96c-50 0 -82 17 -101 52h-3l7 -85v-155z" />
    <glyph glyph-name="paragraph" unicode="&#xb6;" horiz-adv-x="652" 
d="M246 -149v449c-108 0 -194 91 -194 199s86 199 194 199h324v-68h-67v-779h-73v779h-111v-779h-73z" />
    <glyph glyph-name="periodcentered" unicode="&#xb7;" horiz-adv-x="326" 
d="M163 240c-42 0 -61 24 -61 58v13c0 34 19 58 61 58s61 -24 61 -58v-13c0 -34 -19 -58 -61 -58z" />
    <glyph glyph-name="cedilla" unicode="&#xb8;" 
d="M312 -207c-54 0 -85 22 -99 41l38 41c12 -15 32 -28 61 -28c25 0 44 10 44 31c0 18 -12 33 -68 41l-28 4l19 97h50l-16 -81l3 -3c13 4 27 6 39 6c39 0 68 -23 68 -66c0 -57 -52 -83 -111 -83z" />
    <glyph glyph-name="onesuperior" unicode="&#xb9;" horiz-adv-x="359" 
d="M325 329h-270v50h109v268h-6l-90 -89l-36 37l102 103h93v-319h98v-50z" />
    <glyph glyph-name="ordmasculine" unicode="&#xba;" horiz-adv-x="398" 
d="M199 344c-97 0 -155 68 -155 180s58 180 155 180s155 -68 155 -180s-58 -180 -155 -180zM199 396c58 0 87 40 87 97v62c0 57 -29 97 -87 97s-87 -40 -87 -97v-62c0 -57 29 -97 87 -97z" />
    <glyph glyph-name="guillemotright" unicode="&#xbb;" horiz-adv-x="513" 
d="M261 134l137 150l-137 150l24 54l192 -166v-76l-192 -166zM52 134l137 150l-137 150l24 54l192 -166v-76l-192 -166z" />
    <glyph glyph-name="onequarter" unicode="&#xbc;" horiz-adv-x="847" 
d="M770 0h-60v72h-189v52l164 245h85v-249h56v-48h-56v-72zM710 120v192h-4l-130 -192h134zM238 0h-67l486 698h67zM325 329h-270v50h109v268h-6l-90 -89l-36 37l102 103h93v-319h98v-50z" />
    <glyph glyph-name="onehalf" unicode="&#xbd;" horiz-adv-x="872" 
d="M837 50v-50h-272v57l130 105c39 32 62 64 62 98v6c0 34 -23 57 -65 57c-46 0 -67 -26 -78 -58l-54 20c16 47 56 90 136 90c82 0 128 -45 128 -109c0 -58 -39 -98 -95 -141l-97 -75h205zM238 0h-67l486 698h67zM325 329h-270v50h109v268h-6l-90 -89l-36 37l102 103h93
v-319h98v-50z" />
    <glyph glyph-name="threequarters" unicode="&#xbe;" horiz-adv-x="824" 
d="M747 0h-60v72h-189v52l164 245h85v-249h56v-48h-56v-72zM687 120v192h-4l-130 -192h134zM215 0h-67l486 698h67zM115 546h40c51 0 75 22 75 52v4c0 33 -25 52 -65 52c-39 0 -65 -17 -83 -45l-43 34c23 33 62 61 128 61c75 0 130 -35 130 -95c0 -48 -36 -76 -78 -85v-3
c45 -8 84 -37 84 -90c0 -65 -56 -108 -143 -108c-73 0 -111 32 -136 66l47 34c19 -29 43 -50 89 -50c50 0 77 23 77 61v6c0 38 -27 55 -77 55h-45v51z" />
    <glyph glyph-name="questiondown" unicode="&#xbf;" horiz-adv-x="467" 
d="M238 -194c-123 0 -201 74 -201 189c0 128 96 188 184 205v108h77v-164c-109 -5 -175 -55 -175 -139v-14c0 -68 47 -112 118 -112c77 0 123 50 139 117l74 -28c-25 -86 -91 -162 -216 -162zM262 399c-42 0 -61 23 -61 58v13c0 35 19 58 61 58s61 -23 61 -58v-13
c0 -35 -19 -58 -61 -58z" />
    <glyph glyph-name="Agrave" unicode="&#xc0;" horiz-adv-x="641" 
d="M315 755l-106 159l73 35l85 -170zM618 0h-88l-70 206h-282l-70 -206h-85l244 698h107zM439 280l-118 340h-5l-118 -340h241z" />
    <glyph glyph-name="Aacute" unicode="&#xc1;" horiz-adv-x="641" 
d="M435 914l-106 -159l-52 24l85 170zM618 0h-88l-70 206h-282l-70 -206h-85l244 698h107zM439 280l-118 340h-5l-118 -340h241z" />
    <glyph glyph-name="Acircumflex" unicode="&#xc2;" horiz-adv-x="641" 
d="M272 935h100l111 -143l-44 -31l-117 117l-117 -117l-44 31zM618 0h-88l-70 206h-282l-70 -206h-85l244 698h107zM439 280l-118 340h-5l-118 -340h241z" />
    <glyph glyph-name="Atilde" unicode="&#xc3;" horiz-adv-x="641" 
d="M395 782c-35 0 -59 15 -80 26c-32 17 -53 24 -70 24c-22 0 -38 -10 -58 -27l-33 40c18 27 49 53 95 53c35 0 59 -15 80 -26c32 -17 53 -24 70 -24c22 0 38 10 58 27l33 -40c-18 -27 -49 -53 -95 -53zM618 0h-88l-70 206h-282l-70 -206h-85l244 698h107zM439 280l-118 340
h-5l-118 -340h241z" />
    <glyph glyph-name="Adieresis" unicode="&#xc4;" horiz-adv-x="641" 
d="M229 788c-34 0 -50 19 -50 47v12c0 28 16 47 50 47s50 -19 50 -47v-12c0 -28 -16 -47 -50 -47zM415 788c-34 0 -50 19 -50 47v12c0 28 16 47 50 47s50 -19 50 -47v-12c0 -28 -16 -47 -50 -47zM618 0h-88l-70 206h-282l-70 -206h-85l244 698h107zM439 280l-118 340h-5
l-118 -340h241z" />
    <glyph glyph-name="Aring" unicode="&#xc5;" horiz-adv-x="641" 
d="M322 746c-65 0 -116 49 -116 115s51 115 116 115s116 -49 116 -115s-51 -115 -116 -115zM322 795c36 0 58 20 58 55v22c0 35 -22 55 -58 55s-58 -20 -58 -55v-22c0 -35 22 -55 58 -55zM618 0h-88l-70 206h-282l-70 -206h-85l244 698h107zM439 280l-118 340h-5l-118 -340
h241z" />
    <glyph glyph-name="AE" unicode="&#xc6;" horiz-adv-x="907" 
d="M417 0v205h-225l-102 -205h-86l357 698h482v-74h-343v-234h323v-74h-323v-242h343v-74h-426zM417 624h-13l-177 -345h190v345z" />
    <glyph glyph-name="Ccedilla" unicode="&#xc7;" horiz-adv-x="621" 
d="M339 635c-120 0 -191 -95 -191 -238v-104c0 -143 71 -230 191 -230c89 0 150 50 178 126l67 -42c-41 -92 -118 -151 -223 -158l-10 -50l3 -3c13 4 27 6 39 6c39 0 68 -23 68 -66c0 -57 -52 -83 -111 -83c-54 0 -85 22 -99 41l38 41c12 -15 32 -28 61 -28
c25 0 44 10 44 31c0 18 -12 33 -68 41l-28 4l13 66c-159 12 -253 135 -253 356c0 233 105 365 281 365c116 0 196 -56 240 -153l-68 -41c-28 72 -86 119 -172 119z" />
    <glyph glyph-name="Egrave" unicode="&#xc8;" horiz-adv-x="583" 
d="M297 755l-106 159l73 35l85 -170zM519 0h-426v698h426v-74h-342v-234h322v-74h-322v-242h342v-74z" />
    <glyph glyph-name="Eacute" unicode="&#xc9;" horiz-adv-x="583" 
d="M417 914l-106 -159l-52 24l85 170zM519 0h-426v698h426v-74h-342v-234h322v-74h-322v-242h342v-74z" />
    <glyph glyph-name="Ecircumflex" unicode="&#xca;" horiz-adv-x="583" 
d="M254 935h100l111 -143l-44 -31l-117 117l-117 -117l-44 31zM519 0h-426v698h426v-74h-342v-234h322v-74h-322v-242h342v-74z" />
    <glyph glyph-name="Edieresis" unicode="&#xcb;" horiz-adv-x="583" 
d="M211 788c-34 0 -50 19 -50 47v12c0 28 16 47 50 47s50 -19 50 -47v-12c0 -28 -16 -47 -50 -47zM397 788c-34 0 -50 19 -50 47v12c0 28 16 47 50 47s50 -19 50 -47v-12c0 -28 -16 -47 -50 -47zM519 0h-426v698h426v-74h-342v-234h322v-74h-322v-242h342v-74z" />
    <glyph glyph-name="Igrave" unicode="&#xcc;" horiz-adv-x="400" 
d="M193 755l-106 159l73 35l85 -170zM340 0h-280v70h98v558h-98v70h280v-70h-98v-558h98v-70z" />
    <glyph glyph-name="Iacute" unicode="&#xcd;" horiz-adv-x="400" 
d="M313 914l-106 -159l-52 24l85 170zM340 0h-280v70h98v558h-98v70h280v-70h-98v-558h98v-70z" />
    <glyph glyph-name="Icircumflex" unicode="&#xce;" horiz-adv-x="400" 
d="M150 935h100l111 -143l-44 -31l-117 117l-117 -117l-44 31zM340 0h-280v70h98v558h-98v70h280v-70h-98v-558h98v-70z" />
    <glyph glyph-name="Idieresis" unicode="&#xcf;" horiz-adv-x="400" 
d="M107 788c-34 0 -50 19 -50 47v12c0 28 16 47 50 47s50 -19 50 -47v-12c0 -28 -16 -47 -50 -47zM293 788c-34 0 -50 19 -50 47v12c0 28 16 47 50 47s50 -19 50 -47v-12c0 -28 -16 -47 -50 -47zM340 0h-280v70h98v558h-98v70h280v-70h-98v-558h98v-70z" />
    <glyph glyph-name="Eth" unicode="&#xd0;" horiz-adv-x="674" 
d="M96 0v337h-79v64h79v297h234c174 0 286 -116 286 -349s-112 -349 -286 -349h-234zM180 74h150c115 0 196 80 196 218v114c0 138 -81 218 -196 218h-150v-223h137v-64h-137v-263z" />
    <glyph glyph-name="Ntilde" unicode="&#xd1;" horiz-adv-x="707" 
d="M426 782c-35 0 -59 15 -80 26c-32 17 -53 24 -70 24c-22 0 -38 -10 -58 -27l-33 40c18 27 49 53 95 53c35 0 59 -15 80 -26c32 -17 53 -24 70 -24c22 0 38 10 58 27l33 -40c-18 -27 -49 -53 -95 -53zM517 0l-255 426l-84 155h-3v-581h-82v698h97l255 -426l84 -155h3v581
h82v-698h-97z" />
    <glyph glyph-name="Ograve" unicode="&#xd2;" horiz-adv-x="708" 
d="M347 755l-106 159l73 35l85 -170zM354 -12c-180 0 -296 127 -296 361s116 361 296 361s296 -127 296 -361s-116 -361 -296 -361zM354 63c121 0 206 90 206 228v116c0 138 -85 228 -206 228s-206 -90 -206 -228v-116c0 -138 85 -228 206 -228z" />
    <glyph glyph-name="Oacute" unicode="&#xd3;" horiz-adv-x="708" 
d="M467 914l-106 -159l-52 24l85 170zM354 -12c-180 0 -296 127 -296 361s116 361 296 361s296 -127 296 -361s-116 -361 -296 -361zM354 63c121 0 206 90 206 228v116c0 138 -85 228 -206 228s-206 -90 -206 -228v-116c0 -138 85 -228 206 -228z" />
    <glyph glyph-name="Ocircumflex" unicode="&#xd4;" horiz-adv-x="708" 
d="M304 935h100l111 -143l-44 -31l-117 117l-117 -117l-44 31zM354 -12c-180 0 -296 127 -296 361s116 361 296 361s296 -127 296 -361s-116 -361 -296 -361zM354 63c121 0 206 90 206 228v116c0 138 -85 228 -206 228s-206 -90 -206 -228v-116c0 -138 85 -228 206 -228z
" />
    <glyph glyph-name="Otilde" unicode="&#xd5;" horiz-adv-x="708" 
d="M427 782c-35 0 -59 15 -80 26c-32 17 -53 24 -70 24c-22 0 -38 -10 -58 -27l-33 40c18 27 49 53 95 53c35 0 59 -15 80 -26c32 -17 53 -24 70 -24c22 0 38 10 58 27l33 -40c-18 -27 -49 -53 -95 -53zM354 -12c-180 0 -296 127 -296 361s116 361 296 361
s296 -127 296 -361s-116 -361 -296 -361zM354 63c121 0 206 90 206 228v116c0 138 -85 228 -206 228s-206 -90 -206 -228v-116c0 -138 85 -228 206 -228z" />
    <glyph glyph-name="Odieresis" unicode="&#xd6;" horiz-adv-x="708" 
d="M261 788c-34 0 -50 19 -50 47v12c0 28 16 47 50 47s50 -19 50 -47v-12c0 -28 -16 -47 -50 -47zM447 788c-34 0 -50 19 -50 47v12c0 28 16 47 50 47s50 -19 50 -47v-12c0 -28 -16 -47 -50 -47zM354 -12c-180 0 -296 127 -296 361s116 361 296 361s296 -127 296 -361
s-116 -361 -296 -361zM354 63c121 0 206 90 206 228v116c0 138 -85 228 -206 228s-206 -90 -206 -228v-116c0 -138 85 -228 206 -228z" />
    <glyph glyph-name="multiply" unicode="&#xd7;" 
d="M459 93l-159 163l-159 -163l-49 49l159 163l-159 163l49 49l159 -163l159 163l49 -49l-159 -163l159 -163z" />
    <glyph glyph-name="Oslash" unicode="&#xd8;" horiz-adv-x="708" 
d="M354 -12c-68 0 -126 18 -173 53l-60 -86l-57 37l68 97c-48 61 -74 148 -74 260c0 234 116 361 296 361c68 0 126 -18 173 -53l60 86l57 -37l-68 -97c48 -61 74 -148 74 -260c0 -234 -116 -361 -296 -361zM148 291c0 -51 12 -95 32 -131l302 432c-34 28 -78 43 -128 43
c-121 0 -206 -90 -206 -228v-116zM560 407c0 51 -12 95 -32 131l-302 -432c34 -28 78 -43 128 -43c121 0 206 90 206 228v116z" />
    <glyph glyph-name="Ugrave" unicode="&#xd9;" horiz-adv-x="678" 
d="M330 755l-106 159l73 35l85 -170zM88 698h84v-432c0 -133 43 -203 167 -203s167 70 167 203v432h84v-412c0 -203 -68 -298 -254 -298s-248 95 -248 298v412z" />
    <glyph glyph-name="Uacute" unicode="&#xda;" horiz-adv-x="678" 
d="M450 914l-106 -159l-52 24l85 170zM88 698h84v-432c0 -133 43 -203 167 -203s167 70 167 203v432h84v-412c0 -203 -68 -298 -254 -298s-248 95 -248 298v412z" />
    <glyph glyph-name="Ucircumflex" unicode="&#xdb;" horiz-adv-x="678" 
d="M287 935h100l111 -143l-44 -31l-117 117l-117 -117l-44 31zM88 698h84v-432c0 -133 43 -203 167 -203s167 70 167 203v432h84v-412c0 -203 -68 -298 -254 -298s-248 95 -248 298v412z" />
    <glyph glyph-name="Udieresis" unicode="&#xdc;" horiz-adv-x="678" 
d="M244 788c-34 0 -50 19 -50 47v12c0 28 16 47 50 47s50 -19 50 -47v-12c0 -28 -16 -47 -50 -47zM430 788c-34 0 -50 19 -50 47v12c0 28 16 47 50 47s50 -19 50 -47v-12c0 -28 -16 -47 -50 -47zM88 698h84v-432c0 -133 43 -203 167 -203s167 70 167 203v432h84v-412
c0 -203 -68 -298 -254 -298s-248 95 -248 298v412z" />
    <glyph glyph-name="Yacute" unicode="&#xdd;" horiz-adv-x="593" 
d="M410 914l-106 -159l-52 24l85 170zM337 0h-84v276l-240 422h96l186 -336h3l186 336h96l-243 -419v-279z" />
    <glyph glyph-name="Thorn" unicode="&#xde;" horiz-adv-x="606" 
d="M177 0h-84v698h84v-144h194c125 0 195 -78 195 -200s-70 -200 -195 -200h-194v-154zM177 479v-250h194c66 0 105 37 105 100v50c0 63 -39 100 -105 100h-194z" />
    <glyph glyph-name="germandbls" unicode="&#xdf;" horiz-adv-x="640" 
d="M613 149c0 -100 -69 -161 -181 -161c-80 0 -136 31 -177 84l54 48c35 -43 76 -64 129 -64c62 0 98 31 98 84c0 40 -15 69 -70 81l-31 7c-82 19 -146 52 -146 148c0 91 69 144 178 146v5c0 106 -44 157 -138 157s-136 -51 -136 -157v-527h-80v446h-84v70h84v5
c0 140 78 231 216 231c137 0 216 -91 216 -231v-61h-47c-84 0 -132 -23 -132 -80c0 -50 29 -69 79 -81l30 -7c98 -23 138 -66 138 -143z" />
    <glyph glyph-name="agrave" unicode="&#xe0;" horiz-adv-x="534" 
d="M245 585l-106 159l73 35l85 -170zM505 0h-45c-59 0 -83 36 -89 84h-5c-22 -63 -77 -96 -149 -96c-109 0 -173 60 -173 156c0 97 70 151 220 151h102v51c0 73 -40 113 -122 113c-62 0 -103 -30 -131 -77l-48 45c28 55 90 101 183 101c124 0 198 -65 198 -174v-284h59v-70z
M230 56c79 0 136 41 136 94v85h-106c-91 0 -132 -28 -132 -78v-21c0 -51 40 -80 102 -80z" />
    <glyph glyph-name="aacute" unicode="&#xe1;" horiz-adv-x="534" 
d="M365 744l-106 -159l-52 24l85 170zM505 0h-45c-59 0 -83 36 -89 84h-5c-22 -63 -77 -96 -149 -96c-109 0 -173 60 -173 156c0 97 70 151 220 151h102v51c0 73 -40 113 -122 113c-62 0 -103 -30 -131 -77l-48 45c28 55 90 101 183 101c124 0 198 -65 198 -174v-284h59v-70
zM230 56c79 0 136 41 136 94v85h-106c-91 0 -132 -28 -132 -78v-21c0 -51 40 -80 102 -80z" />
    <glyph glyph-name="acircumflex" unicode="&#xe2;" horiz-adv-x="534" 
d="M202 765h100l111 -143l-44 -31l-117 117l-117 -117l-44 31zM505 0h-45c-59 0 -83 36 -89 84h-5c-22 -63 -77 -96 -149 -96c-109 0 -173 60 -173 156c0 97 70 151 220 151h102v51c0 73 -40 113 -122 113c-62 0 -103 -30 -131 -77l-48 45c28 55 90 101 183 101
c124 0 198 -65 198 -174v-284h59v-70zM230 56c79 0 136 41 136 94v85h-106c-91 0 -132 -28 -132 -78v-21c0 -51 40 -80 102 -80z" />
    <glyph glyph-name="atilde" unicode="&#xe3;" horiz-adv-x="534" 
d="M325 612c-35 0 -59 15 -80 26c-32 17 -53 24 -70 24c-22 0 -38 -10 -58 -27l-33 40c18 27 49 53 95 53c35 0 59 -15 80 -26c32 -17 53 -24 70 -24c22 0 38 10 58 27l33 -40c-18 -27 -49 -53 -95 -53zM505 0h-45c-59 0 -83 36 -89 84h-5c-22 -63 -77 -96 -149 -96
c-109 0 -173 60 -173 156c0 97 70 151 220 151h102v51c0 73 -40 113 -122 113c-62 0 -103 -30 -131 -77l-48 45c28 55 90 101 183 101c124 0 198 -65 198 -174v-284h59v-70zM230 56c79 0 136 41 136 94v85h-106c-91 0 -132 -28 -132 -78v-21c0 -51 40 -80 102 -80z" />
    <glyph glyph-name="adieresis" unicode="&#xe4;" horiz-adv-x="534" 
d="M159 618c-34 0 -49 18 -49 46v11c0 28 15 46 49 46s49 -18 49 -46v-11c0 -28 -15 -46 -49 -46zM345 618c-34 0 -49 18 -49 46v11c0 28 15 46 49 46s49 -18 49 -46v-11c0 -28 -15 -46 -49 -46zM505 0h-45c-59 0 -83 36 -89 84h-5c-22 -63 -77 -96 -149 -96
c-109 0 -173 60 -173 156c0 97 70 151 220 151h102v51c0 73 -40 113 -122 113c-62 0 -103 -30 -131 -77l-48 45c28 55 90 101 183 101c124 0 198 -65 198 -174v-284h59v-70zM230 56c79 0 136 41 136 94v85h-106c-91 0 -132 -28 -132 -78v-21c0 -51 40 -80 102 -80z" />
    <glyph glyph-name="aring" unicode="&#xe5;" horiz-adv-x="534" 
d="M252 576c-65 0 -116 49 -116 115s51 115 116 115s116 -49 116 -115s-51 -115 -116 -115zM252 625c36 0 58 20 58 55v22c0 35 -22 55 -58 55s-58 -20 -58 -55v-22c0 -35 22 -55 58 -55zM505 0h-45c-59 0 -83 36 -89 84h-5c-22 -63 -77 -96 -149 -96
c-109 0 -173 60 -173 156c0 97 70 151 220 151h102v51c0 73 -40 113 -122 113c-62 0 -103 -30 -131 -77l-48 45c28 55 90 101 183 101c124 0 198 -65 198 -174v-284h59v-70zM230 56c79 0 136 41 136 94v85h-106c-91 0 -132 -28 -132 -78v-21c0 -51 40 -80 102 -80z" />
    <glyph glyph-name="ae" unicode="&#xe6;" horiz-adv-x="864" 
d="M366 238h-106c-91 -3 -132 -31 -132 -81v-21c0 -51 39 -80 103 -80c77 0 135 41 135 94v88zM446 298h285v11c0 91 -55 152 -137 152c-87 0 -148 -66 -148 -156v-7zM599 58c66 0 114 31 142 88l57 -40c-33 -71 -106 -118 -195 -118c-109 0 -180 70 -191 116h-6
c-9 -44 -76 -116 -191 -116c-104 0 -171 60 -171 154c0 99 74 156 220 156h102v48c0 73 -41 113 -119 113c-66 0 -105 -28 -134 -76l-48 44c27 54 90 101 184 101c118 0 152 -75 162 -115h6c12 46 81 115 186 115c131 0 214 -106 214 -252v-38h-371v-24
c0 -89 57 -156 153 -156z" />
    <glyph glyph-name="ccedilla" unicode="&#xe7;" horiz-adv-x="503" 
d="M277 528c102 0 163 -50 193 -120l-67 -35c-19 53 -63 84 -126 84c-95 0 -144 -65 -144 -155v-88c0 -90 49 -155 144 -155c65 0 112 31 140 90l58 -39c-30 -68 -90 -115 -176 -121l-10 -50l3 -3c13 4 27 6 39 6c39 0 68 -23 68 -66c0 -57 -52 -83 -111 -83
c-54 0 -85 22 -99 41l38 41c12 -15 32 -28 61 -28c25 0 44 10 44 31c0 18 -12 33 -68 41l-28 4l13 66c-129 13 -202 116 -202 269c0 165 85 270 230 270z" />
    <glyph glyph-name="egrave" unicode="&#xe8;" horiz-adv-x="549" 
d="M272 585l-106 159l73 35l85 -170zM279 -12c-140 0 -232 106 -232 270s92 270 232 270c138 0 223 -106 223 -252v-38h-371v-24c0 -89 57 -156 153 -156c65 0 115 32 142 89l57 -41c-33 -70 -107 -118 -204 -118zM279 461c-87 0 -148 -66 -148 -156v-7h285v11
c0 91 -55 152 -137 152z" />
    <glyph glyph-name="eacute" unicode="&#xe9;" horiz-adv-x="549" 
d="M392 744l-106 -159l-52 24l85 170zM279 -12c-140 0 -232 106 -232 270s92 270 232 270c138 0 223 -106 223 -252v-38h-371v-24c0 -89 57 -156 153 -156c65 0 115 32 142 89l57 -41c-33 -70 -107 -118 -204 -118zM279 461c-87 0 -148 -66 -148 -156v-7h285v11
c0 91 -55 152 -137 152z" />
    <glyph glyph-name="ecircumflex" unicode="&#xea;" horiz-adv-x="549" 
d="M229 765h100l111 -143l-44 -31l-117 117l-117 -117l-44 31zM279 -12c-140 0 -232 106 -232 270s92 270 232 270c138 0 223 -106 223 -252v-38h-371v-24c0 -89 57 -156 153 -156c65 0 115 32 142 89l57 -41c-33 -70 -107 -118 -204 -118zM279 461
c-87 0 -148 -66 -148 -156v-7h285v11c0 91 -55 152 -137 152z" />
    <glyph glyph-name="edieresis" unicode="&#xeb;" horiz-adv-x="549" 
d="M186 618c-34 0 -49 18 -49 46v11c0 28 15 46 49 46s49 -18 49 -46v-11c0 -28 -15 -46 -49 -46zM372 618c-34 0 -49 18 -49 46v11c0 28 15 46 49 46s49 -18 49 -46v-11c0 -28 -15 -46 -49 -46zM279 -12c-140 0 -232 106 -232 270s92 270 232 270c138 0 223 -106 223 -252
v-38h-371v-24c0 -89 57 -156 153 -156c65 0 115 32 142 89l57 -41c-33 -70 -107 -118 -204 -118zM279 461c-87 0 -148 -66 -148 -156v-7h285v11c0 91 -55 152 -137 152z" />
    <glyph glyph-name="igrave" unicode="&#xec;" horiz-adv-x="250" 
d="M118 585l-106 159l73 35l85 -170zM165 0h-80v516h80v-516z" />
    <glyph glyph-name="iacute" unicode="&#xed;" horiz-adv-x="250" 
d="M238 744l-106 -159l-52 24l85 170zM165 0h-80v516h80v-516z" />
    <glyph glyph-name="icircumflex" unicode="&#xee;" horiz-adv-x="250" 
d="M75 765h100l111 -143l-44 -31l-117 117l-117 -117l-44 31zM165 0h-80v516h80v-516z" />
    <glyph glyph-name="idieresis" unicode="&#xef;" horiz-adv-x="250" 
d="M32 618c-34 0 -49 18 -49 46v11c0 28 15 46 49 46s49 -18 49 -46v-11c0 -28 -15 -46 -49 -46zM218 618c-34 0 -49 18 -49 46v11c0 28 15 46 49 46s49 -18 49 -46v-11c0 -28 -15 -46 -49 -46zM165 0h-80v516h80v-516z" />
    <glyph glyph-name="eth" unicode="&#xf0;" horiz-adv-x="555" 
d="M385 753l33 -41l-78 -56c84 -82 165 -209 165 -385c0 -187 -95 -283 -229 -283c-141 0 -229 106 -229 258s88 258 229 258c65 0 110 -37 130 -98l4 2c-14 76 -64 147 -128 207l-79 -56l-31 41l70 50c-42 34 -87 64 -131 90h123c20 -12 43 -28 66 -48zM276 57
c86 0 143 61 143 156v66c0 95 -57 156 -143 156s-143 -61 -143 -156v-66c0 -95 57 -156 143 -156z" />
    <glyph glyph-name="ntilde" unicode="&#xf1;" horiz-adv-x="568" 
d="M361 612c-35 0 -59 15 -80 26c-32 17 -53 24 -70 24c-22 0 -38 -10 -58 -27l-33 40c18 27 49 53 95 53c35 0 59 -15 80 -26c32 -17 53 -24 70 -24c22 0 38 10 58 27l33 -40c-18 -27 -49 -53 -95 -53zM165 0h-80v516h80v-84h4c25 58 69 96 146 96c106 0 173 -72 173 -197
v-331h-80v317c0 92 -40 139 -117 139c-64 0 -126 -32 -126 -98v-358z" />
    <glyph glyph-name="ograve" unicode="&#xf2;" horiz-adv-x="560" 
d="M273 585l-106 159l73 35l85 -170zM280 -12c-138 0 -233 106 -233 270s95 270 233 270s233 -106 233 -270s-95 -270 -233 -270zM280 59c86 0 147 53 147 162v74c0 109 -61 162 -147 162s-147 -53 -147 -162v-74c0 -109 61 -162 147 -162z" />
    <glyph glyph-name="oacute" unicode="&#xf3;" horiz-adv-x="560" 
d="M393 744l-106 -159l-52 24l85 170zM280 -12c-138 0 -233 106 -233 270s95 270 233 270s233 -106 233 -270s-95 -270 -233 -270zM280 59c86 0 147 53 147 162v74c0 109 -61 162 -147 162s-147 -53 -147 -162v-74c0 -109 61 -162 147 -162z" />
    <glyph glyph-name="ocircumflex" unicode="&#xf4;" horiz-adv-x="560" 
d="M230 765h100l111 -143l-44 -31l-117 117l-117 -117l-44 31zM280 -12c-138 0 -233 106 -233 270s95 270 233 270s233 -106 233 -270s-95 -270 -233 -270zM280 59c86 0 147 53 147 162v74c0 109 -61 162 -147 162s-147 -53 -147 -162v-74c0 -109 61 -162 147 -162z" />
    <glyph glyph-name="otilde" unicode="&#xf5;" horiz-adv-x="560" 
d="M353 612c-35 0 -59 15 -80 26c-32 17 -53 24 -70 24c-22 0 -38 -10 -58 -27l-33 40c18 27 49 53 95 53c35 0 59 -15 80 -26c32 -17 53 -24 70 -24c22 0 38 10 58 27l33 -40c-18 -27 -49 -53 -95 -53zM280 -12c-138 0 -233 106 -233 270s95 270 233 270s233 -106 233 -270
s-95 -270 -233 -270zM280 59c86 0 147 53 147 162v74c0 109 -61 162 -147 162s-147 -53 -147 -162v-74c0 -109 61 -162 147 -162z" />
    <glyph glyph-name="odieresis" unicode="&#xf6;" horiz-adv-x="560" 
d="M187 618c-34 0 -49 18 -49 46v11c0 28 15 46 49 46s49 -18 49 -46v-11c0 -28 -15 -46 -49 -46zM373 618c-34 0 -49 18 -49 46v11c0 28 15 46 49 46s49 -18 49 -46v-11c0 -28 -15 -46 -49 -46zM280 -12c-138 0 -233 106 -233 270s95 270 233 270s233 -106 233 -270
s-95 -270 -233 -270zM280 59c86 0 147 53 147 162v74c0 109 -61 162 -147 162s-147 -53 -147 -162v-74c0 -109 61 -162 147 -162z" />
    <glyph glyph-name="divide" unicode="&#xf7;" 
d="M533 271h-466v68h466v-68zM300 52c-46 0 -62 21 -62 48v22c0 27 16 48 62 48s62 -21 62 -48v-22c0 -27 -16 -48 -62 -48zM300 440c-46 0 -62 21 -62 48v22c0 27 16 48 62 48s62 -21 62 -48v-22c0 -27 -16 -48 -62 -48z" />
    <glyph glyph-name="oslash" unicode="&#xf8;" horiz-adv-x="568" 
d="M80 -40l-45 34l67 84c-33 46 -51 107 -51 180c0 164 95 270 233 270c55 0 104 -18 142 -49l62 77l45 -34l-67 -85c32 -45 51 -107 51 -179c0 -164 -95 -270 -233 -270c-56 0 -104 17 -142 48zM284 59c86 0 147 53 147 162v74c0 32 -6 59 -15 81l-230 -284
c25 -22 59 -33 98 -33zM137 221c0 -32 5 -59 15 -82l230 285c-26 22 -59 33 -98 33c-86 0 -147 -53 -147 -162v-74z" />
    <glyph glyph-name="ugrave" unicode="&#xf9;" horiz-adv-x="568" 
d="M275 585l-106 159l73 35l85 -170zM403 0v84h-4c-20 -49 -59 -96 -145 -96c-106 0 -174 72 -174 197v331h80v-317c0 -92 41 -139 118 -139c63 0 125 31 125 99v357h80v-516h-80z" />
    <glyph glyph-name="uacute" unicode="&#xfa;" horiz-adv-x="568" 
d="M395 744l-106 -159l-52 24l85 170zM403 0v84h-4c-20 -49 -59 -96 -145 -96c-106 0 -174 72 -174 197v331h80v-317c0 -92 41 -139 118 -139c63 0 125 31 125 99v357h80v-516h-80z" />
    <glyph glyph-name="ucircumflex" unicode="&#xfb;" horiz-adv-x="568" 
d="M232 765h100l111 -143l-44 -31l-117 117l-117 -117l-44 31zM403 0v84h-4c-20 -49 -59 -96 -145 -96c-106 0 -174 72 -174 197v331h80v-317c0 -92 41 -139 118 -139c63 0 125 31 125 99v357h80v-516h-80z" />
    <glyph glyph-name="udieresis" unicode="&#xfc;" horiz-adv-x="568" 
d="M189 618c-34 0 -49 18 -49 46v11c0 28 15 46 49 46s49 -18 49 -46v-11c0 -28 -15 -46 -49 -46zM375 618c-34 0 -49 18 -49 46v11c0 28 15 46 49 46s49 -18 49 -46v-11c0 -28 -15 -46 -49 -46zM403 0v84h-4c-20 -49 -59 -96 -145 -96c-106 0 -174 72 -174 197v331h80v-317
c0 -92 41 -139 118 -139c63 0 125 31 125 99v357h80v-516h-80z" />
    <glyph glyph-name="yacute" unicode="&#xfd;" horiz-adv-x="499" 
d="M363 744l-106 -159l-52 24l85 170zM278 165l125 351h79l-231 -636c-23 -62 -44 -80 -120 -80h-41v70h81l39 110l-193 536h80l124 -351l24 -84h5z" />
    <glyph glyph-name="thorn" unicode="&#xfe;" horiz-adv-x="580" 
d="M85 -200v940h80v-308h4c27 65 80 96 151 96c129 0 210 -105 210 -270s-81 -270 -210 -270c-71 0 -120 32 -151 96h-4v-284h-80zM298 60c90 0 146 62 146 154v88c0 92 -56 154 -146 154c-73 0 -133 -42 -133 -99v-192c0 -67 60 -105 133 -105z" />
    <glyph glyph-name="ydieresis" unicode="&#xff;" horiz-adv-x="499" 
d="M157 618c-34 0 -49 18 -49 46v11c0 28 15 46 49 46s49 -18 49 -46v-11c0 -28 -15 -46 -49 -46zM343 618c-34 0 -49 18 -49 46v11c0 28 15 46 49 46s49 -18 49 -46v-11c0 -28 -15 -46 -49 -46zM278 165l125 351h79l-231 -636c-23 -62 -44 -80 -120 -80h-41v70h81l39 110
l-193 536h80l124 -351l24 -84h5z" />
    <glyph glyph-name="Amacron" unicode="&#x100;" horiz-adv-x="641" 
d="M182 807v68h280v-68h-280zM618 0h-88l-70 206h-282l-70 -206h-85l244 698h107zM439 280l-118 340h-5l-118 -340h241z" />
    <glyph glyph-name="amacron" unicode="&#x101;" horiz-adv-x="534" 
d="M112 637v68h280v-68h-280zM505 0h-45c-59 0 -83 36 -89 84h-5c-22 -63 -77 -96 -149 -96c-109 0 -173 60 -173 156c0 97 70 151 220 151h102v51c0 73 -40 113 -122 113c-62 0 -103 -30 -131 -77l-48 45c28 55 90 101 183 101c124 0 198 -65 198 -174v-284h59v-70zM230 56
c79 0 136 41 136 94v85h-106c-91 0 -132 -28 -132 -78v-21c0 -51 40 -80 102 -80z" />
    <glyph glyph-name="Abreve" unicode="&#x102;" horiz-adv-x="641" 
d="M322 766c-107 0 -134 70 -152 125l45 22l21 -33c18 -29 35 -51 86 -51s68 22 86 51l21 33l45 -22c-18 -55 -45 -125 -152 -125zM618 0h-88l-70 206h-282l-70 -206h-85l244 698h107zM439 280l-118 340h-5l-118 -340h241z" />
    <glyph glyph-name="abreve" unicode="&#x103;" horiz-adv-x="534" 
d="M252 596c-107 0 -134 70 -152 125l45 22l21 -33c18 -29 35 -51 86 -51s68 22 86 51l21 33l45 -22c-18 -55 -45 -125 -152 -125zM505 0h-45c-59 0 -83 36 -89 84h-5c-22 -63 -77 -96 -149 -96c-109 0 -173 60 -173 156c0 97 70 151 220 151h102v51c0 73 -40 113 -122 113
c-62 0 -103 -30 -131 -77l-48 45c28 55 90 101 183 101c124 0 198 -65 198 -174v-284h59v-70zM230 56c79 0 136 41 136 94v85h-106c-91 0 -132 -28 -132 -78v-21c0 -51 40 -80 102 -80z" />
    <glyph glyph-name="Aogonek" unicode="&#x104;" horiz-adv-x="641" 
d="M23 0l244 698h107l244 -698c-85 -78 -98 -101 -98 -123s13 -30 31 -30c19 0 36 9 48 24l40 -39c-12 -21 -42 -39 -88 -39c-52 0 -95 23 -95 76c0 51 47 88 101 127l-1 4h-26l-70 206h-282l-70 -206h-85zM439 280l-118 340h-5l-118 -340h241z" />
    <glyph glyph-name="aogonek" unicode="&#x105;" horiz-adv-x="534" 
d="M505 70v-70c-85 -78 -98 -101 -98 -123s13 -30 31 -30c19 0 36 9 48 24l40 -39c-12 -21 -42 -39 -88 -39c-52 0 -95 23 -95 76c0 51 47 89 102 129l-1 3c-47 6 -68 40 -73 83h-5c-22 -63 -77 -96 -149 -96c-109 0 -173 60 -173 156c0 97 70 151 220 151h102v51
c0 73 -40 113 -122 113c-62 0 -103 -30 -131 -77l-48 45c28 55 90 101 183 101c124 0 198 -65 198 -174v-284h59zM366 235h-106c-91 0 -132 -28 -132 -78v-21c0 -51 40 -80 102 -80c79 0 136 41 136 94v85z" />
    <glyph glyph-name="Cacute" unicode="&#x106;" horiz-adv-x="621" 
d="M451 914l-106 -159l-52 24l85 170zM339 -12c-176 0 -281 124 -281 357s105 365 281 365c116 0 196 -56 240 -153l-68 -41c-28 72 -86 119 -172 119c-120 0 -191 -95 -191 -238v-104c0 -143 71 -230 191 -230c89 0 150 50 178 126l67 -42c-44 -98 -129 -159 -245 -159z
" />
    <glyph glyph-name="cacute" unicode="&#x107;" horiz-adv-x="503" 
d="M389 744l-106 -159l-52 24l85 170zM277 -12c-145 0 -230 105 -230 270s85 270 230 270c102 0 163 -50 193 -121l-67 -34c-19 53 -63 84 -126 84c-95 0 -144 -65 -144 -155v-88c0 -90 49 -155 144 -155c65 0 112 31 140 90l58 -39c-33 -74 -100 -122 -198 -122z" />
    <glyph glyph-name="Ccircumflex" unicode="&#x108;" horiz-adv-x="621" 
d="M288 935h100l111 -143l-44 -31l-117 117l-117 -117l-44 31zM339 -12c-176 0 -281 124 -281 357s105 365 281 365c116 0 196 -56 240 -153l-68 -41c-28 72 -86 119 -172 119c-120 0 -191 -95 -191 -238v-104c0 -143 71 -230 191 -230c89 0 150 50 178 126l67 -42
c-44 -98 -129 -159 -245 -159z" />
    <glyph glyph-name="ccircumflex" unicode="&#x109;" horiz-adv-x="503" 
d="M226 765h100l111 -143l-44 -31l-117 117l-117 -117l-44 31zM277 -12c-145 0 -230 105 -230 270s85 270 230 270c102 0 163 -50 193 -121l-67 -34c-19 53 -63 84 -126 84c-95 0 -144 -65 -144 -155v-88c0 -90 49 -155 144 -155c65 0 112 31 140 90l58 -39
c-33 -74 -100 -122 -198 -122z" />
    <glyph glyph-name="Cdotaccent" unicode="&#x10a;" horiz-adv-x="621" 
d="M338 780c-38 0 -56 21 -56 53v14c0 32 18 53 56 53s56 -21 56 -53v-14c0 -32 -18 -53 -56 -53zM339 -12c-176 0 -281 124 -281 357s105 365 281 365c116 0 196 -56 240 -153l-68 -41c-28 72 -86 119 -172 119c-120 0 -191 -95 -191 -238v-104c0 -143 71 -230 191 -230
c89 0 150 50 178 126l67 -42c-44 -98 -129 -159 -245 -159z" />
    <glyph glyph-name="cdotaccent" unicode="&#x10b;" horiz-adv-x="503" 
d="M276 616c-34 0 -51 18 -51 46v11c0 28 17 46 51 46s51 -18 51 -46v-11c0 -28 -17 -46 -51 -46zM277 -12c-145 0 -230 105 -230 270s85 270 230 270c102 0 163 -50 193 -121l-67 -34c-19 53 -63 84 -126 84c-95 0 -144 -65 -144 -155v-88c0 -90 49 -155 144 -155
c65 0 112 31 140 90l58 -39c-33 -74 -100 -122 -198 -122z" />
    <glyph glyph-name="Ccaron" unicode="&#x10c;" horiz-adv-x="621" 
d="M388 769h-100l-111 143l44 31l117 -117l117 117l44 -31zM339 -12c-176 0 -281 124 -281 357s105 365 281 365c116 0 196 -56 240 -153l-68 -41c-28 72 -86 119 -172 119c-120 0 -191 -95 -191 -238v-104c0 -143 71 -230 191 -230c89 0 150 50 178 126l67 -42
c-44 -98 -129 -159 -245 -159z" />
    <glyph glyph-name="ccaron" unicode="&#x10d;" horiz-adv-x="503" 
d="M326 599h-100l-111 143l44 31l117 -117l117 117l44 -31zM277 -12c-145 0 -230 105 -230 270s85 270 230 270c102 0 163 -50 193 -121l-67 -34c-19 53 -63 84 -126 84c-95 0 -144 -65 -144 -155v-88c0 -90 49 -155 144 -155c65 0 112 31 140 90l58 -39
c-33 -74 -100 -122 -198 -122z" />
    <glyph glyph-name="Dcaron" unicode="&#x10e;" horiz-adv-x="671" 
d="M357 769h-100l-111 143l44 31l117 -117l117 117l44 -31zM93 0v698h234c174 0 286 -116 286 -349s-112 -349 -286 -349h-234zM177 74h150c115 0 196 80 196 218v114c0 138 -81 218 -196 218h-150v-550z" />
    <glyph glyph-name="dcaron" unicode="&#x10f;" horiz-adv-x="603" 
d="M415 0v84h-4c-31 -64 -80 -96 -151 -96c-129 0 -210 105 -210 270s81 270 210 270c71 0 124 -31 151 -96h4v308h80v-740h-80zM282 60c73 0 133 38 133 105v192c0 57 -60 99 -133 99c-90 0 -146 -62 -146 -154v-88c0 -92 56 -154 146 -154zM656 740l-52 -185h-53l12 185
h93z" />
    <glyph glyph-name="Dcroat" unicode="&#x110;" horiz-adv-x="674" 
d="M96 0v337h-79v64h79v297h234c174 0 286 -116 286 -349s-112 -349 -286 -349h-234zM180 74h150c115 0 196 80 196 218v114c0 138 -81 218 -196 218h-150v-223h137v-64h-137v-263z" />
    <glyph glyph-name="dcroat" unicode="&#x111;" horiz-adv-x="583" 
d="M415 0v84h-4c-31 -64 -80 -96 -151 -96c-129 0 -210 105 -210 270s81 270 210 270c71 0 124 -31 151 -96h4v176h-150v62h150v70h80v-70h64v-62h-64v-608h-80zM282 60c73 0 133 38 133 105v192c0 57 -60 99 -133 99c-90 0 -146 -62 -146 -154v-88c0 -92 56 -154 146 -154z
" />
    <glyph glyph-name="Emacron" unicode="&#x112;" horiz-adv-x="583" 
d="M164 807v68h280v-68h-280zM519 0h-426v698h426v-74h-342v-234h322v-74h-322v-242h342v-74z" />
    <glyph glyph-name="emacron" unicode="&#x113;" horiz-adv-x="549" 
d="M139 637v68h280v-68h-280zM279 -12c-140 0 -232 106 -232 270s92 270 232 270c138 0 223 -106 223 -252v-38h-371v-24c0 -89 57 -156 153 -156c65 0 115 32 142 89l57 -41c-33 -70 -107 -118 -204 -118zM279 461c-87 0 -148 -66 -148 -156v-7h285v11
c0 91 -55 152 -137 152z" />
    <glyph glyph-name="Ebreve" unicode="&#x114;" horiz-adv-x="583" 
d="M304 766c-107 0 -134 70 -152 125l45 22l21 -33c18 -29 35 -51 86 -51s68 22 86 51l21 33l45 -22c-18 -55 -45 -125 -152 -125zM519 0h-426v698h426v-74h-342v-234h322v-74h-322v-242h342v-74z" />
    <glyph glyph-name="ebreve" unicode="&#x115;" horiz-adv-x="549" 
d="M279 596c-107 0 -134 70 -152 125l45 22l21 -33c18 -29 35 -51 86 -51s68 22 86 51l21 33l45 -22c-18 -55 -45 -125 -152 -125zM279 -12c-140 0 -232 106 -232 270s92 270 232 270c138 0 223 -106 223 -252v-38h-371v-24c0 -89 57 -156 153 -156c65 0 115 32 142 89
l57 -41c-33 -70 -107 -118 -204 -118zM279 461c-87 0 -148 -66 -148 -156v-7h285v11c0 91 -55 152 -137 152z" />
    <glyph glyph-name="Edotaccent" unicode="&#x116;" horiz-adv-x="583" 
d="M304 780c-38 0 -56 21 -56 53v14c0 32 18 53 56 53s56 -21 56 -53v-14c0 -32 -18 -53 -56 -53zM519 0h-426v698h426v-74h-342v-234h322v-74h-322v-242h342v-74z" />
    <glyph glyph-name="edotaccent" unicode="&#x117;" horiz-adv-x="549" 
d="M279 616c-34 0 -51 18 -51 46v11c0 28 17 46 51 46s51 -18 51 -46v-11c0 -28 -17 -46 -51 -46zM279 -12c-140 0 -232 106 -232 270s92 270 232 270c138 0 223 -106 223 -252v-38h-371v-24c0 -89 57 -156 153 -156c65 0 115 32 142 89l57 -41c-33 -70 -107 -118 -204 -118
zM279 461c-87 0 -148 -66 -148 -156v-7h285v11c0 91 -55 152 -137 152z" />
    <glyph glyph-name="Eogonek" unicode="&#x118;" horiz-adv-x="583" 
d="M93 0v698h426v-74h-342v-234h322v-74h-322v-242h342v-74c-85 -78 -98 -101 -98 -123s13 -30 31 -30c19 0 36 9 48 24l40 -39c-12 -21 -42 -39 -88 -39c-52 0 -95 23 -95 76c0 51 46 89 101 126l-1 5h-364z" />
    <glyph glyph-name="eogonek" unicode="&#x119;" horiz-adv-x="549" 
d="M356 -207c-52 0 -94 23 -94 77c0 60 54 99 102 130l-4 5c-17 -9 -43 -17 -81 -17c-140 0 -232 106 -232 270s92 270 232 270c138 0 223 -106 223 -252v-38h-371v-24c0 -89 57 -156 153 -156c65 0 115 32 142 89l57 -41c-11 -22 -20 -36 -34 -53
c-39 -50 -123 -115 -123 -175c0 -23 13 -31 31 -31s36 9 48 24l39 -39c-12 -21 -41 -39 -88 -39zM131 298h285v11c0 91 -55 152 -137 152c-87 0 -148 -66 -148 -156v-7z" />
    <glyph glyph-name="Ecaron" unicode="&#x11a;" horiz-adv-x="583" 
d="M354 769h-100l-111 143l44 31l117 -117l117 117l44 -31zM519 0h-426v698h426v-74h-342v-234h322v-74h-322v-242h342v-74z" />
    <glyph glyph-name="ecaron" unicode="&#x11b;" horiz-adv-x="549" 
d="M329 599h-100l-111 143l44 31l117 -117l117 117l44 -31zM279 -12c-140 0 -232 106 -232 270s92 270 232 270c138 0 223 -106 223 -252v-38h-371v-24c0 -89 57 -156 153 -156c65 0 115 32 142 89l57 -41c-33 -70 -107 -118 -204 -118zM279 461c-87 0 -148 -66 -148 -156
v-7h285v11c0 91 -55 152 -137 152z" />
    <glyph glyph-name="Gcircumflex" unicode="&#x11c;" horiz-adv-x="695" 
d="M305 935h100l111 -143l-44 -31l-117 117l-117 -117l-44 31zM545 0v102h-3c-17 -65 -88 -114 -194 -114c-171 0 -290 127 -290 361c0 232 118 361 297 361c125 0 209 -62 254 -153l-69 -42c-32 74 -97 120 -185 120c-123 0 -207 -91 -207 -229v-113
c0 -138 82 -230 215 -230c97 0 178 50 178 153v69h-154v74h236v-359h-78z" />
    <glyph glyph-name="gcircumflex" unicode="&#x11d;" horiz-adv-x="531" 
d="M216 765h100l111 -143l-44 -31l-117 117l-117 -117l-44 31zM520 -57c0 -106 -84 -155 -250 -155c-161 0 -227 46 -227 127c0 56 31 86 82 100v11c-29 14 -46 37 -46 72c0 52 37 77 89 90v4c-61 29 -97 86 -97 158c0 105 77 178 194 178c28 0 55 -4 78 -12h161v-64h-80
c23 -26 37 -60 37 -102c0 -105 -77 -178 -195 -178c-17 0 -35 2 -50 5c-34 -9 -68 -26 -68 -58c0 -31 32 -39 79 -39h110c128 0 183 -52 183 -137zM266 236c68 0 111 32 111 100v28c0 68 -43 100 -111 100s-111 -32 -111 -100v-28c0 -68 43 -100 111 -100zM445 -63
c0 41 -27 68 -107 68h-172c-33 -15 -48 -38 -48 -70c0 -45 31 -82 112 -82h74c89 0 141 28 141 84z" />
    <glyph glyph-name="Gbreve" unicode="&#x11e;" horiz-adv-x="695" 
d="M355 766c-107 0 -134 70 -152 125l45 22l21 -33c18 -29 35 -51 86 -51s68 22 86 51l21 33l45 -22c-18 -55 -45 -125 -152 -125zM545 0v102h-3c-17 -65 -88 -114 -194 -114c-171 0 -290 127 -290 361c0 232 118 361 297 361c125 0 209 -62 254 -153l-69 -42
c-32 74 -97 120 -185 120c-123 0 -207 -91 -207 -229v-113c0 -138 82 -230 215 -230c97 0 178 50 178 153v69h-154v74h236v-359h-78z" />
    <glyph glyph-name="gbreve" unicode="&#x11f;" horiz-adv-x="531" 
d="M264 596c-107 0 -134 70 -152 125l45 22l21 -33c18 -29 35 -51 86 -51s68 22 86 51l21 33l45 -22c-18 -55 -45 -125 -152 -125zM520 -57c0 -106 -84 -155 -250 -155c-161 0 -227 46 -227 127c0 56 31 86 82 100v11c-29 14 -46 37 -46 72c0 52 37 77 89 90v4
c-61 29 -97 86 -97 158c0 105 77 178 194 178c28 0 55 -4 78 -12h161v-64h-80c23 -26 37 -60 37 -102c0 -105 -77 -178 -195 -178c-17 0 -35 2 -50 5c-34 -9 -68 -26 -68 -58c0 -31 32 -39 79 -39h110c128 0 183 -52 183 -137zM266 236c68 0 111 32 111 100v28
c0 68 -43 100 -111 100s-111 -32 -111 -100v-28c0 -68 43 -100 111 -100zM445 -63c0 41 -27 68 -107 68h-172c-33 -15 -48 -38 -48 -70c0 -45 31 -82 112 -82h74c89 0 141 28 141 84z" />
    <glyph glyph-name="Gdotaccent" unicode="&#x120;" horiz-adv-x="695" 
d="M355 780c-38 0 -56 21 -56 53v14c0 32 18 53 56 53s56 -21 56 -53v-14c0 -32 -18 -53 -56 -53zM545 0v102h-3c-17 -65 -88 -114 -194 -114c-171 0 -290 127 -290 361c0 232 118 361 297 361c125 0 209 -62 254 -153l-69 -42c-32 74 -97 120 -185 120
c-123 0 -207 -91 -207 -229v-113c0 -138 82 -230 215 -230c97 0 178 50 178 153v69h-154v74h236v-359h-78z" />
    <glyph glyph-name="gdotaccent" unicode="&#x121;" horiz-adv-x="531" 
d="M266 616c-34 0 -51 18 -51 46v11c0 28 17 46 51 46s51 -18 51 -46v-11c0 -28 -17 -46 -51 -46zM520 -57c0 -106 -84 -155 -250 -155c-161 0 -227 46 -227 127c0 56 31 86 82 100v11c-29 14 -46 37 -46 72c0 52 37 77 89 90v4c-61 29 -97 86 -97 158c0 105 77 178 194 178
c28 0 55 -4 78 -12h161v-64h-80c23 -26 37 -60 37 -102c0 -105 -77 -178 -195 -178c-17 0 -35 2 -50 5c-34 -9 -68 -26 -68 -58c0 -31 32 -39 79 -39h110c128 0 183 -52 183 -137zM266 236c68 0 111 32 111 100v28c0 68 -43 100 -111 100s-111 -32 -111 -100v-28
c0 -68 43 -100 111 -100zM445 -63c0 41 -27 68 -107 68h-172c-33 -15 -48 -38 -48 -70c0 -45 31 -82 112 -82h74c89 0 141 28 141 84z" />
    <glyph glyph-name="Gcommaaccent" unicode="&#x122;" horiz-adv-x="695" 
d="M348 -66c33 0 51 -18 51 -47v-11c0 -47 -28 -91 -60 -121h-58c27 28 42 47 51 78c-23 5 -35 22 -35 44v10c0 29 18 47 51 47zM545 0v102h-3c-17 -65 -88 -114 -194 -114c-171 0 -290 127 -290 361c0 232 118 361 297 361c125 0 209 -62 254 -153l-69 -42
c-32 74 -97 120 -185 120c-123 0 -207 -91 -207 -229v-113c0 -138 82 -230 215 -230c97 0 178 50 178 153v69h-154v74h236v-359h-78z" />
    <glyph glyph-name="gcommaaccent" unicode="&#x123;" horiz-adv-x="531" 
d="M267 595c-33 0 -51 18 -51 47v11c0 47 28 91 60 121h58c-27 -28 -42 -47 -51 -78c23 -5 35 -22 35 -44v-10c0 -29 -18 -47 -51 -47zM520 -57c0 -106 -84 -155 -250 -155c-161 0 -227 46 -227 127c0 56 31 86 82 100v11c-29 14 -46 37 -46 72c0 52 37 77 89 90v4
c-61 29 -97 86 -97 158c0 105 77 178 194 178c28 0 55 -4 78 -12h161v-64h-80c23 -26 37 -60 37 -102c0 -105 -77 -178 -195 -178c-17 0 -35 2 -50 5c-34 -9 -68 -26 -68 -58c0 -31 32 -39 79 -39h110c128 0 183 -52 183 -137zM266 236c68 0 111 32 111 100v28
c0 68 -43 100 -111 100s-111 -32 -111 -100v-28c0 -68 43 -100 111 -100zM445 -63c0 41 -27 68 -107 68h-172c-33 -15 -48 -38 -48 -70c0 -45 31 -82 112 -82h74c89 0 141 28 141 84z" />
    <glyph glyph-name="Hcircumflex" unicode="&#x124;" horiz-adv-x="707" 
d="M304 935h100l111 -143l-44 -31l-117 117l-117 -117l-44 31zM530 0v316h-353v-316h-84v698h84v-308h353v308h84v-698h-84z" />
    <glyph glyph-name="hcircumflex" unicode="&#x125;" horiz-adv-x="568" 
d="M77 923h100l111 -143l-44 -31l-117 117l-117 -117l-44 31zM85 0v740h80v-308h4c25 58 69 96 146 96c106 0 173 -72 173 -197v-331h-80v317c0 92 -40 139 -117 139c-64 0 -126 -32 -126 -98v-358h-80z" />
    <glyph glyph-name="Hbar" unicode="&#x126;" horiz-adv-x="713" 
d="M533 0v316h-353v-316h-84v518h-69v64h69v116h84v-116h353v116h84v-116h69v-64h-69v-518h-84zM180 390h353v128h-353v-128z" />
    <glyph glyph-name="hbar" unicode="&#x127;" horiz-adv-x="568" 
d="M165 0h-80v608h-64v62h64v70h80v-70h150v-62h-150v-176h4c25 58 69 96 146 96c106 0 173 -72 173 -197v-331h-80v317c0 92 -40 139 -117 139c-64 0 -126 -32 -126 -98v-358z" />
    <glyph glyph-name="Itilde" unicode="&#x128;" horiz-adv-x="400" 
d="M273 782c-35 0 -59 15 -80 26c-32 17 -53 24 -70 24c-22 0 -38 -10 -58 -27l-33 40c18 27 49 53 95 53c35 0 59 -15 80 -26c32 -17 53 -24 70 -24c22 0 38 10 58 27l33 -40c-18 -27 -49 -53 -95 -53zM340 0h-280v70h98v558h-98v70h280v-70h-98v-558h98v-70z" />
    <glyph glyph-name="itilde" unicode="&#x129;" horiz-adv-x="250" 
d="M198 612c-35 0 -59 15 -80 26c-32 17 -53 24 -70 24c-22 0 -38 -10 -58 -27l-33 40c18 27 49 53 95 53c35 0 59 -15 80 -26c32 -17 53 -24 70 -24c22 0 38 10 58 27l33 -40c-18 -27 -49 -53 -95 -53zM165 0h-80v516h80v-516z" />
    <glyph glyph-name="Imacron" unicode="&#x12a;" horiz-adv-x="400" 
d="M60 807v68h280v-68h-280zM340 0h-280v70h98v558h-98v70h280v-70h-98v-558h98v-70z" />
    <glyph glyph-name="imacron" unicode="&#x12b;" horiz-adv-x="250" 
d="M-15 637v68h280v-68h-280zM165 0h-80v516h80v-516z" />
    <glyph glyph-name="Ibreve" unicode="&#x12c;" horiz-adv-x="400" 
d="M200 766c-107 0 -134 70 -152 125l45 22l21 -33c18 -29 35 -51 86 -51s68 22 86 51l21 33l45 -22c-18 -55 -45 -125 -152 -125zM340 0h-280v70h98v558h-98v70h280v-70h-98v-558h98v-70z" />
    <glyph glyph-name="ibreve" unicode="&#x12d;" horiz-adv-x="250" 
d="M125 596c-107 0 -134 70 -152 125l45 22l21 -33c18 -29 35 -51 86 -51s68 22 86 51l21 33l45 -22c-18 -55 -45 -125 -152 -125zM165 0h-80v516h80v-516z" />
    <glyph glyph-name="Iogonek" unicode="&#x12e;" horiz-adv-x="400" 
d="M60 0v70h98v558h-98v70h280v-70h-98v-558h98v-70c-85 -78 -98 -101 -98 -123s13 -30 31 -30c19 0 36 9 48 24l40 -39c-12 -21 -42 -39 -88 -39c-52 0 -95 23 -95 76c0 50 38 84 101 126l-1 5h-218z" />
    <glyph glyph-name="iogonek" unicode="&#x12f;" horiz-adv-x="250" 
d="M85 0v516h80v-516c-85 -78 -98 -101 -98 -123s13 -30 31 -30c19 0 36 9 48 24l40 -39c-12 -21 -42 -39 -88 -39c-52 0 -95 23 -95 76c0 51 48 88 102 127l-2 4h-18zM125 637c-34 0 -49 18 -49 45v13c0 27 15 45 49 45s49 -18 49 -45v-13c0 -27 -15 -45 -49 -45z" />
    <glyph glyph-name="Idotaccent" unicode="&#x130;" horiz-adv-x="400" 
d="M200 780c-38 0 -56 21 -56 53v14c0 32 18 53 56 53s56 -21 56 -53v-14c0 -32 -18 -53 -56 -53zM340 0h-280v70h98v558h-98v70h280v-70h-98v-558h98v-70z" />
    <glyph glyph-name="dotlessi" unicode="&#x131;" horiz-adv-x="250" 
d="M165 0h-80v516h80v-516z" />
    <glyph glyph-name="IJ" unicode="&#x132;" horiz-adv-x="645" 
d="M320 -12c-133 0 -207 71 -227 166l76 18c15 -62 60 -109 154 -109c93 0 150 46 150 145v415h-152v75h236v-473c0 -147 -89 -237 -237 -237zM88 290v408h84v-408h-84z" />
    <glyph glyph-name="ij" unicode="&#x133;" horiz-adv-x="496" 
d="M331 -130v646h80v-596c0 -71 -35 -120 -112 -120h-52v70h84zM371 637c-34 0 -49 18 -49 45v13c0 27 15 45 49 45s49 -18 49 -45v-13c0 -27 -15 -45 -49 -45zM125 637c-34 0 -49 18 -49 45v13c0 27 15 45 49 45s49 -18 49 -45v-13c0 -27 -15 -45 -49 -45zM85 0v516h80
v-516h-80z" />
    <glyph glyph-name="Jcircumflex" unicode="&#x134;" horiz-adv-x="510" 
d="M213 935h100l111 -143l-44 -31l-117 117l-117 -117l-44 31zM98 698h324v-517c0 -118 -82 -193 -200 -193c-108 0 -175 64 -194 159l76 18c13 -60 49 -102 120 -102c72 0 114 44 114 133v428h-240v74z" />
    <glyph glyph-name="jcircumflex" unicode="&#x135;" horiz-adv-x="250" 
d="M75 765h100l111 -143l-44 -31l-117 117l-117 -117l-44 31zM1 -200v70h84v646h80v-596c0 -71 -35 -120 -112 -120h-52z" />
    <glyph glyph-name="Kcommaaccent" unicode="&#x136;" horiz-adv-x="634" 
d="M336 -66c33 0 51 -18 51 -47v-11c0 -47 -28 -91 -60 -121h-58c27 28 42 47 51 78c-23 5 -35 22 -35 44v10c0 29 18 47 51 47zM508 0l-232 343l-99 -110v-233h-84v698h84v-371h3l100 121l211 250h103l-260 -299l278 -399h-104z" />
    <glyph glyph-name="kcommaaccent" unicode="&#x137;" horiz-adv-x="527" 
d="M292 -66c33 0 51 -18 51 -47v-11c0 -47 -28 -91 -60 -121h-58c27 28 42 47 51 78c-23 5 -35 22 -35 44v10c0 29 18 47 51 47zM85 0v740h80v-469h4l79 88l146 157h97l-191 -204l210 -312h-97l-171 263l-77 -79v-184h-80z" />
    <glyph glyph-name="kgreenlandic" unicode="&#x138;" horiz-adv-x="527" 
d="M413 0l-171 263l-77 -79v-184h-80v516h80v-243h4l80 88l147 155h98l-194 -202l210 -314h-97z" />
    <glyph glyph-name="Lacute" unicode="&#x139;" horiz-adv-x="501" 
d="M248 914l-106 -159l-52 24l85 170zM474 0h-381v698h84v-624h297v-74z" />
    <glyph glyph-name="lacute" unicode="&#x13a;" horiz-adv-x="272" 
d="M238 944l-106 -159l-52 24l85 170zM241 0h-71c-55 0 -85 35 -85 83v657h80v-670h76v-70z" />
    <glyph glyph-name="Lcommaaccent" unicode="&#x13b;" horiz-adv-x="501" 
d="M298 -66c33 0 51 -18 51 -47v-11c0 -47 -28 -91 -60 -121h-58c27 28 42 47 51 78c-23 5 -35 22 -35 44v10c0 29 18 47 51 47zM474 0h-381v698h84v-624h297v-74z" />
    <glyph glyph-name="lcommaaccent" unicode="&#x13c;" horiz-adv-x="272" 
d="M164 -66c33 0 51 -18 51 -47v-11c0 -47 -28 -91 -60 -121h-58c27 28 42 47 51 78c-23 5 -35 22 -35 44v10c0 29 18 47 51 47zM241 0h-71c-55 0 -85 35 -85 83v657h80v-670h76v-70z" />
    <glyph glyph-name="Lcaron" unicode="&#x13d;" horiz-adv-x="501" 
d="M360 740l-52 -185h-53l12 185h93zM474 0h-381v698h84v-624h297v-74z" />
    <glyph glyph-name="lcaron" unicode="&#x13e;" horiz-adv-x="274" 
d="M241 0h-71c-55 0 -85 35 -85 83v657h80v-670h76v-70zM325 740l-52 -185h-53l12 185h93z" />
    <glyph glyph-name="Ldot" unicode="&#x13f;" horiz-adv-x="501" 
d="M385 292c-34 0 -51 18 -51 46v11c0 28 17 46 51 46s51 -18 51 -46v-11c0 -28 -17 -46 -51 -46zM474 0h-381v698h84v-624h297v-74z" />
    <glyph glyph-name="ldot" unicode="&#x140;" horiz-adv-x="358" 
d="M304 253c-34 0 -51 18 -51 46v11c0 28 17 46 51 46s51 -18 51 -46v-11c0 -28 -17 -46 -51 -46zM241 0h-71c-55 0 -85 35 -85 83v657h80v-670h76v-70z" />
    <glyph glyph-name="Lslash" unicode="&#x141;" horiz-adv-x="508" 
d="M477 75v-75h-381v271l-103 -34v67l103 35v359h84v-331l181 61v-71l-181 -59v-223h297z" />
    <glyph glyph-name="lslash" unicode="&#x142;" horiz-adv-x="278" 
d="M244 70v-70h-71c-55 0 -85 35 -85 83v242l-70 -23v68l70 23v347h80v-320l103 34v-68l-103 -34v-282h76z" />
    <glyph glyph-name="Nacute" unicode="&#x143;" horiz-adv-x="707" 
d="M466 914l-106 -159l-52 24l85 170zM517 0l-255 426l-84 155h-3v-581h-82v698h97l255 -426l84 -155h3v581h82v-698h-97z" />
    <glyph glyph-name="nacute" unicode="&#x144;" horiz-adv-x="568" 
d="M401 744l-106 -159l-52 24l85 170zM165 0h-80v516h80v-84h4c25 58 69 96 146 96c106 0 173 -72 173 -197v-331h-80v317c0 92 -40 139 -117 139c-64 0 -126 -32 -126 -98v-358z" />
    <glyph glyph-name="Ncommaaccent" unicode="&#x145;" horiz-adv-x="707" 
d="M353 -66c33 0 51 -18 51 -47v-11c0 -47 -28 -91 -60 -121h-58c27 28 42 47 51 78c-23 5 -35 22 -35 44v10c0 29 18 47 51 47zM517 0l-255 426l-84 155h-3v-581h-82v698h97l255 -426l84 -155h3v581h82v-698h-97z" />
    <glyph glyph-name="ncommaaccent" unicode="&#x146;" horiz-adv-x="568" 
d="M287 -66c33 0 51 -18 51 -47v-11c0 -47 -28 -91 -60 -121h-58c27 28 42 47 51 78c-23 5 -35 22 -35 44v10c0 29 18 47 51 47zM165 0h-80v516h80v-84h4c25 58 69 96 146 96c106 0 173 -72 173 -197v-331h-80v317c0 92 -40 139 -117 139c-64 0 -126 -32 -126 -98v-358z" />
    <glyph glyph-name="Ncaron" unicode="&#x147;" horiz-adv-x="707" 
d="M403 769h-100l-111 143l44 31l117 -117l117 117l44 -31zM517 0l-255 426l-84 155h-3v-581h-82v698h97l255 -426l84 -155h3v581h82v-698h-97z" />
    <glyph glyph-name="ncaron" unicode="&#x148;" horiz-adv-x="568" 
d="M338 599h-100l-111 143l44 31l117 -117l117 117l44 -31zM165 0h-80v516h80v-84h4c25 58 69 96 146 96c106 0 173 -72 173 -197v-331h-80v317c0 92 -40 139 -117 139c-64 0 -126 -32 -126 -98v-358z" />
    <glyph glyph-name="napostrophe" unicode="&#x149;" horiz-adv-x="812" 
d="M409 0h-80v516h80v-84h4c25 58 69 96 146 96c106 0 173 -72 173 -197v-331h-80v317c0 92 -40 139 -117 139c-64 0 -126 -32 -126 -98v-358zM142 750c42 0 61 -24 61 -59v-14c0 -54 -34 -128 -91 -177h-67c40 42 64 77 75 124c-27 6 -39 26 -39 53v14c0 35 19 59 61 59z
" />
    <glyph glyph-name="Eng" unicode="&#x14a;" horiz-adv-x="707" 
d="M175 0h-82v698h97l255 -426l84 -155h3v581h82v-773c0 -74 -37 -125 -114 -125h-54v74h86v126h-15l-255 426l-84 155h-3v-581z" />
    <glyph glyph-name="eng" unicode="&#x14b;" horiz-adv-x="568" 
d="M324 -200v70h84v447c0 92 -40 139 -117 139c-64 0 -126 -32 -126 -98v-358h-80v516h80v-84h4c25 58 69 96 146 96c106 0 173 -72 173 -197v-413c0 -71 -35 -118 -111 -118h-53z" />
    <glyph glyph-name="Omacron" unicode="&#x14c;" horiz-adv-x="708" 
d="M214 807v68h280v-68h-280zM354 -12c-180 0 -296 127 -296 361s116 361 296 361s296 -127 296 -361s-116 -361 -296 -361zM354 63c121 0 206 90 206 228v116c0 138 -85 228 -206 228s-206 -90 -206 -228v-116c0 -138 85 -228 206 -228z" />
    <glyph glyph-name="omacron" unicode="&#x14d;" horiz-adv-x="560" 
d="M140 637v68h280v-68h-280zM280 -12c-138 0 -233 106 -233 270s95 270 233 270s233 -106 233 -270s-95 -270 -233 -270zM280 59c86 0 147 53 147 162v74c0 109 -61 162 -147 162s-147 -53 -147 -162v-74c0 -109 61 -162 147 -162z" />
    <glyph glyph-name="Obreve" unicode="&#x14e;" horiz-adv-x="708" 
d="M354 766c-107 0 -134 70 -152 125l45 22l21 -33c18 -29 35 -51 86 -51s68 22 86 51l21 33l45 -22c-18 -55 -45 -125 -152 -125zM354 -12c-180 0 -296 127 -296 361s116 361 296 361s296 -127 296 -361s-116 -361 -296 -361zM354 63c121 0 206 90 206 228v116
c0 138 -85 228 -206 228s-206 -90 -206 -228v-116c0 -138 85 -228 206 -228z" />
    <glyph glyph-name="obreve" unicode="&#x14f;" horiz-adv-x="560" 
d="M280 596c-107 0 -134 70 -152 125l45 22l21 -33c18 -29 35 -51 86 -51s68 22 86 51l21 33l45 -22c-18 -55 -45 -125 -152 -125zM280 -12c-138 0 -233 106 -233 270s95 270 233 270s233 -106 233 -270s-95 -270 -233 -270zM280 59c86 0 147 53 147 162v74
c0 109 -61 162 -147 162s-147 -53 -147 -162v-74c0 -109 61 -162 147 -162z" />
    <glyph glyph-name="Ohungarumlaut" unicode="&#x150;" horiz-adv-x="708" 
d="M387 915l-106 -159l-48 22l85 170zM547 915l-106 -159l-48 22l85 170zM354 -12c-180 0 -296 127 -296 361s116 361 296 361s296 -127 296 -361s-116 -361 -296 -361zM354 63c121 0 206 90 206 228v116c0 138 -85 228 -206 228s-206 -90 -206 -228v-116
c0 -138 85 -228 206 -228z" />
    <glyph glyph-name="ohungarumlaut" unicode="&#x151;" horiz-adv-x="560" 
d="M313 745l-106 -159l-48 22l85 170zM473 745l-106 -159l-48 22l85 170zM280 -12c-138 0 -233 106 -233 270s95 270 233 270s233 -106 233 -270s-95 -270 -233 -270zM280 59c86 0 147 53 147 162v74c0 109 -61 162 -147 162s-147 -53 -147 -162v-74
c0 -109 61 -162 147 -162z" />
    <glyph glyph-name="OE" unicode="&#x152;" horiz-adv-x="985" 
d="M921 0h-426c-37 -7 -89 -12 -128 -12c-193 0 -309 126 -309 361s116 361 309 361c39 0 91 -5 128 -12h426v-74h-343v-234h323v-74h-323v-242h343v-74zM377 63c37 0 81 6 117 18v536c-36 12 -80 18 -117 18c-156 0 -229 -90 -229 -228v-116c0 -138 73 -228 229 -228z" />
    <glyph glyph-name="oe" unicode="&#x153;" horiz-adv-x="931" 
d="M280 59c86 0 147 53 147 162v74c0 109 -61 162 -147 162s-147 -53 -147 -162v-74c0 -109 61 -162 147 -162zM513 298h285v11c0 91 -55 152 -137 152c-87 0 -148 -66 -148 -156v-7zM667 -12c-100 0 -164 53 -194 115h-5c-30 -66 -102 -115 -188 -115
c-138 0 -233 106 -233 270s95 270 233 270c88 0 156 -41 188 -115h6c29 70 96 115 187 115c136 0 223 -105 223 -252v-38h-371v-24c0 -89 57 -156 153 -156c66 0 115 32 143 89l56 -41c-33 -70 -103 -118 -198 -118z" />
    <glyph glyph-name="Racute" unicode="&#x154;" horiz-adv-x="640" 
d="M420 914l-106 -159l-52 24l85 170zM177 300v-300h-84v698h278c122 0 195 -71 195 -198c0 -102 -49 -171 -140 -192l160 -308h-95l-151 300h-163zM177 372h194c66 0 105 36 105 100v52c0 64 -39 100 -105 100h-194v-252z" />
    <glyph glyph-name="racute" unicode="&#x155;" horiz-adv-x="367" 
d="M332 744l-106 -159l-52 24l85 170zM165 0h-80v516h80v-95h5c18 49 65 95 149 95h31v-80h-47c-86 0 -138 -37 -138 -86v-350z" />
    <glyph glyph-name="Rcommaaccent" unicode="&#x156;" horiz-adv-x="640" 
d="M324 -66c33 0 51 -18 51 -47v-11c0 -47 -28 -91 -60 -121h-58c27 28 42 47 51 78c-23 5 -35 22 -35 44v10c0 29 18 47 51 47zM177 300v-300h-84v698h278c122 0 195 -71 195 -198c0 -102 -49 -171 -140 -192l160 -308h-95l-151 300h-163zM177 372h194c66 0 105 36 105 100
v52c0 64 -39 100 -105 100h-194v-252z" />
    <glyph glyph-name="rcommaaccent" unicode="&#x157;" horiz-adv-x="367" 
d="M127 -66c33 0 51 -18 51 -47v-11c0 -47 -28 -91 -60 -121h-58c27 28 42 47 51 78c-23 5 -35 22 -35 44v10c0 29 18 47 51 47zM165 0h-80v516h80v-95h5c18 49 65 95 149 95h31v-80h-47c-86 0 -138 -37 -138 -86v-350z" />
    <glyph glyph-name="Rcaron" unicode="&#x158;" horiz-adv-x="640" 
d="M357 769h-100l-111 143l44 31l117 -117l117 117l44 -31zM177 300v-300h-84v698h278c122 0 195 -71 195 -198c0 -102 -49 -171 -140 -192l160 -308h-95l-151 300h-163zM177 372h194c66 0 105 36 105 100v52c0 64 -39 100 -105 100h-194v-252z" />
    <glyph glyph-name="rcaron" unicode="&#x159;" horiz-adv-x="367" 
d="M269 599h-100l-111 143l44 31l117 -117l117 117l44 -31zM165 0h-80v516h80v-95h5c18 49 65 95 149 95h31v-80h-47c-86 0 -138 -37 -138 -86v-350z" />
    <glyph glyph-name="Sacute" unicode="&#x15a;" horiz-adv-x="581" 
d="M401 914l-106 -159l-52 24l85 170zM289 -12c-112 0 -191 46 -247 122l62 52c49 -65 107 -100 188 -100c100 0 154 52 154 132c0 66 -37 99 -129 120l-57 13c-127 29 -197 85 -197 192c0 124 94 191 231 191c105 0 179 -40 231 -114l-63 -46c-38 53 -91 86 -172 86
c-89 0 -144 -39 -144 -114c0 -66 43 -96 131 -116l57 -13c136 -31 195 -91 195 -195c0 -128 -90 -210 -240 -210z" />
    <glyph glyph-name="sacute" unicode="&#x15b;" horiz-adv-x="487" 
d="M351 744l-106 -159l-52 24l85 170zM240 -12c-95 0 -158 40 -204 101l57 46c40 -50 88 -79 153 -79c68 0 108 31 108 84c0 40 -22 71 -90 81l-41 6c-95 14 -166 53 -166 149c0 102 79 152 184 152c83 0 138 -31 180 -83l-53 -48c-23 32 -67 63 -133 63s-101 -31 -101 -80
c0 -50 35 -70 99 -80l40 -6c114 -17 158 -67 158 -145c0 -100 -73 -161 -191 -161z" />
    <glyph glyph-name="Scircumflex" unicode="&#x15c;" horiz-adv-x="581" 
d="M238 935h100l111 -143l-44 -31l-117 117l-117 -117l-44 31zM289 -12c-112 0 -191 46 -247 122l62 52c49 -65 107 -100 188 -100c100 0 154 52 154 132c0 66 -37 99 -129 120l-57 13c-127 29 -197 85 -197 192c0 124 94 191 231 191c105 0 179 -40 231 -114l-63 -46
c-38 53 -91 86 -172 86c-89 0 -144 -39 -144 -114c0 -66 43 -96 131 -116l57 -13c136 -31 195 -91 195 -195c0 -128 -90 -210 -240 -210z" />
    <glyph glyph-name="scircumflex" unicode="&#x15d;" horiz-adv-x="487" 
d="M188 765h100l111 -143l-44 -31l-117 117l-117 -117l-44 31zM240 -12c-95 0 -158 40 -204 101l57 46c40 -50 88 -79 153 -79c68 0 108 31 108 84c0 40 -22 71 -90 81l-41 6c-95 14 -166 53 -166 149c0 102 79 152 184 152c83 0 138 -31 180 -83l-53 -48
c-23 32 -67 63 -133 63s-101 -31 -101 -80c0 -50 35 -70 99 -80l40 -6c114 -17 158 -67 158 -145c0 -100 -73 -161 -191 -161z" />
    <glyph glyph-name="Scedilla" unicode="&#x15e;" horiz-adv-x="581" 
d="M290 636c-89 0 -144 -39 -144 -114c0 -66 43 -96 131 -116l57 -13c136 -31 195 -91 195 -195c0 -122 -82 -202 -219 -209l-10 -50l3 -3c13 4 27 6 39 6c39 0 68 -23 68 -66c0 -57 -52 -83 -111 -83c-54 0 -85 22 -99 41l38 41c12 -15 32 -28 61 -28c25 0 44 10 44 31
c0 18 -12 33 -68 41l-28 4l13 66c-97 7 -167 52 -218 121l62 52c49 -65 107 -100 188 -100c100 0 154 52 154 132c0 66 -37 99 -129 120l-57 13c-127 29 -197 85 -197 192c0 124 94 191 231 191c105 0 179 -40 231 -114l-63 -46c-38 53 -91 86 -172 86z" />
    <glyph glyph-name="scedilla" unicode="&#x15f;" horiz-adv-x="487" 
d="M252 -207c-54 0 -85 22 -99 41l38 41c12 -15 32 -28 61 -28c25 0 44 10 44 31c0 18 -12 33 -68 41l-28 4l13 66c-80 7 -136 45 -177 100l57 46c40 -50 88 -79 153 -79c68 0 108 31 108 84c0 40 -22 71 -90 81l-41 6c-95 14 -166 53 -166 149c0 102 79 152 184 152
c83 0 138 -31 180 -83l-53 -48c-23 32 -67 63 -133 63s-101 -31 -101 -80c0 -50 35 -70 99 -80l40 -6c114 -17 158 -67 158 -145c0 -93 -64 -153 -168 -160l-10 -50l3 -3c13 4 27 6 39 6c39 0 68 -23 68 -66c0 -57 -52 -83 -111 -83z" />
    <glyph glyph-name="Scaron" unicode="&#x160;" horiz-adv-x="581" 
d="M338 769h-100l-111 143l44 31l117 -117l117 117l44 -31zM289 -12c-112 0 -191 46 -247 122l62 52c49 -65 107 -100 188 -100c100 0 154 52 154 132c0 66 -37 99 -129 120l-57 13c-127 29 -197 85 -197 192c0 124 94 191 231 191c105 0 179 -40 231 -114l-63 -46
c-38 53 -91 86 -172 86c-89 0 -144 -39 -144 -114c0 -66 43 -96 131 -116l57 -13c136 -31 195 -91 195 -195c0 -128 -90 -210 -240 -210z" />
    <glyph glyph-name="scaron" unicode="&#x161;" horiz-adv-x="487" 
d="M288 599h-100l-111 143l44 31l117 -117l117 117l44 -31zM240 -12c-95 0 -158 40 -204 101l57 46c40 -50 88 -79 153 -79c68 0 108 31 108 84c0 40 -22 71 -90 81l-41 6c-95 14 -166 53 -166 149c0 102 79 152 184 152c83 0 138 -31 180 -83l-53 -48
c-23 32 -67 63 -133 63s-101 -31 -101 -80c0 -50 35 -70 99 -80l40 -6c114 -17 158 -67 158 -145c0 -100 -73 -161 -191 -161z" />
    <glyph glyph-name="uni0162" unicode="&#x162;" horiz-adv-x="572" 
d="M286 -66c33 0 51 -18 51 -47v-11c0 -47 -28 -91 -60 -121h-58c27 28 42 47 51 78c-23 5 -35 22 -35 44v10c0 29 18 47 51 47zM550 624h-222v-624h-84v624h-222v74h528v-74z" />
    <glyph glyph-name="uni0163" unicode="&#x163;" horiz-adv-x="351" 
d="M213 -66c33 0 51 -18 51 -47v-11c0 -47 -28 -91 -60 -121h-58c27 28 42 47 51 78c-23 5 -35 22 -35 44v10c0 29 18 47 51 47zM299 0h-100c-55 0 -85 35 -85 85v361h-85v70h48c34 0 45 12 45 47v96h72v-143h113v-70h-113v-376h105v-70z" />
    <glyph glyph-name="Tcaron" unicode="&#x164;" horiz-adv-x="572" 
d="M336 769h-100l-111 143l44 31l117 -117l117 117l44 -31zM550 624h-222v-624h-84v624h-222v74h528v-74z" />
    <glyph glyph-name="tcaron" unicode="&#x165;" horiz-adv-x="351" 
d="M368 751l-52 -185h-53l12 185h93zM299 0h-100c-55 0 -85 35 -85 85v361h-85v70h48c34 0 45 12 45 47v96h72v-143h113v-70h-113v-376h105v-70z" />
    <glyph glyph-name="Tbar" unicode="&#x166;" horiz-adv-x="582" 
d="M497 338h-164v-338h-84v338h-165v64h165v222h-222v74h528v-74h-222v-222h164v-64z" />
    <glyph glyph-name="tbar" unicode="&#x167;" horiz-adv-x="357" 
d="M302 70v-70h-100c-55 0 -85 34 -85 84v164h-64v62h64v136h-85v70h48c34 0 45 12 45 47v96h72v-143h113v-70h-113v-136h91v-62h-91v-178h105z" />
    <glyph glyph-name="Utilde" unicode="&#x168;" horiz-adv-x="678" 
d="M410 782c-35 0 -59 15 -80 26c-32 17 -53 24 -70 24c-22 0 -38 -10 -58 -27l-33 40c18 27 49 53 95 53c35 0 59 -15 80 -26c32 -17 53 -24 70 -24c22 0 38 10 58 27l33 -40c-18 -27 -49 -53 -95 -53zM88 698h84v-432c0 -133 43 -203 167 -203s167 70 167 203v432h84v-412
c0 -203 -68 -298 -254 -298s-248 95 -248 298v412z" />
    <glyph glyph-name="utilde" unicode="&#x169;" horiz-adv-x="568" 
d="M355 612c-35 0 -59 15 -80 26c-32 17 -53 24 -70 24c-22 0 -38 -10 -58 -27l-33 40c18 27 49 53 95 53c35 0 59 -15 80 -26c32 -17 53 -24 70 -24c22 0 38 10 58 27l33 -40c-18 -27 -49 -53 -95 -53zM403 0v84h-4c-20 -49 -59 -96 -145 -96c-106 0 -174 72 -174 197v331
h80v-317c0 -92 41 -139 118 -139c63 0 125 31 125 99v357h80v-516h-80z" />
    <glyph glyph-name="Umacron" unicode="&#x16a;" horiz-adv-x="678" 
d="M197 807v68h280v-68h-280zM88 698h84v-432c0 -133 43 -203 167 -203s167 70 167 203v432h84v-412c0 -203 -68 -298 -254 -298s-248 95 -248 298v412z" />
    <glyph glyph-name="umacron" unicode="&#x16b;" horiz-adv-x="568" 
d="M142 637v68h280v-68h-280zM403 0v84h-4c-20 -49 -59 -96 -145 -96c-106 0 -174 72 -174 197v331h80v-317c0 -92 41 -139 118 -139c63 0 125 31 125 99v357h80v-516h-80z" />
    <glyph glyph-name="Ubreve" unicode="&#x16c;" horiz-adv-x="678" 
d="M337 766c-107 0 -134 70 -152 125l45 22l21 -33c18 -29 35 -51 86 -51s68 22 86 51l21 33l45 -22c-18 -55 -45 -125 -152 -125zM88 698h84v-432c0 -133 43 -203 167 -203s167 70 167 203v432h84v-412c0 -203 -68 -298 -254 -298s-248 95 -248 298v412z" />
    <glyph glyph-name="ubreve" unicode="&#x16d;" horiz-adv-x="568" 
d="M282 596c-107 0 -134 70 -152 125l45 22l21 -33c18 -29 35 -51 86 -51s68 22 86 51l21 33l45 -22c-18 -55 -45 -125 -152 -125zM403 0v84h-4c-20 -49 -59 -96 -145 -96c-106 0 -174 72 -174 197v331h80v-317c0 -92 41 -139 118 -139c63 0 125 31 125 99v357h80v-516h-80z
" />
    <glyph glyph-name="Uring" unicode="&#x16e;" horiz-adv-x="678" 
d="M337 746c-65 0 -116 49 -116 115s51 115 116 115s116 -49 116 -115s-51 -115 -116 -115zM337 795c36 0 58 20 58 55v22c0 35 -22 55 -58 55s-58 -20 -58 -55v-22c0 -35 22 -55 58 -55zM88 698h84v-432c0 -133 43 -203 167 -203s167 70 167 203v432h84v-412
c0 -203 -68 -298 -254 -298s-248 95 -248 298v412z" />
    <glyph glyph-name="uring" unicode="&#x16f;" horiz-adv-x="568" 
d="M282 576c-65 0 -116 49 -116 115s51 115 116 115s116 -49 116 -115s-51 -115 -116 -115zM282 625c36 0 58 20 58 55v22c0 35 -22 55 -58 55s-58 -20 -58 -55v-22c0 -35 22 -55 58 -55zM403 0v84h-4c-20 -49 -59 -96 -145 -96c-106 0 -174 72 -174 197v331h80v-317
c0 -92 41 -139 118 -139c63 0 125 31 125 99v357h80v-516h-80z" />
    <glyph glyph-name="Uhungarumlaut" unicode="&#x170;" horiz-adv-x="678" 
d="M370 915l-106 -159l-48 22l85 170zM530 915l-106 -159l-48 22l85 170zM88 698h84v-432c0 -133 43 -203 167 -203s167 70 167 203v432h84v-412c0 -203 -68 -298 -254 -298s-248 95 -248 298v412z" />
    <glyph glyph-name="uhungarumlaut" unicode="&#x171;" horiz-adv-x="568" 
d="M315 745l-106 -159l-48 22l85 170zM475 745l-106 -159l-48 22l85 170zM403 0v84h-4c-20 -49 -59 -96 -145 -96c-106 0 -174 72 -174 197v331h80v-317c0 -92 41 -139 118 -139c63 0 125 31 125 99v357h80v-516h-80z" />
    <glyph glyph-name="Uogonek" unicode="&#x172;" horiz-adv-x="678" 
d="M88 698h84v-432c0 -133 43 -203 167 -203s167 70 167 203v432h84v-412c0 -132 -24 -208 -115 -298c-66 -65 -86 -84 -86 -111c0 -22 13 -30 31 -30c19 0 36 9 48 24l40 -39c-12 -21 -42 -39 -88 -39c-51 0 -95 24 -95 74c0 55 51 89 116 133l-4 5
c-30 -13 -65 -17 -101 -17c-186 0 -248 95 -248 298v412z" />
    <glyph glyph-name="uogonek" unicode="&#x173;" horiz-adv-x="568" 
d="M483 516v-516c-85 -78 -98 -101 -98 -123s13 -30 31 -30c19 0 36 9 48 24l40 -39c-12 -21 -42 -39 -88 -39c-52 0 -95 23 -95 76c0 51 46 89 101 128l-1 3h-18v84h-4c-20 -49 -59 -96 -145 -96c-106 0 -174 72 -174 197v331h80v-317c0 -92 41 -139 118 -139
c63 0 125 31 125 99v357h80z" />
    <glyph glyph-name="Wcircumflex" unicode="&#x174;" horiz-adv-x="891" 
d="M396 935h100l111 -143l-44 -31l-117 117l-117 -117l-44 31zM283 0h-93l-170 698h89l75 -336l58 -261h2l65 261l88 336h96l85 -336l65 -260h3l60 260l79 336h86l-179 -698h-93l-91 348l-64 256h-2l-66 -256z" />
    <glyph glyph-name="wcircumflex" unicode="&#x175;" horiz-adv-x="768" 
d="M334 765h100l111 -143l-44 -31l-117 117l-117 -117l-44 31zM169 0l-138 516h78l55 -223l55 -226h2l63 226l65 223h71l67 -223l64 -226h2l53 226l56 223h75l-137 -516h-99l-72 248l-45 157h-2l-44 -157l-72 -248h-97z" />
    <glyph glyph-name="Ycircumflex" unicode="&#x176;" horiz-adv-x="593" 
d="M247 935h100l111 -143l-44 -31l-117 117l-117 -117l-44 31zM337 0h-84v276l-240 422h96l186 -336h3l186 336h96l-243 -419v-279z" />
    <glyph glyph-name="ycircumflex" unicode="&#x177;" horiz-adv-x="499" 
d="M200 765h100l111 -143l-44 -31l-117 117l-117 -117l-44 31zM278 165l125 351h79l-231 -636c-23 -62 -44 -80 -120 -80h-41v70h81l39 110l-193 536h80l124 -351l24 -84h5z" />
    <glyph glyph-name="Ydieresis" unicode="&#x178;" horiz-adv-x="593" 
d="M204 788c-34 0 -50 19 -50 47v12c0 28 16 47 50 47s50 -19 50 -47v-12c0 -28 -16 -47 -50 -47zM390 788c-34 0 -50 19 -50 47v12c0 28 16 47 50 47s50 -19 50 -47v-12c0 -28 -16 -47 -50 -47zM337 0h-84v276l-240 422h96l186 -336h3l186 336h96l-243 -419v-279z" />
    <glyph glyph-name="Zacute" unicode="&#x179;" horiz-adv-x="580" 
d="M410 914l-106 -159l-52 24l85 170zM544 74v-74h-508v76l403 548h-382v74h473v-76l-404 -548h418z" />
    <glyph glyph-name="zacute" unicode="&#x17a;" horiz-adv-x="464" 
d="M345 744l-106 -159l-52 24l85 170zM431 0h-398v67l293 379h-284v70h381v-60l-299 -386h307v-70z" />
    <glyph glyph-name="Zdotaccent" unicode="&#x17b;" horiz-adv-x="580" 
d="M297 780c-38 0 -56 21 -56 53v14c0 32 18 53 56 53s56 -21 56 -53v-14c0 -32 -18 -53 -56 -53zM544 74v-74h-508v76l403 548h-382v74h473v-76l-404 -548h418z" />
    <glyph glyph-name="zdotaccent" unicode="&#x17c;" horiz-adv-x="464" 
d="M232 616c-34 0 -51 18 -51 46v11c0 28 17 46 51 46s51 -18 51 -46v-11c0 -28 -17 -46 -51 -46zM431 0h-398v67l293 379h-284v70h381v-60l-299 -386h307v-70z" />
    <glyph glyph-name="Zcaron" unicode="&#x17d;" horiz-adv-x="580" 
d="M347 769h-100l-111 143l44 31l117 -117l117 117l44 -31zM544 74v-74h-508v76l403 548h-382v74h473v-76l-404 -548h418z" />
    <glyph glyph-name="zcaron" unicode="&#x17e;" horiz-adv-x="464" 
d="M282 599h-100l-111 143l44 31l117 -117l117 117l44 -31zM431 0h-398v67l293 379h-284v70h381v-60l-299 -386h307v-70z" />
    <glyph glyph-name="uni018F" unicode="&#x18f;" horiz-adv-x="708" 
d="M58 349v22h503v30c0 146 -80 234 -202 234c-90 0 -165 -53 -200 -137l-70 34c40 101 141 178 271 178c186 0 290 -136 290 -361c0 -226 -113 -361 -297 -361s-295 121 -295 361zM353 63c116 0 208 93 208 234v5h-416v-5c0 -141 92 -234 208 -234z" />
    <glyph glyph-name="florin" unicode="&#x192;" horiz-adv-x="485" 
d="M-3 -134l7 70h145l37 365h-143l8 73h142l21 206c7 70 49 118 126 118h121l-8 -70h-153l-26 -254h169l-7 -73h-169l-32 -317c-7 -69 -48 -118 -126 -118h-112z" />
    <glyph glyph-name="Ohorn" unicode="&#x1a0;" horiz-adv-x="708" 
d="M585 810h71v-100c0 -36 -13 -63 -63 -63h-53c79 -70 110 -172 110 -298c0 -234 -116 -361 -296 -361s-296 127 -296 361s116 361 296 361c32 0 62 -4 90 -12h141v112zM354 63c121 0 206 90 206 228v116c0 138 -85 228 -206 228s-206 -90 -206 -228v-116
c0 -138 85 -228 206 -228z" />
    <glyph glyph-name="ohorn" unicode="&#x1a1;" horiz-adv-x="560" 
d="M448 628h71v-98c0 -36 -13 -63 -62 -63h-21c58 -60 77 -129 77 -209c0 -164 -95 -270 -233 -270s-233 106 -233 270s95 270 233 270c27 0 53 -4 76 -12h92v112zM280 59c86 0 147 53 147 162v74c0 109 -61 162 -147 162s-147 -53 -147 -162v-74c0 -109 61 -162 147 -162z
" />
    <glyph glyph-name="Uhorn" unicode="&#x1af;" horiz-adv-x="678" 
d="M88 698h84v-432c0 -133 43 -203 167 -203s167 70 167 203v432h91v112h71v-102c0 -35 -13 -63 -63 -63h-15v-359c0 -203 -68 -298 -254 -298s-248 95 -248 298v412z" />
    <glyph glyph-name="uhorn" unicode="&#x1b0;" horiz-adv-x="568" 
d="M566 628v-102c0 -35 -13 -63 -63 -63h-20v-463h-80v84h-4c-20 -49 -59 -96 -145 -96c-106 0 -174 72 -174 197v331h80v-317c0 -92 41 -139 118 -139c63 0 125 31 125 99v357h92v112h71z" />
    <glyph glyph-name="Aringacute" unicode="&#x1fa;" horiz-adv-x="641" 
d="M432 1094l-96 -107l-47 19l73 113zM322 736c-65 0 -116 49 -116 115s51 115 116 115s116 -49 116 -115s-51 -115 -116 -115zM322 785c36 0 58 20 58 55v22c0 35 -22 55 -58 55s-58 -20 -58 -55v-22c0 -35 22 -55 58 -55zM618 0h-88l-70 206h-282l-70 -206h-85l244 698
h107zM439 280l-118 340h-5l-118 -340h241z" />
    <glyph glyph-name="aringacute" unicode="&#x1fb;" horiz-adv-x="534" 
d="M357 919l-94 -105l-41 26l75 116zM252 566c-65 0 -116 49 -116 115s51 115 116 115s116 -49 116 -115s-51 -115 -116 -115zM252 615c36 0 58 20 58 55v22c0 35 -22 55 -58 55s-58 -20 -58 -55v-22c0 -35 22 -55 58 -55zM505 0h-45c-59 0 -83 36 -89 84h-5
c-22 -63 -77 -96 -149 -96c-109 0 -173 60 -173 156c0 97 70 151 220 151h102v51c0 73 -40 113 -122 113c-62 0 -103 -30 -131 -77l-48 45c28 55 90 101 183 101c124 0 198 -65 198 -174v-284h59v-70zM230 56c79 0 136 41 136 94v85h-106c-91 0 -132 -28 -132 -78v-21
c0 -51 40 -80 102 -80z" />
    <glyph glyph-name="AEacute" unicode="&#x1fc;" horiz-adv-x="907" 
d="M704 914l-106 -159l-52 24l85 170zM417 0v205h-225l-102 -205h-86l357 698h482v-74h-343v-234h323v-74h-323v-242h343v-74h-426zM417 624h-13l-177 -345h190v345z" />
    <glyph glyph-name="aeacute" unicode="&#x1fd;" horiz-adv-x="864" 
d="M527 744l-106 -159l-52 24l85 170zM366 238h-106c-91 -3 -132 -31 -132 -81v-21c0 -51 39 -80 103 -80c77 0 135 41 135 94v88zM446 298h285v11c0 91 -55 152 -137 152c-87 0 -148 -66 -148 -156v-7zM599 58c66 0 114 31 142 88l57 -40c-33 -71 -106 -118 -195 -118
c-109 0 -180 70 -191 116h-6c-9 -44 -76 -116 -191 -116c-104 0 -171 60 -171 154c0 99 74 156 220 156h102v48c0 73 -41 113 -119 113c-66 0 -105 -28 -134 -76l-48 44c27 54 90 101 184 101c118 0 152 -75 162 -115h6c12 46 81 115 186 115c131 0 214 -106 214 -252v-38
h-371v-24c0 -89 57 -156 153 -156z" />
    <glyph glyph-name="Oslashacute" unicode="&#x1fe;" horiz-adv-x="708" 
d="M467 914l-106 -159l-52 24l85 170zM354 -12c-68 0 -126 18 -173 53l-60 -86l-57 37l68 97c-48 61 -74 148 -74 260c0 234 116 361 296 361c68 0 126 -18 173 -53l60 86l57 -37l-68 -97c48 -61 74 -148 74 -260c0 -234 -116 -361 -296 -361zM148 291c0 -51 12 -95 32 -131
l302 432c-34 28 -78 43 -128 43c-121 0 -206 -90 -206 -228v-116zM560 407c0 51 -12 95 -32 131l-302 -432c34 -28 78 -43 128 -43c121 0 206 90 206 228v116z" />
    <glyph glyph-name="oslashacute" unicode="&#x1ff;" horiz-adv-x="568" 
d="M397 744l-106 -159l-52 24l85 170zM80 -40l-45 34l67 84c-33 46 -51 107 -51 180c0 164 95 270 233 270c55 0 104 -18 142 -49l62 77l45 -34l-67 -85c32 -45 51 -107 51 -179c0 -164 -95 -270 -233 -270c-56 0 -104 17 -142 48zM284 59c86 0 147 53 147 162v74
c0 32 -6 59 -15 81l-230 -284c25 -22 59 -33 98 -33zM137 221c0 -32 5 -59 15 -82l230 285c-26 22 -59 33 -98 33c-86 0 -147 -53 -147 -162v-74z" />
    <glyph glyph-name="Scommaaccent" unicode="&#x218;" horiz-adv-x="581" 
d="M287 -66c33 0 51 -18 51 -47v-11c0 -47 -28 -91 -60 -121h-58c27 28 42 47 51 78c-23 5 -35 22 -35 44v10c0 29 18 47 51 47zM289 -12c-112 0 -191 46 -247 122l62 52c49 -65 107 -100 188 -100c100 0 154 52 154 132c0 66 -37 99 -129 120l-57 13
c-127 29 -197 85 -197 192c0 124 94 191 231 191c105 0 179 -40 231 -114l-63 -46c-38 53 -91 86 -172 86c-89 0 -144 -39 -144 -114c0 -66 43 -96 131 -116l57 -13c136 -31 195 -91 195 -195c0 -128 -90 -210 -240 -210z" />
    <glyph glyph-name="scommaaccent" unicode="&#x219;" horiz-adv-x="487" 
d="M240 -66c33 0 51 -18 51 -47v-11c0 -47 -28 -91 -60 -121h-58c27 28 42 47 51 78c-23 5 -35 22 -35 44v10c0 29 18 47 51 47zM240 -12c-95 0 -158 40 -204 101l57 46c40 -50 88 -79 153 -79c68 0 108 31 108 84c0 40 -22 71 -90 81l-41 6c-95 14 -166 53 -166 149
c0 102 79 152 184 152c83 0 138 -31 180 -83l-53 -48c-23 32 -67 63 -133 63s-101 -31 -101 -80c0 -50 35 -70 99 -80l40 -6c114 -17 158 -67 158 -145c0 -100 -73 -161 -191 -161z" />
    <glyph glyph-name="uni021A" unicode="&#x21a;" horiz-adv-x="572" 
d="M286 -66c33 0 51 -18 51 -47v-11c0 -47 -28 -91 -60 -121h-58c27 28 42 47 51 78c-23 5 -35 22 -35 44v10c0 29 18 47 51 47zM550 624h-222v-624h-84v624h-222v74h528v-74z" />
    <glyph glyph-name="uni021B" unicode="&#x21b;" horiz-adv-x="351" 
d="M213 -66c33 0 51 -18 51 -47v-11c0 -47 -28 -91 -60 -121h-58c27 28 42 47 51 78c-23 5 -35 22 -35 44v10c0 29 18 47 51 47zM299 0h-100c-55 0 -85 35 -85 85v361h-85v70h48c34 0 45 12 45 47v96h72v-143h113v-70h-113v-376h105v-70z" />
    <glyph glyph-name="uni0237" unicode="&#x237;" horiz-adv-x="250" 
d="M1 -200v70h84v646h80v-596c0 -71 -35 -120 -112 -120h-52z" />
    <glyph glyph-name="uni0259" unicode="&#x259;" horiz-adv-x="549" 
d="M47 278h371v24c0 89 -57 156 -153 156c-65 0 -115 -32 -142 -89l-57 41c33 70 107 118 204 118c140 0 232 -106 232 -270s-92 -270 -232 -270c-138 0 -223 106 -223 252v38zM133 218v-11c0 -91 55 -152 137 -152c87 0 148 66 148 156v7h-285z" />
    <glyph glyph-name="uni02BB" unicode="&#x2bb;" 
d="M301 595c-33 0 -51 18 -51 47v11c0 47 28 91 60 121h58c-27 -28 -42 -47 -51 -78c23 -5 35 -22 35 -44v-10c0 -29 -18 -47 -51 -47z" />
    <glyph glyph-name="uni02BC" unicode="&#x2bc;" 
d="M405 740l-52 -185h-53l12 185h93z" />
    <glyph glyph-name="circumflex" unicode="&#x2c6;" 
d="M250 765h100l111 -143l-44 -31l-117 117l-117 -117l-44 31z" />
    <glyph glyph-name="caron" unicode="&#x2c7;" 
d="M350 599h-100l-111 143l44 31l117 -117l117 117l44 -31z" />
    <glyph glyph-name="breve" unicode="&#x2d8;" 
d="M300 596c-107 0 -134 70 -152 125l45 22l21 -33c18 -29 35 -51 86 -51s68 22 86 51l21 33l45 -22c-18 -55 -45 -125 -152 -125z" />
    <glyph glyph-name="dotaccent" unicode="&#x2d9;" 
d="M300 616c-34 0 -51 18 -51 46v11c0 28 17 46 51 46s51 -18 51 -46v-11c0 -28 -17 -46 -51 -46z" />
    <glyph glyph-name="ring" unicode="&#x2da;" 
d="M300 576c-65 0 -116 49 -116 115s51 115 116 115s116 -49 116 -115s-51 -115 -116 -115zM300 625c36 0 58 20 58 55v22c0 35 -22 55 -58 55s-58 -20 -58 -55v-22c0 -35 22 -55 58 -55z" />
    <glyph glyph-name="ogonek" unicode="&#x2db;" 
d="M261 -207c-52 0 -95 23 -95 76s43 90 105 135l-5 18h54l8 -22c-85 -78 -98 -101 -98 -123s13 -30 31 -30c19 0 36 9 48 24l40 -39c-12 -21 -42 -39 -88 -39z" />
    <glyph glyph-name="tilde" unicode="&#x2dc;" 
d="M373 612c-35 0 -59 15 -80 26c-32 17 -53 24 -70 24c-22 0 -38 -10 -58 -27l-33 40c18 27 49 53 95 53c35 0 59 -15 80 -26c32 -17 53 -24 70 -24c22 0 38 10 58 27l33 -40c-18 -27 -49 -53 -95 -53z" />
    <glyph glyph-name="hungarumlaut" unicode="&#x2dd;" 
d="M333 745l-106 -159l-48 22l85 170zM493 745l-106 -159l-48 22l85 170z" />
    <glyph glyph-name="uni0300" unicode="&#x300;" horiz-adv-x="0" 
d="M-7 585l-106 159l73 35l85 -170z" />
    <glyph glyph-name="uni0301" unicode="&#x301;" horiz-adv-x="0" 
d="M113 744l-106 -159l-52 24l85 170z" />
    <glyph glyph-name="uni0302" unicode="&#x302;" horiz-adv-x="0" 
d="M-50 765h100l111 -143l-44 -31l-117 117l-117 -117l-44 31z" />
    <glyph glyph-name="uni0303" unicode="&#x303;" horiz-adv-x="0" 
d="M73 612c-35 0 -59 15 -80 26c-32 17 -53 24 -70 24c-22 0 -38 -10 -58 -27l-33 40c18 27 49 53 95 53c35 0 59 -15 80 -26c32 -17 53 -24 70 -24c22 0 38 10 58 27l33 -40c-18 -27 -49 -53 -95 -53z" />
    <glyph glyph-name="uni0304" unicode="&#x304;" horiz-adv-x="0" 
d="M-140 637v68h280v-68h-280z" />
    <glyph glyph-name="uni0306" unicode="&#x306;" horiz-adv-x="0" 
d="M0 596c-107 0 -134 70 -152 125l45 22l21 -33c18 -29 35 -51 86 -51s68 22 86 51l21 33l45 -22c-18 -55 -45 -125 -152 -125z" />
    <glyph glyph-name="uni0307" unicode="&#x307;" horiz-adv-x="0" 
d="M0 616c-34 0 -51 18 -51 46v11c0 28 17 46 51 46s51 -18 51 -46v-11c0 -28 -17 -46 -51 -46z" />
    <glyph glyph-name="uni0308" unicode="&#x308;" horiz-adv-x="0" 
d="M-93 618c-34 0 -49 18 -49 46v11c0 28 15 46 49 46s49 -18 49 -46v-11c0 -28 -15 -46 -49 -46zM93 618c-34 0 -49 18 -49 46v11c0 28 15 46 49 46s49 -18 49 -46v-11c0 -28 -15 -46 -49 -46z" />
    <glyph glyph-name="uni0309" unicode="&#x309;" horiz-adv-x="0" 
d="M-84 704v61h109c51 0 70 -25 70 -55c0 -29 -18 -64 -49 -103l-24 -30l-46 23l58 104h-118z" />
    <glyph glyph-name="uni030A" unicode="&#x30a;" horiz-adv-x="0" 
d="M0 576c-65 0 -116 49 -116 115s51 115 116 115s116 -49 116 -115s-51 -115 -116 -115zM0 625c36 0 58 20 58 55v22c0 35 -22 55 -58 55s-58 -20 -58 -55v-22c0 -35 22 -55 58 -55z" />
    <glyph glyph-name="uni030B" unicode="&#x30b;" horiz-adv-x="0" 
d="M33 745l-106 -159l-48 22l85 170zM193 745l-106 -159l-48 22l85 170z" />
    <glyph glyph-name="uni030C" unicode="&#x30c;" horiz-adv-x="0" 
d="M50 599h-100l-111 143l44 31l117 -117l117 117l44 -31z" />
    <glyph glyph-name="uni0312" unicode="&#x312;" horiz-adv-x="0" 
d="M1 595c-33 0 -51 18 -51 47v11c0 47 28 91 60 121h58c-27 -28 -42 -47 -51 -78c23 -5 35 -22 35 -44v-10c0 -29 -18 -47 -51 -47z" />
    <glyph glyph-name="uni0315" unicode="&#x315;" horiz-adv-x="0" 
d="M105 740l-52 -185h-53l12 185h93z" />
    <glyph glyph-name="uni031B" unicode="&#x31b;" horiz-adv-x="0" 
d="M77 628v-102c0 -35 -13 -63 -63 -63h-91v53h83v112h71z" />
    <glyph glyph-name="uni0323" unicode="&#x323;" horiz-adv-x="0" 
d="M0 -169c-34 0 -51 18 -51 46v11c0 28 17 46 51 46s51 -18 51 -46v-11c0 -28 -17 -46 -51 -46z" />
    <glyph glyph-name="uni0326" unicode="&#x326;" horiz-adv-x="0" 
d="M0 -66c33 0 51 -18 51 -47v-11c0 -47 -28 -91 -60 -121h-58c27 28 42 47 51 78c-23 5 -35 22 -35 44v10c0 29 18 47 51 47z" />
    <glyph glyph-name="uni0327" unicode="&#x327;" horiz-adv-x="0" 
d="M12 -207c-54 0 -85 22 -99 41l38 41c12 -15 32 -28 61 -28c25 0 44 10 44 31c0 18 -12 33 -68 41l-28 4l19 97h50l-16 -81l3 -3c13 4 27 6 39 6c39 0 68 -23 68 -66c0 -57 -52 -83 -111 -83z" />
    <glyph glyph-name="uni0328" unicode="&#x328;" horiz-adv-x="0" 
d="M-67 -207c-52 0 -95 23 -95 76s43 90 105 135l-5 18h54l8 -22c-85 -78 -98 -101 -98 -123s13 -30 31 -30c19 0 36 9 48 24l40 -39c-12 -21 -42 -39 -88 -39z" />
    <glyph glyph-name="uni037E" unicode="&#x37e;" horiz-adv-x="292" 
d="M146 394c-42 0 -61 24 -61 58v13c0 34 19 58 61 58s61 -24 61 -58v-13c0 -34 -19 -58 -61 -58zM146 117c42 0 61 -24 61 -59v-14c0 -54 -34 -128 -91 -177h-67c40 42 64 77 75 124c-27 6 -39 26 -39 53v14c0 35 19 59 61 59z" />
    <glyph glyph-name="tonos" unicode="&#x384;" 
d="M388 769l-52 -184l-57 7l29 188z" />
    <glyph glyph-name="dieresistonos" unicode="&#x385;" 
d="M183 618c-30 0 -45 18 -45 46v11c0 28 15 46 45 46s45 -18 45 -46v-11c0 -28 -15 -46 -45 -46zM357 769l-52 -184l-49 7l29 188zM417 618c-30 0 -45 18 -45 46v11c0 28 15 46 45 46s45 -18 45 -46v-11c0 -28 -15 -46 -45 -46z" />
    <glyph glyph-name="Alphatonos" unicode="&#x386;" horiz-adv-x="641" 
d="M142 769l-52 -184l-57 7l29 188zM618 0h-88l-70 206h-282l-70 -206h-85l244 698h107zM439 280l-118 340h-5l-118 -340h241z" />
    <glyph glyph-name="anoteleia" unicode="&#x387;" horiz-adv-x="292" 
d="M146 394c-42 0 -61 24 -61 58v13c0 34 19 58 61 58s61 -24 61 -58v-13c0 -34 -19 -58 -61 -58z" />
    <glyph glyph-name="Epsilontonos" unicode="&#x388;" horiz-adv-x="609" 
d="M84 769l-52 -184l-57 7l29 188zM545 0h-426v698h426v-74h-342v-234h322v-74h-322v-242h342v-74z" />
    <glyph glyph-name="Etatonos" unicode="&#x389;" horiz-adv-x="733" 
d="M84 769l-52 -184l-57 7l29 188zM556 0v316h-353v-316h-84v698h84v-308h353v308h84v-698h-84z" />
    <glyph glyph-name="Iotatonos" unicode="&#x38a;" horiz-adv-x="459" 
d="M84 769l-52 -184l-57 7l29 188zM399 0h-280v70h98v558h-98v70h280v-70h-98v-558h98v-70z" />
    <glyph glyph-name="Omicrontonos" unicode="&#x38c;" horiz-adv-x="712" 
d="M84 769l-52 -184l-57 7l29 188zM358 -12c-180 0 -296 127 -296 361s116 361 296 361s296 -127 296 -361s-116 -361 -296 -361zM358 63c121 0 206 90 206 228v116c0 138 -85 228 -206 228s-206 -90 -206 -228v-116c0 -138 85 -228 206 -228z" />
    <glyph glyph-name="Upsilontonos" unicode="&#x38e;" horiz-adv-x="677" 
d="M84 769l-52 -184l-57 7l29 188zM421 0h-84v276l-240 422h96l186 -336h3l186 336h96l-243 -419v-279z" />
    <glyph glyph-name="Omegatonos" unicode="&#x38f;" horiz-adv-x="716" 
d="M84 769l-52 -184l-57 7l29 188zM58 0v74h159v10c-82 45 -155 146 -155 294c0 164 90 332 296 332s296 -168 296 -332c0 -148 -73 -249 -155 -294v-10h159v-74h-230v111c64 24 136 125 136 230v90c0 97 -76 204 -206 204s-206 -107 -206 -204v-90c0 -105 72 -206 136 -230
v-111h-230z" />
    <glyph glyph-name="iotadieresistonos" unicode="&#x390;" horiz-adv-x="295" 
d="M20 618c-30 0 -45 18 -45 46v11c0 28 15 46 45 46s45 -18 45 -46v-11c0 -28 -15 -46 -45 -46zM194 769l-52 -184l-49 7l29 188zM254 618c-30 0 -45 18 -45 46v11c0 28 15 46 45 46s45 -18 45 -46v-11c0 -28 -15 -46 -45 -46zM270 70v-70h-100c-55 0 -85 35 -85 85v431h80
v-446h105z" />
    <glyph glyph-name="Alpha" unicode="&#x391;" horiz-adv-x="641" 
d="M618 0h-88l-70 206h-282l-70 -206h-85l244 698h107zM439 280l-118 340h-5l-118 -340h241z" />
    <glyph glyph-name="Beta" unicode="&#x392;" horiz-adv-x="653" 
d="M93 0v698h287c115 0 186 -71 186 -180c0 -104 -67 -141 -113 -148v-6c50 -3 137 -46 137 -162c0 -115 -77 -202 -180 -202h-317zM177 324v-250h207c72 0 116 38 116 108v34c0 70 -44 108 -116 108h-207zM177 624v-228h193c66 0 106 35 106 97v34c0 62 -40 97 -106 97
h-193z" />
    <glyph glyph-name="Gamma" unicode="&#x393;" horiz-adv-x="499" 
d="M93 0v698h380v-74h-296v-624h-84z" />
    <glyph glyph-name="uni0394" unicode="&#x394;" horiz-adv-x="643" 
d="M44 0v75l224 623h107l224 -623v-75h-555zM510 74l-188 546h-5l-188 -546h381z" />
    <glyph glyph-name="Epsilon" unicode="&#x395;" horiz-adv-x="583" 
d="M519 0h-426v698h426v-74h-342v-234h322v-74h-322v-242h342v-74z" />
    <glyph glyph-name="Zeta" unicode="&#x396;" horiz-adv-x="580" 
d="M544 74v-74h-508v76l403 548h-382v74h473v-76l-404 -548h418z" />
    <glyph glyph-name="Eta" unicode="&#x397;" horiz-adv-x="707" 
d="M530 0v316h-353v-316h-84v698h84v-308h353v308h84v-698h-84z" />
    <glyph glyph-name="Theta" unicode="&#x398;" horiz-adv-x="708" 
d="M354 -12c-180 0 -296 127 -296 361s116 361 296 361s296 -127 296 -361s-116 -361 -296 -361zM354 63c121 0 206 90 206 228v116c0 138 -85 228 -206 228s-206 -90 -206 -228v-116c0 -138 85 -228 206 -228zM505 316h-302v74h302v-74z" />
    <glyph glyph-name="Iota" unicode="&#x399;" horiz-adv-x="400" 
d="M340 0h-280v70h98v558h-98v70h280v-70h-98v-558h98v-70z" />
    <glyph glyph-name="Kappa" unicode="&#x39a;" horiz-adv-x="634" 
d="M508 0l-232 343l-99 -110v-233h-84v698h84v-371h3l100 121l211 250h103l-260 -299l278 -399h-104z" />
    <glyph glyph-name="Lambda" unicode="&#x39b;" horiz-adv-x="629" 
d="M261 698h107l238 -698h-88l-115 352l-88 268h-5l-87 -268l-115 -352h-85z" />
    <glyph glyph-name="Mu" unicode="&#x39c;" horiz-adv-x="812" 
d="M93 0v698h112l200 -376h5l201 376h108v-698h-82v588h-5l-59 -117l-167 -304l-167 304l-59 117h-5v-588h-82z" />
    <glyph glyph-name="Nu" unicode="&#x39d;" horiz-adv-x="707" 
d="M517 0l-255 426l-84 155h-3v-581h-82v698h97l255 -426l84 -155h3v581h82v-698h-97z" />
    <glyph glyph-name="Xi" unicode="&#x39e;" horiz-adv-x="584" 
d="M64 624v74h456v-74h-456zM104 316v74h376v-74h-376zM64 0v74h456v-74h-456z" />
    <glyph glyph-name="Omicron" unicode="&#x39f;" horiz-adv-x="708" 
d="M354 -12c-180 0 -296 127 -296 361s116 361 296 361s296 -127 296 -361s-116 -361 -296 -361zM354 63c121 0 206 90 206 228v116c0 138 -85 228 -206 228s-206 -90 -206 -228v-116c0 -138 85 -228 206 -228z" />
    <glyph glyph-name="Pi" unicode="&#x3a0;" horiz-adv-x="693" 
d="M93 0v698h507v-698h-84v624h-339v-624h-84z" />
    <glyph glyph-name="Rho" unicode="&#x3a1;" horiz-adv-x="606" 
d="M177 0h-84v698h278c125 0 195 -77 195 -200s-70 -200 -195 -200h-194v-298zM177 624v-252h194c66 0 105 36 105 100v52c0 64 -39 100 -105 100h-194z" />
    <glyph glyph-name="Sigma" unicode="&#x3a3;" horiz-adv-x="569" 
d="M509 0h-469v76l248 276l-240 270v76h461v-74h-361l240 -270l-252 -280h373v-74z" />
    <glyph glyph-name="Tau" unicode="&#x3a4;" horiz-adv-x="572" 
d="M550 624h-222v-624h-84v624h-222v74h528v-74z" />
    <glyph glyph-name="Upsilon" unicode="&#x3a5;" horiz-adv-x="593" 
d="M337 0h-84v276l-240 422h96l186 -336h3l186 336h96l-243 -419v-279z" />
    <glyph glyph-name="Phi" unicode="&#x3a6;" horiz-adv-x="852" 
d="M384 -29v60h-18c-202 0 -312 139 -312 323s110 323 312 323h18v48h84v-48h18c202 0 312 -139 312 -323s-110 -323 -312 -323h-18v-60h-84zM386 101v506h-20c-136 0 -222 -96 -222 -222v-62c0 -126 86 -222 222 -222h20zM466 101h20c136 0 222 96 222 222v62
c0 126 -86 222 -222 222h-20v-506z" />
    <glyph glyph-name="Chi" unicode="&#x3a7;" horiz-adv-x="613" 
d="M24 0l228 355l-222 343h101l175 -278h2l179 278h96l-224 -340l230 -358h-101l-183 293h-2l-183 -293h-96z" />
    <glyph glyph-name="Psi" unicode="&#x3a8;" horiz-adv-x="790" 
d="M353 0v203c-168 0 -285 83 -285 265v230h84v-230c0 -146 89 -195 201 -195v425h84v-425c112 0 201 49 201 195v230h84v-230c0 -182 -117 -265 -285 -265v-203h-84z" />
    <glyph glyph-name="uni03A9" unicode="&#x3a9;" horiz-adv-x="716" 
d="M58 0v74h159v10c-82 45 -155 146 -155 294c0 164 90 332 296 332s296 -168 296 -332c0 -148 -73 -249 -155 -294v-10h159v-74h-230v111c64 24 136 125 136 230v90c0 97 -76 204 -206 204s-206 -107 -206 -204v-90c0 -105 72 -206 136 -230v-111h-230z" />
    <glyph glyph-name="Iotadieresis" unicode="&#x3aa;" horiz-adv-x="400" 
d="M107 788c-34 0 -50 19 -50 47v12c0 28 16 47 50 47s50 -19 50 -47v-12c0 -28 -16 -47 -50 -47zM293 788c-34 0 -50 19 -50 47v12c0 28 16 47 50 47s50 -19 50 -47v-12c0 -28 -16 -47 -50 -47zM340 0h-280v70h98v558h-98v70h280v-70h-98v-558h98v-70z" />
    <glyph glyph-name="Upsilondieresis" unicode="&#x3ab;" horiz-adv-x="593" 
d="M204 788c-34 0 -50 19 -50 47v12c0 28 16 47 50 47s50 -19 50 -47v-12c0 -28 -16 -47 -50 -47zM390 788c-34 0 -50 19 -50 47v12c0 28 16 47 50 47s50 -19 50 -47v-12c0 -28 -16 -47 -50 -47zM337 0h-84v276l-240 422h96l186 -336h3l186 336h96l-243 -419v-279z" />
    <glyph glyph-name="alphatonos" unicode="&#x3ac;" horiz-adv-x="644" 
d="M344 769l-52 -184l-57 7l29 188zM608 70v-70h-45c-54 0 -82 23 -92 83l-17 101h-4c-27 -129 -85 -196 -193 -196c-124 0 -207 107 -207 270s83 270 207 270c106 0 167 -64 195 -196h4l29 111l27 73h88l-109 -256l63 -190h54zM257 59c60 0 94 24 127 114l31 85l-31 85
c-33 90 -67 114 -127 114c-63 0 -121 -55 -121 -163v-72c0 -108 58 -163 121 -163z" />
    <glyph glyph-name="epsilontonos" unicode="&#x3ad;" horiz-adv-x="518" 
d="M350 769l-52 -184l-57 7l29 188zM433 140l57 -41c-42 -74 -115 -111 -224 -111c-139 0 -206 60 -206 149c0 72 44 113 127 128v4c-72 8 -116 46 -116 110c0 85 77 149 204 149c100 0 174 -39 210 -101l-58 -46c-26 48 -79 76 -153 76c-84 0 -117 -36 -117 -71v-12
c0 -43 37 -74 98 -74h122v-67h-122c-72 0 -109 -28 -109 -80v-12c0 -52 42 -82 125 -82c80 0 133 28 162 81z" />
    <glyph glyph-name="etatonos" unicode="&#x3ae;" horiz-adv-x="573" 
d="M371 769l-52 -184l-57 7l29 188zM170 0h-80v446h-59v70h54c55 0 85 -35 85 -84h4c25 58 69 96 146 96c106 0 173 -72 173 -197v-531h-80v517c0 92 -40 139 -117 139c-64 0 -126 -32 -126 -98v-358z" />
    <glyph glyph-name="iotatonos" unicode="&#x3af;" horiz-adv-x="295" 
d="M208 769l-52 -184l-57 7l29 188zM270 70v-70h-100c-55 0 -85 35 -85 85v431h80v-446h105z" />
    <glyph glyph-name="upsilondieresistonos" unicode="&#x3b0;" horiz-adv-x="568" 
d="M172 618c-30 0 -45 18 -45 46v11c0 28 15 46 45 46s45 -18 45 -46v-11c0 -28 -15 -46 -45 -46zM346 769l-52 -184l-49 7l29 188zM406 618c-30 0 -45 18 -45 46v11c0 28 15 46 45 46s45 -18 45 -46v-11c0 -28 -15 -46 -45 -46zM160 516v-282c0 -120 36 -175 124 -175
s124 55 124 175v282h80v-270c0 -178 -69 -258 -204 -258s-204 80 -204 258v270h80z" />
    <glyph glyph-name="alpha" unicode="&#x3b1;" horiz-adv-x="644" 
d="M608 70v-70h-45c-54 0 -82 23 -92 83l-17 101h-4c-27 -129 -85 -196 -193 -196c-124 0 -207 107 -207 270s83 270 207 270c106 0 167 -64 195 -196h4l29 111l27 73h88l-109 -256l63 -190h54zM257 59c60 0 94 24 127 114l31 85l-31 85c-33 90 -67 114 -127 114
c-63 0 -121 -55 -121 -163v-72c0 -108 58 -163 121 -163z" />
    <glyph glyph-name="beta" unicode="&#x3b2;" horiz-adv-x="584" 
d="M85 -200v721c0 140 73 231 211 231c119 0 198 -68 198 -178c0 -102 -69 -156 -134 -167v-4c81 -10 170 -59 170 -192c0 -126 -81 -223 -214 -223c-66 0 -118 24 -147 72h-4v-260h-80zM246 368v70h47c80 0 115 45 115 113v24c0 64 -37 105 -117 105
c-85 0 -126 -46 -126 -153v-390c0 -49 61 -77 131 -77c93 0 148 51 148 142v24c0 91 -56 142 -146 142h-52z" />
    <glyph glyph-name="gamma" unicode="&#x3b3;" horiz-adv-x="502" 
d="M216 -200v200l-152 446h-54v70h45c44 0 71 -14 86 -59l66 -198l47 -165h5l53 165l95 257h77l-188 -516v-200h-80z" />
    <glyph glyph-name="delta" unicode="&#x3b4;" horiz-adv-x="560" 
d="M459 670h-200l-70 5v-4l143 -114c136 -108 181 -190 181 -298c0 -168 -95 -271 -233 -271s-233 106 -233 262c0 174 101 266 215 266v5l-145 126v93h342v-70zM427 241c0 100 -21 151 -126 246c-95 -12 -168 -83 -168 -210v-54c0 -111 61 -164 147 -164s147 53 147 164v18
z" />
    <glyph glyph-name="epsilon" unicode="&#x3b5;" horiz-adv-x="518" 
d="M433 140l57 -41c-42 -74 -115 -111 -224 -111c-139 0 -206 60 -206 149c0 72 44 113 127 128v4c-72 8 -116 46 -116 110c0 85 77 149 204 149c100 0 174 -39 210 -101l-58 -46c-26 48 -79 76 -153 76c-84 0 -117 -36 -117 -71v-12c0 -43 37 -74 98 -74h122v-67h-122
c-72 0 -109 -28 -109 -80v-12c0 -52 42 -82 125 -82c80 0 133 28 162 81z" />
    <glyph glyph-name="zeta" unicode="&#x3b6;" horiz-adv-x="428" 
d="M64 670v70h352v-60l-176 -221c-85 -106 -107 -172 -107 -230v-14c0 -72 36 -112 128 -136l72 -19c47 -12 67 -39 67 -74c0 -10 -2 -21 -5 -33l-30 -112l-76 19l34 127l-72 18c-152 38 -204 93 -204 217c0 69 22 134 123 261l149 187v5l-62 -5h-193z" />
    <glyph glyph-name="eta" unicode="&#x3b7;" horiz-adv-x="573" 
d="M170 0h-80v446h-59v70h54c55 0 85 -35 85 -84h4c25 58 69 96 146 96c106 0 173 -72 173 -197v-531h-80v517c0 92 -40 139 -117 139c-64 0 -126 -32 -126 -98v-358z" />
    <glyph glyph-name="theta" unicode="&#x3b8;" horiz-adv-x="562" 
d="M281 752c142 0 225 -94 225 -382s-83 -382 -225 -382s-225 94 -225 382s83 382 225 382zM142 468v-63h278v63c0 157 -51 215 -139 215s-139 -58 -139 -215zM281 57c88 0 139 58 139 215v63h-278v-63c0 -157 51 -215 139 -215z" />
    <glyph glyph-name="iota" unicode="&#x3b9;" horiz-adv-x="295" 
d="M270 70v-70h-100c-55 0 -85 35 -85 85v431h80v-446h105z" />
    <glyph glyph-name="kappa" unicode="&#x3ba;" horiz-adv-x="527" 
d="M413 0l-181 246l-67 -72v-174h-80v516h80v-253h4l50 59l153 165c20 22 38 29 66 29h49v-70h-59l-139 -150l221 -296h-97z" />
    <glyph glyph-name="lambda" unicode="&#x3bb;" horiz-adv-x="509" 
d="M212 516l-50 154h-104v70h95c50 0 73 -19 85 -57l199 -613h64v-70h-55c-50 0 -73 19 -85 57l-65 201l-47 178h-5l-58 -178l-101 -258h-79z" />
    <glyph glyph-name="uni03BC" unicode="&#x3bc;" horiz-adv-x="578" 
d="M165 -200h-80v716h80v-317c0 -92 41 -139 118 -139c63 0 125 32 125 100v356h80v-446h59v-70h-54c-55 0 -85 35 -85 84h-4c-24 -64 -66 -96 -126 -96c-64 0 -108 36 -126 96h-4l17 -149v-135z" />
    <glyph glyph-name="nu" unicode="&#x3bd;" horiz-adv-x="511" 
d="M306 0h-93l-149 446h-54v70h45c44 0 71 -14 86 -59l64 -198l53 -175h5l58 175l95 257h77z" />
    <glyph glyph-name="xi" unicode="&#x3be;" horiz-adv-x="456" 
d="M428 670h-133c-72 0 -119 -46 -119 -128v-14c0 -70 39 -109 110 -109h87v-70h-87c-105 0 -146 -46 -146 -126v-14c0 -66 38 -105 130 -129l76 -20c47 -12 67 -39 67 -74c0 -10 -2 -21 -5 -33l-30 -112l-76 19l34 127l-76 19c-152 38 -206 92 -206 210
c0 88 57 156 153 168v4c-80 20 -117 67 -117 147c0 62 32 108 92 128v7h-137v70h383v-70z" />
    <glyph glyph-name="omicron" unicode="&#x3bf;" horiz-adv-x="560" 
d="M280 -12c-138 0 -233 106 -233 270s95 270 233 270s233 -106 233 -270s-95 -270 -233 -270zM280 59c86 0 147 53 147 162v74c0 109 -61 162 -147 162s-147 -53 -147 -162v-74c0 -109 61 -162 147 -162z" />
    <glyph glyph-name="pi" unicode="&#x3c0;" horiz-adv-x="622" 
d="M487 446v-376h64v-70h-59c-55 0 -85 36 -85 82v364h-208v-446h-80v446h-95v70h566v-70h-103z" />
    <glyph glyph-name="rho" unicode="&#x3c1;" horiz-adv-x="552" 
d="M58 -200v496c0 128 76 232 224 232c144 0 220 -98 220 -266c0 -173 -80 -274 -212 -274c-67 0 -121 26 -148 71h-4v-259h-80zM270 60c98 0 146 58 146 161v74c0 103 -51 161 -139 161s-139 -58 -139 -161v-158c0 -48 63 -77 132 -77z" />
    <glyph glyph-name="sigma1" unicode="&#x3c2;" horiz-adv-x="483" 
d="M309 -140l34 127l-121 33c-117 31 -175 104 -175 240c0 167 85 268 219 268c90 0 152 -46 184 -121l-67 -34c-19 53 -62 84 -119 84c-81 0 -131 -64 -131 -155v-68c0 -77 41 -125 128 -149l92 -25c47 -12 67 -39 67 -74c0 -10 -2 -21 -5 -33l-30 -112z" />
    <glyph glyph-name="sigma" unicode="&#x3c3;" horiz-adv-x="583" 
d="M558 446h-138v-7c66 -31 93 -90 93 -187c0 -158 -95 -264 -233 -264s-233 106 -233 264s87 264 245 264h266v-70zM362 446h-70c-98 0 -159 -54 -159 -163v-62c0 -109 61 -162 147 -162s147 53 147 162v62c0 73 -21 118 -65 163z" />
    <glyph glyph-name="tau" unicode="&#x3c4;" horiz-adv-x="477" 
d="M383 0h-110c-55 0 -85 35 -85 85v361h-168v70h425v-70h-177v-376h115v-70z" />
    <glyph glyph-name="upsilon" unicode="&#x3c5;" horiz-adv-x="568" 
d="M160 516v-282c0 -120 36 -175 124 -175s124 55 124 175v282h80v-270c0 -178 -69 -258 -204 -258s-204 80 -204 258v270h80z" />
    <glyph glyph-name="phi" unicode="&#x3c6;" horiz-adv-x="715" 
d="M307 -200v188c-148 0 -257 104 -257 262c0 142 53 234 145 278l45 -56c-72 -36 -104 -95 -104 -203v-39c0 -119 77 -171 171 -171v215c0 179 63 254 175 254c118 0 181 -75 181 -254c0 -186 -104 -286 -276 -286v-188h-80zM387 299v-240c114 0 190 47 190 171v69
c0 119 -36 158 -95 158s-95 -39 -95 -158z" />
    <glyph glyph-name="chi" unicode="&#x3c7;" horiz-adv-x="496" 
d="M12 516h60c48 0 68 -14 86 -57l93 -219h3l134 276h88l-179 -344l128 -302h69v-70h-60c-48 0 -69 15 -86 57l-100 242h-3l-140 -299h-88l185 367l-121 279h-69v70z" />
    <glyph glyph-name="psi" unicode="&#x3c8;" horiz-adv-x="726" 
d="M403 -200h-80v188c-156 0 -243 100 -243 270v258h80v-282c0 -114 53 -175 163 -175v651h80v-651c110 0 163 61 163 175v282h80v-258c0 -170 -87 -270 -243 -270v-188z" />
    <glyph glyph-name="omega" unicode="&#x3c9;" horiz-adv-x="736" 
d="M408 349v-132c0 -119 36 -158 95 -158s95 39 95 158v52c0 101 -34 169 -104 203l45 56c93 -43 145 -130 145 -286c0 -179 -68 -254 -171 -254c-82 0 -127 52 -143 127h-4c-16 -75 -61 -127 -143 -127c-103 0 -171 75 -171 254c0 150 53 242 145 286l45 -56
c-72 -36 -104 -95 -104 -203v-52c0 -119 36 -158 95 -158s95 39 95 158v132h80z" />
    <glyph glyph-name="iotadieresis" unicode="&#x3ca;" horiz-adv-x="295" 
d="M39 618c-34 0 -49 18 -49 46v11c0 28 15 46 49 46s49 -18 49 -46v-11c0 -28 -15 -46 -49 -46zM225 618c-34 0 -49 18 -49 46v11c0 28 15 46 49 46s49 -18 49 -46v-11c0 -28 -15 -46 -49 -46zM270 70v-70h-100c-55 0 -85 35 -85 85v431h80v-446h105z" />
    <glyph glyph-name="upsilondieresis" unicode="&#x3cb;" horiz-adv-x="568" 
d="M191 618c-34 0 -49 18 -49 46v11c0 28 15 46 49 46s49 -18 49 -46v-11c0 -28 -15 -46 -49 -46zM377 618c-34 0 -49 18 -49 46v11c0 28 15 46 49 46s49 -18 49 -46v-11c0 -28 -15 -46 -49 -46zM160 516v-282c0 -120 36 -175 124 -175s124 55 124 175v282h80v-270
c0 -178 -69 -258 -204 -258s-204 80 -204 258v270h80z" />
    <glyph glyph-name="omicrontonos" unicode="&#x3cc;" horiz-adv-x="560" 
d="M356 769l-52 -184l-57 7l29 188zM280 -12c-138 0 -233 106 -233 270s95 270 233 270s233 -106 233 -270s-95 -270 -233 -270zM280 59c86 0 147 53 147 162v74c0 109 -61 162 -147 162s-147 -53 -147 -162v-74c0 -109 61 -162 147 -162z" />
    <glyph glyph-name="upsilontonos" unicode="&#x3cd;" horiz-adv-x="568" 
d="M360 769l-52 -184l-57 7l29 188zM160 516v-282c0 -120 36 -175 124 -175s124 55 124 175v282h80v-270c0 -178 -69 -258 -204 -258s-204 80 -204 258v270h80z" />
    <glyph glyph-name="omegatonos" unicode="&#x3ce;" horiz-adv-x="736" 
d="M444 769l-52 -184l-57 7l29 188zM408 349v-132c0 -119 36 -158 95 -158s95 39 95 158v52c0 101 -34 169 -104 203l45 56c93 -43 145 -130 145 -286c0 -179 -68 -254 -171 -254c-82 0 -127 52 -143 127h-4c-16 -75 -61 -127 -143 -127c-103 0 -171 75 -171 254
c0 150 53 242 145 286l45 -56c-72 -36 -104 -95 -104 -203v-52c0 -119 36 -158 95 -158s95 39 95 158v132h80z" />
    <glyph glyph-name="uni0400" unicode="&#x400;" horiz-adv-x="583" 
d="M297 755l-106 159l73 35l85 -170zM519 0h-426v698h426v-74h-342v-234h322v-74h-322v-242h342v-74z" />
    <glyph glyph-name="uni0401" unicode="&#x401;" horiz-adv-x="583" 
d="M211 788c-34 0 -50 19 -50 47v12c0 28 16 47 50 47s50 -19 50 -47v-12c0 -28 -16 -47 -50 -47zM397 788c-34 0 -50 19 -50 47v12c0 28 16 47 50 47s50 -19 50 -47v-12c0 -28 -16 -47 -50 -47zM519 0h-426v698h426v-74h-342v-234h322v-74h-322v-242h342v-74z" />
    <glyph glyph-name="uni0402" unicode="&#x402;" horiz-adv-x="786" 
d="M509 -164v74h84c32 26 51 70 51 154v126c0 122 -57 174 -165 174c-62 0 -117 -9 -151 -23v-341h-84v624h-222v74h528v-74h-222v-209h5c36 14 91 23 149 23c167 0 246 -80 246 -248v-126c0 -160 -61 -228 -173 -228h-46z" />
    <glyph glyph-name="uni0403" unicode="&#x403;" horiz-adv-x="499" 
d="M393 914l-106 -159l-52 24l85 170zM93 0v698h380v-74h-296v-624h-84z" />
    <glyph glyph-name="uni0404" unicode="&#x404;" horiz-adv-x="631" 
d="M344 -12c-183 0 -286 124 -286 357s103 365 286 365c123 0 201 -56 245 -153l-68 -41c-28 72 -84 119 -177 119c-127 0 -196 -95 -196 -238v-7h294v-74h-294v-23c0 -143 69 -230 196 -230c96 0 155 50 183 126l67 -42c-44 -98 -127 -159 -250 -159z" />
    <glyph glyph-name="uni0405" unicode="&#x405;" horiz-adv-x="581" 
d="M289 -12c-112 0 -191 46 -247 122l62 52c49 -65 107 -100 188 -100c100 0 154 52 154 132c0 66 -37 99 -129 120l-57 13c-127 29 -197 85 -197 192c0 124 94 191 231 191c105 0 179 -40 231 -114l-63 -46c-38 53 -91 86 -172 86c-89 0 -144 -39 -144 -114
c0 -66 43 -96 131 -116l57 -13c136 -31 195 -91 195 -195c0 -128 -90 -210 -240 -210z" />
    <glyph glyph-name="uni0406" unicode="&#x406;" horiz-adv-x="400" 
d="M340 0h-280v70h98v558h-98v70h280v-70h-98v-558h98v-70z" />
    <glyph glyph-name="uni0407" unicode="&#x407;" horiz-adv-x="400" 
d="M107 788c-34 0 -50 19 -50 47v12c0 28 16 47 50 47s50 -19 50 -47v-12c0 -28 -16 -47 -50 -47zM293 788c-34 0 -50 19 -50 47v12c0 28 16 47 50 47s50 -19 50 -47v-12c0 -28 -16 -47 -50 -47zM340 0h-280v70h98v558h-98v70h280v-70h-98v-558h98v-70z" />
    <glyph glyph-name="uni0408" unicode="&#x408;" horiz-adv-x="510" 
d="M98 698h324v-517c0 -118 -82 -193 -200 -193c-108 0 -175 64 -194 159l76 18c13 -60 49 -102 120 -102c72 0 114 44 114 133v428h-240v74z" />
    <glyph glyph-name="uni0409" unicode="&#x409;" horiz-adv-x="1014" 
d="M10 0v74h72c62 60 89 154 89 431v193h400v-280h208c125 0 195 -77 195 -209s-70 -209 -195 -209h-292v624h-236v-125c0 -289 -35 -397 -96 -458c-28 -28 -61 -41 -109 -41h-36zM571 74h208c66 0 105 36 105 109v52c0 73 -39 109 -105 109h-208v-270z" />
    <glyph glyph-name="uni040A" unicode="&#x40a;" horiz-adv-x="1037" 
d="M93 0v698h84v-308h333v308h84v-280h208c125 0 195 -77 195 -209s-70 -209 -195 -209h-292v316h-333v-316h-84zM594 74h208c66 0 105 36 105 109v52c0 73 -39 109 -105 109h-208v-270z" />
    <glyph glyph-name="uni040B" unicode="&#x40b;" horiz-adv-x="796" 
d="M244 0v624h-222v74h528v-74h-222v-209h5c36 14 92 23 154 23c172 0 251 -80 251 -248v-190h-84v190c0 122 -57 174 -170 174c-66 0 -122 -9 -156 -23v-341h-84z" />
    <glyph glyph-name="uni040C" unicode="&#x40c;" horiz-adv-x="662" 
d="M434 914l-106 -159l-52 24l85 170zM93 0v698h84v-309h136l140 239c30 51 57 70 99 70h46v-74h-63l-124 -212c-25 -40 -35 -48 -59 -56v-5c30 -6 51 -18 77 -64l130 -213h61v-74h-62c-32 0 -60 14 -91 65l-154 252h-136v-317h-84z" />
    <glyph glyph-name="uni040D" unicode="&#x40d;" horiz-adv-x="707" 
d="M345 755l-106 159l73 35l85 -170zM93 0v698h82v-438l-8 -143h3l70 126l298 455h76v-698h-82v438l8 143h-3l-70 -126l-298 -455h-76z" />
    <glyph glyph-name="uni040E" unicode="&#x40e;" horiz-adv-x="595" 
d="M306 766c-72 0 -112 31 -137 78l-20 38l70 31l35 -82c16 -4 36 -6 52 -6s36 2 52 6l35 82l70 -31l-20 -38c-25 -47 -65 -78 -137 -78zM144 0v74h101l33 83l-258 541h91l151 -318l52 -121h5l44 123l126 316h86l-244 -609c-29 -72 -56 -89 -132 -89h-55z" />
    <glyph glyph-name="uni040F" unicode="&#x40f;" horiz-adv-x="693" 
d="M308 -150v150h-215v698h84v-624h339v624h84v-698h-215v-150h-77z" />
    <glyph glyph-name="uni0410" unicode="&#x410;" horiz-adv-x="641" 
d="M618 0h-88l-70 206h-282l-70 -206h-85l244 698h107zM439 280l-118 340h-5l-118 -340h241z" />
    <glyph glyph-name="uni0411" unicode="&#x411;" horiz-adv-x="636" 
d="M93 0v698h427v-74h-343v-206h208c125 0 195 -77 195 -209s-70 -209 -195 -209h-292zM177 74h208c66 0 105 36 105 109v52c0 73 -39 109 -105 109h-208v-270z" />
    <glyph glyph-name="uni0412" unicode="&#x412;" horiz-adv-x="653" 
d="M93 0v698h287c115 0 186 -71 186 -180c0 -104 -67 -141 -113 -148v-6c50 -3 137 -46 137 -162c0 -115 -77 -202 -180 -202h-317zM177 324v-250h207c72 0 116 38 116 108v34c0 70 -44 108 -116 108h-207zM177 624v-228h193c66 0 106 35 106 97v34c0 62 -40 97 -106 97
h-193z" />
    <glyph glyph-name="uni0413" unicode="&#x413;" horiz-adv-x="499" 
d="M93 0v698h380v-74h-296v-624h-84z" />
    <glyph glyph-name="uni0414" unicode="&#x414;" horiz-adv-x="726" 
d="M10 -150v224h73c60 86 93 212 93 419v205h420v-624h98v-224h-77v150h-530v-150h-77zM181 74h331v550h-256v-137c0 -212 -29 -336 -75 -408v-5z" />
    <glyph glyph-name="uni0415" unicode="&#x415;" horiz-adv-x="583" 
d="M519 0h-426v698h426v-74h-342v-234h322v-74h-322v-242h342v-74z" />
    <glyph glyph-name="uni0416" unicode="&#x416;" horiz-adv-x="978" 
d="M42 0v74h63l108 209c23 45 43 60 73 68v5c-26 8 -48 25 -67 65l-94 203h-63v74h52c42 0 75 -19 100 -72l110 -237h123v309h84v-309h123l112 237c25 53 56 72 98 72h52v-74h-63l-96 -203c-19 -40 -39 -57 -65 -65v-5c30 -8 52 -23 75 -68l106 -209h63v-74h-64
c-38 0 -66 18 -94 73l-124 244h-123v-317h-84v317h-123l-126 -244c-28 -55 -54 -73 -92 -73h-64z" />
    <glyph glyph-name="uni0417" unicode="&#x417;" horiz-adv-x="593" 
d="M281 -12c-113 0 -192 48 -244 124l61 49c42 -62 98 -98 183 -98c100 0 159 40 159 125v13c0 72 -46 119 -150 119h-105v74h99c98 0 140 40 140 120v14c0 67 -44 107 -136 107c-84 0 -133 -32 -165 -80l-65 42c50 72 116 113 230 113c151 0 226 -73 226 -183
c0 -95 -51 -148 -133 -165v-5c82 -10 149 -59 149 -164c0 -123 -93 -205 -249 -205z" />
    <glyph glyph-name="uni0418" unicode="&#x418;" horiz-adv-x="707" 
d="M93 0v698h82v-438l-8 -143h3l70 126l298 455h76v-698h-82v438l8 143h-3l-70 -126l-298 -455h-76z" />
    <glyph glyph-name="uni0419" unicode="&#x419;" horiz-adv-x="707" 
d="M351 766c-72 0 -112 31 -137 78l-20 38l70 31l35 -82c16 -4 36 -6 52 -6s36 2 52 6l35 82l70 -31l-20 -38c-25 -47 -65 -78 -137 -78zM93 0v698h82v-438l-8 -143h3l70 126l298 455h76v-698h-82v438l8 143h-3l-70 -126l-298 -455h-76z" />
    <glyph glyph-name="uni041A" unicode="&#x41a;" horiz-adv-x="662" 
d="M93 0v698h84v-309h136l140 239c30 51 57 70 99 70h46v-74h-63l-124 -212c-25 -40 -35 -48 -59 -56v-5c30 -6 51 -18 77 -64l130 -213h61v-74h-62c-32 0 -60 14 -91 65l-154 252h-136v-317h-84z" />
    <glyph glyph-name="uni041B" unicode="&#x41b;" horiz-adv-x="684" 
d="M10 0v74h72c62 60 89 154 89 431v193h420v-698h-84v624h-256v-125c0 -289 -35 -397 -96 -458c-28 -28 -61 -41 -109 -41h-36z" />
    <glyph glyph-name="uni041C" unicode="&#x41c;" horiz-adv-x="812" 
d="M93 0v698h112l200 -376h5l201 376h108v-698h-82v588h-5l-59 -117l-167 -304l-167 304l-59 117h-5v-588h-82z" />
    <glyph glyph-name="uni041D" unicode="&#x41d;" horiz-adv-x="707" 
d="M530 0v316h-353v-316h-84v698h84v-308h353v308h84v-698h-84z" />
    <glyph glyph-name="uni041E" unicode="&#x41e;" horiz-adv-x="708" 
d="M354 -12c-180 0 -296 127 -296 361s116 361 296 361s296 -127 296 -361s-116 -361 -296 -361zM354 63c121 0 206 90 206 228v116c0 138 -85 228 -206 228s-206 -90 -206 -228v-116c0 -138 85 -228 206 -228z" />
    <glyph glyph-name="uni041F" unicode="&#x41f;" horiz-adv-x="693" 
d="M93 0v698h507v-698h-84v624h-339v-624h-84z" />
    <glyph glyph-name="uni0420" unicode="&#x420;" horiz-adv-x="606" 
d="M177 0h-84v698h278c125 0 195 -77 195 -200s-70 -200 -195 -200h-194v-298zM177 624v-252h194c66 0 105 36 105 100v52c0 64 -39 100 -105 100h-194z" />
    <glyph glyph-name="uni0421" unicode="&#x421;" horiz-adv-x="621" 
d="M339 -12c-176 0 -281 124 -281 357s105 365 281 365c116 0 196 -56 240 -153l-68 -41c-28 72 -86 119 -172 119c-120 0 -191 -95 -191 -238v-104c0 -143 71 -230 191 -230c89 0 150 50 178 126l67 -42c-44 -98 -129 -159 -245 -159z" />
    <glyph glyph-name="uni0422" unicode="&#x422;" horiz-adv-x="572" 
d="M550 624h-222v-624h-84v624h-222v74h528v-74z" />
    <glyph glyph-name="uni0423" unicode="&#x423;" horiz-adv-x="595" 
d="M144 0v74h101l33 83l-258 541h91l151 -318l52 -121h5l44 123l126 316h86l-244 -609c-29 -72 -56 -89 -132 -89h-55z" />
    <glyph glyph-name="uni0424" unicode="&#x424;" horiz-adv-x="844" 
d="M380 -29v90h-31c-189 0 -299 123 -299 287s111 287 300 287h30v90h84v-90h30c189 0 300 -123 300 -287s-111 -287 -300 -287h-30v-90h-84zM349 131h33v434h-32c-125 0 -210 -80 -210 -186v-62c0 -106 84 -186 209 -186zM462 131h32c125 0 210 80 210 186v62
c0 106 -85 186 -210 186h-32v-434z" />
    <glyph glyph-name="uni0425" unicode="&#x425;" horiz-adv-x="613" 
d="M24 0l228 355l-222 343h101l175 -278h2l179 278h96l-224 -340l230 -358h-101l-183 293h-2l-183 -293h-96z" />
    <glyph glyph-name="uni0426" unicode="&#x426;" horiz-adv-x="730" 
d="M621 -150v150h-528v698h84v-624h339v624h84v-624h98v-224h-77z" />
    <glyph glyph-name="uni0427" unicode="&#x427;" horiz-adv-x="645" 
d="M468 0v275h-5c-36 -14 -92 -23 -154 -23c-172 0 -251 80 -251 248v198h84v-198c0 -122 57 -174 170 -174c66 0 122 9 156 23v349h84v-698h-84z" />
    <glyph glyph-name="uni0428" unicode="&#x428;" horiz-adv-x="956" 
d="M93 0v698h84v-624h259v624h84v-624h259v624h84v-698h-770z" />
    <glyph glyph-name="uni0429" unicode="&#x429;" horiz-adv-x="993" 
d="M884 -150v150h-791v698h84v-624h259v624h84v-624h259v624h84v-624h98v-224h-77z" />
    <glyph glyph-name="uni042A" unicode="&#x42a;" horiz-adv-x="741" 
d="M204 0v624h-182v74h266v-280h218c125 0 195 -77 195 -209s-70 -209 -195 -209h-302zM288 74h218c66 0 105 36 105 109v52c0 73 -39 109 -105 109h-218v-270z" />
    <glyph glyph-name="uni042B" unicode="&#x42b;" horiz-adv-x="875" 
d="M93 0v698h84v-280h208c125 0 195 -77 195 -209s-70 -209 -195 -209h-292zM177 74h208c66 0 105 36 105 109v52c0 73 -39 109 -105 109h-208v-270zM698 0v698h84v-698h-84z" />
    <glyph glyph-name="uni042C" unicode="&#x42c;" horiz-adv-x="630" 
d="M93 0v698h84v-280h218c125 0 195 -77 195 -209s-70 -209 -195 -209h-302zM177 74h218c66 0 105 36 105 109v52c0 73 -39 109 -105 109h-218v-270z" />
    <glyph glyph-name="uni042D" unicode="&#x42d;" horiz-adv-x="631" 
d="M189 316v74h294v15c0 143 -69 230 -196 230c-91 0 -149 -47 -177 -119l-68 41c44 97 124 153 245 153c183 0 286 -124 286 -357s-103 -365 -286 -365c-123 0 -206 61 -250 159l67 42c28 -76 87 -126 183 -126c127 0 196 95 196 239v14h-294z" />
    <glyph glyph-name="uni042E" unicode="&#x42e;" horiz-adv-x="960" 
d="M616 -12c-176 0 -276 114 -286 328h-153v-316h-84v698h84v-308h155c8 208 114 320 284 320c180 0 286 -121 286 -361s-106 -361 -286 -361zM616 63c121 0 196 84 196 228v116c0 144 -75 228 -196 228s-196 -84 -196 -228v-116c0 -144 75 -228 196 -228z" />
    <glyph glyph-name="uni042F" unicode="&#x42f;" horiz-adv-x="640" 
d="M41 0v74h60l86 167c21 42 36 58 68 67v5c-126 4 -181 78 -181 187c0 127 73 198 195 198h278v-698h-84v300h-153l-118 -230c-28 -54 -51 -70 -89 -70h-62zM269 372h194v252h-194c-66 0 -105 -36 -105 -100v-52c0 -64 39 -100 105 -100z" />
    <glyph glyph-name="uni0430" unicode="&#x430;" horiz-adv-x="534" 
d="M505 0h-45c-59 0 -83 36 -89 84h-5c-22 -63 -77 -96 -149 -96c-109 0 -173 60 -173 156c0 97 70 151 220 151h102v51c0 73 -40 113 -122 113c-62 0 -103 -30 -131 -77l-48 45c28 55 90 101 183 101c124 0 198 -65 198 -174v-284h59v-70zM230 56c79 0 136 41 136 94v85
h-106c-91 0 -132 -28 -132 -78v-21c0 -51 40 -80 102 -80z" />
    <glyph glyph-name="uni0431" unicode="&#x431;" horiz-adv-x="564" 
d="M284 -12c-143 0 -233 91 -233 319c0 297 75 413 263 428l162 13v-81l-172 -14c-118 -10 -155 -62 -169 -242h4c30 70 76 105 156 105c131 0 222 -97 222 -265c0 -156 -95 -263 -233 -263zM288 59c82 0 143 54 143 157v63c0 111 -59 166 -151 166
c-96 0 -143 -52 -143 -128v-92c0 -111 59 -166 151 -166z" />
    <glyph glyph-name="uni0432" unicode="&#x432;" horiz-adv-x="558" 
d="M85 0v516h260c84 0 135 -52 135 -131c0 -64 -35 -101 -101 -109v-4c80 -6 119 -54 119 -118c0 -83 -53 -154 -140 -154h-273zM165 66h169c48 0 78 26 78 73v23c0 47 -30 73 -78 73h-169v-169zM165 300h159c44 0 70 23 70 64v22c0 41 -26 64 -70 64h-159v-150z" />
    <glyph glyph-name="uni0433" unicode="&#x433;" horiz-adv-x="435" 
d="M85 0v516h326v-70h-246v-446h-80z" />
    <glyph glyph-name="uni0434" unicode="&#x434;" horiz-adv-x="597" 
d="M8 -140v210h59c41 66 69 168 69 297v149h349v-446h86v-210h-73v140h-417v-140h-73zM153 70h252v376h-193v-83c0 -136 -27 -233 -59 -293z" />
    <glyph glyph-name="uni0435" unicode="&#x435;" horiz-adv-x="549" 
d="M279 -12c-140 0 -232 106 -232 270s92 270 232 270c138 0 223 -106 223 -252v-38h-371v-24c0 -89 57 -156 153 -156c65 0 115 32 142 89l57 -41c-33 -70 -107 -118 -204 -118zM279 461c-87 0 -148 -66 -148 -156v-7h285v11c0 91 -55 152 -137 152z" />
    <glyph glyph-name="uni0436" unicode="&#x436;" horiz-adv-x="770" 
d="M40 0v70h60l58 139c14 34 37 51 63 55v4c-26 8 -46 26 -61 59l-53 119h-60v70h47c40 0 70 -19 90 -63l69 -153h92v216h80v-216h92l69 153c20 44 50 63 90 63h47v-70h-60l-53 -119c-15 -33 -35 -51 -61 -59v-4c26 -4 49 -21 63 -55l58 -139h60v-70h-57
c-36 0 -65 16 -88 70l-68 162h-92v-232h-80v232h-92l-68 -162c-23 -54 -52 -70 -88 -70h-57z" />
    <glyph glyph-name="uni0437" unicode="&#x437;" horiz-adv-x="501" 
d="M231 -12c-105 0 -163 38 -203 104l60 48c26 -50 74 -81 143 -81c83 0 124 34 124 82v12c0 52 -37 80 -101 80h-110v67h100c64 0 100 26 100 73v12c0 44 -33 72 -115 72c-67 0 -111 -30 -137 -76l-53 45c32 60 92 102 194 102c134 0 197 -53 197 -139
c0 -64 -35 -100 -99 -115v-4c73 -10 110 -55 110 -120c0 -99 -82 -162 -210 -162z" />
    <glyph glyph-name="uni0438" unicode="&#x438;" horiz-adv-x="588" 
d="M85 0v516h78v-286l-8 -124h4l64 110l206 300h74v-516h-78v286l8 124h-4l-64 -110l-206 -300h-74z" />
    <glyph glyph-name="uni0439" unicode="&#x439;" horiz-adv-x="588" 
d="M295 596c-72 0 -112 31 -137 78l-20 38l70 31l35 -82c16 -4 36 -6 52 -6s36 2 52 6l35 82l70 -31l-20 -38c-25 -47 -65 -78 -137 -78zM85 0v516h78v-286l-8 -124h4l64 110l206 300h74v-516h-78v286l8 124h-4l-64 -110l-206 -300h-74z" />
    <glyph glyph-name="uni043A" unicode="&#x43a;" horiz-adv-x="550" 
d="M85 0v516h80v-216h103l100 158c30 48 51 58 87 58h47v-70h-62l-81 -128c-21 -34 -30 -42 -56 -50v-4c28 -4 47 -14 69 -54l79 -140h59v-70h-58c-34 0 -62 15 -89 63l-95 169h-103v-232h-80z" />
    <glyph glyph-name="uni043B" unicode="&#x43b;" horiz-adv-x="565" 
d="M8 0v70h68c34 48 55 127 55 299v147h349v-516h-80v446h-193v-79c0 -201 -31 -293 -71 -333c-25 -25 -55 -34 -97 -34h-31z" />
    <glyph glyph-name="uni043C" unicode="&#x43c;" horiz-adv-x="696" 
d="M85 0v516h105l157 -268h4l156 268h104v-516h-78v420h-5l-29 -56l-151 -256l-151 256l-29 56h-5v-420h-78z" />
    <glyph glyph-name="uni043D" unicode="&#x43d;" horiz-adv-x="588" 
d="M85 0v516h80v-215h258v215h80v-516h-80v231h-258v-231h-80z" />
    <glyph glyph-name="uni043E" unicode="&#x43e;" horiz-adv-x="560" 
d="M280 -12c-138 0 -233 106 -233 270s95 270 233 270s233 -106 233 -270s-95 -270 -233 -270zM280 59c86 0 147 53 147 162v74c0 109 -61 162 -147 162s-147 -53 -147 -162v-74c0 -109 61 -162 147 -162z" />
    <glyph glyph-name="uni043F" unicode="&#x43f;" horiz-adv-x="573" 
d="M85 0v516h403v-516h-80v446h-243v-446h-80z" />
    <glyph glyph-name="uni0440" unicode="&#x440;" horiz-adv-x="580" 
d="M85 -200v716h80v-84h4c27 65 80 96 151 96c129 0 210 -105 210 -270s-81 -270 -210 -270c-71 0 -120 32 -151 96h-4v-284h-80zM298 60c90 0 146 62 146 154v88c0 92 -56 154 -146 154c-73 0 -133 -42 -133 -99v-192c0 -67 60 -105 133 -105z" />
    <glyph glyph-name="uni0441" unicode="&#x441;" horiz-adv-x="503" 
d="M277 -12c-145 0 -230 105 -230 270s85 270 230 270c102 0 163 -50 193 -121l-67 -34c-19 53 -63 84 -126 84c-95 0 -144 -65 -144 -155v-88c0 -90 49 -155 144 -155c65 0 112 31 140 90l58 -39c-33 -74 -100 -122 -198 -122z" />
    <glyph glyph-name="uni0442" unicode="&#x442;" horiz-adv-x="472" 
d="M196 0v446h-176v70h432v-70h-176v-446h-80z" />
    <glyph glyph-name="uni0443" unicode="&#x443;" horiz-adv-x="499" 
d="M278 165l125 351h79l-231 -636c-23 -62 -44 -80 -120 -80h-41v70h81l39 110l-193 536h80l124 -351l24 -84h5z" />
    <glyph glyph-name="uni0444" unicode="&#x444;" horiz-adv-x="750" 
d="M335 -200v254h-3c-26 -40 -59 -66 -110 -66c-114 0 -171 87 -171 270s57 270 171 270c51 0 84 -26 110 -66h3v248h80v-248h3c26 40 59 66 110 66c114 0 171 -87 171 -270s-57 -270 -171 -270c-51 0 -84 26 -110 66h-3v-254h-80zM243 59c63 0 93 23 93 70v258
c0 47 -30 70 -93 70c-74 0 -106 -43 -106 -155v-88c0 -112 32 -155 106 -155zM507 59c74 0 106 43 106 155v88c0 112 -32 155 -106 155c-63 0 -93 -23 -93 -70v-258c0 -47 30 -70 93 -70z" />
    <glyph glyph-name="uni0445" unicode="&#x445;" horiz-adv-x="507" 
d="M21 0l191 260l-183 256h94l131 -192h3l136 192h89l-182 -250l186 -266h-94l-134 202h-3l-145 -202h-89z" />
    <glyph glyph-name="uni0446" unicode="&#x446;" 
d="M501 -140v140h-416v516h80v-446h243v446h80v-446h86v-210h-73z" />
    <glyph glyph-name="uni0447" unicode="&#x447;" horiz-adv-x="538" 
d="M373 0v237h-5c-32 -36 -75 -62 -151 -62c-105 0 -167 53 -167 159v182h80v-175c0 -63 36 -94 111 -94c76 0 132 21 132 63v206h80v-516h-80z" />
    <glyph glyph-name="uni0448" unicode="&#x448;" horiz-adv-x="798" 
d="M85 0v516h80v-446h194v446h80v-446h194v446h80v-516h-628z" />
    <glyph glyph-name="uni0449" unicode="&#x449;" horiz-adv-x="825" 
d="M726 -140v140h-641v516h80v-446h194v446h80v-446h194v446h80v-446h86v-210h-73z" />
    <glyph glyph-name="uni044A" unicode="&#x44a;" horiz-adv-x="590" 
d="M155 0v446h-135v70h215v-187h147c104 0 170 -63 170 -164c0 -104 -64 -165 -169 -165h-228zM235 70h136c60 0 95 21 95 74v42c0 53 -35 73 -95 73h-136v-189z" />
    <glyph glyph-name="uni044B" unicode="&#x44b;" horiz-adv-x="724" 
d="M85 0v516h80v-187h137c104 0 170 -63 170 -165c0 -103 -64 -164 -169 -164h-218zM165 70h126c60 0 95 21 95 74v42c0 53 -35 73 -95 73h-126v-189zM559 0v516h80v-516h-80z" />
    <glyph glyph-name="uni044C" unicode="&#x44c;" horiz-adv-x="520" 
d="M85 0v516h80v-187h147c104 0 170 -63 170 -165c0 -103 -64 -164 -169 -164h-228zM165 70h136c60 0 95 21 95 74v42c0 53 -35 73 -95 73h-136v-189z" />
    <glyph glyph-name="uni044D" unicode="&#x44d;" horiz-adv-x="511" 
d="M154 227v67h224v8c0 92 -49 155 -148 155c-70 0 -116 -31 -144 -90l-58 39c33 74 99 122 202 122c149 0 234 -105 234 -270s-85 -270 -234 -270c-108 0 -167 50 -197 121l67 34c19 -53 61 -84 130 -84c99 0 148 63 148 155v13h-224z" />
    <glyph glyph-name="uni044E" unicode="&#x44e;" horiz-adv-x="781" 
d="M508 -12c-130 0 -217 90 -226 244h-117v-232h-80v516h80v-216h119c13 144 98 228 224 228c137 0 226 -100 226 -270s-89 -270 -226 -270zM508 59c85 0 140 47 140 162v74c0 115 -55 162 -140 162s-140 -47 -140 -162v-74c0 -115 55 -162 140 -162z" />
    <glyph glyph-name="uni044F" unicode="&#x44f;" horiz-adv-x="535" 
d="M39 0v70h57l33 76c15 35 37 52 63 56v4c-90 8 -139 63 -139 150c0 98 64 160 169 160h228v-516h-80v198h-134l-54 -127c-23 -55 -52 -71 -88 -71h-55zM234 266h136v180h-136c-60 0 -95 -21 -95 -74v-33c0 -53 35 -73 95 -73z" />
    <glyph glyph-name="uni0450" unicode="&#x450;" horiz-adv-x="549" 
d="M272 585l-106 159l73 35l85 -170zM279 -12c-140 0 -232 106 -232 270s92 270 232 270c138 0 223 -106 223 -252v-38h-371v-24c0 -89 57 -156 153 -156c65 0 115 32 142 89l57 -41c-33 -70 -107 -118 -204 -118zM279 461c-87 0 -148 -66 -148 -156v-7h285v11
c0 91 -55 152 -137 152z" />
    <glyph glyph-name="uni0451" unicode="&#x451;" horiz-adv-x="549" 
d="M186 618c-34 0 -49 18 -49 46v11c0 28 15 46 49 46s49 -18 49 -46v-11c0 -28 -15 -46 -49 -46zM372 618c-34 0 -49 18 -49 46v11c0 28 15 46 49 46s49 -18 49 -46v-11c0 -28 -15 -46 -49 -46zM279 -12c-140 0 -232 106 -232 270s92 270 232 270c138 0 223 -106 223 -252
v-38h-371v-24c0 -89 57 -156 153 -156c65 0 115 32 142 89l57 -41c-33 -70 -107 -118 -204 -118zM279 461c-87 0 -148 -66 -148 -156v-7h285v11c0 91 -55 152 -137 152z" />
    <glyph glyph-name="uni0452" unicode="&#x452;" horiz-adv-x="568" 
d="M324 -200v70h84v447c0 92 -40 139 -117 139c-64 0 -126 -32 -126 -98v-358h-80v608h-64v62h64v70h80v-70h150v-62h-150v-176h4c25 58 69 96 146 96c106 0 173 -72 173 -197v-413c0 -71 -35 -118 -111 -118h-53z" />
    <glyph glyph-name="uni0453" unicode="&#x453;" horiz-adv-x="435" 
d="M362 744l-106 -159l-52 24l85 170zM85 0v516h326v-70h-246v-446h-80z" />
    <glyph glyph-name="uni0454" unicode="&#x454;" horiz-adv-x="511" 
d="M281 -12c-151 0 -234 105 -234 270s83 270 234 270c106 0 167 -50 197 -121l-67 -34c-19 53 -63 84 -130 84c-101 0 -148 -65 -148 -155v-8h224v-67h-224v-13c0 -90 47 -155 148 -155c69 0 116 31 144 90l58 -39c-33 -74 -100 -122 -202 -122z" />
    <glyph glyph-name="uni0455" unicode="&#x455;" horiz-adv-x="487" 
d="M240 -12c-95 0 -158 40 -204 101l57 46c40 -50 88 -79 153 -79c68 0 108 31 108 84c0 40 -22 71 -90 81l-41 6c-95 14 -166 53 -166 149c0 102 79 152 184 152c83 0 138 -31 180 -83l-53 -48c-23 32 -67 63 -133 63s-101 -31 -101 -80c0 -50 35 -70 99 -80l40 -6
c114 -17 158 -67 158 -145c0 -100 -73 -161 -191 -161z" />
    <glyph glyph-name="uni0456" unicode="&#x456;" horiz-adv-x="250" 
d="M125 637c-34 0 -49 18 -49 45v13c0 27 15 45 49 45s49 -18 49 -45v-13c0 -27 -15 -45 -49 -45zM85 0v516h80v-516h-80z" />
    <glyph glyph-name="uni0457" unicode="&#x457;" horiz-adv-x="250" 
d="M32 618c-34 0 -49 18 -49 46v11c0 28 15 46 49 46s49 -18 49 -46v-11c0 -28 -15 -46 -49 -46zM218 618c-34 0 -49 18 -49 46v11c0 28 15 46 49 46s49 -18 49 -46v-11c0 -28 -15 -46 -49 -46zM165 0h-80v516h80v-516z" />
    <glyph glyph-name="uni0458" unicode="&#x458;" horiz-adv-x="250" 
d="M85 -130v646h80v-596c0 -71 -35 -120 -112 -120h-52v70h84zM125 637c-34 0 -49 18 -49 45v13c0 27 15 45 49 45s49 -18 49 -45v-13c0 -27 -15 -45 -49 -45z" />
    <glyph glyph-name="uni0459" unicode="&#x459;" horiz-adv-x="805" 
d="M8 0v70h68c34 48 55 127 55 299v147h329v-187h137c104 0 170 -63 170 -165c0 -103 -64 -164 -169 -164h-218v446h-173v-79c0 -201 -31 -293 -71 -333c-25 -25 -55 -34 -97 -34h-31zM460 70h126c60 0 95 21 95 74v42c0 53 -35 73 -95 73h-126v-189z" />
    <glyph glyph-name="uni045A" unicode="&#x45a;" horiz-adv-x="832" 
d="M85 0v516h80v-215h242v215h80v-187h137c104 0 170 -63 170 -165c0 -103 -64 -164 -169 -164h-218v231h-242v-231h-80zM487 70h126c60 0 95 21 95 74v42c0 53 -35 73 -95 73h-126v-189z" />
    <glyph glyph-name="uni045B" unicode="&#x45b;" horiz-adv-x="568" 
d="M165 0h-80v608h-64v62h64v70h80v-70h150v-62h-150v-176h4c25 58 69 96 146 96c106 0 173 -72 173 -197v-331h-80v317c0 92 -40 139 -117 139c-64 0 -126 -32 -126 -98v-358z" />
    <glyph glyph-name="uni045C" unicode="&#x45c;" horiz-adv-x="550" 
d="M392 744l-106 -159l-52 24l85 170zM85 0v516h80v-216h103l100 158c30 48 51 58 87 58h47v-70h-62l-81 -128c-21 -34 -30 -42 -56 -50v-4c28 -4 47 -14 69 -54l79 -140h59v-70h-58c-34 0 -62 15 -89 63l-95 169h-103v-232h-80z" />
    <glyph glyph-name="uni045D" unicode="&#x45d;" horiz-adv-x="588" 
d="M288 585l-106 159l73 35l85 -170zM85 0v516h78v-286l-8 -124h4l64 110l206 300h74v-516h-78v286l8 124h-4l-64 -110l-206 -300h-74z" />
    <glyph glyph-name="uni045E" unicode="&#x45e;" horiz-adv-x="499" 
d="M250 596c-72 0 -112 31 -137 78l-20 38l70 31l35 -82c16 -4 36 -6 52 -6s36 2 52 6l35 82l70 -31l-20 -38c-25 -47 -65 -78 -137 -78zM278 165l125 351h79l-231 -636c-23 -62 -44 -80 -120 -80h-41v70h81l39 110l-193 536h80l124 -351l24 -84h5z" />
    <glyph glyph-name="uni045F" unicode="&#x45f;" horiz-adv-x="573" 
d="M250 -140v140h-165v516h80v-446h243v446h80v-516h-165v-140h-73z" />
    <glyph glyph-name="uni0472" unicode="&#x472;" horiz-adv-x="708" 
d="M354 -12c-180 0 -296 127 -296 361s116 361 296 361s296 -127 296 -361s-116 -361 -296 -361zM354 63c121 0 206 90 206 228v25h-412v-25c0 -138 85 -228 206 -228zM148 407v-17h412v17c0 138 -85 228 -206 228s-206 -90 -206 -228z" />
    <glyph glyph-name="uni0473" unicode="&#x473;" horiz-adv-x="560" 
d="M280 -12c-138 0 -233 106 -233 270s95 270 233 270s233 -106 233 -270s-95 -270 -233 -270zM280 59c86 0 147 53 147 162v10h-294v-10c0 -109 61 -162 147 -162zM133 295v-2h294v2c0 109 -61 162 -147 162s-147 -53 -147 -162z" />
    <glyph glyph-name="uni0490" unicode="&#x490;" horiz-adv-x="499" 
d="M93 0v698h303v150h77v-224h-296v-624h-84z" />
    <glyph glyph-name="uni0491" unicode="&#x491;" horiz-adv-x="435" 
d="M85 0v516h253v140h73v-210h-246v-446h-80z" />
    <glyph glyph-name="uni0492" unicode="&#x492;" horiz-adv-x="519" 
d="M113 0v338h-99v64h99v296h380v-74h-296v-222h198v-64h-198v-338h-84z" />
    <glyph glyph-name="uni0493" unicode="&#x493;" horiz-adv-x="453" 
d="M103 0v230h-74v62h74v224h326v-70h-246v-154h164v-62h-164v-230h-80z" />
    <glyph glyph-name="uni0494" unicode="&#x494;" horiz-adv-x="635" 
d="M340 -164v74h84c42 28 69 84 69 174v70c0 122 -57 174 -165 174c-62 0 -117 -9 -151 -23v-305h-84v698h380v-74h-296v-245h5c36 14 91 23 149 23c167 0 246 -80 246 -248v-70c0 -160 -79 -248 -191 -248h-46z" />
    <glyph glyph-name="uni0495" unicode="&#x495;" horiz-adv-x="538" 
d="M291 -200v70h86c18 22 31 63 31 141v95c0 90 -32 121 -111 121c-76 0 -132 -21 -132 -63v-164h-80v516h326v-70h-246v-209h5c32 36 75 62 151 62c109 0 167 -52 167 -186v-114c0 -136 -55 -199 -145 -199h-52z" />
    <glyph glyph-name="uni0496" unicode="&#x496;" horiz-adv-x="986" 
d="M894 -150v150h-22c-38 0 -66 18 -94 73l-124 244h-123v-317h-84v317h-123l-126 -244c-28 -55 -54 -73 -92 -73h-64v74h63l108 209c23 45 43 60 73 68v5c-26 8 -48 25 -67 65l-94 203h-63v74h52c42 0 75 -19 100 -72l110 -237h123v309h84v-309h123l112 237
c25 53 56 72 98 72h52v-74h-63l-96 -203c-19 -40 -39 -57 -65 -65v-5c30 -8 52 -23 75 -68l106 -209h98v-224h-77z" />
    <glyph glyph-name="uni0497" unicode="&#x497;" horiz-adv-x="775" 
d="M683 -140v140h-10c-36 0 -65 16 -88 70l-68 162h-92v-232h-80v232h-92l-68 -162c-23 -54 -52 -70 -88 -70h-57v70h60l58 139c14 34 37 51 63 55v4c-26 8 -46 26 -61 59l-53 119h-60v70h47c40 0 70 -19 90 -63l69 -153h92v216h80v-216h92l69 153c20 44 50 63 90 63h47v-70
h-60l-53 -119c-15 -33 -35 -51 -61 -59v-4c26 -4 49 -21 63 -55l58 -139h86v-210h-73z" />
    <glyph glyph-name="uni0498" unicode="&#x498;" horiz-adv-x="593" 
d="M246 -150v140c-92 8 -163 54 -209 122l61 49c42 -62 98 -98 183 -98c100 0 159 40 159 125v13c0 72 -46 119 -150 119h-105v74h99c98 0 140 40 140 120v14c0 67 -44 107 -136 107c-84 0 -133 -32 -165 -80l-65 42c50 72 116 113 230 113c151 0 226 -73 226 -183
c0 -95 -51 -148 -133 -165v-5c82 -10 149 -59 149 -164c0 -112 -77 -189 -207 -203v-140h-77z" />
    <glyph glyph-name="uni0499" unicode="&#x499;" horiz-adv-x="501" 
d="M195 -140v130c-83 8 -132 44 -167 102l60 48c26 -50 74 -81 143 -81c83 0 124 34 124 82v12c0 52 -37 80 -101 80h-110v67h100c64 0 100 26 100 73v12c0 44 -33 72 -115 72c-67 0 -111 -30 -137 -76l-53 45c32 60 92 102 194 102c134 0 197 -53 197 -139
c0 -64 -35 -100 -99 -115v-4c73 -10 110 -55 110 -120c0 -89 -67 -149 -173 -160v-130h-73z" />
    <glyph glyph-name="uni049A" unicode="&#x49a;" horiz-adv-x="670" 
d="M580 -150v150h-22c-32 0 -60 14 -91 65l-154 252h-136v-317h-84v698h84v-309h136l140 239c30 51 57 70 99 70h46v-74h-63l-124 -212c-25 -40 -35 -48 -59 -56v-5c30 -6 51 -18 77 -64l130 -213h98v-224h-77z" />
    <glyph glyph-name="uni049B" unicode="&#x49b;" horiz-adv-x="556" 
d="M464 -140v140h-12c-34 0 -62 15 -89 63l-95 169h-103v-232h-80v516h80v-216h103l100 158c30 48 51 58 87 58h47v-70h-62l-81 -128c-21 -34 -30 -42 -56 -50v-4c28 -4 47 -14 69 -54l79 -140h86v-210h-73z" />
    <glyph glyph-name="uni049C" unicode="&#x49c;" horiz-adv-x="692" 
d="M93 0v698h84v-309h57v154h64v-154h55l130 238c29 53 57 71 99 71h46v-74h-63l-117 -214c-20 -37 -32 -46 -56 -54v-5c30 -6 49 -19 74 -63l123 -214h61v-74h-62c-36 0 -64 19 -92 68l-143 249h-55v-154h-64v154h-57v-317h-84z" />
    <glyph glyph-name="uni049D" unicode="&#x49d;" horiz-adv-x="580" 
d="M85 0v516h80v-216h44v118h60v-118h39l90 158c28 50 51 58 87 58h47v-70h-62l-74 -128c-20 -35 -31 -43 -53 -50v-4c30 -4 46 -13 67 -54l71 -140h59v-70h-58c-34 0 -63 14 -88 63l-86 169h-39v-117h-60v117h-44v-232h-80z" />
    <glyph glyph-name="uni04A0" unicode="&#x4a0;" horiz-adv-x="773" 
d="M204 0v624h-182v74h266v-309h136l140 239c30 51 57 70 99 70h46v-74h-63l-124 -212c-25 -40 -35 -48 -59 -56v-5c30 -6 51 -18 77 -64l130 -213h61v-74h-62c-32 0 -60 14 -91 65l-154 252h-136v-317h-84z" />
    <glyph glyph-name="uni04A1" unicode="&#x4a1;" horiz-adv-x="620" 
d="M155 0v446h-135v70h215v-216h103l100 158c30 48 51 58 87 58h47v-70h-62l-81 -128c-21 -34 -30 -42 -56 -50v-4c28 -4 47 -14 69 -54l79 -140h59v-70h-58c-34 0 -62 15 -89 63l-95 169h-103v-232h-80z" />
    <glyph glyph-name="uni04A2" unicode="&#x4a2;" horiz-adv-x="744" 
d="M635 -150v150h-105v316h-353v-316h-84v698h84v-308h353v308h84v-624h98v-224h-77z" />
    <glyph glyph-name="uni04A3" unicode="&#x4a3;" horiz-adv-x="615" 
d="M516 -140v140h-93v231h-258v-231h-80v516h80v-215h258v215h80v-446h86v-210h-73z" />
    <glyph glyph-name="uni04A4" unicode="&#x4a4;" horiz-adv-x="916" 
d="M93 0v698h84v-308h333v308h380v-74h-296v-624h-84v316h-333v-316h-84z" />
    <glyph glyph-name="uni04A5" unicode="&#x4a5;" horiz-adv-x="757" 
d="M85 0v516h80v-215h242v215h326v-70h-246v-446h-80v231h-242v-231h-80z" />
    <glyph glyph-name="uni04AA" unicode="&#x4aa;" horiz-adv-x="621" 
d="M302 -150v140c-154 16 -244 139 -244 355c0 233 105 365 281 365c116 0 196 -56 240 -153l-68 -41c-28 72 -86 119 -172 119c-120 0 -191 -95 -191 -238v-104c0 -143 71 -230 191 -230c89 0 150 50 178 126l67 -42c-39 -87 -110 -144 -205 -156v-141h-77z" />
    <glyph glyph-name="uni04AB" unicode="&#x4ab;" horiz-adv-x="503" 
d="M242 -140v131c-124 15 -195 116 -195 267c0 165 85 270 230 270c102 0 163 -50 193 -121l-67 -34c-19 53 -63 84 -126 84c-95 0 -144 -65 -144 -155v-88c0 -90 49 -155 144 -155c65 0 112 31 140 90l58 -39c-29 -64 -83 -109 -160 -119v-131h-73z" />
    <glyph glyph-name="uni04AE" unicode="&#x4ae;" horiz-adv-x="593" 
d="M337 0h-84v276l-240 422h96l186 -336h3l186 336h96l-243 -419v-279z" />
    <glyph glyph-name="uni04AF" unicode="&#x4af;" horiz-adv-x="492" 
d="M206 -200v200l-188 516h80l93 -257l53 -165h5l54 165l94 257h77l-188 -516v-200h-80z" />
    <glyph glyph-name="uni04B0" unicode="&#x4b0;" horiz-adv-x="593" 
d="M253 0v212h-165v64h165l-240 422h96l187 -337h3l185 337h96l-243 -422h164v-64h-164v-212h-84z" />
    <glyph glyph-name="uni04B1" unicode="&#x4b1;" horiz-adv-x="492" 
d="M206 -200v138h-124v62h124l-188 516h80l93 -257l53 -165h5l54 165l94 257h77l-188 -516h124v-62h-124v-138h-80z" />
    <glyph glyph-name="uni04B2" unicode="&#x4b2;" horiz-adv-x="644" 
d="M562 -150v150h-74l-183 293h-2l-183 -293h-96l228 355l-222 343h101l175 -278h2l179 278h96l-224 -340l182 -284h98v-224h-77z" />
    <glyph glyph-name="uni04B3" unicode="&#x4b3;" horiz-adv-x="531" 
d="M450 -140v140h-58l-134 202h-3l-145 -202h-89l191 260l-183 256h94l131 -192h3l136 192h89l-182 -250l137 -196h86v-210h-73z" />
    <glyph glyph-name="uni04B6" unicode="&#x4b6;" horiz-adv-x="682" 
d="M573 -150v150h-105v275h-5c-36 -14 -92 -23 -154 -23c-172 0 -251 80 -251 248v198h84v-198c0 -122 57 -174 170 -174c66 0 122 9 156 23v349h84v-624h98v-224h-77z" />
    <glyph glyph-name="uni04B7" unicode="&#x4b7;" horiz-adv-x="565" 
d="M466 -140v140h-93v237h-5c-32 -36 -75 -62 -151 -62c-105 0 -167 53 -167 159v182h80v-175c0 -63 36 -94 111 -94c76 0 132 21 132 63v206h80v-446h86v-210h-73z" />
    <glyph glyph-name="uni04B8" unicode="&#x4b8;" horiz-adv-x="645" 
d="M468 0v275h-5c-31 -12 -75 -20 -125 -23v-140h-64v141c-148 11 -216 91 -216 247v198h84v-198c0 -108 44 -161 132 -172v165h64v-167c54 2 100 11 130 23v349h84v-698h-84z" />
    <glyph glyph-name="uni04B9" unicode="&#x4b9;" horiz-adv-x="538" 
d="M373 0v235h-5c-20 -24 -52 -46 -86 -54v-92h-60v86c-112 0 -172 53 -172 159v182h80v-175c0 -57 30 -88 92 -93v144h60v-144c54 4 91 28 91 62v206h80v-516h-80z" />
    <glyph glyph-name="uni04BA" unicode="&#x4ba;" horiz-adv-x="645" 
d="M93 0v698h84v-275h5c36 14 92 23 154 23c172 0 251 -80 251 -248v-198h-84v198c0 122 -57 174 -170 174c-66 0 -122 -9 -156 -23v-349h-84z" />
    <glyph glyph-name="uni04BB" unicode="&#x4bb;" horiz-adv-x="568" 
d="M85 0v740h80v-308h4c25 58 69 96 146 96c106 0 173 -72 173 -197v-331h-80v317c0 92 -40 139 -117 139c-64 0 -126 -32 -126 -98v-358h-80z" />
    <glyph glyph-name="uni04C0" unicode="&#x4c0;" horiz-adv-x="400" 
d="M340 0h-280v70h98v558h-98v70h280v-70h-98v-558h98v-70z" />
    <glyph glyph-name="uni04C1" unicode="&#x4c1;" horiz-adv-x="978" 
d="M488 766c-72 0 -112 31 -137 78l-20 38l70 31l35 -82c16 -4 36 -6 52 -6s36 2 52 6l35 82l70 -31l-20 -38c-25 -47 -65 -78 -137 -78zM42 0v74h63l108 209c23 45 43 60 73 68v5c-26 8 -48 25 -67 65l-94 203h-63v74h52c42 0 75 -19 100 -72l110 -237h123v309h84v-309h123
l112 237c25 53 56 72 98 72h52v-74h-63l-96 -203c-19 -40 -39 -57 -65 -65v-5c30 -8 52 -23 75 -68l106 -209h63v-74h-64c-38 0 -66 18 -94 73l-124 244h-123v-317h-84v317h-123l-126 -244c-28 -55 -54 -73 -92 -73h-64z" />
    <glyph glyph-name="uni04C2" unicode="&#x4c2;" horiz-adv-x="770" 
d="M385 596c-72 0 -112 31 -137 78l-20 38l70 31l35 -82c16 -4 36 -6 52 -6s36 2 52 6l35 82l70 -31l-20 -38c-25 -47 -65 -78 -137 -78zM40 0v70h60l58 139c14 34 37 51 63 55v4c-26 8 -46 26 -61 59l-53 119h-60v70h47c40 0 70 -19 90 -63l69 -153h92v216h80v-216h92
l69 153c20 44 50 63 90 63h47v-70h-60l-53 -119c-15 -33 -35 -51 -61 -59v-4c26 -4 49 -21 63 -55l58 -139h60v-70h-57c-36 0 -65 16 -88 70l-68 162h-92v-232h-80v232h-92l-68 -162c-23 -54 -52 -70 -88 -70h-57z" />
    <glyph glyph-name="uni04CF" unicode="&#x4cf;" horiz-adv-x="250" 
d="M85 0v740h80v-740h-80z" />
    <glyph glyph-name="uni04D0" unicode="&#x4d0;" horiz-adv-x="641" 
d="M321 766c-72 0 -112 31 -137 78l-20 38l70 31l35 -82c16 -4 36 -6 52 -6s36 2 52 6l35 82l70 -31l-20 -38c-25 -47 -65 -78 -137 -78zM618 0h-88l-70 206h-282l-70 -206h-85l244 698h107zM439 280l-118 340h-5l-118 -340h241z" />
    <glyph glyph-name="uni04D1" unicode="&#x4d1;" horiz-adv-x="534" 
d="M252 596c-72 0 -112 31 -137 78l-20 38l70 31l35 -82c16 -4 36 -6 52 -6s36 2 52 6l35 82l70 -31l-20 -38c-25 -47 -65 -78 -137 -78zM505 0h-45c-59 0 -83 36 -89 84h-5c-22 -63 -77 -96 -149 -96c-109 0 -173 60 -173 156c0 97 70 151 220 151h102v51
c0 73 -40 113 -122 113c-62 0 -103 -30 -131 -77l-48 45c28 55 90 101 183 101c124 0 198 -65 198 -174v-284h59v-70zM230 56c79 0 136 41 136 94v85h-106c-91 0 -132 -28 -132 -78v-21c0 -51 40 -80 102 -80z" />
    <glyph glyph-name="uni04D2" unicode="&#x4d2;" horiz-adv-x="641" 
d="M229 788c-34 0 -50 19 -50 47v12c0 28 16 47 50 47s50 -19 50 -47v-12c0 -28 -16 -47 -50 -47zM415 788c-34 0 -50 19 -50 47v12c0 28 16 47 50 47s50 -19 50 -47v-12c0 -28 -16 -47 -50 -47zM618 0h-88l-70 206h-282l-70 -206h-85l244 698h107zM439 280l-118 340h-5
l-118 -340h241z" />
    <glyph glyph-name="uni04D3" unicode="&#x4d3;" horiz-adv-x="534" 
d="M159 618c-34 0 -49 18 -49 46v11c0 28 15 46 49 46s49 -18 49 -46v-11c0 -28 -15 -46 -49 -46zM345 618c-34 0 -49 18 -49 46v11c0 28 15 46 49 46s49 -18 49 -46v-11c0 -28 -15 -46 -49 -46zM505 0h-45c-59 0 -83 36 -89 84h-5c-22 -63 -77 -96 -149 -96
c-109 0 -173 60 -173 156c0 97 70 151 220 151h102v51c0 73 -40 113 -122 113c-62 0 -103 -30 -131 -77l-48 45c28 55 90 101 183 101c124 0 198 -65 198 -174v-284h59v-70zM230 56c79 0 136 41 136 94v85h-106c-91 0 -132 -28 -132 -78v-21c0 -51 40 -80 102 -80z" />
    <glyph glyph-name="uni04D4" unicode="&#x4d4;" horiz-adv-x="907" 
d="M417 0v205h-225l-102 -205h-86l357 698h482v-74h-343v-234h323v-74h-323v-242h343v-74h-426zM417 624h-13l-177 -345h190v345z" />
    <glyph glyph-name="uni04D5" unicode="&#x4d5;" horiz-adv-x="864" 
d="M366 238h-106c-91 -3 -132 -31 -132 -81v-21c0 -51 39 -80 103 -80c77 0 135 41 135 94v88zM446 298h285v11c0 91 -55 152 -137 152c-87 0 -148 -66 -148 -156v-7zM599 58c66 0 114 31 142 88l57 -40c-33 -71 -106 -118 -195 -118c-109 0 -180 70 -191 116h-6
c-9 -44 -76 -116 -191 -116c-104 0 -171 60 -171 154c0 99 74 156 220 156h102v48c0 73 -41 113 -119 113c-66 0 -105 -28 -134 -76l-48 44c27 54 90 101 184 101c118 0 152 -75 162 -115h6c12 46 81 115 186 115c131 0 214 -106 214 -252v-38h-371v-24
c0 -89 57 -156 153 -156z" />
    <glyph glyph-name="uni04D6" unicode="&#x4d6;" horiz-adv-x="583" 
d="M303 766c-72 0 -112 31 -137 78l-20 38l70 31l35 -82c16 -4 36 -6 52 -6s36 2 52 6l35 82l70 -31l-20 -38c-25 -47 -65 -78 -137 -78zM519 0h-426v698h426v-74h-342v-234h322v-74h-322v-242h342v-74z" />
    <glyph glyph-name="uni04D7" unicode="&#x4d7;" horiz-adv-x="549" 
d="M279 596c-72 0 -112 31 -137 78l-20 38l70 31l35 -82c16 -4 36 -6 52 -6s36 2 52 6l35 82l70 -31l-20 -38c-25 -47 -65 -78 -137 -78zM279 -12c-140 0 -232 106 -232 270s92 270 232 270c138 0 223 -106 223 -252v-38h-371v-24c0 -89 57 -156 153 -156
c65 0 115 32 142 89l57 -41c-33 -70 -107 -118 -204 -118zM279 461c-87 0 -148 -66 -148 -156v-7h285v11c0 91 -55 152 -137 152z" />
    <glyph glyph-name="uni04D8" unicode="&#x4d8;" horiz-adv-x="708" 
d="M58 349v22h503v30c0 146 -80 234 -202 234c-90 0 -165 -53 -200 -137l-70 34c40 101 141 178 271 178c186 0 290 -136 290 -361c0 -226 -113 -361 -297 -361s-295 121 -295 361zM353 63c116 0 208 93 208 234v5h-416v-5c0 -141 92 -234 208 -234z" />
    <glyph glyph-name="uni04D9" unicode="&#x4d9;" horiz-adv-x="549" 
d="M47 278h371v24c0 89 -57 156 -153 156c-65 0 -115 -32 -142 -89l-57 41c33 70 107 118 204 118c140 0 232 -106 232 -270s-92 -270 -232 -270c-138 0 -223 106 -223 252v38zM133 218v-11c0 -91 55 -152 137 -152c87 0 148 66 148 156v7h-285z" />
    <glyph glyph-name="uni04DC" unicode="&#x4dc;" horiz-adv-x="978" 
d="M396 788c-34 0 -50 19 -50 47v12c0 28 16 47 50 47s50 -19 50 -47v-12c0 -28 -16 -47 -50 -47zM582 788c-34 0 -50 19 -50 47v12c0 28 16 47 50 47s50 -19 50 -47v-12c0 -28 -16 -47 -50 -47zM42 0v74h63l108 209c23 45 43 60 73 68v5c-26 8 -48 25 -67 65l-94 203h-63
v74h52c42 0 75 -19 100 -72l110 -237h123v309h84v-309h123l112 237c25 53 56 72 98 72h52v-74h-63l-96 -203c-19 -40 -39 -57 -65 -65v-5c30 -8 52 -23 75 -68l106 -209h63v-74h-64c-38 0 -66 18 -94 73l-124 244h-123v-317h-84v317h-123l-126 -244c-28 -55 -54 -73 -92 -73
h-64z" />
    <glyph glyph-name="uni04DD" unicode="&#x4dd;" horiz-adv-x="770" 
d="M292 618c-34 0 -49 18 -49 46v11c0 28 15 46 49 46s49 -18 49 -46v-11c0 -28 -15 -46 -49 -46zM478 618c-34 0 -49 18 -49 46v11c0 28 15 46 49 46s49 -18 49 -46v-11c0 -28 -15 -46 -49 -46zM40 0v70h60l58 139c14 34 37 51 63 55v4c-26 8 -46 26 -61 59l-53 119h-60v70
h47c40 0 70 -19 90 -63l69 -153h92v216h80v-216h92l69 153c20 44 50 63 90 63h47v-70h-60l-53 -119c-15 -33 -35 -51 -61 -59v-4c26 -4 49 -21 63 -55l58 -139h60v-70h-57c-36 0 -65 16 -88 70l-68 162h-92v-232h-80v232h-92l-68 -162c-23 -54 -52 -70 -88 -70h-57z" />
    <glyph glyph-name="uni04DE" unicode="&#x4de;" horiz-adv-x="593" 
d="M195 788c-34 0 -50 19 -50 47v12c0 28 16 47 50 47s50 -19 50 -47v-12c0 -28 -16 -47 -50 -47zM381 788c-34 0 -50 19 -50 47v12c0 28 16 47 50 47s50 -19 50 -47v-12c0 -28 -16 -47 -50 -47zM281 -12c-113 0 -192 48 -244 124l61 49c42 -62 98 -98 183 -98
c100 0 159 40 159 125v13c0 72 -46 119 -150 119h-105v74h99c98 0 140 40 140 120v14c0 67 -44 107 -136 107c-84 0 -133 -32 -165 -80l-65 42c50 72 116 113 230 113c151 0 226 -73 226 -183c0 -95 -51 -148 -133 -165v-5c82 -10 149 -59 149 -164
c0 -123 -93 -205 -249 -205z" />
    <glyph glyph-name="uni04DF" unicode="&#x4df;" horiz-adv-x="501" 
d="M137 618c-34 0 -49 18 -49 46v11c0 28 15 46 49 46s49 -18 49 -46v-11c0 -28 -15 -46 -49 -46zM323 618c-34 0 -49 18 -49 46v11c0 28 15 46 49 46s49 -18 49 -46v-11c0 -28 -15 -46 -49 -46zM231 -12c-105 0 -163 38 -203 104l60 48c26 -50 74 -81 143 -81
c83 0 124 34 124 82v12c0 52 -37 80 -101 80h-110v67h100c64 0 100 26 100 73v12c0 44 -33 72 -115 72c-67 0 -111 -30 -137 -76l-53 45c32 60 92 102 194 102c134 0 197 -53 197 -139c0 -64 -35 -100 -99 -115v-4c73 -10 110 -55 110 -120c0 -99 -82 -162 -210 -162z" />
    <glyph glyph-name="uni04E2" unicode="&#x4e2;" horiz-adv-x="707" 
d="M212 807v68h280v-68h-280zM93 0v698h82v-438l-8 -143h3l70 126l298 455h76v-698h-82v438l8 143h-3l-70 -126l-298 -455h-76z" />
    <glyph glyph-name="uni04E3" unicode="&#x4e3;" horiz-adv-x="588" 
d="M155 637v68h280v-68h-280zM85 0v516h78v-286l-8 -124h4l64 110l206 300h74v-516h-78v286l8 124h-4l-64 -110l-206 -300h-74z" />
    <glyph glyph-name="uni04E4" unicode="&#x4e4;" horiz-adv-x="707" 
d="M259 788c-34 0 -50 19 -50 47v12c0 28 16 47 50 47s50 -19 50 -47v-12c0 -28 -16 -47 -50 -47zM445 788c-34 0 -50 19 -50 47v12c0 28 16 47 50 47s50 -19 50 -47v-12c0 -28 -16 -47 -50 -47zM93 0v698h82v-438l-8 -143h3l70 126l298 455h76v-698h-82v438l8 143h-3
l-70 -126l-298 -455h-76z" />
    <glyph glyph-name="uni04E5" unicode="&#x4e5;" horiz-adv-x="588" 
d="M202 618c-34 0 -49 18 -49 46v11c0 28 15 46 49 46s49 -18 49 -46v-11c0 -28 -15 -46 -49 -46zM388 618c-34 0 -49 18 -49 46v11c0 28 15 46 49 46s49 -18 49 -46v-11c0 -28 -15 -46 -49 -46zM85 0v516h78v-286l-8 -124h4l64 110l206 300h74v-516h-78v286l8 124h-4
l-64 -110l-206 -300h-74z" />
    <glyph glyph-name="uni04E6" unicode="&#x4e6;" horiz-adv-x="708" 
d="M261 788c-34 0 -50 19 -50 47v12c0 28 16 47 50 47s50 -19 50 -47v-12c0 -28 -16 -47 -50 -47zM447 788c-34 0 -50 19 -50 47v12c0 28 16 47 50 47s50 -19 50 -47v-12c0 -28 -16 -47 -50 -47zM354 -12c-180 0 -296 127 -296 361s116 361 296 361s296 -127 296 -361
s-116 -361 -296 -361zM354 63c121 0 206 90 206 228v116c0 138 -85 228 -206 228s-206 -90 -206 -228v-116c0 -138 85 -228 206 -228z" />
    <glyph glyph-name="uni04E7" unicode="&#x4e7;" horiz-adv-x="560" 
d="M187 618c-34 0 -49 18 -49 46v11c0 28 15 46 49 46s49 -18 49 -46v-11c0 -28 -15 -46 -49 -46zM373 618c-34 0 -49 18 -49 46v11c0 28 15 46 49 46s49 -18 49 -46v-11c0 -28 -15 -46 -49 -46zM280 -12c-138 0 -233 106 -233 270s95 270 233 270s233 -106 233 -270
s-95 -270 -233 -270zM280 59c86 0 147 53 147 162v74c0 109 -61 162 -147 162s-147 -53 -147 -162v-74c0 -109 61 -162 147 -162z" />
    <glyph glyph-name="uni04E8" unicode="&#x4e8;" horiz-adv-x="708" 
d="M354 -12c-180 0 -296 127 -296 361s116 361 296 361s296 -127 296 -361s-116 -361 -296 -361zM354 63c121 0 206 90 206 228v25h-412v-25c0 -138 85 -228 206 -228zM148 407v-17h412v17c0 138 -85 228 -206 228s-206 -90 -206 -228z" />
    <glyph glyph-name="uni04E9" unicode="&#x4e9;" horiz-adv-x="560" 
d="M280 -12c-138 0 -233 106 -233 270s95 270 233 270s233 -106 233 -270s-95 -270 -233 -270zM280 59c86 0 147 53 147 162v10h-294v-10c0 -109 61 -162 147 -162zM133 295v-2h294v2c0 109 -61 162 -147 162s-147 -53 -147 -162z" />
    <glyph glyph-name="uni04EE" unicode="&#x4ee;" horiz-adv-x="595" 
d="M167 807v68h280v-68h-280zM144 0v74h101l33 83l-258 541h91l151 -318l52 -121h5l44 123l126 316h86l-244 -609c-29 -72 -56 -89 -132 -89h-55z" />
    <glyph glyph-name="uni04EF" unicode="&#x4ef;" horiz-adv-x="499" 
d="M110 637v68h280v-68h-280zM278 165l125 351h79l-231 -636c-23 -62 -44 -80 -120 -80h-41v70h81l39 110l-193 536h80l124 -351l24 -84h5z" />
    <glyph glyph-name="uni04F0" unicode="&#x4f0;" horiz-adv-x="595" 
d="M214 788c-34 0 -50 19 -50 47v12c0 28 16 47 50 47s50 -19 50 -47v-12c0 -28 -16 -47 -50 -47zM400 788c-34 0 -50 19 -50 47v12c0 28 16 47 50 47s50 -19 50 -47v-12c0 -28 -16 -47 -50 -47zM144 0v74h101l33 83l-258 541h91l151 -318l52 -121h5l44 123l126 316h86
l-244 -609c-29 -72 -56 -89 -132 -89h-55z" />
    <glyph glyph-name="uni04F1" unicode="&#x4f1;" horiz-adv-x="499" 
d="M157 618c-34 0 -49 18 -49 46v11c0 28 15 46 49 46s49 -18 49 -46v-11c0 -28 -15 -46 -49 -46zM343 618c-34 0 -49 18 -49 46v11c0 28 15 46 49 46s49 -18 49 -46v-11c0 -28 -15 -46 -49 -46zM278 165l125 351h79l-231 -636c-23 -62 -44 -80 -120 -80h-41v70h81l39 110
l-193 536h80l124 -351l24 -84h5z" />
    <glyph glyph-name="uni04F2" unicode="&#x4f2;" horiz-adv-x="595" 
d="M340 915l-106 -159l-48 22l85 170zM500 915l-106 -159l-48 22l85 170zM144 0v74h101l33 83l-258 541h91l151 -318l52 -121h5l44 123l126 316h86l-244 -609c-29 -72 -56 -89 -132 -89h-55z" />
    <glyph glyph-name="uni04F3" unicode="&#x4f3;" horiz-adv-x="499" 
d="M283 745l-106 -159l-48 22l85 170zM443 745l-106 -159l-48 22l85 170zM278 165l125 351h79l-231 -636c-23 -62 -44 -80 -120 -80h-41v70h81l39 110l-193 536h80l124 -351l24 -84h5z" />
    <glyph glyph-name="uni04F4" unicode="&#x4f4;" horiz-adv-x="645" 
d="M212 788c-34 0 -50 19 -50 47v12c0 28 16 47 50 47s50 -19 50 -47v-12c0 -28 -16 -47 -50 -47zM398 788c-34 0 -50 19 -50 47v12c0 28 16 47 50 47s50 -19 50 -47v-12c0 -28 -16 -47 -50 -47zM468 0v275h-5c-36 -14 -92 -23 -154 -23c-172 0 -251 80 -251 248v198h84
v-198c0 -122 57 -174 170 -174c66 0 122 9 156 23v349h84v-698h-84z" />
    <glyph glyph-name="uni04F5" unicode="&#x4f5;" horiz-adv-x="538" 
d="M158 618c-34 0 -49 18 -49 46v11c0 28 15 46 49 46s49 -18 49 -46v-11c0 -28 -15 -46 -49 -46zM344 618c-34 0 -49 18 -49 46v11c0 28 15 46 49 46s49 -18 49 -46v-11c0 -28 -15 -46 -49 -46zM373 0v237h-5c-32 -36 -75 -62 -151 -62c-105 0 -167 53 -167 159v182h80
v-175c0 -63 36 -94 111 -94c76 0 132 21 132 63v206h80v-516h-80z" />
    <glyph glyph-name="uni04F8" unicode="&#x4f8;" horiz-adv-x="875" 
d="M344 788c-34 0 -50 19 -50 47v12c0 28 16 47 50 47s50 -19 50 -47v-12c0 -28 -16 -47 -50 -47zM530 788c-34 0 -50 19 -50 47v12c0 28 16 47 50 47s50 -19 50 -47v-12c0 -28 -16 -47 -50 -47zM93 0v698h84v-280h208c125 0 195 -77 195 -209s-70 -209 -195 -209h-292z
M177 74h208c66 0 105 36 105 109v52c0 73 -39 109 -105 109h-208v-270zM698 0v698h84v-698h-84z" />
    <glyph glyph-name="uni04F9" unicode="&#x4f9;" horiz-adv-x="724" 
d="M269 618c-34 0 -49 18 -49 46v11c0 28 15 46 49 46s49 -18 49 -46v-11c0 -28 -15 -46 -49 -46zM455 618c-34 0 -49 18 -49 46v11c0 28 15 46 49 46s49 -18 49 -46v-11c0 -28 -15 -46 -49 -46zM85 0v516h80v-187h137c104 0 170 -63 170 -165c0 -103 -64 -164 -169 -164
h-218zM165 70h126c60 0 95 21 95 74v42c0 53 -35 73 -95 73h-126v-189zM559 0v516h80v-516h-80z" />
    <glyph glyph-name="uni0E3F" unicode="&#xe3f;" horiz-adv-x="644" 
d="M347 21v-103h-62v103h-192v656h192v103h62v-103h24c114 0 185 -67 185 -169c0 -89 -54 -129 -117 -140v-6c65 -11 142 -41 142 -151c0 -108 -78 -190 -181 -190h-53zM176 393h110v210h-110v-210zM346 603v-210h27c66 0 96 30 96 90v30c0 60 -30 90 -96 90h-27zM176 95
h110v229h-110v-229zM346 324v-229h31c72 0 117 32 117 97v35c0 65 -45 97 -117 97h-31z" />
    <glyph glyph-name="Wgrave" unicode="&#x1e80;" horiz-adv-x="891" 
d="M439 755l-106 159l73 35l85 -170zM283 0h-93l-170 698h89l75 -336l58 -261h2l65 261l88 336h96l85 -336l65 -260h3l60 260l79 336h86l-179 -698h-93l-91 348l-64 256h-2l-66 -256z" />
    <glyph glyph-name="wgrave" unicode="&#x1e81;" horiz-adv-x="768" 
d="M377 585l-106 159l73 35l85 -170zM169 0l-138 516h78l55 -223l55 -226h2l63 226l65 223h71l67 -223l64 -226h2l53 226l56 223h75l-137 -516h-99l-72 248l-45 157h-2l-44 -157l-72 -248h-97z" />
    <glyph glyph-name="Wacute" unicode="&#x1e82;" horiz-adv-x="891" 
d="M559 914l-106 -159l-52 24l85 170zM283 0h-93l-170 698h89l75 -336l58 -261h2l65 261l88 336h96l85 -336l65 -260h3l60 260l79 336h86l-179 -698h-93l-91 348l-64 256h-2l-66 -256z" />
    <glyph glyph-name="wacute" unicode="&#x1e83;" horiz-adv-x="768" 
d="M497 744l-106 -159l-52 24l85 170zM169 0l-138 516h78l55 -223l55 -226h2l63 226l65 223h71l67 -223l64 -226h2l53 226l56 223h75l-137 -516h-99l-72 248l-45 157h-2l-44 -157l-72 -248h-97z" />
    <glyph glyph-name="Wdieresis" unicode="&#x1e84;" horiz-adv-x="891" 
d="M353 788c-34 0 -50 19 -50 47v12c0 28 16 47 50 47s50 -19 50 -47v-12c0 -28 -16 -47 -50 -47zM539 788c-34 0 -50 19 -50 47v12c0 28 16 47 50 47s50 -19 50 -47v-12c0 -28 -16 -47 -50 -47zM283 0h-93l-170 698h89l75 -336l58 -261h2l65 261l88 336h96l85 -336l65 -260
h3l60 260l79 336h86l-179 -698h-93l-91 348l-64 256h-2l-66 -256z" />
    <glyph glyph-name="wdieresis" unicode="&#x1e85;" horiz-adv-x="768" 
d="M291 618c-34 0 -49 18 -49 46v11c0 28 15 46 49 46s49 -18 49 -46v-11c0 -28 -15 -46 -49 -46zM477 618c-34 0 -49 18 -49 46v11c0 28 15 46 49 46s49 -18 49 -46v-11c0 -28 -15 -46 -49 -46zM169 0l-138 516h78l55 -223l55 -226h2l63 226l65 223h71l67 -223l64 -226h2
l53 226l56 223h75l-137 -516h-99l-72 248l-45 157h-2l-44 -157l-72 -248h-97z" />
    <glyph glyph-name="uni1E9E" unicode="&#x1e9e;" horiz-adv-x="700" 
d="M648 196c0 -131 -86 -208 -220 -208c-89 0 -153 29 -199 93l58 49c35 -46 83 -71 141 -71c84 0 130 48 130 122v30c0 74 -46 121 -130 121h-94v77l185 215h-342v-624h-84v698h511v-82l-181 -211v-4c139 -2 225 -76 225 -205z" />
    <glyph glyph-name="uni1EA0" unicode="&#x1ea0;" horiz-adv-x="641" 
d="M322 -169c-34 0 -51 18 -51 46v11c0 28 17 46 51 46s51 -18 51 -46v-11c0 -28 -17 -46 -51 -46zM618 0h-88l-70 206h-282l-70 -206h-85l244 698h107zM439 280l-118 340h-5l-118 -340h241z" />
    <glyph glyph-name="uni1EA1" unicode="&#x1ea1;" horiz-adv-x="534" 
d="M245 -169c-34 0 -51 18 -51 46v11c0 28 17 46 51 46s51 -18 51 -46v-11c0 -28 -17 -46 -51 -46zM505 0h-45c-59 0 -83 36 -89 84h-5c-22 -63 -77 -96 -149 -96c-109 0 -173 60 -173 156c0 97 70 151 220 151h102v51c0 73 -40 113 -122 113c-62 0 -103 -30 -131 -77
l-48 45c28 55 90 101 183 101c124 0 198 -65 198 -174v-284h59v-70zM230 56c79 0 136 41 136 94v85h-106c-91 0 -132 -28 -132 -78v-21c0 -51 40 -80 102 -80z" />
    <glyph glyph-name="uni1EA2" unicode="&#x1ea2;" horiz-adv-x="641" 
d="M238 874v61h109c51 0 70 -25 70 -55c0 -29 -18 -64 -49 -103l-24 -30l-46 23l58 104h-118zM618 0h-88l-70 206h-282l-70 -206h-85l244 698h107zM439 280l-118 340h-5l-118 -340h241z" />
    <glyph glyph-name="uni1EA3" unicode="&#x1ea3;" horiz-adv-x="534" 
d="M168 704v61h109c51 0 70 -25 70 -55c0 -29 -18 -64 -49 -103l-24 -30l-46 23l58 104h-118zM505 0h-45c-59 0 -83 36 -89 84h-5c-22 -63 -77 -96 -149 -96c-109 0 -173 60 -173 156c0 97 70 151 220 151h102v51c0 73 -40 113 -122 113c-62 0 -103 -30 -131 -77l-48 45
c28 55 90 101 183 101c124 0 198 -65 198 -174v-284h59v-70zM230 56c79 0 136 41 136 94v85h-106c-91 0 -132 -28 -132 -78v-21c0 -51 40 -80 102 -80z" />
    <glyph glyph-name="uni1EA4" unicode="&#x1ea4;" horiz-adv-x="641" 
d="M582 1027l-106 -159l-49 23l85 170zM272 915h100l110 -134l-41 -30l-119 112l-119 -112l-41 30zM618 0h-88l-70 206h-282l-70 -206h-85l244 698h107zM439 280l-118 340h-5l-118 -340h241z" />
    <glyph glyph-name="uni1EA5" unicode="&#x1ea5;" horiz-adv-x="534" 
d="M512 857l-106 -159l-49 23l85 170zM202 745h100l110 -134l-41 -30l-119 112l-119 -112l-41 30zM505 0h-45c-59 0 -83 36 -89 84h-5c-22 -63 -77 -96 -149 -96c-109 0 -173 60 -173 156c0 97 70 151 220 151h102v51c0 73 -40 113 -122 113c-62 0 -103 -30 -131 -77l-48 45
c28 55 90 101 183 101c124 0 198 -65 198 -174v-284h59v-70zM230 56c79 0 136 41 136 94v85h-106c-91 0 -132 -28 -132 -78v-21c0 -51 40 -80 102 -80z" />
    <glyph glyph-name="uni1EA6" unicode="&#x1ea6;" horiz-adv-x="641" 
d="M168 868l-106 159l70 34l85 -170zM272 915h100l110 -134l-41 -30l-119 112l-119 -112l-41 30zM618 0h-88l-70 206h-282l-70 -206h-85l244 698h107zM439 280l-118 340h-5l-118 -340h241z" />
    <glyph glyph-name="uni1EA7" unicode="&#x1ea7;" horiz-adv-x="534" 
d="M98 698l-106 159l70 34l85 -170zM202 745h100l110 -134l-41 -30l-119 112l-119 -112l-41 30zM505 0h-45c-59 0 -83 36 -89 84h-5c-22 -63 -77 -96 -149 -96c-109 0 -173 60 -173 156c0 97 70 151 220 151h102v51c0 73 -40 113 -122 113c-62 0 -103 -30 -131 -77l-48 45
c28 55 90 101 183 101c124 0 198 -65 198 -174v-284h59v-70zM230 56c79 0 136 41 136 94v85h-106c-91 0 -132 -28 -132 -78v-21c0 -51 40 -80 102 -80z" />
    <glyph glyph-name="uni1EA8" unicode="&#x1ea8;" horiz-adv-x="641" 
d="M372 992v58h109c51 0 70 -25 70 -55c0 -29 -18 -64 -49 -103l-24 -30l-44 23l60 107h-122zM272 915h100l110 -134l-41 -30l-119 112l-119 -112l-41 30zM618 0h-88l-70 206h-282l-70 -206h-85l244 698h107zM439 280l-118 340h-5l-118 -340h241z" />
    <glyph glyph-name="uni1EA9" unicode="&#x1ea9;" horiz-adv-x="534" 
d="M302 822v58h109c51 0 70 -25 70 -55c0 -29 -18 -64 -49 -103l-24 -30l-44 23l60 107h-122zM202 745h100l110 -134l-41 -30l-119 112l-119 -112l-41 30zM505 0h-45c-59 0 -83 36 -89 84h-5c-22 -63 -77 -96 -149 -96c-109 0 -173 60 -173 156c0 97 70 151 220 151h102v51
c0 73 -40 113 -122 113c-62 0 -103 -30 -131 -77l-48 45c28 55 90 101 183 101c124 0 198 -65 198 -174v-284h59v-70zM230 56c79 0 136 41 136 94v85h-106c-91 0 -132 -28 -132 -78v-21c0 -51 40 -80 102 -80z" />
    <glyph glyph-name="uni1EAA" unicode="&#x1eaa;" horiz-adv-x="641" 
d="M250 1054c35 0 59 -15 80 -26c32 -17 53 -24 70 -24c22 0 38 10 58 27l31 -36c-18 -27 -49 -53 -95 -53c-35 0 -59 15 -80 26c-32 17 -53 24 -70 24c-22 0 -38 -10 -58 -27l-31 36c18 27 49 53 95 53zM272 915h100l110 -134l-41 -30l-119 112l-119 -112l-41 30zM618 0
h-88l-70 206h-282l-70 -206h-85l244 698h107zM439 280l-118 340h-5l-118 -340h241z" />
    <glyph glyph-name="uni1EAB" unicode="&#x1eab;" horiz-adv-x="534" 
d="M180 884c35 0 59 -15 80 -26c32 -17 53 -24 70 -24c22 0 38 10 58 27l31 -36c-18 -27 -49 -53 -95 -53c-35 0 -59 15 -80 26c-32 17 -53 24 -70 24c-22 0 -38 -10 -58 -27l-31 36c18 27 49 53 95 53zM202 745h100l110 -134l-41 -30l-119 112l-119 -112l-41 30zM505 0h-45
c-59 0 -83 36 -89 84h-5c-22 -63 -77 -96 -149 -96c-109 0 -173 60 -173 156c0 97 70 151 220 151h102v51c0 73 -40 113 -122 113c-62 0 -103 -30 -131 -77l-48 45c28 55 90 101 183 101c124 0 198 -65 198 -174v-284h59v-70zM230 56c79 0 136 41 136 94v85h-106
c-91 0 -132 -28 -132 -78v-21c0 -51 40 -80 102 -80z" />
    <glyph glyph-name="uni1EAC" unicode="&#x1eac;" horiz-adv-x="641" 
d="M322 -169c-34 0 -51 18 -51 46v11c0 28 17 46 51 46s51 -18 51 -46v-11c0 -28 -17 -46 -51 -46zM272 935h100l111 -143l-44 -31l-117 117l-117 -117l-44 31zM618 0h-88l-70 206h-282l-70 -206h-85l244 698h107zM439 280l-118 340h-5l-118 -340h241z" />
    <glyph glyph-name="uni1EAD" unicode="&#x1ead;" horiz-adv-x="534" 
d="M245 -169c-34 0 -51 18 -51 46v11c0 28 17 46 51 46s51 -18 51 -46v-11c0 -28 -17 -46 -51 -46zM202 765h100l111 -143l-44 -31l-117 117l-117 -117l-44 31zM505 0h-45c-59 0 -83 36 -89 84h-5c-22 -63 -77 -96 -149 -96c-109 0 -173 60 -173 156c0 97 70 151 220 151
h102v51c0 73 -40 113 -122 113c-62 0 -103 -30 -131 -77l-48 45c28 55 90 101 183 101c124 0 198 -65 198 -174v-284h59v-70zM230 56c79 0 136 41 136 94v85h-106c-91 0 -132 -28 -132 -78v-21c0 -51 40 -80 102 -80z" />
    <glyph glyph-name="uni1EAE" unicode="&#x1eae;" horiz-adv-x="641" 
d="M322 756c-107 0 -134 70 -152 125l45 22l21 -38c16 -29 35 -51 86 -51s70 22 86 51l21 38l45 -22c-18 -55 -45 -125 -152 -125zM432 1027l-106 -159l-49 23l85 170zM618 0h-88l-70 206h-282l-70 -206h-85l244 698h107zM439 280l-118 340h-5l-118 -340h241z" />
    <glyph glyph-name="uni1EAF" unicode="&#x1eaf;" horiz-adv-x="534" 
d="M252 585c-107 0 -136 71 -154 126l45 22l21 -33c18 -29 37 -56 88 -56s70 27 88 56l21 33l45 -22c-18 -55 -47 -126 -154 -126zM362 857l-106 -159l-49 23l85 170zM505 0h-45c-59 0 -83 36 -89 84h-5c-22 -63 -77 -96 -149 -96c-109 0 -173 60 -173 156
c0 97 70 151 220 151h102v51c0 73 -40 113 -122 113c-62 0 -103 -30 -131 -77l-48 45c28 55 90 101 183 101c124 0 198 -65 198 -174v-284h59v-70zM230 56c79 0 136 41 136 94v85h-106c-91 0 -132 -28 -132 -78v-21c0 -51 40 -80 102 -80z" />
    <glyph glyph-name="uni1EB0" unicode="&#x1eb0;" horiz-adv-x="641" 
d="M322 756c-107 0 -134 70 -152 125l45 22l21 -38c16 -29 35 -51 86 -51s70 22 86 51l21 38l45 -22c-18 -55 -45 -125 -152 -125zM318 868l-106 159l70 34l85 -170zM618 0h-88l-70 206h-282l-70 -206h-85l244 698h107zM439 280l-118 340h-5l-118 -340h241z" />
    <glyph glyph-name="uni1EB1" unicode="&#x1eb1;" horiz-adv-x="534" 
d="M252 585c-107 0 -136 71 -154 126l45 22l21 -33c18 -29 37 -56 88 -56s70 27 88 56l21 33l45 -22c-18 -55 -47 -126 -154 -126zM248 698l-106 159l70 34l85 -170zM505 0h-45c-59 0 -83 36 -89 84h-5c-22 -63 -77 -96 -149 -96c-109 0 -173 60 -173 156
c0 97 70 151 220 151h102v51c0 73 -40 113 -122 113c-62 0 -103 -30 -131 -77l-48 45c28 55 90 101 183 101c124 0 198 -65 198 -174v-284h59v-70zM230 56c79 0 136 41 136 94v85h-106c-91 0 -132 -28 -132 -78v-21c0 -51 40 -80 102 -80z" />
    <glyph glyph-name="uni1EB2" unicode="&#x1eb2;" horiz-adv-x="641" 
d="M233 992v58h94c51 0 70 -25 70 -55c0 -29 -18 -64 -49 -103l-24 -30l-44 23l60 107h-107zM322 756c-107 0 -134 70 -152 125l45 22l21 -38c16 -29 35 -51 86 -51s70 22 86 51l21 38l45 -22c-18 -55 -45 -125 -152 -125zM618 0h-88l-70 206h-282l-70 -206h-85l244 698h107
zM439 280l-118 340h-5l-118 -340h241z" />
    <glyph glyph-name="uni1EB3" unicode="&#x1eb3;" horiz-adv-x="534" 
d="M252 585c-107 0 -136 71 -154 126l45 22l21 -33c18 -29 37 -56 88 -56s70 27 88 56l21 33l45 -22c-18 -55 -47 -126 -154 -126zM163 822v58h94c51 0 70 -25 70 -55c0 -29 -18 -64 -49 -103l-24 -30l-44 23l60 107h-107zM505 0h-45c-59 0 -83 36 -89 84h-5
c-22 -63 -77 -96 -149 -96c-109 0 -173 60 -173 156c0 97 70 151 220 151h102v51c0 73 -40 113 -122 113c-62 0 -103 -30 -131 -77l-48 45c28 55 90 101 183 101c124 0 198 -65 198 -174v-284h59v-70zM230 56c79 0 136 41 136 94v85h-106c-91 0 -132 -28 -132 -78v-21
c0 -51 40 -80 102 -80z" />
    <glyph glyph-name="uni1EB4" unicode="&#x1eb4;" horiz-adv-x="641" 
d="M394 942c-35 0 -59 15 -80 26c-32 17 -53 24 -70 24c-22 0 -38 -10 -58 -27l-31 36c18 27 49 53 95 53c35 0 59 -15 80 -26c32 -17 53 -24 70 -24c22 0 38 10 58 27l31 -36c-18 -27 -49 -53 -95 -53zM322 756c-107 0 -134 70 -152 125l45 22l21 -38c16 -29 35 -51 86 -51
s70 22 86 51l21 38l45 -22c-18 -55 -45 -125 -152 -125zM618 0h-88l-70 206h-282l-70 -206h-85l244 698h107zM439 280l-118 340h-5l-118 -340h241z" />
    <glyph glyph-name="uni1EB5" unicode="&#x1eb5;" horiz-adv-x="534" 
d="M252 585c-107 0 -136 71 -154 126l45 22l21 -33c18 -29 37 -56 88 -56s70 27 88 56l21 33l45 -22c-18 -55 -47 -126 -154 -126zM324 772c-35 0 -59 15 -80 26c-32 17 -53 24 -70 24c-22 0 -38 -10 -58 -27l-31 36c18 27 49 53 95 53c35 0 59 -15 80 -26
c32 -17 53 -24 70 -24c22 0 38 10 58 27l31 -36c-18 -27 -49 -53 -95 -53zM505 0h-45c-59 0 -83 36 -89 84h-5c-22 -63 -77 -96 -149 -96c-109 0 -173 60 -173 156c0 97 70 151 220 151h102v51c0 73 -40 113 -122 113c-62 0 -103 -30 -131 -77l-48 45c28 55 90 101 183 101
c124 0 198 -65 198 -174v-284h59v-70zM230 56c79 0 136 41 136 94v85h-106c-91 0 -132 -28 -132 -78v-21c0 -51 40 -80 102 -80z" />
    <glyph glyph-name="uni1EB6" unicode="&#x1eb6;" horiz-adv-x="641" 
d="M322 -169c-34 0 -51 18 -51 46v11c0 28 17 46 51 46s51 -18 51 -46v-11c0 -28 -17 -46 -51 -46zM322 766c-107 0 -134 70 -152 125l45 22l21 -33c18 -29 35 -51 86 -51s68 22 86 51l21 33l45 -22c-18 -55 -45 -125 -152 -125zM618 0h-88l-70 206h-282l-70 -206h-85
l244 698h107zM439 280l-118 340h-5l-118 -340h241z" />
    <glyph glyph-name="uni1EB7" unicode="&#x1eb7;" horiz-adv-x="534" 
d="M245 -169c-34 0 -51 18 -51 46v11c0 28 17 46 51 46s51 -18 51 -46v-11c0 -28 -17 -46 -51 -46zM252 596c-107 0 -134 70 -152 125l45 22l21 -33c18 -29 35 -51 86 -51s68 22 86 51l21 33l45 -22c-18 -55 -45 -125 -152 -125zM505 0h-45c-59 0 -83 36 -89 84h-5
c-22 -63 -77 -96 -149 -96c-109 0 -173 60 -173 156c0 97 70 151 220 151h102v51c0 73 -40 113 -122 113c-62 0 -103 -30 -131 -77l-48 45c28 55 90 101 183 101c124 0 198 -65 198 -174v-284h59v-70zM230 56c79 0 136 41 136 94v85h-106c-91 0 -132 -28 -132 -78v-21
c0 -51 40 -80 102 -80z" />
    <glyph glyph-name="uni1EB8" unicode="&#x1eb8;" horiz-adv-x="583" 
d="M304 -169c-34 0 -51 18 -51 46v11c0 28 17 46 51 46s51 -18 51 -46v-11c0 -28 -17 -46 -51 -46zM519 0h-426v698h426v-74h-342v-234h322v-74h-322v-242h342v-74z" />
    <glyph glyph-name="uni1EB9" unicode="&#x1eb9;" horiz-adv-x="549" 
d="M283 -169c-34 0 -51 18 -51 46v11c0 28 17 46 51 46s51 -18 51 -46v-11c0 -28 -17 -46 -51 -46zM279 -12c-140 0 -232 106 -232 270s92 270 232 270c138 0 223 -106 223 -252v-38h-371v-24c0 -89 57 -156 153 -156c65 0 115 32 142 89l57 -41
c-33 -70 -107 -118 -204 -118zM279 461c-87 0 -148 -66 -148 -156v-7h285v11c0 91 -55 152 -137 152z" />
    <glyph glyph-name="uni1EBA" unicode="&#x1eba;" horiz-adv-x="583" 
d="M220 874v61h109c51 0 70 -25 70 -55c0 -29 -18 -64 -49 -103l-24 -30l-46 23l58 104h-118zM519 0h-426v698h426v-74h-342v-234h322v-74h-322v-242h342v-74z" />
    <glyph glyph-name="uni1EBB" unicode="&#x1ebb;" horiz-adv-x="549" 
d="M195 704v61h109c51 0 70 -25 70 -55c0 -29 -18 -64 -49 -103l-24 -30l-46 23l58 104h-118zM279 -12c-140 0 -232 106 -232 270s92 270 232 270c138 0 223 -106 223 -252v-38h-371v-24c0 -89 57 -156 153 -156c65 0 115 32 142 89l57 -41c-33 -70 -107 -118 -204 -118z
M279 461c-87 0 -148 -66 -148 -156v-7h285v11c0 91 -55 152 -137 152z" />
    <glyph glyph-name="uni1EBC" unicode="&#x1ebc;" horiz-adv-x="583" 
d="M377 782c-35 0 -59 15 -80 26c-32 17 -53 24 -70 24c-22 0 -38 -10 -58 -27l-33 40c18 27 49 53 95 53c35 0 59 -15 80 -26c32 -17 53 -24 70 -24c22 0 38 10 58 27l33 -40c-18 -27 -49 -53 -95 -53zM519 0h-426v698h426v-74h-342v-234h322v-74h-322v-242h342v-74z" />
    <glyph glyph-name="uni1EBD" unicode="&#x1ebd;" horiz-adv-x="549" 
d="M352 612c-35 0 -59 15 -80 26c-32 17 -53 24 -70 24c-22 0 -38 -10 -58 -27l-33 40c18 27 49 53 95 53c35 0 59 -15 80 -26c32 -17 53 -24 70 -24c22 0 38 10 58 27l33 -40c-18 -27 -49 -53 -95 -53zM279 -12c-140 0 -232 106 -232 270s92 270 232 270
c138 0 223 -106 223 -252v-38h-371v-24c0 -89 57 -156 153 -156c65 0 115 32 142 89l57 -41c-33 -70 -107 -118 -204 -118zM279 461c-87 0 -148 -66 -148 -156v-7h285v11c0 91 -55 152 -137 152z" />
    <glyph glyph-name="uni1EBE" unicode="&#x1ebe;" horiz-adv-x="583" 
d="M564 1027l-106 -159l-49 23l85 170zM254 915h100l110 -134l-41 -30l-119 112l-119 -112l-41 30zM519 0h-426v698h426v-74h-342v-234h322v-74h-322v-242h342v-74z" />
    <glyph glyph-name="uni1EBF" unicode="&#x1ebf;" horiz-adv-x="549" 
d="M539 857l-106 -159l-49 23l85 170zM229 745h100l110 -134l-41 -30l-119 112l-119 -112l-41 30zM279 -12c-140 0 -232 106 -232 270s92 270 232 270c138 0 223 -106 223 -252v-38h-371v-24c0 -89 57 -156 153 -156c65 0 115 32 142 89l57 -41c-33 -70 -107 -118 -204 -118
zM279 461c-87 0 -148 -66 -148 -156v-7h285v11c0 91 -55 152 -137 152z" />
    <glyph glyph-name="uni1EC0" unicode="&#x1ec0;" horiz-adv-x="583" 
d="M150 868l-106 159l70 34l85 -170zM254 915h100l110 -134l-41 -30l-119 112l-119 -112l-41 30zM519 0h-426v698h426v-74h-342v-234h322v-74h-322v-242h342v-74z" />
    <glyph glyph-name="uni1EC1" unicode="&#x1ec1;" horiz-adv-x="549" 
d="M125 698l-106 159l70 34l85 -170zM229 745h100l110 -134l-41 -30l-119 112l-119 -112l-41 30zM279 -12c-140 0 -232 106 -232 270s92 270 232 270c138 0 223 -106 223 -252v-38h-371v-24c0 -89 57 -156 153 -156c65 0 115 32 142 89l57 -41c-33 -70 -107 -118 -204 -118z
M279 461c-87 0 -148 -66 -148 -156v-7h285v11c0 91 -55 152 -137 152z" />
    <glyph glyph-name="uni1EC2" unicode="&#x1ec2;" horiz-adv-x="583" 
d="M354 992v58h109c51 0 70 -25 70 -55c0 -29 -18 -64 -49 -103l-24 -30l-44 23l60 107h-122zM254 915h100l110 -134l-41 -30l-119 112l-119 -112l-41 30zM519 0h-426v698h426v-74h-342v-234h322v-74h-322v-242h342v-74z" />
    <glyph glyph-name="uni1EC3" unicode="&#x1ec3;" horiz-adv-x="549" 
d="M329 822v58h109c51 0 70 -25 70 -55c0 -29 -18 -64 -49 -103l-24 -30l-44 23l60 107h-122zM229 745h100l110 -134l-41 -30l-119 112l-119 -112l-41 30zM279 -12c-140 0 -232 106 -232 270s92 270 232 270c138 0 223 -106 223 -252v-38h-371v-24c0 -89 57 -156 153 -156
c65 0 115 32 142 89l57 -41c-33 -70 -107 -118 -204 -118zM279 461c-87 0 -148 -66 -148 -156v-7h285v11c0 91 -55 152 -137 152z" />
    <glyph glyph-name="uni1EC4" unicode="&#x1ec4;" horiz-adv-x="583" 
d="M232 1054c35 0 59 -15 80 -26c32 -17 53 -24 70 -24c22 0 38 10 58 27l31 -36c-18 -27 -49 -53 -95 -53c-35 0 -59 15 -80 26c-32 17 -53 24 -70 24c-22 0 -38 -10 -58 -27l-31 36c18 27 49 53 95 53zM254 915h100l110 -134l-41 -30l-119 112l-119 -112l-41 30zM519 0
h-426v698h426v-74h-342v-234h322v-74h-322v-242h342v-74z" />
    <glyph glyph-name="uni1EC5" unicode="&#x1ec5;" horiz-adv-x="549" 
d="M207 884c35 0 59 -15 80 -26c32 -17 53 -24 70 -24c22 0 38 10 58 27l31 -36c-18 -27 -49 -53 -95 -53c-35 0 -59 15 -80 26c-32 17 -53 24 -70 24c-22 0 -38 -10 -58 -27l-31 36c18 27 49 53 95 53zM229 745h100l110 -134l-41 -30l-119 112l-119 -112l-41 30zM279 -12
c-140 0 -232 106 -232 270s92 270 232 270c138 0 223 -106 223 -252v-38h-371v-24c0 -89 57 -156 153 -156c65 0 115 32 142 89l57 -41c-33 -70 -107 -118 -204 -118zM279 461c-87 0 -148 -66 -148 -156v-7h285v11c0 91 -55 152 -137 152z" />
    <glyph glyph-name="uni1EC6" unicode="&#x1ec6;" horiz-adv-x="583" 
d="M304 -169c-34 0 -51 18 -51 46v11c0 28 17 46 51 46s51 -18 51 -46v-11c0 -28 -17 -46 -51 -46zM254 935h100l111 -143l-44 -31l-117 117l-117 -117l-44 31zM519 0h-426v698h426v-74h-342v-234h322v-74h-322v-242h342v-74z" />
    <glyph glyph-name="uni1EC7" unicode="&#x1ec7;" horiz-adv-x="549" 
d="M283 -169c-34 0 -51 18 -51 46v11c0 28 17 46 51 46s51 -18 51 -46v-11c0 -28 -17 -46 -51 -46zM229 765h100l111 -143l-44 -31l-117 117l-117 -117l-44 31zM279 -12c-140 0 -232 106 -232 270s92 270 232 270c138 0 223 -106 223 -252v-38h-371v-24
c0 -89 57 -156 153 -156c65 0 115 32 142 89l57 -41c-33 -70 -107 -118 -204 -118zM279 461c-87 0 -148 -66 -148 -156v-7h285v11c0 91 -55 152 -137 152z" />
    <glyph glyph-name="uni1EC8" unicode="&#x1ec8;" horiz-adv-x="400" 
d="M116 874v61h109c51 0 70 -25 70 -55c0 -29 -18 -64 -49 -103l-24 -30l-46 23l58 104h-118zM340 0h-280v70h98v558h-98v70h280v-70h-98v-558h98v-70z" />
    <glyph glyph-name="uni1EC9" unicode="&#x1ec9;" horiz-adv-x="250" 
d="M41 704v61h109c51 0 70 -25 70 -55c0 -29 -18 -64 -49 -103l-24 -30l-46 23l58 104h-118zM165 0h-80v516h80v-516z" />
    <glyph glyph-name="uni1ECA" unicode="&#x1eca;" horiz-adv-x="400" 
d="M200 -169c-34 0 -51 18 -51 46v11c0 28 17 46 51 46s51 -18 51 -46v-11c0 -28 -17 -46 -51 -46zM340 0h-280v70h98v558h-98v70h280v-70h-98v-558h98v-70z" />
    <glyph glyph-name="uni1ECB" unicode="&#x1ecb;" horiz-adv-x="250" 
d="M125 -169c-34 0 -51 18 -51 46v11c0 28 17 46 51 46s51 -18 51 -46v-11c0 -28 -17 -46 -51 -46zM125 637c-34 0 -49 18 -49 45v13c0 27 15 45 49 45s49 -18 49 -45v-13c0 -27 -15 -45 -49 -45zM85 0v516h80v-516h-80z" />
    <glyph glyph-name="uni1ECC" unicode="&#x1ecc;" horiz-adv-x="708" 
d="M354 -169c-34 0 -51 18 -51 46v11c0 28 17 46 51 46s51 -18 51 -46v-11c0 -28 -17 -46 -51 -46zM354 -12c-180 0 -296 127 -296 361s116 361 296 361s296 -127 296 -361s-116 -361 -296 -361zM354 63c121 0 206 90 206 228v116c0 138 -85 228 -206 228
s-206 -90 -206 -228v-116c0 -138 85 -228 206 -228z" />
    <glyph glyph-name="uni1ECD" unicode="&#x1ecd;" horiz-adv-x="560" 
d="M280 -169c-34 0 -51 18 -51 46v11c0 28 17 46 51 46s51 -18 51 -46v-11c0 -28 -17 -46 -51 -46zM280 -12c-138 0 -233 106 -233 270s95 270 233 270s233 -106 233 -270s-95 -270 -233 -270zM280 59c86 0 147 53 147 162v74c0 109 -61 162 -147 162s-147 -53 -147 -162
v-74c0 -109 61 -162 147 -162z" />
    <glyph glyph-name="uni1ECE" unicode="&#x1ece;" horiz-adv-x="708" 
d="M270 874v61h109c51 0 70 -25 70 -55c0 -29 -18 -64 -49 -103l-24 -30l-46 23l58 104h-118zM354 -12c-180 0 -296 127 -296 361s116 361 296 361s296 -127 296 -361s-116 -361 -296 -361zM354 63c121 0 206 90 206 228v116c0 138 -85 228 -206 228s-206 -90 -206 -228
v-116c0 -138 85 -228 206 -228z" />
    <glyph glyph-name="uni1ECF" unicode="&#x1ecf;" horiz-adv-x="560" 
d="M196 704v61h109c51 0 70 -25 70 -55c0 -29 -18 -64 -49 -103l-24 -30l-46 23l58 104h-118zM280 -12c-138 0 -233 106 -233 270s95 270 233 270s233 -106 233 -270s-95 -270 -233 -270zM280 59c86 0 147 53 147 162v74c0 109 -61 162 -147 162s-147 -53 -147 -162v-74
c0 -109 61 -162 147 -162z" />
    <glyph glyph-name="uni1ED0" unicode="&#x1ed0;" horiz-adv-x="708" 
d="M614 1027l-106 -159l-49 23l85 170zM304 915h100l110 -134l-41 -30l-119 112l-119 -112l-41 30zM354 -12c-180 0 -296 127 -296 361s116 361 296 361s296 -127 296 -361s-116 -361 -296 -361zM354 63c121 0 206 90 206 228v116c0 138 -85 228 -206 228
s-206 -90 -206 -228v-116c0 -138 85 -228 206 -228z" />
    <glyph glyph-name="uni1ED1" unicode="&#x1ed1;" horiz-adv-x="560" 
d="M540 857l-106 -159l-49 23l85 170zM230 745h100l110 -134l-41 -30l-119 112l-119 -112l-41 30zM280 -12c-138 0 -233 106 -233 270s95 270 233 270s233 -106 233 -270s-95 -270 -233 -270zM280 59c86 0 147 53 147 162v74c0 109 -61 162 -147 162s-147 -53 -147 -162v-74
c0 -109 61 -162 147 -162z" />
    <glyph glyph-name="uni1ED2" unicode="&#x1ed2;" horiz-adv-x="708" 
d="M200 868l-106 159l70 34l85 -170zM304 915h100l110 -134l-41 -30l-119 112l-119 -112l-41 30zM354 -12c-180 0 -296 127 -296 361s116 361 296 361s296 -127 296 -361s-116 -361 -296 -361zM354 63c121 0 206 90 206 228v116c0 138 -85 228 -206 228s-206 -90 -206 -228
v-116c0 -138 85 -228 206 -228z" />
    <glyph glyph-name="uni1ED3" unicode="&#x1ed3;" horiz-adv-x="560" 
d="M126 698l-106 159l70 34l85 -170zM230 745h100l110 -134l-41 -30l-119 112l-119 -112l-41 30zM280 -12c-138 0 -233 106 -233 270s95 270 233 270s233 -106 233 -270s-95 -270 -233 -270zM280 59c86 0 147 53 147 162v74c0 109 -61 162 -147 162s-147 -53 -147 -162v-74
c0 -109 61 -162 147 -162z" />
    <glyph glyph-name="uni1ED4" unicode="&#x1ed4;" horiz-adv-x="708" 
d="M404 992v58h109c51 0 70 -25 70 -55c0 -29 -18 -64 -49 -103l-24 -30l-44 23l60 107h-122zM304 915h100l110 -134l-41 -30l-119 112l-119 -112l-41 30zM354 -12c-180 0 -296 127 -296 361s116 361 296 361s296 -127 296 -361s-116 -361 -296 -361zM354 63
c121 0 206 90 206 228v116c0 138 -85 228 -206 228s-206 -90 -206 -228v-116c0 -138 85 -228 206 -228z" />
    <glyph glyph-name="uni1ED5" unicode="&#x1ed5;" horiz-adv-x="560" 
d="M330 822v58h109c51 0 70 -25 70 -55c0 -29 -18 -64 -49 -103l-24 -30l-44 23l60 107h-122zM230 745h100l110 -134l-41 -30l-119 112l-119 -112l-41 30zM280 -12c-138 0 -233 106 -233 270s95 270 233 270s233 -106 233 -270s-95 -270 -233 -270zM280 59
c86 0 147 53 147 162v74c0 109 -61 162 -147 162s-147 -53 -147 -162v-74c0 -109 61 -162 147 -162z" />
    <glyph glyph-name="uni1ED6" unicode="&#x1ed6;" horiz-adv-x="708" 
d="M282 1054c35 0 59 -15 80 -26c32 -17 53 -24 70 -24c22 0 38 10 58 27l31 -36c-18 -27 -49 -53 -95 -53c-35 0 -59 15 -80 26c-32 17 -53 24 -70 24c-22 0 -38 -10 -58 -27l-31 36c18 27 49 53 95 53zM304 915h100l110 -134l-41 -30l-119 112l-119 -112l-41 30zM354 -12
c-180 0 -296 127 -296 361s116 361 296 361s296 -127 296 -361s-116 -361 -296 -361zM354 63c121 0 206 90 206 228v116c0 138 -85 228 -206 228s-206 -90 -206 -228v-116c0 -138 85 -228 206 -228z" />
    <glyph glyph-name="uni1ED7" unicode="&#x1ed7;" horiz-adv-x="560" 
d="M208 884c35 0 59 -15 80 -26c32 -17 53 -24 70 -24c22 0 38 10 58 27l31 -36c-18 -27 -49 -53 -95 -53c-35 0 -59 15 -80 26c-32 17 -53 24 -70 24c-22 0 -38 -10 -58 -27l-31 36c18 27 49 53 95 53zM230 745h100l110 -134l-41 -30l-119 112l-119 -112l-41 30zM280 -12
c-138 0 -233 106 -233 270s95 270 233 270s233 -106 233 -270s-95 -270 -233 -270zM280 59c86 0 147 53 147 162v74c0 109 -61 162 -147 162s-147 -53 -147 -162v-74c0 -109 61 -162 147 -162z" />
    <glyph glyph-name="uni1ED8" unicode="&#x1ed8;" horiz-adv-x="708" 
d="M354 -169c-34 0 -51 18 -51 46v11c0 28 17 46 51 46s51 -18 51 -46v-11c0 -28 -17 -46 -51 -46zM304 935h100l111 -143l-44 -31l-117 117l-117 -117l-44 31zM354 -12c-180 0 -296 127 -296 361s116 361 296 361s296 -127 296 -361s-116 -361 -296 -361zM354 63
c121 0 206 90 206 228v116c0 138 -85 228 -206 228s-206 -90 -206 -228v-116c0 -138 85 -228 206 -228z" />
    <glyph glyph-name="uni1ED9" unicode="&#x1ed9;" horiz-adv-x="560" 
d="M280 -169c-34 0 -51 18 -51 46v11c0 28 17 46 51 46s51 -18 51 -46v-11c0 -28 -17 -46 -51 -46zM230 765h100l111 -143l-44 -31l-117 117l-117 -117l-44 31zM280 -12c-138 0 -233 106 -233 270s95 270 233 270s233 -106 233 -270s-95 -270 -233 -270zM280 59
c86 0 147 53 147 162v74c0 109 -61 162 -147 162s-147 -53 -147 -162v-74c0 -109 61 -162 147 -162z" />
    <glyph glyph-name="uni1EDA" unicode="&#x1eda;" horiz-adv-x="708" 
d="M467 914l-106 -159l-52 24l85 170zM585 810h71v-100c0 -36 -13 -63 -63 -63h-53c79 -70 110 -172 110 -298c0 -234 -116 -361 -296 -361s-296 127 -296 361s116 361 296 361c32 0 62 -4 90 -12h141v112zM354 63c121 0 206 90 206 228v116c0 138 -85 228 -206 228
s-206 -90 -206 -228v-116c0 -138 85 -228 206 -228z" />
    <glyph glyph-name="uni1EDB" unicode="&#x1edb;" horiz-adv-x="560" 
d="M393 744l-106 -159l-52 24l85 170zM448 628h71v-98c0 -36 -13 -63 -62 -63h-21c58 -60 77 -129 77 -209c0 -164 -95 -270 -233 -270s-233 106 -233 270s95 270 233 270c27 0 53 -4 76 -12h92v112zM280 59c86 0 147 53 147 162v74c0 109 -61 162 -147 162
s-147 -53 -147 -162v-74c0 -109 61 -162 147 -162z" />
    <glyph glyph-name="uni1EDC" unicode="&#x1edc;" horiz-adv-x="708" 
d="M347 755l-106 159l73 35l85 -170zM585 810h71v-100c0 -36 -13 -63 -63 -63h-53c79 -70 110 -172 110 -298c0 -234 -116 -361 -296 -361s-296 127 -296 361s116 361 296 361c32 0 62 -4 90 -12h141v112zM354 63c121 0 206 90 206 228v116c0 138 -85 228 -206 228
s-206 -90 -206 -228v-116c0 -138 85 -228 206 -228z" />
    <glyph glyph-name="uni1EDD" unicode="&#x1edd;" horiz-adv-x="560" 
d="M273 585l-106 159l73 35l85 -170zM448 628h71v-98c0 -36 -13 -63 -62 -63h-21c58 -60 77 -129 77 -209c0 -164 -95 -270 -233 -270s-233 106 -233 270s95 270 233 270c27 0 53 -4 76 -12h92v112zM280 59c86 0 147 53 147 162v74c0 109 -61 162 -147 162
s-147 -53 -147 -162v-74c0 -109 61 -162 147 -162z" />
    <glyph glyph-name="uni1EDE" unicode="&#x1ede;" horiz-adv-x="708" 
d="M270 874v61h109c51 0 70 -25 70 -55c0 -29 -18 -64 -49 -103l-24 -30l-46 23l58 104h-118zM585 810h71v-100c0 -36 -13 -63 -63 -63h-53c79 -70 110 -172 110 -298c0 -234 -116 -361 -296 -361s-296 127 -296 361s116 361 296 361c32 0 62 -4 90 -12h141v112zM354 63
c121 0 206 90 206 228v116c0 138 -85 228 -206 228s-206 -90 -206 -228v-116c0 -138 85 -228 206 -228z" />
    <glyph glyph-name="uni1EDF" unicode="&#x1edf;" horiz-adv-x="560" 
d="M196 704v61h109c51 0 70 -25 70 -55c0 -29 -18 -64 -49 -103l-24 -30l-46 23l58 104h-118zM448 628h71v-98c0 -36 -13 -63 -62 -63h-21c58 -60 77 -129 77 -209c0 -164 -95 -270 -233 -270s-233 106 -233 270s95 270 233 270c27 0 53 -4 76 -12h92v112zM280 59
c86 0 147 53 147 162v74c0 109 -61 162 -147 162s-147 -53 -147 -162v-74c0 -109 61 -162 147 -162z" />
    <glyph glyph-name="uni1EE0" unicode="&#x1ee0;" horiz-adv-x="708" 
d="M417 786c-31 0 -52 13 -70 22c-25 13 -39 20 -57 20c-21 0 -38 -10 -57 -27l-33 40c18 27 48 53 91 53c31 0 52 -13 70 -22c25 -13 39 -20 57 -20c21 0 38 10 57 27l33 -40c-18 -27 -48 -53 -91 -53zM585 810h71v-100c0 -36 -13 -63 -63 -63h-53
c79 -70 110 -172 110 -298c0 -234 -116 -361 -296 -361s-296 127 -296 361s116 361 296 361c32 0 62 -4 90 -12h141v112zM354 63c121 0 206 90 206 228v116c0 138 -85 228 -206 228s-206 -90 -206 -228v-116c0 -138 85 -228 206 -228z" />
    <glyph glyph-name="uni1EE1" unicode="&#x1ee1;" horiz-adv-x="560" 
d="M343 616c-31 0 -52 13 -70 22c-25 13 -39 20 -57 20c-21 0 -38 -10 -57 -27l-33 40c18 27 48 53 91 53c31 0 52 -13 70 -22c25 -13 39 -20 57 -20c21 0 38 10 57 27l33 -40c-18 -27 -48 -53 -91 -53zM448 628h71v-98c0 -36 -13 -63 -62 -63h-21c58 -60 77 -129 77 -209
c0 -164 -95 -270 -233 -270s-233 106 -233 270s95 270 233 270c27 0 53 -4 76 -12h92v112zM280 59c86 0 147 53 147 162v74c0 109 -61 162 -147 162s-147 -53 -147 -162v-74c0 -109 61 -162 147 -162z" />
    <glyph glyph-name="uni1EE2" unicode="&#x1ee2;" horiz-adv-x="708" 
d="M354 -169c-34 0 -51 18 -51 46v11c0 28 17 46 51 46s51 -18 51 -46v-11c0 -28 -17 -46 -51 -46zM585 810h71v-100c0 -36 -13 -63 -63 -63h-53c79 -70 110 -172 110 -298c0 -234 -116 -361 -296 -361s-296 127 -296 361s116 361 296 361c32 0 62 -4 90 -12h141v112z
M354 63c121 0 206 90 206 228v116c0 138 -85 228 -206 228s-206 -90 -206 -228v-116c0 -138 85 -228 206 -228z" />
    <glyph glyph-name="uni1EE3" unicode="&#x1ee3;" horiz-adv-x="560" 
d="M280 -169c-34 0 -51 18 -51 46v11c0 28 17 46 51 46s51 -18 51 -46v-11c0 -28 -17 -46 -51 -46zM448 628h71v-98c0 -36 -13 -63 -62 -63h-21c58 -60 77 -129 77 -209c0 -164 -95 -270 -233 -270s-233 106 -233 270s95 270 233 270c27 0 53 -4 76 -12h92v112zM280 59
c86 0 147 53 147 162v74c0 109 -61 162 -147 162s-147 -53 -147 -162v-74c0 -109 61 -162 147 -162z" />
    <glyph glyph-name="uni1EE4" unicode="&#x1ee4;" horiz-adv-x="678" 
d="M337 -169c-34 0 -51 18 -51 46v11c0 28 17 46 51 46s51 -18 51 -46v-11c0 -28 -17 -46 -51 -46zM88 698h84v-432c0 -133 43 -203 167 -203s167 70 167 203v432h84v-412c0 -203 -68 -298 -254 -298s-248 95 -248 298v412z" />
    <glyph glyph-name="uni1EE5" unicode="&#x1ee5;" horiz-adv-x="568" 
d="M278 -169c-34 0 -51 18 -51 46v11c0 28 17 46 51 46s51 -18 51 -46v-11c0 -28 -17 -46 -51 -46zM403 0v84h-4c-20 -49 -59 -96 -145 -96c-106 0 -174 72 -174 197v331h80v-317c0 -92 41 -139 118 -139c63 0 125 31 125 99v357h80v-516h-80z" />
    <glyph glyph-name="uni1EE6" unicode="&#x1ee6;" horiz-adv-x="678" 
d="M253 874v61h109c51 0 70 -25 70 -55c0 -29 -18 -64 -49 -103l-24 -30l-46 23l58 104h-118zM88 698h84v-432c0 -133 43 -203 167 -203s167 70 167 203v432h84v-412c0 -203 -68 -298 -254 -298s-248 95 -248 298v412z" />
    <glyph glyph-name="uni1EE7" unicode="&#x1ee7;" horiz-adv-x="568" 
d="M198 704v61h109c51 0 70 -25 70 -55c0 -29 -18 -64 -49 -103l-24 -30l-46 23l58 104h-118zM403 0v84h-4c-20 -49 -59 -96 -145 -96c-106 0 -174 72 -174 197v331h80v-317c0 -92 41 -139 118 -139c63 0 125 31 125 99v357h80v-516h-80z" />
    <glyph glyph-name="uni1EE8" unicode="&#x1ee8;" horiz-adv-x="678" 
d="M450 914l-106 -159l-52 24l85 170zM88 698h84v-432c0 -133 43 -203 167 -203s167 70 167 203v432h91v112h71v-102c0 -35 -13 -63 -63 -63h-15v-359c0 -203 -68 -298 -254 -298s-248 95 -248 298v412z" />
    <glyph glyph-name="uni1EE9" unicode="&#x1ee9;" horiz-adv-x="568" 
d="M395 744l-106 -159l-52 24l85 170zM566 628v-102c0 -35 -13 -63 -63 -63h-20v-463h-80v84h-4c-20 -49 -59 -96 -145 -96c-106 0 -174 72 -174 197v331h80v-317c0 -92 41 -139 118 -139c63 0 125 31 125 99v357h92v112h71z" />
    <glyph glyph-name="uni1EEA" unicode="&#x1eea;" horiz-adv-x="678" 
d="M330 755l-106 159l73 35l85 -170zM88 698h84v-432c0 -133 43 -203 167 -203s167 70 167 203v432h91v112h71v-102c0 -35 -13 -63 -63 -63h-15v-359c0 -203 -68 -298 -254 -298s-248 95 -248 298v412z" />
    <glyph glyph-name="uni1EEB" unicode="&#x1eeb;" horiz-adv-x="568" 
d="M275 585l-106 159l73 35l85 -170zM566 628v-102c0 -35 -13 -63 -63 -63h-20v-463h-80v84h-4c-20 -49 -59 -96 -145 -96c-106 0 -174 72 -174 197v331h80v-317c0 -92 41 -139 118 -139c63 0 125 31 125 99v357h92v112h71z" />
    <glyph glyph-name="uni1EEC" unicode="&#x1eec;" horiz-adv-x="678" 
d="M253 874v61h109c51 0 70 -25 70 -55c0 -29 -18 -64 -49 -103l-24 -30l-46 23l58 104h-118zM88 698h84v-432c0 -133 43 -203 167 -203s167 70 167 203v432h91v112h71v-102c0 -35 -13 -63 -63 -63h-15v-359c0 -203 -68 -298 -254 -298s-248 95 -248 298v412z" />
    <glyph glyph-name="uni1EED" unicode="&#x1eed;" horiz-adv-x="568" 
d="M198 704v61h109c51 0 70 -25 70 -55c0 -29 -18 -64 -49 -103l-24 -30l-46 23l58 104h-118zM566 628v-102c0 -35 -13 -63 -63 -63h-20v-463h-80v84h-4c-20 -49 -59 -96 -145 -96c-106 0 -174 72 -174 197v331h80v-317c0 -92 41 -139 118 -139c63 0 125 31 125 99v357h92
v112h71z" />
    <glyph glyph-name="uni1EEE" unicode="&#x1eee;" horiz-adv-x="678" 
d="M400 786c-31 0 -52 13 -70 22c-25 13 -39 20 -57 20c-21 0 -38 -10 -57 -27l-33 40c18 27 48 53 91 53c31 0 52 -13 70 -22c25 -13 39 -20 57 -20c21 0 38 10 57 27l33 -40c-18 -27 -48 -53 -91 -53zM88 698h84v-432c0 -133 43 -203 167 -203s167 70 167 203v432h91v112
h71v-102c0 -35 -13 -63 -63 -63h-15v-359c0 -203 -68 -298 -254 -298s-248 95 -248 298v412z" />
    <glyph glyph-name="uni1EEF" unicode="&#x1eef;" horiz-adv-x="568" 
d="M345 616c-31 0 -52 13 -70 22c-25 13 -39 20 -57 20c-21 0 -38 -10 -57 -27l-33 40c18 27 48 53 91 53c31 0 52 -13 70 -22c25 -13 39 -20 57 -20c21 0 38 10 57 27l33 -40c-18 -27 -48 -53 -91 -53zM566 628v-102c0 -35 -13 -63 -63 -63h-20v-463h-80v84h-4
c-20 -49 -59 -96 -145 -96c-106 0 -174 72 -174 197v331h80v-317c0 -92 41 -139 118 -139c63 0 125 31 125 99v357h92v112h71z" />
    <glyph glyph-name="uni1EF0" unicode="&#x1ef0;" horiz-adv-x="678" 
d="M337 -169c-34 0 -51 18 -51 46v11c0 28 17 46 51 46s51 -18 51 -46v-11c0 -28 -17 -46 -51 -46zM88 698h84v-432c0 -133 43 -203 167 -203s167 70 167 203v432h91v112h71v-102c0 -35 -13 -63 -63 -63h-15v-359c0 -203 -68 -298 -254 -298s-248 95 -248 298v412z" />
    <glyph glyph-name="uni1EF1" unicode="&#x1ef1;" horiz-adv-x="568" 
d="M278 -169c-34 0 -51 18 -51 46v11c0 28 17 46 51 46s51 -18 51 -46v-11c0 -28 -17 -46 -51 -46zM566 628v-102c0 -35 -13 -63 -63 -63h-20v-463h-80v84h-4c-20 -49 -59 -96 -145 -96c-106 0 -174 72 -174 197v331h80v-317c0 -92 41 -139 118 -139c63 0 125 31 125 99v357
h92v112h71z" />
    <glyph glyph-name="Ygrave" unicode="&#x1ef2;" horiz-adv-x="593" 
d="M290 755l-106 159l73 35l85 -170zM337 0h-84v276l-240 422h96l186 -336h3l186 336h96l-243 -419v-279z" />
    <glyph glyph-name="ygrave" unicode="&#x1ef3;" horiz-adv-x="499" 
d="M243 585l-106 159l73 35l85 -170zM278 165l125 351h79l-231 -636c-23 -62 -44 -80 -120 -80h-41v70h81l39 110l-193 536h80l124 -351l24 -84h5z" />
    <glyph glyph-name="uni1EF4" unicode="&#x1ef4;" horiz-adv-x="593" 
d="M297 -169c-34 0 -51 18 -51 46v11c0 28 17 46 51 46s51 -18 51 -46v-11c0 -28 -17 -46 -51 -46zM337 0h-84v276l-240 422h96l186 -336h3l186 336h96l-243 -419v-279z" />
    <glyph glyph-name="uni1EF5" unicode="&#x1ef5;" horiz-adv-x="499" 
d="M392 -169c-34 0 -51 18 -51 46v11c0 28 17 46 51 46s51 -18 51 -46v-11c0 -28 -17 -46 -51 -46zM278 165l125 351h79l-231 -636c-23 -62 -44 -80 -120 -80h-41v70h81l39 110l-193 536h80l124 -351l24 -84h5z" />
    <glyph glyph-name="uni1EF6" unicode="&#x1ef6;" horiz-adv-x="593" 
d="M213 874v61h109c51 0 70 -25 70 -55c0 -29 -18 -64 -49 -103l-24 -30l-46 23l58 104h-118zM337 0h-84v276l-240 422h96l186 -336h3l186 336h96l-243 -419v-279z" />
    <glyph glyph-name="uni1EF7" unicode="&#x1ef7;" horiz-adv-x="499" 
d="M166 704v61h109c51 0 70 -25 70 -55c0 -29 -18 -64 -49 -103l-24 -30l-46 23l58 104h-118zM278 165l125 351h79l-231 -636c-23 -62 -44 -80 -120 -80h-41v70h81l39 110l-193 536h80l124 -351l24 -84h5z" />
    <glyph glyph-name="uni1EF8" unicode="&#x1ef8;" horiz-adv-x="593" 
d="M370 782c-35 0 -59 15 -80 26c-32 17 -53 24 -70 24c-22 0 -38 -10 -58 -27l-33 40c18 27 49 53 95 53c35 0 59 -15 80 -26c32 -17 53 -24 70 -24c22 0 38 10 58 27l33 -40c-18 -27 -49 -53 -95 -53zM337 0h-84v276l-240 422h96l186 -336h3l186 336h96l-243 -419v-279z
" />
    <glyph glyph-name="uni1EF9" unicode="&#x1ef9;" horiz-adv-x="499" 
d="M323 612c-35 0 -59 15 -80 26c-32 17 -53 24 -70 24c-22 0 -38 -10 -58 -27l-33 40c18 27 49 53 95 53c35 0 59 -15 80 -26c32 -17 53 -24 70 -24c22 0 38 10 58 27l33 -40c-18 -27 -49 -53 -95 -53zM278 165l125 351h79l-231 -636c-23 -62 -44 -80 -120 -80h-41v70h81
l39 110l-193 536h80l124 -351l24 -84h5z" />
    <glyph glyph-name="endash" unicode="&#x2013;" horiz-adv-x="588" 
d="M552 266h-516v76h516v-76z" />
    <glyph glyph-name="emdash" unicode="&#x2014;" horiz-adv-x="780" 
d="M744 266h-708v76h708v-76z" />
    <glyph glyph-name="quoteleft" unicode="&#x2018;" horiz-adv-x="273" 
d="M132 490c-42 0 -61 24 -61 59v14c0 54 34 128 91 177h67c-40 -42 -64 -77 -75 -124c27 -6 39 -26 39 -53v-14c0 -35 -19 -59 -61 -59z" />
    <glyph glyph-name="quoteright" unicode="&#x2019;" horiz-adv-x="273" 
d="M141 750c42 0 61 -24 61 -59v-14c0 -54 -34 -128 -91 -177h-67c40 42 64 77 75 124c-27 6 -39 26 -39 53v14c0 35 19 59 61 59z" />
    <glyph glyph-name="quotesinglbase" unicode="&#x201a;" horiz-adv-x="274" 
d="M132 134c42 0 61 -24 61 -59v-14c0 -54 -34 -128 -91 -177h-67c40 42 64 77 75 124c-27 6 -39 26 -39 53v14c0 35 19 59 61 59z" />
    <glyph glyph-name="quotedblleft" unicode="&#x201c;" horiz-adv-x="475" 
d="M334 490c-42 0 -61 24 -61 59v14c0 54 34 128 91 177h67c-40 -42 -64 -77 -75 -124c27 -6 39 -26 39 -53v-14c0 -35 -19 -59 -61 -59zM132 490c-42 0 -61 24 -61 59v14c0 54 34 128 91 177h67c-40 -42 -64 -77 -75 -124c27 -6 39 -26 39 -53v-14c0 -35 -19 -59 -61 -59z
" />
    <glyph glyph-name="quotedblright" unicode="&#x201d;" horiz-adv-x="474" 
d="M342 750c42 0 61 -24 61 -59v-14c0 -54 -34 -128 -91 -177h-67c40 42 64 77 75 124c-27 6 -39 26 -39 53v14c0 35 19 59 61 59zM141 750c42 0 61 -24 61 -59v-14c0 -54 -34 -128 -91 -177h-67c40 42 64 77 75 124c-27 6 -39 26 -39 53v14c0 35 19 59 61 59z" />
    <glyph glyph-name="quotedblbase" unicode="&#x201e;" horiz-adv-x="475" 
d="M333 134c42 0 61 -24 61 -59v-14c0 -54 -34 -128 -91 -177h-67c40 42 64 77 75 124c-27 6 -39 26 -39 53v14c0 35 19 59 61 59zM132 134c42 0 61 -24 61 -59v-14c0 -54 -34 -128 -91 -177h-67c40 42 64 77 75 124c-27 6 -39 26 -39 53v14c0 35 19 59 61 59z" />
    <glyph glyph-name="dagger" unicode="&#x2020;" horiz-adv-x="552" 
d="M311 -200h-70v652h-191v64h191v224h70v-224h191v-64h-191v-652z" />
    <glyph glyph-name="daggerdbl" unicode="&#x2021;" horiz-adv-x="552" 
d="M311 -200h-70v224h-191v64h191v364h-191v64h191v224h70v-224h191v-64h-191v-364h191v-64h-191v-224z" />
    <glyph glyph-name="bullet" unicode="&#x2022;" horiz-adv-x="396" 
d="M198 186c-89 0 -122 45 -122 104v28c0 59 33 104 122 104s122 -45 122 -104v-28c0 -59 -33 -104 -122 -104z" />
    </font>
</defs>
</svg>
