<?xml version="1.0" standalone="no"?>
<!DOCTYPE svg PUBLIC "-//W3C//DTD SVG 1.1//EN" "http://www.w3.org/Graphics/SVG/1.1/DTD/svg11.dtd" >
<svg xmlns="http://www.w3.org/2000/svg" xmlns:xlink="http://www.w3.org/1999/xlink" version="1.1">
<metadata>
Created by FontForge 20180714 at Tue Aug 14 16:13:40 2018
 By Gisle,,,,
Copyright 2018 IBM Corp. All rights reserved.
</metadata>
<defs>
<font id="Aneliza-Thin" horiz-adv-x="600" >
  <font-face 
    font-family="Aneliza Thin"
    font-weight="100"
    font-stretch="normal"
    units-per-em="1000"
    panose-1="2 11 2 3 5 2 3 0 2 3"
    ascent="780"
    descent="-220"
    x-height="506"
    cap-height="698"
    bbox="-229 -220 1165 1091"
    underline-thickness="16"
    underline-position="-192"
    stemh="19"
    stemv="21"
    unicode-range="U+0020-FB02"
  />
<missing-glyph horiz-adv-x="472" 
d="M32 0v780h408v-780h-408zM48 16h376v748h-376v-748z" />
    <glyph glyph-name="fi" unicode="fi" horiz-adv-x="510" 
d="M123 0v487h-93v19h93v205c0 20 9 29 29 29h108v-19h-116v-215h261v-506h-21v487h-240v-487h-21zM395 673c-17 0 -23 10 -23 21v7c0 11 6 21 23 21s23 -10 23 -21v-7c0 -11 -6 -21 -23 -21z" />
    <glyph glyph-name=".notdef" horiz-adv-x="472" 
d="M32 0v780h408v-780h-408zM48 16h376v748h-376v-748z" />
    <glyph glyph-name="space" unicode=" " horiz-adv-x="236" 
 />
    <glyph glyph-name="exclam" unicode="!" horiz-adv-x="252" 
d="M132 176h-12l-5 239v283h22v-283zM126 -5c-17 0 -27 9 -27 25v8c0 16 9 25 27 25s27 -9 27 -25v-8c0 -16 -10 -25 -27 -25z" />
    <glyph glyph-name="quotedbl" unicode="&#x22;" horiz-adv-x="373" 
d="M273 490h-20v250h20v-250zM120 490h-20v250h20v-250z" />
    <glyph glyph-name="numbersign" unicode="#" horiz-adv-x="712" 
d="M389 0l38 220h-186l-38 -220h-21l38 220h-150v19h154l37 220h-152v19h155l38 220h21l-38 -220h186l38 220h21l-38 -220h150v-19h-154l-37 -220h152v-19h-155l-38 -220h-21zM244 239h186l38 220h-186z" />
    <glyph glyph-name="dollar" unicode="$" horiz-adv-x="547" 
d="M288 -82h-20v82c-111 2 -177 50 -226 114l18 13c48 -62 106 -105 208 -107v331l-31 6c-141 27 -179 94 -179 173c0 113 83 168 210 168v82h20v-82c93 -4 153 -42 189 -95l-18 -13c-37 54 -91 84 -171 88v-310l24 -4c144 -24 177 -99 177 -179c0 -119 -77 -181 -201 -185
v-82zM467 184c0 115 -77 147 -161 161l-18 3v-328c115 4 179 60 179 164zM80 530c0 -105 75 -136 163 -154l25 -5v307c-118 0 -188 -49 -188 -148z" />
    <glyph glyph-name="percent" unicode="%" horiz-adv-x="882" 
d="M210 0h-23l484 698h23zM217 326c-77 0 -142 55 -142 192s65 192 142 192s142 -55 142 -192s-65 -192 -142 -192zM217 343c62 0 120 45 120 159v32c0 114 -58 159 -120 159s-120 -45 -120 -159v-32c0 -114 58 -159 120 -159zM665 -12c-77 0 -142 55 -142 192
s65 192 142 192s142 -55 142 -192s-65 -192 -142 -192zM665 5c62 0 120 45 120 159v32c0 114 -58 159 -120 159s-120 -45 -120 -159v-32c0 -114 58 -159 120 -159z" />
    <glyph glyph-name="ampersand" unicode="&#x26;" horiz-adv-x="677" 
d="M612 0l-115 116c-43 -77 -121 -128 -226 -128c-122 0 -201 71 -201 178c0 111 77 161 169 205c-63 69 -99 117 -99 183c0 93 65 156 169 156c99 0 160 -62 160 -140c0 -97 -78 -148 -196 -203l220 -218c23 54 32 126 32 202h109v-20h-90c-2 -74 -12 -140 -37 -196
l133 -135h-28zM309 691c-92 0 -146 -56 -146 -127v-18c0 -57 43 -109 96 -166c109 50 187 104 187 180v14c0 74 -64 117 -137 117zM93 156c0 -90 75 -148 178 -148c101 0 171 44 212 121l-230 229c-87 -43 -160 -85 -160 -182v-20z" />
    <glyph glyph-name="quotesingle" unicode="'" horiz-adv-x="220" 
d="M120 490h-20v250h20v-250z" />
    <glyph glyph-name="parenleft" unicode="(" horiz-adv-x="332" 
d="M105 311c0 204 92 364 184 449h25c-98 -87 -188 -247 -188 -432v-34c0 -185 90 -345 188 -432h-25c-92 85 -184 245 -184 449z" />
    <glyph glyph-name="parenright" unicode=")" horiz-adv-x="332" 
d="M227 311c0 -204 -92 -364 -184 -449h-25c98 87 188 247 188 432v34c0 185 -90 345 -188 432h25c92 -85 184 -245 184 -449z" />
    <glyph glyph-name="asterisk" unicode="*" horiz-adv-x="362" 
d="M181 565l-93 -129l-15 11l95 128l-151 46l6 19l150 -50l-2 157h20l-2 -157l150 50l6 -19l-151 -46l95 -128l-15 -11z" />
    <glyph glyph-name="plus" unicode="+" 
d="M311 62h-21v234h-228v19h228v234h21v-234h228v-19h-228v-234z" />
    <glyph glyph-name="comma" unicode="," horiz-adv-x="240" 
d="M121 53c18 0 26 -11 26 -26v-12c0 -55 -34 -122 -77 -162h-19c51 50 70 105 74 142c-24 0 -32 11 -32 23v9c0 15 8 26 28 26z" />
    <glyph glyph-name="hyphen" unicode="-" horiz-adv-x="395" 
d="M312 295h-229v20h229v-20z" />
    <glyph glyph-name="period" unicode="." horiz-adv-x="240" 
d="M120 -5c-18 0 -27 9 -27 25v8c0 16 9 25 27 25s27 -9 27 -25v-8c0 -16 -9 -25 -27 -25z" />
    <glyph glyph-name="slash" unicode="/" horiz-adv-x="313" 
d="M33 -151h-20l238 891h20z" />
    <glyph glyph-name="zero" unicode="0" 
d="M300 -12c-146 0 -229 105 -229 361s83 361 229 361s229 -105 229 -361s-83 -361 -229 -361zM300 8c133 0 205 104 205 309v64c0 205 -72 309 -205 309s-205 -104 -205 -309v-64c0 -205 72 -309 205 -309z" />
    <glyph glyph-name="one" unicode="1" 
d="M545 0h-452v20h219v662h-3l-216 -181l-13 16l216 181h38v-678h211v-20z" />
    <glyph glyph-name="two" unicode="2" 
d="M521 20v-20h-434v22l269 272c67 67 106 134 106 208v30c0 90 -57 158 -168 158c-104 0 -160 -54 -187 -139l-20 4c25 91 92 155 207 155c125 0 192 -74 192 -194c0 -89 -41 -162 -116 -237l-258 -259h409z" />
    <glyph glyph-name="three" unicode="3" 
d="M186 376h94c101 0 171 60 171 146v24c0 86 -67 144 -164 144c-93 0 -144 -39 -174 -99l-18 8c28 65 92 111 192 111c114 0 188 -68 188 -174c0 -99 -58 -152 -140 -168v-3c94 -12 155 -75 155 -178c0 -123 -80 -199 -207 -199c-97 0 -167 34 -213 107l18 11
c43 -68 105 -98 195 -98c108 0 183 65 183 162v28c0 95 -71 158 -184 158h-96v20z" />
    <glyph glyph-name="four" unicode="4" 
d="M432 0h-20v160h-365v21l360 517h25v-519h118v-19h-118v-160zM410 670l-341 -491h343v491h-2z" />
    <glyph glyph-name="five" unicode="5" 
d="M481 698v-20h-323l-24 -334l3 -1c40 52 92 70 167 70c127 0 201 -79 201 -210c0 -133 -81 -215 -208 -215c-97 0 -167 34 -213 107l18 11c43 -68 105 -98 195 -98c117 0 184 75 184 180v28c0 105 -62 177 -177 177c-85 0 -126 -22 -167 -70l-23 3l26 372h341z" />
    <glyph glyph-name="six" unicode="6" 
d="M300 -12c-152 0 -213 105 -213 238c0 226 119 377 273 472h32c-162 -101 -251 -221 -279 -387l3 -1c35 72 101 107 183 107c129 0 212 -81 212 -212s-82 -217 -211 -217zM299 8c117 0 188 77 188 179v31c0 101 -70 179 -188 179c-119 0 -188 -78 -188 -179v-28
c0 -104 72 -182 188 -182z" />
    <glyph glyph-name="seven" unicode="7" 
d="M211 0h-24l302 678h-390v-166h-22v186h435v-20z" />
    <glyph glyph-name="eight" unicode="8" 
d="M300 -12c-140 0 -228 76 -228 192c0 99 59 168 154 184v4c-80 16 -130 77 -130 167c0 107 79 175 204 175s204 -68 204 -175c0 -90 -50 -151 -130 -167v-4c95 -16 154 -85 154 -184c0 -116 -88 -192 -228 -192zM300 8c124 0 204 66 204 161v26c0 95 -80 161 -204 161
s-204 -66 -204 -161v-26c0 -95 80 -161 204 -161zM300 376c109 0 180 58 180 145v24c0 87 -71 145 -180 145s-180 -58 -180 -145v-24c0 -87 71 -145 180 -145z" />
    <glyph glyph-name="nine" unicode="9" 
d="M516 472c0 -226 -119 -377 -273 -472h-32c162 101 251 221 279 387l-3 1c-35 -72 -101 -107 -183 -107c-129 0 -212 81 -212 212s82 217 211 217c152 0 213 -105 213 -238zM304 301c119 0 188 78 188 179v28c0 104 -72 182 -188 182c-117 0 -188 -77 -188 -179v-31
c0 -101 70 -179 188 -179z" />
    <glyph glyph-name="colon" unicode=":" horiz-adv-x="260" 
d="M130 453c-18 0 -27 9 -27 25v8c0 16 9 25 27 25s27 -9 27 -25v-8c0 -16 -9 -25 -27 -25zM130 -5c-18 0 -27 9 -27 25v8c0 16 9 25 27 25s27 -9 27 -25v-8c0 -16 -9 -25 -27 -25z" />
    <glyph glyph-name="semicolon" unicode=";" horiz-adv-x="260" 
d="M130 453c-18 0 -27 9 -27 25v8c0 16 9 25 27 25s27 -9 27 -25v-8c0 -16 -9 -25 -27 -25zM131 53c18 0 26 -11 26 -26v-12c0 -55 -34 -122 -77 -162h-19c51 50 70 105 74 142c-24 0 -32 11 -32 23v9c0 15 8 26 28 26z" />
    <glyph glyph-name="less" unicode="&#x3c;" 
d="M515 38l-430 258v18l430 258v-23l-407 -243v-2l407 -243v-23z" />
    <glyph glyph-name="equal" unicode="=" 
d="M538 385h-476v19h476v-19zM538 207h-476v19h476v-19z" />
    <glyph glyph-name="greater" unicode="&#x3e;" 
d="M85 38v23l407 243v2l-407 243v23l430 -258v-18z" />
    <glyph glyph-name="question" unicode="?" horiz-adv-x="456" 
d="M220 176h-22v173c127 2 200 70 200 167v26c0 88 -60 149 -162 149c-99 0 -154 -50 -179 -137l-20 5c27 95 92 151 199 151c115 0 185 -72 185 -179c0 -116 -72 -189 -201 -201v-154zM209 -5c-17 0 -27 9 -27 25v8c0 16 9 25 27 25s27 -9 27 -25v-8c0 -16 -10 -25 -27 -25
z" />
    <glyph glyph-name="at" unicode="@" horiz-adv-x="880" 
d="M676 -103v-18h-236c-206 0 -370 151 -370 421c0 254 161 410 372 410c201 0 368 -134 368 -380c0 -145 -41 -261 -142 -261c-52 0 -88 32 -93 79h-3c-19 -38 -63 -79 -136 -79c-108 0 -172 73 -172 218c0 147 64 221 172 221c73 0 117 -38 135 -75h3v63h20v-333
c0 -44 28 -76 74 -76c72 0 120 80 120 218v47c0 205 -151 340 -346 340c-200 0 -350 -153 -350 -366v-52c0 -223 148 -377 348 -377h236zM436 87c73 0 138 50 138 125v150c0 77 -65 128 -138 128c-97 0 -150 -70 -150 -184v-38c0 -111 53 -181 150 -181z" />
    <glyph glyph-name="A" unicode="A" 
d="M568 0h-23l-85 234h-320l-85 -234h-23l253 698h30zM453 253l-152 422h-3l-151 -422h306z" />
    <glyph glyph-name="B" unicode="B" horiz-adv-x="615" 
d="M108 0v698h252c99 0 158 -59 158 -170c0 -87 -36 -137 -98 -157v-2c87 -16 130 -82 130 -180c0 -115 -60 -189 -174 -189h-268zM130 358v-338h246c103 0 150 71 150 148v42c0 76 -47 148 -150 148h-246zM130 678v-300h230c92 0 134 62 134 129v42c0 67 -42 129 -134 129
h-230z" />
    <glyph glyph-name="C" unicode="C" horiz-adv-x="610" 
d="M329 -12c-165 0 -259 121 -259 361s94 361 259 361c102 0 178 -58 216 -143l-19 -9c-36 82 -106 132 -197 132c-146 0 -235 -105 -235 -320v-42c0 -215 89 -320 235 -320c99 0 168 53 202 140l19 -8c-36 -91 -114 -152 -221 -152z" />
    <glyph glyph-name="D" unicode="D" horiz-adv-x="658" 
d="M108 0v698h204c186 0 276 -118 276 -349s-90 -349 -276 -349h-204zM130 20h183c173 0 251 118 251 299v60c0 181 -78 299 -251 299h-183v-658z" />
    <glyph glyph-name="E" unicode="E" horiz-adv-x="561" 
d="M489 0h-381v698h381v-20h-359v-314h347v-20h-347v-324h359v-20z" />
    <glyph glyph-name="F" unicode="F" horiz-adv-x="535" 
d="M130 0h-22v698h373v-20h-351v-314h337v-20h-337v-344z" />
    <glyph glyph-name="G" unicode="G" horiz-adv-x="666" 
d="M565 0v114h-3c-38 -80 -111 -126 -222 -126c-173 0 -270 121 -270 361s97 361 270 361c108 0 191 -57 229 -143l-19 -9c-36 83 -113 132 -210 132c-153 0 -246 -109 -246 -320v-42c0 -211 93 -320 246 -320c120 0 224 66 224 198v106h-176v20h198v-332h-21z" />
    <glyph glyph-name="H" unicode="H" horiz-adv-x="692" 
d="M562 0v344h-432v-344h-22v698h22v-334h432v334h22v-698h-22z" />
    <glyph glyph-name="I" unicode="I" horiz-adv-x="372" 
d="M304 0h-236v19h107v660h-107v19h236v-19h-107v-660h107v-19z" />
    <glyph glyph-name="J" unicode="J" horiz-adv-x="464" 
d="M96 698h268v-515c0 -128 -65 -195 -172 -195c-83 0 -152 51 -170 125l19 6c19 -63 74 -111 151 -111c100 0 150 63 150 175v495h-246v20z" />
    <glyph glyph-name="K" unicode="K" horiz-adv-x="572" 
d="M526 0l-261 387l-135 -148v-239h-22v698h22v-427h2l130 142l259 285h28l-269 -295l272 -403h-26z" />
    <glyph glyph-name="L" unicode="L" horiz-adv-x="475" 
d="M455 0h-347v698h22v-678h325v-20z" />
    <glyph glyph-name="M" unicode="M" horiz-adv-x="796" 
d="M667 0v673h-3l-266 -437l-266 437h-3v-673h-21v698h33l256 -420h3l255 420h33v-698h-21z" />
    <glyph glyph-name="N" unicode="N" horiz-adv-x="692" 
d="M552 0l-420 671h-3v-671h-21v698h32l420 -671h3v671h21v-698h-32z" />
    <glyph glyph-name="O" unicode="O" horiz-adv-x="680" 
d="M340 -12c-173 0 -270 121 -270 361s97 361 270 361s270 -121 270 -361s-97 -361 -270 -361zM340 8c153 0 246 109 246 320v42c0 211 -93 320 -246 320s-246 -109 -246 -320v-42c0 -211 93 -320 246 -320z" />
    <glyph glyph-name="P" unicode="P" horiz-adv-x="594" 
d="M130 0h-22v698h268c114 0 174 -74 174 -188s-60 -188 -174 -188h-246v-322zM130 678v-336h246c103 0 150 71 150 147v42c0 76 -47 147 -150 147h-246z" />
    <glyph glyph-name="Q" unicode="Q" horiz-adv-x="680" 
d="M456 -126v-20h-97c-20 0 -29 9 -29 29v105c-167 5 -260 126 -260 361c0 240 97 361 270 361s270 -121 270 -361c0 -234 -93 -355 -258 -361v-114h104zM340 8c153 0 246 109 246 320v42c0 211 -93 320 -246 320s-246 -109 -246 -320v-42c0 -211 93 -320 246 -320z" />
    <glyph glyph-name="R" unicode="R" horiz-adv-x="630" 
d="M130 322v-322h-22v698h268c114 0 174 -74 174 -188s-60 -188 -176 -188l192 -322h-25l-192 322h-219zM130 342h246c103 0 150 71 150 147v42c0 76 -47 147 -150 147h-246v-336z" />
    <glyph glyph-name="S" unicode="S" horiz-adv-x="547" 
d="M276 -12c-116 0 -184 48 -234 114l18 13c49 -64 109 -107 216 -107c121 0 191 58 191 168c0 117 -77 149 -161 165l-70 13c-140 26 -178 98 -178 180c0 119 84 176 213 176c103 0 168 -39 206 -95l-18 -13c-40 58 -100 88 -190 88c-118 0 -189 -51 -189 -156
c0 -109 75 -143 162 -159l70 -13c143 -27 177 -102 177 -184c0 -126 -83 -190 -213 -190z" />
    <glyph glyph-name="T" unicode="T" horiz-adv-x="560" 
d="M543 678h-252v-678h-22v678h-252v20h526v-20z" />
    <glyph glyph-name="U" unicode="U" horiz-adv-x="652" 
d="M100 698h22v-430c0 -190 48 -260 204 -260s204 70 204 260v430h22v-428c0 -207 -58 -282 -226 -282s-226 75 -226 282v428z" />
    <glyph glyph-name="V" unicode="V" horiz-adv-x="570" 
d="M300 0h-30l-240 698h24l230 -673h3l230 673h23z" />
    <glyph glyph-name="W" unicode="W" horiz-adv-x="872" 
d="M246 0h-30l-186 698h24l176 -667h3l187 667h32l187 -667h3l177 667h23l-186 -698h-30l-189 674h-3z" />
    <glyph glyph-name="X" unicode="X" horiz-adv-x="558" 
d="M293 357l237 -357h-26l-223 335h-2l-225 -335h-26l238 354l-229 344h26l215 -322h2l215 322h26z" />
    <glyph glyph-name="Y" unicode="Y" horiz-adv-x="546" 
d="M284 0h-22v294l-241 404h25l226 -378h3l226 378h24l-241 -404v-294z" />
    <glyph glyph-name="Z" unicode="Z" horiz-adv-x="555" 
d="M527 20v-20h-488v22l443 656h-420v20h444v-22l-443 -656h464z" />
    <glyph glyph-name="bracketleft" unicode="[" horiz-adv-x="301" 
d="M232 -138h-124v898h124v-18h-104v-862h104v-18z" />
    <glyph glyph-name="backslash" unicode="\" horiz-adv-x="313" 
d="M294 -151h-20l-233 891h20z" />
    <glyph glyph-name="bracketright" unicode="]" horiz-adv-x="301" 
d="M69 760h124v-898h-124v18h104v862h-104v18z" />
    <glyph glyph-name="asciicircum" unicode="^" 
d="M532 332l-18 -10l-213 354h-2l-213 -354l-18 10l221 366h22z" />
    <glyph glyph-name="underscore" unicode="_" horiz-adv-x="569" 
d="M539 -141h-509v18h509v-18z" />
    <glyph glyph-name="grave" unicode="`" 
d="M317 587l-115 152l19 12l111 -154z" />
    <glyph glyph-name="a" unicode="a" horiz-adv-x="519" 
d="M499 0h-77c-20 0 -29 9 -29 29v48h-3c-25 -48 -73 -89 -166 -89c-104 0 -163 51 -163 142c0 84 45 145 190 145h142v74c0 104 -50 150 -144 150c-76 0 -125 -29 -153 -95l-18 8c28 65 77 106 171 106c110 0 165 -59 165 -166v-333h85v-19zM224 7c90 0 169 47 169 141v109
h-141c-119 0 -168 -45 -168 -112v-30c0 -70 58 -108 140 -108z" />
    <glyph glyph-name="b" unicode="b" horiz-adv-x="565" 
d="M105 0v740h21v-312h3c21 44 75 90 164 90c133 0 212 -89 212 -265s-79 -265 -212 -265c-89 0 -143 46 -164 90h-3v-78h-21zM293 7c121 0 189 85 189 222v48c0 137 -68 222 -189 222c-88 0 -167 -55 -167 -136v-220c0 -81 79 -136 167 -136z" />
    <glyph glyph-name="c" unicode="c" horiz-adv-x="487" 
d="M270 -12c-132 0 -210 90 -210 265s78 265 210 265c80 0 134 -40 165 -100l-18 -9c-32 58 -75 90 -147 90c-120 0 -187 -86 -187 -222v-48c0 -136 67 -222 187 -222c78 0 126 33 158 88l16 -11c-33 -57 -86 -96 -174 -96z" />
    <glyph glyph-name="d" unicode="d" horiz-adv-x="565" 
d="M439 0v78h-3c-21 -44 -75 -90 -164 -90c-133 0 -212 89 -212 265s79 265 212 265c89 0 143 -46 164 -90h3v312h21v-740h-21zM272 7c88 0 167 55 167 136v220c0 81 -79 136 -167 136c-121 0 -189 -85 -189 -222v-48c0 -137 68 -222 189 -222z" />
    <glyph glyph-name="e" unicode="e" horiz-adv-x="533" 
d="M272 -12c-132 0 -212 90 -212 265c0 173 78 265 208 265c122 0 205 -97 205 -252v-10h-390v-27c0 -136 69 -222 189 -222c85 0 144 42 175 124l18 -7c-30 -83 -96 -136 -193 -136zM268 499c-118 0 -185 -86 -185 -222v-2h367v4c0 133 -73 220 -182 220z" />
    <glyph glyph-name="f" unicode="f" horiz-adv-x="285" 
d="M123 0v487h-93v19h93v205c0 20 9 29 29 29h108v-19h-116v-215h116v-19h-116v-487h-21z" />
    <glyph glyph-name="g" unicode="g" horiz-adv-x="527" 
d="M501 -65c0 -101 -87 -147 -239 -147c-149 0 -212 52 -212 130c0 60 37 100 99 120v3c-37 11 -53 35 -53 67c0 46 41 73 85 86v3c-57 25 -91 76 -91 152c0 102 66 169 173 169c27 0 51 -4 72 -12h166v-19h-130c41 -28 65 -77 65 -138c0 -102 -70 -169 -173 -169
c-20 0 -36 3 -56 7c-60 -16 -91 -41 -91 -78c0 -28 17 -56 87 -56h135c115 0 163 -46 163 -118zM263 199c95 0 149 57 149 131v38c0 74 -54 131 -149 131s-149 -57 -149 -131v-38c0 -74 56 -131 149 -131zM479 -65c0 61 -36 98 -144 98h-155c-63 -16 -108 -52 -108 -116
c0 -66 64 -110 166 -110h49c113 0 192 39 192 128z" />
    <glyph glyph-name="h" unicode="h" horiz-adv-x="556" 
d="M105 0v740h21v-310h3c18 45 67 88 158 88c113 0 174 -67 174 -193v-325h-21v321c0 123 -56 178 -155 178c-83 0 -159 -45 -159 -137v-362h-21z" />
    <glyph glyph-name="i" unicode="i" horiz-adv-x="231" 
d="M115 673c-17 0 -23 10 -23 21v7c0 11 6 21 23 21s23 -10 23 -21v-7c0 -11 -6 -21 -23 -21zM105 0v506h21v-506h-21z" />
    <glyph glyph-name="j" unicode="j" horiz-adv-x="231" 
d="M105 -181v687h21v-677c0 -20 -9 -29 -29 -29h-77v19h85zM115 673c-17 0 -23 10 -23 21v7c0 11 6 21 23 21s23 -10 23 -21v-7c0 -11 -6 -21 -23 -21z" />
    <glyph glyph-name="k" unicode="k" horiz-adv-x="490" 
d="M105 0v740h21v-520h3l80 79l207 207h28l-215 -214l242 -292h-26l-231 277l-88 -87v-190h-21z" />
    <glyph glyph-name="l" unicode="l" horiz-adv-x="251" 
d="M211 0h-77c-20 0 -29 9 -29 29v711h21v-721h85v-19z" />
    <glyph glyph-name="m" unicode="m" horiz-adv-x="879" 
d="M126 0h-21v506h21v-76h3c18 45 64 88 153 88c82 0 139 -39 159 -112h4c19 65 72 112 166 112c113 0 173 -67 173 -193v-325h-21v322c0 122 -54 177 -154 177c-82 0 -154 -46 -154 -139v-360h-21v322c0 122 -56 177 -154 177c-81 0 -154 -45 -154 -137v-362z" />
    <glyph glyph-name="n" unicode="n" horiz-adv-x="556" 
d="M126 0h-21v506h21v-76h3c18 45 67 88 158 88c113 0 174 -67 174 -193v-325h-21v321c0 123 -56 178 -155 178c-83 0 -159 -45 -159 -137v-362z" />
    <glyph glyph-name="o" unicode="o" horiz-adv-x="540" 
d="M270 -12c-132 0 -210 90 -210 265s78 265 210 265s210 -90 210 -265s-78 -265 -210 -265zM270 7c120 0 187 86 187 222v48c0 136 -67 222 -187 222s-187 -86 -187 -222v-48c0 -136 67 -222 187 -222z" />
    <glyph glyph-name="p" unicode="p" horiz-adv-x="565" 
d="M105 -200v706h21v-78h3c21 44 75 90 164 90c133 0 212 -89 212 -265s-79 -265 -212 -265c-89 0 -143 46 -164 90h-3v-278h-21zM293 7c121 0 189 85 189 222v48c0 137 -68 222 -189 222c-88 0 -167 -55 -167 -136v-220c0 -81 79 -136 167 -136z" />
    <glyph glyph-name="q" unicode="q" horiz-adv-x="565" 
d="M439 -200v278h-3c-21 -44 -75 -90 -164 -90c-133 0 -212 89 -212 265s79 265 212 265c89 0 143 -46 164 -90h3v78h21v-706h-21zM272 7c88 0 167 55 167 136v220c0 81 -79 136 -167 136c-121 0 -189 -85 -189 -222v-48c0 -137 68 -222 189 -222z" />
    <glyph glyph-name="r" unicode="r" horiz-adv-x="341" 
d="M126 0h-21v506h21v-87h3c23 47 65 87 158 87h41v-19h-44c-82 0 -158 -45 -158 -138v-349z" />
    <glyph glyph-name="s" unicode="s" horiz-adv-x="462" 
d="M236 -12c-81 0 -140 27 -187 93l18 12c46 -63 95 -86 169 -86c95 0 146 42 146 117c0 76 -44 108 -128 121l-44 7c-89 14 -144 49 -144 137c0 85 70 129 160 129c88 0 134 -36 167 -73l-16 -14c-31 35 -70 68 -150 68c-84 0 -140 -38 -140 -109c0 -75 41 -104 127 -118
l44 -7c88 -14 145 -51 145 -140c0 -87 -64 -137 -167 -137z" />
    <glyph glyph-name="t" unicode="t" horiz-adv-x="310" 
d="M259 0h-105c-20 0 -29 9 -29 29v458h-95v19h72c18 0 23 7 23 25v119h21v-144h121v-19h-121v-468h113v-19z" />
    <glyph glyph-name="u" unicode="u" horiz-adv-x="556" 
d="M430 0v76h-3c-18 -45 -67 -88 -158 -88c-113 0 -174 67 -174 193v325h21v-321c0 -123 56 -178 155 -178c83 0 159 45 159 137v362h21v-506h-21z" />
    <glyph glyph-name="v" unicode="v" horiz-adv-x="452" 
d="M213 0l-188 506h22l178 -482h3l178 482h21l-188 -506h-26z" />
    <glyph glyph-name="w" unicode="w" horiz-adv-x="725" 
d="M189 0l-154 506h22l144 -479h3l148 479h22l148 -479h3l144 479h21l-154 -506h-26l-146 472h-3l-146 -472h-26z" />
    <glyph glyph-name="x" unicode="x" horiz-adv-x="470" 
d="M58 0h-24l188 255l-183 251h24l171 -235h2l171 235h24l-183 -251l188 -255h-24l-176 239h-2z" />
    <glyph glyph-name="y" unicode="y" horiz-adv-x="452" 
d="M228 24l178 482h21l-255 -687c-5 -13 -16 -19 -31 -19h-84v19h93l66 174l-191 513h22l178 -482h3z" />
    <glyph glyph-name="z" unicode="z" horiz-adv-x="417" 
d="M396 0h-369v21l337 466h-327v19h349v-21l-337 -466h347v-19z" />
    <glyph glyph-name="braceleft" unicode="{" horiz-adv-x="315" 
d="M247 -138h-100c-17 0 -25 7 -25 26v313c0 60 -37 86 -97 86v48c60 0 97 26 97 86v313c0 19 8 26 25 26h100v-18h-105v-321c0 -62 -39 -102 -99 -102v-16c60 0 99 -40 99 -102v-321h105v-18z" />
    <glyph glyph-name="bar" unicode="|" horiz-adv-x="236" 
d="M128 -138h-20v898h20v-898z" />
    <glyph glyph-name="braceright" unicode="}" horiz-adv-x="315" 
d="M68 760h100c17 0 25 -7 25 -26v-313c0 -60 37 -86 97 -86v-48c-60 0 -97 -26 -97 -86v-313c0 -19 -8 -26 -25 -26h-100v18h105v321c0 62 39 102 99 102v16c-60 0 -99 40 -99 102v321h-105v18z" />
    <glyph glyph-name="asciitilde" unicode="~" 
d="M424 256c-38 0 -68 11 -130 39c-58 26 -83 37 -119 37c-39 0 -65 -12 -97 -42l-13 14c34 33 67 48 111 48c38 0 68 -11 130 -39c58 -26 83 -37 119 -37c39 0 65 12 97 42l13 -14c-34 -33 -67 -48 -111 -48z" />
    <glyph glyph-name="uni00A0" unicode="&#xa0;" horiz-adv-x="236" 
 />
    <glyph glyph-name="exclamdown" unicode="&#xa1;" horiz-adv-x="252" 
d="M120 330h12l5 -239v-283h-22v283zM126 511c17 0 27 -9 27 -25v-8c0 -16 -9 -25 -27 -25s-27 9 -27 25v8c0 16 10 25 27 25z" />
    <glyph glyph-name="cent" unicode="&#xa2;" horiz-adv-x="497" 
d="M273 -114h-20v103c-122 7 -193 97 -193 264s71 257 193 264v103h20v-102c78 -1 131 -41 162 -100l-18 -9c-32 58 -75 90 -144 90v-492c76 1 123 34 155 88l16 -11c-33 -57 -86 -96 -171 -96v-102zM83 229c0 -129 61 -214 170 -221v490c-109 -7 -170 -92 -170 -221v-48z
" />
    <glyph glyph-name="sterling" unicode="&#xa3;" horiz-adv-x="579" 
d="M513 0h-430v25c56 42 96 109 96 195c0 33 -6 63 -14 91h-95v20h88c-19 57 -46 110 -46 179c0 125 88 200 207 200c85 0 154 -39 200 -118l-19 -10c-44 75 -104 108 -180 108c-110 0 -186 -67 -186 -180c0 -68 27 -121 47 -179h218v-20h-212c8 -28 14 -57 14 -90
c0 -80 -33 -152 -94 -199v-2h406v-20z" />
    <glyph glyph-name="currency" unicode="&#xa4;" horiz-adv-x="586" 
d="M293 129c-63 0 -113 21 -146 60l-110 -111l-15 15l112 113c-22 34 -34 83 -34 143s12 109 34 143l-112 113l15 15l110 -111c33 39 83 60 146 60s113 -21 146 -60l110 111l15 -15l-112 -113c22 -34 34 -83 34 -143s-12 -109 -34 -143l112 -113l-15 -15l-110 111
c-33 -39 -83 -60 -146 -60zM293 148c108 0 170 68 170 178v46c0 110 -62 178 -170 178s-170 -68 -170 -178v-46c0 -110 62 -178 170 -178z" />
    <glyph glyph-name="yen" unicode="&#xa5;" horiz-adv-x="580" 
d="M499 168h-198v-168h-22v168h-198v19h198v138h-198v19h186l-219 354h25l216 -350h3l216 350h24l-219 -354h186v-19h-198v-138h198v-19z" />
    <glyph glyph-name="brokenbar" unicode="&#xa6;" horiz-adv-x="236" 
d="M128 401h-20v359h20v-359zM128 -138h-20v359h20v-359z" />
    <glyph glyph-name="section" unicode="&#xa7;" horiz-adv-x="564" 
d="M457 259c0 79 -45 115 -131 142l-66 21c-16 5 -30 11 -46 18c-65 -28 -107 -72 -107 -143c0 -79 45 -115 131 -142l66 -21c16 -5 30 -11 46 -18c65 28 107 72 107 143zM442 -13c0 -97 -77 -141 -173 -141c-74 0 -121 24 -154 56l13 15c31 -29 74 -52 142 -52
c94 0 151 42 151 122c0 76 -59 107 -124 128l-67 22c-89 29 -144 68 -144 159c0 76 43 124 110 150v3c-47 28 -74 68 -74 120c0 97 77 141 173 141c74 0 121 -24 154 -56l-13 -15c-31 29 -74 52 -142 52c-94 0 -151 -42 -151 -122c0 -76 59 -107 124 -128l67 -22
c89 -29 144 -68 144 -159c0 -76 -43 -124 -110 -150v-3c47 -28 74 -68 74 -120z" />
    <glyph glyph-name="dieresis" unicode="&#xa8;" 
d="M209 642c-17 0 -23 10 -23 21v7c0 11 6 21 23 21s23 -10 23 -21v-7c0 -11 -6 -21 -23 -21zM391 642c-17 0 -23 10 -23 21v7c0 11 6 21 23 21s23 -10 23 -21v-7c0 -11 -6 -21 -23 -21z" />
    <glyph glyph-name="copyright" unicode="&#xa9;" horiz-adv-x="708" 
d="M354 -12c-189 0 -321 142 -321 361s132 361 321 361s321 -142 321 -361s-132 -361 -321 -361zM354 6c179 0 299 138 299 321v44c0 183 -120 321 -299 321c-180 0 -299 -138 -299 -321v-44c0 -183 120 -321 299 -321zM351 149c-90 0 -149 68 -149 197s60 197 151 197
c65 0 107 -35 123 -81l-16 -5c-17 43 -53 69 -107 69c-79 0 -131 -58 -131 -170v-20c0 -116 52 -170 130 -170c55 0 94 27 113 70l15 -7c-19 -45 -65 -80 -129 -80z" />
    <glyph glyph-name="ordfeminine" unicode="&#xaa;" horiz-adv-x="353" 
d="M329 383v-17h-48c-13 0 -18 6 -18 19v30h-2c-15 -28 -49 -55 -112 -55c-71 0 -109 35 -109 89c0 56 33 93 127 93h96v56c0 60 -37 89 -99 89c-44 0 -81 -17 -99 -58l-15 8c18 41 55 67 114 67c74 0 118 -38 118 -103v-218h47zM263 525h-97c-77 0 -105 -27 -105 -69v-13
c0 -43 35 -66 88 -66c61 0 114 27 114 84v64z" />
    <glyph glyph-name="guillemotleft" unicode="&#xab;" horiz-adv-x="472" 
d="M421 121l-9 -15l-198 178v20l198 178l9 -15l-184 -173zM241 121l-9 -15l-198 178v20l198 178l9 -15l-184 -173z" />
    <glyph glyph-name="logicalnot" unicode="&#xac;" 
d="M522 104h-21v192h-439v19h460v-211z" />
    <glyph glyph-name="uni00AD" unicode="&#xad;" horiz-adv-x="395" 
d="M312 295h-229v20h229v-20z" />
    <glyph glyph-name="registered" unicode="&#xae;" horiz-adv-x="466" 
d="M233 298c-115 0 -198 84 -198 206s83 206 198 206s198 -84 198 -206s-83 -206 -198 -206zM233 314c103 0 179 76 179 180v20c0 104 -76 180 -179 180s-179 -76 -179 -180v-20c0 -104 76 -180 179 -180zM184 488v-91h-16v212h81c39 0 63 -18 63 -62c0 -36 -20 -57 -48 -58
l54 -92h-19l-52 91h-63zM184 503h64c33 0 46 12 46 42v7c0 31 -13 42 -46 42h-64v-91z" />
    <glyph glyph-name="macron" unicode="&#xaf;" 
d="M171 658v18h258v-18h-258z" />
    <glyph glyph-name="degree" unicode="&#xb0;" horiz-adv-x="466" 
d="M233 374c-93 0 -162 73 -162 168s69 168 162 168c92 0 162 -73 162 -168s-70 -168 -162 -168zM233 393c86 0 141 68 141 149s-55 149 -141 149s-141 -67 -141 -149s55 -149 141 -149z" />
    <glyph glyph-name="plusminus" unicode="&#xb1;" 
d="M311 115h-21v234h-228v19h228v234h21v-234h228v-19h-228v-234zM538 0h-476v19h476v-19z" />
    <glyph glyph-name="twosuperior" unicode="&#xb2;" horiz-adv-x="345" 
d="M300 346v-17h-256v20l139 115c57 47 84 89 84 128v10c0 49 -32 85 -95 85c-62 0 -97 -31 -114 -78l-17 5c16 49 58 90 131 90c76 0 115 -47 115 -105c0 -50 -30 -96 -93 -147l-130 -106h236z" />
    <glyph glyph-name="threesuperior" unicode="&#xb3;" horiz-adv-x="347" 
d="M113 529h46c74 0 101 30 101 79v6c0 44 -32 73 -92 73c-52 0 -79 -17 -101 -46l-14 10c21 31 58 53 115 53c71 0 112 -37 112 -95c0 -48 -27 -76 -70 -86v-3c51 -8 77 -39 77 -89c0 -66 -45 -108 -125 -108c-60 0 -97 25 -120 56l14 11c24 -30 51 -50 106 -50
c69 0 105 32 105 87v6c0 50 -27 79 -101 79h-53v17z" />
    <glyph glyph-name="acute" unicode="&#xb4;" 
d="M397 739l-115 -152l-15 10l111 154z" />
    <glyph glyph-name="mu" unicode="&#xb5;" horiz-adv-x="566" 
d="M126 -200h-21v706h21v-321c0 -123 56 -178 155 -178c83 0 159 45 159 137v362h21v-506h-21v76h-3c-18 -45 -67 -88 -158 -88c-77 0 -129 31 -155 91h-3l5 -123v-156z" />
    <glyph glyph-name="paragraph" unicode="&#xb6;" horiz-adv-x="591" 
d="M250 -149v479c-109 0 -199 67 -199 184s90 184 199 184h243v-18h-69v-829h-21v829h-132v-829h-21z" />
    <glyph glyph-name="periodcentered" unicode="&#xb7;" horiz-adv-x="298" 
d="M149 277c-17 0 -27 9 -27 25v8c0 16 9 25 27 25s27 -9 27 -25v-8c0 -16 -10 -25 -27 -25z" />
    <glyph glyph-name="cedilla" unicode="&#xb8;" 
d="M309 -202c-38 0 -69 15 -81 32l13 13c14 -17 38 -27 68 -27c36 0 61 18 61 52c0 25 -16 44 -61 46l-37 2l21 87h18l-19 -76l2 -2c9 2 21 3 30 3c39 0 67 -23 67 -59c0 -38 -31 -71 -82 -71z" />
    <glyph glyph-name="onesuperior" unicode="&#xb9;" horiz-adv-x="373" 
d="M326 329h-266v17h129v337h-4l-125 -105l-11 13l127 107h32v-352h118v-17z" />
    <glyph glyph-name="ordmasculine" unicode="&#xba;" horiz-adv-x="366" 
d="M183 360c-86 0 -137 66 -137 172s51 172 137 172s137 -66 137 -172s-51 -172 -137 -172zM183 377c76 0 116 63 116 139v32c0 76 -40 139 -116 139s-116 -63 -116 -139v-32c0 -76 40 -139 116 -139z" />
    <glyph glyph-name="guillemotright" unicode="&#xbb;" horiz-adv-x="472" 
d="M240 106l-9 15l184 173l-184 173l9 15l198 -178v-20zM60 106l-9 15l184 173l-184 173l9 15l198 -178v-20z" />
    <glyph glyph-name="onequarter" unicode="&#xbc;" horiz-adv-x="851" 
d="M757 0h-19v89h-213v19l204 261h28v-263h66v-17h-66v-89zM738 106v244h-3l-190 -244h193zM250 0h-22l447 698h22zM326 329h-266v17h129v337h-4l-125 -105l-11 13l127 107h32v-352h118v-17z" />
    <glyph glyph-name="onehalf" unicode="&#xbd;" horiz-adv-x="885" 
d="M840 17v-17h-256v20l139 115c57 47 84 89 84 128v10c0 49 -32 85 -95 85c-62 0 -97 -31 -114 -78l-17 5c16 49 58 90 131 90c76 0 115 -47 115 -105c0 -50 -30 -96 -93 -147l-130 -106h236zM250 0h-22l447 698h22zM326 329h-266v17h129v337h-4l-125 -105l-11 13l127 107
h32v-352h118v-17z" />
    <glyph glyph-name="threequarters" unicode="&#xbe;" horiz-adv-x="815" 
d="M721 0h-19v89h-213v19l204 261h28v-263h66v-17h-66v-89zM702 106v244h-3l-190 -244h193zM214 0h-22l447 698h22zM113 529h46c74 0 101 30 101 79v6c0 44 -32 73 -92 73c-52 0 -79 -17 -101 -46l-14 10c21 31 58 53 115 53c71 0 112 -37 112 -95c0 -48 -27 -76 -70 -86v-3
c51 -8 77 -39 77 -89c0 -66 -45 -108 -125 -108c-60 0 -97 25 -120 56l14 11c24 -30 51 -50 106 -50c69 0 105 32 105 87v6c0 50 -27 79 -101 79h-53v17z" />
    <glyph glyph-name="questiondown" unicode="&#xbf;" horiz-adv-x="456" 
d="M220 -204c-115 0 -185 72 -185 179c0 116 72 189 201 201v154h22v-173c-127 -2 -200 -70 -200 -167v-26c0 -88 60 -149 162 -149c99 0 154 50 179 137l20 -5c-27 -95 -92 -151 -199 -151zM247 453c-18 0 -27 9 -27 25v8c0 16 10 25 27 25s27 -9 27 -25v-8
c0 -16 -9 -25 -27 -25z" />
    <glyph glyph-name="Agrave" unicode="&#xc0;" 
d="M316 767l-115 152l19 12l111 -154zM568 0h-23l-85 234h-320l-85 -234h-23l253 698h30zM453 253l-152 422h-3l-151 -422h306z" />
    <glyph glyph-name="Aacute" unicode="&#xc1;" 
d="M396 919l-115 -152l-15 10l111 154zM568 0h-23l-85 234h-320l-85 -234h-23l253 698h30zM453 253l-152 422h-3l-151 -422h306z" />
    <glyph glyph-name="Acircumflex" unicode="&#xc2;" 
d="M287 923h24l128 -133l-14 -11l-126 127l-126 -127l-14 11zM568 0h-23l-85 234h-320l-85 -234h-23l253 698h30zM453 253l-152 422h-3l-151 -422h306z" />
    <glyph glyph-name="Atilde" unicode="&#xc3;" 
d="M370 808c-23 0 -43 8 -77 30c-29 19 -47 26 -66 26c-24 0 -44 -11 -65 -33l-12 12c24 27 50 39 78 39c23 0 43 -8 77 -30c29 -19 47 -26 66 -26c24 0 44 11 65 33l12 -12c-24 -27 -50 -39 -78 -39zM568 0h-23l-85 234h-320l-85 -234h-23l253 698h30zM453 253l-152 422h-3
l-151 -422h306z" />
    <glyph glyph-name="Adieresis" unicode="&#xc4;" 
d="M208 819c-17 0 -23 10 -23 21v7c0 11 6 21 23 21s23 -10 23 -21v-7c0 -11 -6 -21 -23 -21zM390 819c-17 0 -23 10 -23 21v7c0 11 6 21 23 21s23 -10 23 -21v-7c0 -11 -6 -21 -23 -21zM568 0h-23l-85 234h-320l-85 -234h-23l253 698h30zM453 253l-152 422h-3l-151 -422
h306z" />
    <glyph glyph-name="Aring" unicode="&#xc5;" 
d="M299 769c-54 0 -90 37 -90 91s36 91 90 91s90 -37 90 -91s-36 -91 -90 -91zM299 787c43 0 70 27 70 68v10c0 41 -27 68 -70 68s-70 -27 -70 -68v-10c0 -41 27 -68 70 -68zM568 0h-23l-85 234h-320l-85 -234h-23l253 698h30zM453 253l-152 422h-3l-151 -422h306z" />
    <glyph glyph-name="AE" unicode="&#xc6;" horiz-adv-x="861" 
d="M408 0v234h-253l-129 -234h-24l383 698h404v-20h-359v-314h347v-20h-347v-324h359v-20h-381zM408 678h-11l-232 -425h243v425z" />
    <glyph glyph-name="Ccedilla" unicode="&#xc7;" horiz-adv-x="610" 
d="M329 690c-146 0 -235 -105 -235 -320v-42c0 -215 89 -320 235 -320c99 0 168 53 202 140l19 -8c-35 -88 -109 -148 -210 -152l-15 -61l2 -2c9 2 21 3 30 3c39 0 67 -23 67 -59c0 -38 -31 -71 -82 -71c-38 0 -69 15 -81 32l13 13c14 -17 38 -27 68 -27c36 0 61 18 61 52
c0 25 -16 44 -61 46l-37 2l17 72c-161 3 -252 124 -252 361c0 240 94 361 259 361c102 0 178 -58 216 -143l-19 -9c-36 82 -106 132 -197 132z" />
    <glyph glyph-name="Egrave" unicode="&#xc8;" horiz-adv-x="561" 
d="M316 767l-115 152l19 12l111 -154zM489 0h-381v698h381v-20h-359v-314h347v-20h-347v-324h359v-20z" />
    <glyph glyph-name="Eacute" unicode="&#xc9;" horiz-adv-x="561" 
d="M396 919l-115 -152l-15 10l111 154zM489 0h-381v698h381v-20h-359v-314h347v-20h-347v-324h359v-20z" />
    <glyph glyph-name="Ecircumflex" unicode="&#xca;" horiz-adv-x="561" 
d="M287 923h24l128 -133l-14 -11l-126 127l-126 -127l-14 11zM489 0h-381v698h381v-20h-359v-314h347v-20h-347v-324h359v-20z" />
    <glyph glyph-name="Edieresis" unicode="&#xcb;" horiz-adv-x="561" 
d="M208 819c-17 0 -23 10 -23 21v7c0 11 6 21 23 21s23 -10 23 -21v-7c0 -11 -6 -21 -23 -21zM390 819c-17 0 -23 10 -23 21v7c0 11 6 21 23 21s23 -10 23 -21v-7c0 -11 -6 -21 -23 -21zM489 0h-381v698h381v-20h-359v-314h347v-20h-347v-324h359v-20z" />
    <glyph glyph-name="Igrave" unicode="&#xcc;" horiz-adv-x="372" 
d="M202 767l-115 152l19 12l111 -154zM304 0h-236v19h107v660h-107v19h236v-19h-107v-660h107v-19z" />
    <glyph glyph-name="Iacute" unicode="&#xcd;" horiz-adv-x="372" 
d="M282 919l-115 -152l-15 10l111 154zM304 0h-236v19h107v660h-107v19h236v-19h-107v-660h107v-19z" />
    <glyph glyph-name="Icircumflex" unicode="&#xce;" horiz-adv-x="372" 
d="M173 923h24l128 -133l-14 -11l-126 127l-126 -127l-14 11zM304 0h-236v19h107v660h-107v19h236v-19h-107v-660h107v-19z" />
    <glyph glyph-name="Idieresis" unicode="&#xcf;" horiz-adv-x="372" 
d="M94 819c-17 0 -23 10 -23 21v7c0 11 6 21 23 21s23 -10 23 -21v-7c0 -11 -6 -21 -23 -21zM276 819c-17 0 -23 10 -23 21v7c0 11 6 21 23 21s23 -10 23 -21v-7c0 -11 -6 -21 -23 -21zM304 0h-236v19h107v660h-107v19h236v-19h-107v-660h107v-19z" />
    <glyph glyph-name="Eth" unicode="&#xd0;" horiz-adv-x="661" 
d="M111 0v359h-83v19h83v320h204c186 0 276 -118 276 -349s-90 -349 -276 -349h-204zM133 20h183c173 0 251 118 251 299v60c0 181 -78 299 -251 299h-183v-300h172v-19h-172v-339z" />
    <glyph glyph-name="Ntilde" unicode="&#xd1;" horiz-adv-x="692" 
d="M417 808c-23 0 -43 8 -77 30c-29 19 -47 26 -66 26c-24 0 -44 -11 -65 -33l-12 12c24 27 50 39 78 39c23 0 43 -8 77 -30c29 -19 47 -26 66 -26c24 0 44 11 65 33l12 -12c-24 -27 -50 -39 -78 -39zM552 0l-420 671h-3v-671h-21v698h32l420 -671h3v671h21v-698h-32z" />
    <glyph glyph-name="Ograve" unicode="&#xd2;" horiz-adv-x="680" 
d="M357 767l-115 152l19 12l111 -154zM340 -12c-173 0 -270 121 -270 361s97 361 270 361s270 -121 270 -361s-97 -361 -270 -361zM340 8c153 0 246 109 246 320v42c0 211 -93 320 -246 320s-246 -109 -246 -320v-42c0 -211 93 -320 246 -320z" />
    <glyph glyph-name="Oacute" unicode="&#xd3;" horiz-adv-x="680" 
d="M437 919l-115 -152l-15 10l111 154zM340 -12c-173 0 -270 121 -270 361s97 361 270 361s270 -121 270 -361s-97 -361 -270 -361zM340 8c153 0 246 109 246 320v42c0 211 -93 320 -246 320s-246 -109 -246 -320v-42c0 -211 93 -320 246 -320z" />
    <glyph glyph-name="Ocircumflex" unicode="&#xd4;" horiz-adv-x="680" 
d="M328 923h24l128 -133l-14 -11l-126 127l-126 -127l-14 11zM340 -12c-173 0 -270 121 -270 361s97 361 270 361s270 -121 270 -361s-97 -361 -270 -361zM340 8c153 0 246 109 246 320v42c0 211 -93 320 -246 320s-246 -109 -246 -320v-42c0 -211 93 -320 246 -320z" />
    <glyph glyph-name="Otilde" unicode="&#xd5;" horiz-adv-x="680" 
d="M411 808c-23 0 -43 8 -77 30c-29 19 -47 26 -66 26c-24 0 -44 -11 -65 -33l-12 12c24 27 50 39 78 39c23 0 43 -8 77 -30c29 -19 47 -26 66 -26c24 0 44 11 65 33l12 -12c-24 -27 -50 -39 -78 -39zM340 -12c-173 0 -270 121 -270 361s97 361 270 361s270 -121 270 -361
s-97 -361 -270 -361zM340 8c153 0 246 109 246 320v42c0 211 -93 320 -246 320s-246 -109 -246 -320v-42c0 -211 93 -320 246 -320z" />
    <glyph glyph-name="Odieresis" unicode="&#xd6;" horiz-adv-x="680" 
d="M249 819c-17 0 -23 10 -23 21v7c0 11 6 21 23 21s23 -10 23 -21v-7c0 -11 -6 -21 -23 -21zM431 819c-17 0 -23 10 -23 21v7c0 11 6 21 23 21s23 -10 23 -21v-7c0 -11 -6 -21 -23 -21zM340 -12c-173 0 -270 121 -270 361s97 361 270 361s270 -121 270 -361
s-97 -361 -270 -361zM340 8c153 0 246 109 246 320v42c0 211 -93 320 -246 320s-246 -109 -246 -320v-42c0 -211 93 -320 246 -320z" />
    <glyph glyph-name="multiply" unicode="&#xd7;" 
d="M481 110l-181 182l-181 -182l-14 13l182 182l-182 182l14 13l181 -182l181 182l14 -13l-182 -182l182 -182z" />
    <glyph glyph-name="Oslash" unicode="&#xd8;" horiz-adv-x="680" 
d="M340 -12c-79 0 -142 25 -187 75l-65 -94l-18 11l69 100c-45 60 -69 150 -69 269c0 240 97 361 270 361c78 0 141 -25 187 -74l66 95l17 -11l-70 -101c46 -60 70 -150 70 -270c0 -240 -97 -361 -270 -361zM94 328c0 -99 21 -176 58 -230l362 519c-42 48 -101 73 -174 73
c-153 0 -246 -109 -246 -320v-42zM586 370c0 100 -21 177 -59 230l-361 -519c42 -48 101 -73 174 -73c153 0 246 109 246 320v42z" />
    <glyph glyph-name="Ugrave" unicode="&#xd9;" horiz-adv-x="652" 
d="M342 767l-115 152l19 12l111 -154zM100 698h22v-430c0 -190 48 -260 204 -260s204 70 204 260v430h22v-428c0 -207 -58 -282 -226 -282s-226 75 -226 282v428z" />
    <glyph glyph-name="Uacute" unicode="&#xda;" horiz-adv-x="652" 
d="M422 919l-115 -152l-15 10l111 154zM100 698h22v-430c0 -190 48 -260 204 -260s204 70 204 260v430h22v-428c0 -207 -58 -282 -226 -282s-226 75 -226 282v428z" />
    <glyph glyph-name="Ucircumflex" unicode="&#xdb;" horiz-adv-x="652" 
d="M313 923h24l128 -133l-14 -11l-126 127l-126 -127l-14 11zM100 698h22v-430c0 -190 48 -260 204 -260s204 70 204 260v430h22v-428c0 -207 -58 -282 -226 -282s-226 75 -226 282v428z" />
    <glyph glyph-name="Udieresis" unicode="&#xdc;" horiz-adv-x="652" 
d="M234 819c-17 0 -23 10 -23 21v7c0 11 6 21 23 21s23 -10 23 -21v-7c0 -11 -6 -21 -23 -21zM416 819c-17 0 -23 10 -23 21v7c0 11 6 21 23 21s23 -10 23 -21v-7c0 -11 -6 -21 -23 -21zM100 698h22v-430c0 -190 48 -260 204 -260s204 70 204 260v430h22v-428
c0 -207 -58 -282 -226 -282s-226 75 -226 282v428z" />
    <glyph glyph-name="Yacute" unicode="&#xdd;" horiz-adv-x="546" 
d="M369 919l-115 -152l-15 10l111 154zM284 0h-22v294l-241 404h25l226 -378h3l226 378h24l-241 -404v-294z" />
    <glyph glyph-name="Thorn" unicode="&#xde;" horiz-adv-x="594" 
d="M130 0h-22v698h22v-156h246c114 0 174 -74 174 -188s-60 -188 -174 -188h-246v-166zM130 522v-336h246c103 0 150 71 150 147v42c0 76 -47 147 -150 147h-246z" />
    <glyph glyph-name="germandbls" unicode="&#xdf;" horiz-adv-x="645" 
d="M596 125c0 -87 -62 -137 -162 -137c-84 0 -145 26 -192 93l18 12c47 -64 97 -86 174 -86c91 0 141 42 141 117c0 73 -38 100 -108 117l-44 11c-76 19 -124 45 -124 125c0 90 84 129 205 129v15c0 133 -63 212 -175 212s-175 -79 -175 -212v-521h-21v487h-93v19h93v15
c0 140 71 231 196 231s196 -91 196 -231v-33h-18c-107 0 -187 -33 -187 -110c0 -67 35 -88 107 -106l44 -11c75 -19 125 -50 125 -136z" />
    <glyph glyph-name="agrave" unicode="&#xe0;" horiz-adv-x="519" 
d="M266 587l-115 152l19 12l111 -154zM499 0h-77c-20 0 -29 9 -29 29v48h-3c-25 -48 -73 -89 -166 -89c-104 0 -163 51 -163 142c0 84 45 145 190 145h142v74c0 104 -50 150 -144 150c-76 0 -125 -29 -153 -95l-18 8c28 65 77 106 171 106c110 0 165 -59 165 -166v-333h85
v-19zM224 7c90 0 169 47 169 141v109h-141c-119 0 -168 -45 -168 -112v-30c0 -70 58 -108 140 -108z" />
    <glyph glyph-name="aacute" unicode="&#xe1;" horiz-adv-x="519" 
d="M346 739l-115 -152l-15 10l111 154zM499 0h-77c-20 0 -29 9 -29 29v48h-3c-25 -48 -73 -89 -166 -89c-104 0 -163 51 -163 142c0 84 45 145 190 145h142v74c0 104 -50 150 -144 150c-76 0 -125 -29 -153 -95l-18 8c28 65 77 106 171 106c110 0 165 -59 165 -166v-333h85
v-19zM224 7c90 0 169 47 169 141v109h-141c-119 0 -168 -45 -168 -112v-30c0 -70 58 -108 140 -108z" />
    <glyph glyph-name="acircumflex" unicode="&#xe2;" horiz-adv-x="519" 
d="M237 743h24l128 -133l-14 -11l-126 127l-126 -127l-14 11zM499 0h-77c-20 0 -29 9 -29 29v48h-3c-25 -48 -73 -89 -166 -89c-104 0 -163 51 -163 142c0 84 45 145 190 145h142v74c0 104 -50 150 -144 150c-76 0 -125 -29 -153 -95l-18 8c28 65 77 106 171 106
c110 0 165 -59 165 -166v-333h85v-19zM224 7c90 0 169 47 169 141v109h-141c-119 0 -168 -45 -168 -112v-30c0 -70 58 -108 140 -108z" />
    <glyph glyph-name="atilde" unicode="&#xe3;" horiz-adv-x="519" 
d="M320 628c-23 0 -43 8 -77 30c-29 19 -47 26 -66 26c-24 0 -44 -11 -65 -33l-12 12c24 27 50 39 78 39c23 0 43 -8 77 -30c29 -19 47 -26 66 -26c24 0 44 11 65 33l12 -12c-24 -27 -50 -39 -78 -39zM499 0h-77c-20 0 -29 9 -29 29v48h-3c-25 -48 -73 -89 -166 -89
c-104 0 -163 51 -163 142c0 84 45 145 190 145h142v74c0 104 -50 150 -144 150c-76 0 -125 -29 -153 -95l-18 8c28 65 77 106 171 106c110 0 165 -59 165 -166v-333h85v-19zM224 7c90 0 169 47 169 141v109h-141c-119 0 -168 -45 -168 -112v-30c0 -70 58 -108 140 -108z" />
    <glyph glyph-name="adieresis" unicode="&#xe4;" horiz-adv-x="519" 
d="M158 642c-17 0 -23 10 -23 21v7c0 11 6 21 23 21s23 -10 23 -21v-7c0 -11 -6 -21 -23 -21zM340 642c-17 0 -23 10 -23 21v7c0 11 6 21 23 21s23 -10 23 -21v-7c0 -11 -6 -21 -23 -21zM499 0h-77c-20 0 -29 9 -29 29v48h-3c-25 -48 -73 -89 -166 -89
c-104 0 -163 51 -163 142c0 84 45 145 190 145h142v74c0 104 -50 150 -144 150c-76 0 -125 -29 -153 -95l-18 8c28 65 77 106 171 106c110 0 165 -59 165 -166v-333h85v-19zM224 7c90 0 169 47 169 141v109h-141c-119 0 -168 -45 -168 -112v-30c0 -70 58 -108 140 -108z" />
    <glyph glyph-name="aring" unicode="&#xe5;" horiz-adv-x="519" 
d="M249 589c-54 0 -90 37 -90 91s36 91 90 91s90 -37 90 -91s-36 -91 -90 -91zM249 607c43 0 70 27 70 68v10c0 41 -27 68 -70 68s-70 -27 -70 -68v-10c0 -41 27 -68 70 -68zM499 0h-77c-20 0 -29 9 -29 29v48h-3c-25 -48 -73 -89 -166 -89c-104 0 -163 51 -163 142
c0 84 45 145 190 145h142v74c0 104 -50 150 -144 150c-76 0 -125 -29 -153 -95l-18 8c28 65 77 106 171 106c110 0 165 -59 165 -166v-333h85v-19zM224 7c90 0 169 47 169 141v109h-141c-119 0 -168 -45 -168 -112v-30c0 -70 58 -108 140 -108z" />
    <glyph glyph-name="ae" unicode="&#xe6;" horiz-adv-x="861" 
d="M388 257h-141c-119 0 -168 -45 -168 -112v-30c0 -70 58 -108 140 -108c90 0 169 47 169 141v109zM411 275h367v4c0 133 -73 220 -182 220c-118 0 -185 -86 -185 -222v-2zM600 7c85 0 144 42 175 124l18 -7c-30 -83 -96 -136 -193 -136c-93 0 -161 45 -192 133h-3
c-17 -89 -93 -133 -186 -133c-104 0 -163 51 -163 142c0 84 45 145 190 145h142v74c0 104 -50 150 -144 150c-76 0 -125 -29 -153 -95l-18 8c28 65 77 106 171 106c98 0 153 -49 161 -136h3c30 87 97 136 188 136c122 0 205 -97 205 -252v-10h-390v-27
c0 -136 69 -222 189 -222z" />
    <glyph glyph-name="ccedilla" unicode="&#xe7;" horiz-adv-x="487" 
d="M270 518c80 0 134 -40 165 -100l-18 -9c-32 58 -75 90 -147 90c-120 0 -187 -86 -187 -222v-48c0 -136 67 -222 187 -222c78 0 126 33 158 88l16 -11c-32 -55 -83 -94 -166 -96l-15 -61l2 -2c9 2 21 3 30 3c39 0 67 -23 67 -59c0 -38 -31 -71 -82 -71
c-38 0 -69 15 -81 32l13 13c14 -17 38 -27 68 -27c36 0 61 18 61 52c0 25 -16 44 -61 46l-37 2l17 72c-126 4 -200 94 -200 265c0 175 78 265 210 265z" />
    <glyph glyph-name="egrave" unicode="&#xe8;" horiz-adv-x="533" 
d="M285 587l-115 152l19 12l111 -154zM272 -12c-132 0 -212 90 -212 265c0 173 78 265 208 265c122 0 205 -97 205 -252v-10h-390v-27c0 -136 69 -222 189 -222c85 0 144 42 175 124l18 -7c-30 -83 -96 -136 -193 -136zM268 499c-118 0 -185 -86 -185 -222v-2h367v4
c0 133 -73 220 -182 220z" />
    <glyph glyph-name="eacute" unicode="&#xe9;" horiz-adv-x="533" 
d="M365 739l-115 -152l-15 10l111 154zM272 -12c-132 0 -212 90 -212 265c0 173 78 265 208 265c122 0 205 -97 205 -252v-10h-390v-27c0 -136 69 -222 189 -222c85 0 144 42 175 124l18 -7c-30 -83 -96 -136 -193 -136zM268 499c-118 0 -185 -86 -185 -222v-2h367v4
c0 133 -73 220 -182 220z" />
    <glyph glyph-name="ecircumflex" unicode="&#xea;" horiz-adv-x="533" 
d="M256 743h24l128 -133l-14 -11l-126 127l-126 -127l-14 11zM272 -12c-132 0 -212 90 -212 265c0 173 78 265 208 265c122 0 205 -97 205 -252v-10h-390v-27c0 -136 69 -222 189 -222c85 0 144 42 175 124l18 -7c-30 -83 -96 -136 -193 -136zM268 499
c-118 0 -185 -86 -185 -222v-2h367v4c0 133 -73 220 -182 220z" />
    <glyph glyph-name="edieresis" unicode="&#xeb;" horiz-adv-x="533" 
d="M177 642c-17 0 -23 10 -23 21v7c0 11 6 21 23 21s23 -10 23 -21v-7c0 -11 -6 -21 -23 -21zM359 642c-17 0 -23 10 -23 21v7c0 11 6 21 23 21s23 -10 23 -21v-7c0 -11 -6 -21 -23 -21zM272 -12c-132 0 -212 90 -212 265c0 173 78 265 208 265c122 0 205 -97 205 -252v-10
h-390v-27c0 -136 69 -222 189 -222c85 0 144 42 175 124l18 -7c-30 -83 -96 -136 -193 -136zM268 499c-118 0 -185 -86 -185 -222v-2h367v4c0 133 -73 220 -182 220z" />
    <glyph glyph-name="igrave" unicode="&#xec;" horiz-adv-x="231" 
d="M132 587l-115 152l19 12l111 -154zM126 0h-21v506h21v-506z" />
    <glyph glyph-name="iacute" unicode="&#xed;" horiz-adv-x="231" 
d="M212 739l-115 -152l-15 10l111 154zM126 0h-21v506h21v-506z" />
    <glyph glyph-name="icircumflex" unicode="&#xee;" horiz-adv-x="231" 
d="M103 743h24l128 -133l-14 -11l-126 127l-126 -127l-14 11zM126 0h-21v506h21v-506z" />
    <glyph glyph-name="idieresis" unicode="&#xef;" horiz-adv-x="231" 
d="M24 642c-17 0 -23 10 -23 21v7c0 11 6 21 23 21s23 -10 23 -21v-7c0 -11 -6 -21 -23 -21zM206 642c-17 0 -23 10 -23 21v7c0 11 6 21 23 21s23 -10 23 -21v-7c0 -11 -6 -21 -23 -21zM126 0h-21v506h21v-506z" />
    <glyph glyph-name="eth" unicode="&#xf0;" horiz-adv-x="544" 
d="M394 752l10 -14l-108 -78c95 -90 184 -240 184 -412c0 -165 -85 -260 -210 -260s-210 95 -210 260c0 159 85 252 210 252c69 0 123 -28 159 -81l3 2c-35 95 -90 169 -150 229l-108 -78l-10 14l105 76c-27 24 -71 57 -113 78h36c31 -18 58 -39 91 -68zM270 7
c109 0 187 81 187 211v52c0 130 -78 211 -187 211s-187 -80 -187 -211v-52c0 -131 78 -211 187 -211z" />
    <glyph glyph-name="ntilde" unicode="&#xf1;" horiz-adv-x="556" 
d="M355 628c-23 0 -43 8 -77 30c-29 19 -47 26 -66 26c-24 0 -44 -11 -65 -33l-12 12c24 27 50 39 78 39c23 0 43 -8 77 -30c29 -19 47 -26 66 -26c24 0 44 11 65 33l12 -12c-24 -27 -50 -39 -78 -39zM126 0h-21v506h21v-76h3c18 45 67 88 158 88c113 0 174 -67 174 -193
v-325h-21v321c0 123 -56 178 -155 178c-83 0 -159 -45 -159 -137v-362z" />
    <glyph glyph-name="ograve" unicode="&#xf2;" horiz-adv-x="540" 
d="M287 587l-115 152l19 12l111 -154zM270 -12c-132 0 -210 90 -210 265s78 265 210 265s210 -90 210 -265s-78 -265 -210 -265zM270 7c120 0 187 86 187 222v48c0 136 -67 222 -187 222s-187 -86 -187 -222v-48c0 -136 67 -222 187 -222z" />
    <glyph glyph-name="oacute" unicode="&#xf3;" horiz-adv-x="540" 
d="M367 739l-115 -152l-15 10l111 154zM270 -12c-132 0 -210 90 -210 265s78 265 210 265s210 -90 210 -265s-78 -265 -210 -265zM270 7c120 0 187 86 187 222v48c0 136 -67 222 -187 222s-187 -86 -187 -222v-48c0 -136 67 -222 187 -222z" />
    <glyph glyph-name="ocircumflex" unicode="&#xf4;" horiz-adv-x="540" 
d="M258 743h24l128 -133l-14 -11l-126 127l-126 -127l-14 11zM270 -12c-132 0 -210 90 -210 265s78 265 210 265s210 -90 210 -265s-78 -265 -210 -265zM270 7c120 0 187 86 187 222v48c0 136 -67 222 -187 222s-187 -86 -187 -222v-48c0 -136 67 -222 187 -222z" />
    <glyph glyph-name="otilde" unicode="&#xf5;" horiz-adv-x="540" 
d="M341 628c-23 0 -43 8 -77 30c-29 19 -47 26 -66 26c-24 0 -44 -11 -65 -33l-12 12c24 27 50 39 78 39c23 0 43 -8 77 -30c29 -19 47 -26 66 -26c24 0 44 11 65 33l12 -12c-24 -27 -50 -39 -78 -39zM270 -12c-132 0 -210 90 -210 265s78 265 210 265s210 -90 210 -265
s-78 -265 -210 -265zM270 7c120 0 187 86 187 222v48c0 136 -67 222 -187 222s-187 -86 -187 -222v-48c0 -136 67 -222 187 -222z" />
    <glyph glyph-name="odieresis" unicode="&#xf6;" horiz-adv-x="540" 
d="M179 642c-17 0 -23 10 -23 21v7c0 11 6 21 23 21s23 -10 23 -21v-7c0 -11 -6 -21 -23 -21zM361 642c-17 0 -23 10 -23 21v7c0 11 6 21 23 21s23 -10 23 -21v-7c0 -11 -6 -21 -23 -21zM270 -12c-132 0 -210 90 -210 265s78 265 210 265s210 -90 210 -265
s-78 -265 -210 -265zM270 7c120 0 187 86 187 222v48c0 136 -67 222 -187 222s-187 -86 -187 -222v-48c0 -136 67 -222 187 -222z" />
    <glyph glyph-name="divide" unicode="&#xf7;" 
d="M538 296h-476v19h476v-19zM300 81c-22 0 -34 10 -34 27v8c0 17 12 27 34 27s34 -10 34 -27v-8c0 -17 -12 -27 -34 -27zM300 468c-22 0 -34 10 -34 27v8c0 17 12 27 34 27s34 -10 34 -27v-8c0 -17 -12 -27 -34 -27z" />
    <glyph glyph-name="oslash" unicode="&#xf8;" horiz-adv-x="546" 
d="M54 -26l-14 11l68 84c-29 44 -45 105 -45 184c0 175 78 265 210 265c63 0 114 -21 150 -61l69 85l14 -11l-72 -89c32 -44 49 -107 49 -189c0 -175 -78 -265 -210 -265c-66 0 -118 22 -154 66zM273 7c120 0 187 86 187 222v48c0 61 -13 112 -39 149l-289 -356
c32 -40 79 -63 141 -63zM86 229c0 -58 12 -107 35 -144l289 356c-32 37 -78 58 -137 58c-120 0 -187 -86 -187 -222v-48z" />
    <glyph glyph-name="ugrave" unicode="&#xf9;" horiz-adv-x="556" 
d="M290 587l-115 152l19 12l111 -154zM430 0v76h-3c-18 -45 -67 -88 -158 -88c-113 0 -174 67 -174 193v325h21v-321c0 -123 56 -178 155 -178c83 0 159 45 159 137v362h21v-506h-21z" />
    <glyph glyph-name="uacute" unicode="&#xfa;" horiz-adv-x="556" 
d="M370 739l-115 -152l-15 10l111 154zM430 0v76h-3c-18 -45 -67 -88 -158 -88c-113 0 -174 67 -174 193v325h21v-321c0 -123 56 -178 155 -178c83 0 159 45 159 137v362h21v-506h-21z" />
    <glyph glyph-name="ucircumflex" unicode="&#xfb;" horiz-adv-x="556" 
d="M261 743h24l128 -133l-14 -11l-126 127l-126 -127l-14 11zM430 0v76h-3c-18 -45 -67 -88 -158 -88c-113 0 -174 67 -174 193v325h21v-321c0 -123 56 -178 155 -178c83 0 159 45 159 137v362h21v-506h-21z" />
    <glyph glyph-name="udieresis" unicode="&#xfc;" horiz-adv-x="556" 
d="M182 642c-17 0 -23 10 -23 21v7c0 11 6 21 23 21s23 -10 23 -21v-7c0 -11 -6 -21 -23 -21zM364 642c-17 0 -23 10 -23 21v7c0 11 6 21 23 21s23 -10 23 -21v-7c0 -11 -6 -21 -23 -21zM430 0v76h-3c-18 -45 -67 -88 -158 -88c-113 0 -174 67 -174 193v325h21v-321
c0 -123 56 -178 155 -178c83 0 159 45 159 137v362h21v-506h-21z" />
    <glyph glyph-name="yacute" unicode="&#xfd;" horiz-adv-x="452" 
d="M325 739l-115 -152l-15 10l111 154zM228 24l178 482h21l-255 -687c-5 -13 -16 -19 -31 -19h-84v19h93l66 174l-191 513h22l178 -482h3z" />
    <glyph glyph-name="thorn" unicode="&#xfe;" horiz-adv-x="565" 
d="M105 -200v940h21v-312h3c21 44 75 90 164 90c133 0 212 -89 212 -265s-79 -265 -212 -265c-89 0 -143 46 -164 90h-3v-278h-21zM293 7c121 0 189 85 189 222v48c0 137 -68 222 -189 222c-88 0 -167 -55 -167 -136v-220c0 -81 79 -136 167 -136z" />
    <glyph glyph-name="ydieresis" unicode="&#xff;" horiz-adv-x="452" 
d="M137 642c-17 0 -23 10 -23 21v7c0 11 6 21 23 21s23 -10 23 -21v-7c0 -11 -6 -21 -23 -21zM319 642c-17 0 -23 10 -23 21v7c0 11 6 21 23 21s23 -10 23 -21v-7c0 -11 -6 -21 -23 -21zM228 24l178 482h21l-255 -687c-5 -13 -16 -19 -31 -19h-84v19h93l66 174l-191 513h22
l178 -482h3z" />
    <glyph glyph-name="Amacron" unicode="&#x100;" 
d="M170 838v18h258v-18h-258zM568 0h-23l-85 234h-320l-85 -234h-23l253 698h30zM453 253l-152 422h-3l-151 -422h306z" />
    <glyph glyph-name="amacron" unicode="&#x101;" horiz-adv-x="519" 
d="M120 658v18h258v-18h-258zM499 0h-77c-20 0 -29 9 -29 29v48h-3c-25 -48 -73 -89 -166 -89c-104 0 -163 51 -163 142c0 84 45 145 190 145h142v74c0 104 -50 150 -144 150c-76 0 -125 -29 -153 -95l-18 8c28 65 77 106 171 106c110 0 165 -59 165 -166v-333h85v-19z
M224 7c90 0 169 47 169 141v109h-141c-119 0 -168 -45 -168 -112v-30c0 -70 58 -108 140 -108z" />
    <glyph glyph-name="Abreve" unicode="&#x102;" 
d="M299 786c-68 0 -95 44 -132 117l16 7l15 -27c35 -63 57 -78 101 -78s66 15 101 78l15 27l16 -7c-37 -73 -64 -117 -132 -117zM568 0h-23l-85 234h-320l-85 -234h-23l253 698h30zM453 253l-152 422h-3l-151 -422h306z" />
    <glyph glyph-name="abreve" unicode="&#x103;" horiz-adv-x="519" 
d="M249 606c-68 0 -95 44 -132 117l16 7l15 -27c35 -63 57 -78 101 -78s66 15 101 78l15 27l16 -7c-37 -73 -64 -117 -132 -117zM499 0h-77c-20 0 -29 9 -29 29v48h-3c-25 -48 -73 -89 -166 -89c-104 0 -163 51 -163 142c0 84 45 145 190 145h142v74c0 104 -50 150 -144 150
c-76 0 -125 -29 -153 -95l-18 8c28 65 77 106 171 106c110 0 165 -59 165 -166v-333h85v-19zM224 7c90 0 169 47 169 141v109h-141c-119 0 -168 -45 -168 -112v-30c0 -70 58 -108 140 -108z" />
    <glyph glyph-name="Aogonek" unicode="&#x104;" 
d="M32 0l253 698h30l253 -698c-72 -48 -109 -82 -109 -132c0 -36 24 -52 59 -52c32 0 50 13 60 25l14 -11c-13 -18 -39 -32 -75 -32c-45 0 -80 25 -80 69c0 39 23 84 108 133l-84 234h-321l-85 -234h-23zM454 253l-153 422h-3l-151 -422h307z" />
    <glyph glyph-name="aogonek" unicode="&#x105;" horiz-adv-x="519" 
d="M513 -170c-13 -18 -39 -32 -75 -32c-45 0 -79 23 -79 67c0 38 24 81 113 132l-1 3h-49c-20 0 -29 9 -29 29v48h-3c-25 -48 -73 -89 -166 -89c-104 0 -163 51 -163 142c0 84 45 145 190 145h142v74c0 104 -50 150 -144 150c-76 0 -125 -29 -153 -95l-18 8
c28 65 77 106 171 106c109 0 165 -59 165 -166v-333h85v-19c-79 -51 -119 -82 -119 -132c0 -37 24 -52 59 -52c32 0 50 13 60 25zM224 7c90 0 169 47 169 141v109h-141c-119 0 -168 -45 -168 -112v-30c0 -70 58 -108 140 -108z" />
    <glyph glyph-name="Cacute" unicode="&#x106;" horiz-adv-x="610" 
d="M426 919l-115 -152l-15 10l111 154zM329 -12c-165 0 -259 121 -259 361s94 361 259 361c102 0 178 -58 216 -143l-19 -9c-36 82 -106 132 -197 132c-146 0 -235 -105 -235 -320v-42c0 -215 89 -320 235 -320c99 0 168 53 202 140l19 -8c-36 -91 -114 -152 -221 -152z" />
    <glyph glyph-name="cacute" unicode="&#x107;" horiz-adv-x="487" 
d="M367 739l-115 -152l-15 10l111 154zM270 -12c-132 0 -210 90 -210 265s78 265 210 265c80 0 134 -40 165 -100l-18 -9c-32 58 -75 90 -147 90c-120 0 -187 -86 -187 -222v-48c0 -136 67 -222 187 -222c78 0 126 33 158 88l16 -11c-33 -57 -86 -96 -174 -96z" />
    <glyph glyph-name="Ccircumflex" unicode="&#x108;" horiz-adv-x="610" 
d="M317 923h24l128 -133l-14 -11l-126 127l-126 -127l-14 11zM329 -12c-165 0 -259 121 -259 361s94 361 259 361c102 0 178 -58 216 -143l-19 -9c-36 82 -106 132 -197 132c-146 0 -235 -105 -235 -320v-42c0 -215 89 -320 235 -320c99 0 168 53 202 140l19 -8
c-36 -91 -114 -152 -221 -152z" />
    <glyph glyph-name="ccircumflex" unicode="&#x109;" horiz-adv-x="487" 
d="M258 743h24l128 -133l-14 -11l-126 127l-126 -127l-14 11zM270 -12c-132 0 -210 90 -210 265s78 265 210 265c80 0 134 -40 165 -100l-18 -9c-32 58 -75 90 -147 90c-120 0 -187 -86 -187 -222v-48c0 -136 67 -222 187 -222c78 0 126 33 158 88l16 -11
c-33 -57 -86 -96 -174 -96z" />
    <glyph glyph-name="Cdotaccent" unicode="&#x10a;" horiz-adv-x="610" 
d="M329 822c-17 0 -23 10 -23 21v7c0 11 6 21 23 21s23 -10 23 -21v-7c0 -11 -6 -21 -23 -21zM329 -12c-165 0 -259 121 -259 361s94 361 259 361c102 0 178 -58 216 -143l-19 -9c-36 82 -106 132 -197 132c-146 0 -235 -105 -235 -320v-42c0 -215 89 -320 235 -320
c99 0 168 53 202 140l19 -8c-36 -91 -114 -152 -221 -152z" />
    <glyph glyph-name="cdotaccent" unicode="&#x10b;" horiz-adv-x="487" 
d="M270 642c-17 0 -23 10 -23 21v7c0 11 6 21 23 21s23 -10 23 -21v-7c0 -11 -6 -21 -23 -21zM270 -12c-132 0 -210 90 -210 265s78 265 210 265c80 0 134 -40 165 -100l-18 -9c-32 58 -75 90 -147 90c-120 0 -187 -86 -187 -222v-48c0 -136 67 -222 187 -222
c78 0 126 33 158 88l16 -11c-33 -57 -86 -96 -174 -96z" />
    <glyph glyph-name="Ccaron" unicode="&#x10c;" horiz-adv-x="610" 
d="M341 783h-24l-128 133l14 11l126 -127l126 127l14 -11zM329 -12c-165 0 -259 121 -259 361s94 361 259 361c102 0 178 -58 216 -143l-19 -9c-36 82 -106 132 -197 132c-146 0 -235 -105 -235 -320v-42c0 -215 89 -320 235 -320c99 0 168 53 202 140l19 -8
c-36 -91 -114 -152 -221 -152z" />
    <glyph glyph-name="ccaron" unicode="&#x10d;" horiz-adv-x="487" 
d="M282 603h-24l-128 133l14 11l126 -127l126 127l14 -11zM270 -12c-132 0 -210 90 -210 265s78 265 210 265c80 0 134 -40 165 -100l-18 -9c-32 58 -75 90 -147 90c-120 0 -187 -86 -187 -222v-48c0 -136 67 -222 187 -222c78 0 126 33 158 88l16 -11
c-33 -57 -86 -96 -174 -96z" />
    <glyph glyph-name="Dcaron" unicode="&#x10e;" horiz-adv-x="658" 
d="M311 783h-24l-128 133l14 11l126 -127l126 127l14 -11zM108 0v698h204c186 0 276 -118 276 -349s-90 -349 -276 -349h-204zM130 20h183c173 0 251 118 251 299v60c0 181 -78 299 -251 299h-183v-658z" />
    <glyph glyph-name="dcaron" unicode="&#x10f;" horiz-adv-x="565" 
d="M589 740l-24 -176h-17l16 176h25zM439 0v78h-3c-21 -44 -75 -90 -164 -90c-133 0 -212 89 -212 265s79 265 212 265c89 0 143 -46 164 -90h3v312h21v-740h-21zM272 7c88 0 167 55 167 136v220c0 81 -79 136 -167 136c-121 0 -189 -85 -189 -222v-48
c0 -137 68 -222 189 -222z" />
    <glyph glyph-name="Dcroat" unicode="&#x110;" horiz-adv-x="661" 
d="M111 0v359h-83v19h83v320h204c186 0 276 -118 276 -349s-90 -349 -276 -349h-204zM133 20h183c173 0 251 118 251 299v60c0 181 -78 299 -251 299h-183v-300h172v-19h-172v-339z" />
    <glyph glyph-name="dcroat" unicode="&#x111;" horiz-adv-x="568" 
d="M439 0v78h-3c-21 -44 -75 -90 -164 -90c-133 0 -212 89 -212 265s79 265 212 265c89 0 143 -46 164 -90h3v201h-163v18h163v93h21v-93h66v-18h-66v-629h-21zM272 7c88 0 167 55 167 136v220c0 81 -79 136 -167 136c-121 0 -189 -85 -189 -222v-48
c0 -137 68 -222 189 -222z" />
    <glyph glyph-name="Emacron" unicode="&#x112;" horiz-adv-x="561" 
d="M170 838v18h258v-18h-258zM489 0h-381v698h381v-20h-359v-314h347v-20h-347v-324h359v-20z" />
    <glyph glyph-name="emacron" unicode="&#x113;" horiz-adv-x="533" 
d="M139 658v18h258v-18h-258zM272 -12c-132 0 -212 90 -212 265c0 173 78 265 208 265c122 0 205 -97 205 -252v-10h-390v-27c0 -136 69 -222 189 -222c85 0 144 42 175 124l18 -7c-30 -83 -96 -136 -193 -136zM268 499c-118 0 -185 -86 -185 -222v-2h367v4
c0 133 -73 220 -182 220z" />
    <glyph glyph-name="Ebreve" unicode="&#x114;" horiz-adv-x="561" 
d="M299 786c-68 0 -95 44 -132 117l16 7l15 -27c35 -63 57 -78 101 -78s66 15 101 78l15 27l16 -7c-37 -73 -64 -117 -132 -117zM489 0h-381v698h381v-20h-359v-314h347v-20h-347v-324h359v-20z" />
    <glyph glyph-name="ebreve" unicode="&#x115;" horiz-adv-x="533" 
d="M268 606c-68 0 -95 44 -132 117l16 7l15 -27c35 -63 57 -78 101 -78s66 15 101 78l15 27l16 -7c-37 -73 -64 -117 -132 -117zM272 -12c-132 0 -212 90 -212 265c0 173 78 265 208 265c122 0 205 -97 205 -252v-10h-390v-27c0 -136 69 -222 189 -222c85 0 144 42 175 124
l18 -7c-30 -83 -96 -136 -193 -136zM268 499c-118 0 -185 -86 -185 -222v-2h367v4c0 133 -73 220 -182 220z" />
    <glyph glyph-name="Edotaccent" unicode="&#x116;" horiz-adv-x="561" 
d="M299 822c-17 0 -23 10 -23 21v7c0 11 6 21 23 21s23 -10 23 -21v-7c0 -11 -6 -21 -23 -21zM489 0h-381v698h381v-20h-359v-314h347v-20h-347v-324h359v-20z" />
    <glyph glyph-name="edotaccent" unicode="&#x117;" horiz-adv-x="533" 
d="M268 642c-17 0 -23 10 -23 21v7c0 11 6 21 23 21s23 -10 23 -21v-7c0 -11 -6 -21 -23 -21zM272 -12c-132 0 -212 90 -212 265c0 173 78 265 208 265c122 0 205 -97 205 -252v-10h-390v-27c0 -136 69 -222 189 -222c85 0 144 42 175 124l18 -7c-30 -83 -96 -136 -193 -136
zM268 499c-118 0 -185 -86 -185 -222v-2h367v4c0 133 -73 220 -182 220z" />
    <glyph glyph-name="Eogonek" unicode="&#x118;" horiz-adv-x="561" 
d="M108 0v698h381v-20h-359v-314h347v-20h-347v-324h359v-20c-79 -51 -119 -82 -119 -132c0 -37 24 -52 59 -52c32 0 50 13 60 25l14 -11c-13 -18 -39 -32 -75 -32c-45 0 -79 23 -79 67c0 38 24 81 112 132l-1 3h-352z" />
    <glyph glyph-name="eogonek" unicode="&#x119;" horiz-adv-x="533" 
d="M313 -202c-45 0 -79 24 -79 69c0 35 16 80 91 125l-1 2c-16 -4 -34 -6 -52 -6c-132 0 -212 90 -212 265c0 173 78 265 208 265c122 0 205 -97 205 -252v-10h-390v-27c0 -136 69 -222 189 -222c85 0 144 42 175 124l18 -7c-18 -48 -48 -85 -88 -110
c-82 -52 -122 -90 -122 -144c0 -38 24 -54 59 -54c32 0 50 13 60 25l14 -11c-13 -18 -39 -32 -75 -32zM83 275h367v4c0 133 -73 220 -182 220c-118 0 -185 -86 -185 -222v-2z" />
    <glyph glyph-name="Ecaron" unicode="&#x11a;" horiz-adv-x="561" 
d="M311 783h-24l-128 133l14 11l126 -127l126 127l14 -11zM489 0h-381v698h381v-20h-359v-314h347v-20h-347v-324h359v-20z" />
    <glyph glyph-name="ecaron" unicode="&#x11b;" horiz-adv-x="533" 
d="M280 603h-24l-128 133l14 11l126 -127l126 127l14 -11zM272 -12c-132 0 -212 90 -212 265c0 173 78 265 208 265c122 0 205 -97 205 -252v-10h-390v-27c0 -136 69 -222 189 -222c85 0 144 42 175 124l18 -7c-30 -83 -96 -136 -193 -136zM268 499
c-118 0 -185 -86 -185 -222v-2h367v4c0 133 -73 220 -182 220z" />
    <glyph glyph-name="Gcircumflex" unicode="&#x11c;" horiz-adv-x="666" 
d="M328 923h24l128 -133l-14 -11l-126 127l-126 -127l-14 11zM565 0v114h-3c-38 -80 -111 -126 -222 -126c-173 0 -270 121 -270 361s97 361 270 361c108 0 191 -57 229 -143l-19 -9c-36 83 -113 132 -210 132c-153 0 -246 -109 -246 -320v-42c0 -211 93 -320 246 -320
c120 0 224 66 224 198v106h-176v20h198v-332h-21z" />
    <glyph glyph-name="gcircumflex" unicode="&#x11d;" horiz-adv-x="527" 
d="M252 743h24l128 -133l-14 -11l-126 127l-126 -127l-14 11zM501 -65c0 -101 -87 -147 -239 -147c-149 0 -212 52 -212 130c0 60 37 100 99 120v3c-37 11 -53 35 -53 67c0 46 41 73 85 86v3c-57 25 -91 76 -91 152c0 102 66 169 173 169c27 0 51 -4 72 -12h166v-19h-130
c41 -28 65 -77 65 -138c0 -102 -70 -169 -173 -169c-20 0 -36 3 -56 7c-60 -16 -91 -41 -91 -78c0 -28 17 -56 87 -56h135c115 0 163 -46 163 -118zM263 199c95 0 149 57 149 131v38c0 74 -54 131 -149 131s-149 -57 -149 -131v-38c0 -74 56 -131 149 -131zM479 -65
c0 61 -36 98 -144 98h-155c-63 -16 -108 -52 -108 -116c0 -66 64 -110 166 -110h49c113 0 192 39 192 128z" />
    <glyph glyph-name="Gbreve" unicode="&#x11e;" horiz-adv-x="666" 
d="M340 786c-68 0 -95 44 -132 117l16 7l15 -27c35 -63 57 -78 101 -78s66 15 101 78l15 27l16 -7c-37 -73 -64 -117 -132 -117zM565 0v114h-3c-38 -80 -111 -126 -222 -126c-173 0 -270 121 -270 361s97 361 270 361c108 0 191 -57 229 -143l-19 -9
c-36 83 -113 132 -210 132c-153 0 -246 -109 -246 -320v-42c0 -211 93 -320 246 -320c120 0 224 66 224 198v106h-176v20h198v-332h-21z" />
    <glyph glyph-name="gbreve" unicode="&#x11f;" horiz-adv-x="527" 
d="M264 606c-68 0 -95 44 -132 117l16 7l15 -27c35 -63 57 -78 101 -78s66 15 101 78l15 27l16 -7c-37 -73 -64 -117 -132 -117zM501 -65c0 -101 -87 -147 -239 -147c-149 0 -212 52 -212 130c0 60 37 100 99 120v3c-37 11 -53 35 -53 67c0 46 41 73 85 86v3
c-57 25 -91 76 -91 152c0 102 66 169 173 169c27 0 51 -4 72 -12h166v-19h-130c41 -28 65 -77 65 -138c0 -102 -70 -169 -173 -169c-20 0 -36 3 -56 7c-60 -16 -91 -41 -91 -78c0 -28 17 -56 87 -56h135c115 0 163 -46 163 -118zM263 199c95 0 149 57 149 131v38
c0 74 -54 131 -149 131s-149 -57 -149 -131v-38c0 -74 56 -131 149 -131zM479 -65c0 61 -36 98 -144 98h-155c-63 -16 -108 -52 -108 -116c0 -66 64 -110 166 -110h49c113 0 192 39 192 128z" />
    <glyph glyph-name="Gdotaccent" unicode="&#x120;" horiz-adv-x="666" 
d="M340 822c-17 0 -23 10 -23 21v7c0 11 6 21 23 21s23 -10 23 -21v-7c0 -11 -6 -21 -23 -21zM565 0v114h-3c-38 -80 -111 -126 -222 -126c-173 0 -270 121 -270 361s97 361 270 361c108 0 191 -57 229 -143l-19 -9c-36 83 -113 132 -210 132c-153 0 -246 -109 -246 -320
v-42c0 -211 93 -320 246 -320c120 0 224 66 224 198v106h-176v20h198v-332h-21z" />
    <glyph glyph-name="gdotaccent" unicode="&#x121;" horiz-adv-x="527" 
d="M264 642c-17 0 -23 10 -23 21v7c0 11 6 21 23 21s23 -10 23 -21v-7c0 -11 -6 -21 -23 -21zM501 -65c0 -101 -87 -147 -239 -147c-149 0 -212 52 -212 130c0 60 37 100 99 120v3c-37 11 -53 35 -53 67c0 46 41 73 85 86v3c-57 25 -91 76 -91 152c0 102 66 169 173 169
c27 0 51 -4 72 -12h166v-19h-130c41 -28 65 -77 65 -138c0 -102 -70 -169 -173 -169c-20 0 -36 3 -56 7c-60 -16 -91 -41 -91 -78c0 -28 17 -56 87 -56h135c115 0 163 -46 163 -118zM263 199c95 0 149 57 149 131v38c0 74 -54 131 -149 131s-149 -57 -149 -131v-38
c0 -74 56 -131 149 -131zM479 -65c0 61 -36 98 -144 98h-155c-63 -16 -108 -52 -108 -116c0 -66 64 -110 166 -110h49c113 0 192 39 192 128z" />
    <glyph glyph-name="Gcommaaccent" unicode="&#x122;" horiz-adv-x="666" 
d="M341 -66c16 0 22 -9 22 -22v-11c0 -34 -19 -84 -45 -113h-18c29 32 42 74 45 96c-22 0 -28 9 -28 20v8c0 13 6 22 24 22zM565 0v114h-3c-38 -80 -111 -126 -222 -126c-173 0 -270 121 -270 361s97 361 270 361c108 0 191 -57 229 -143l-19 -9c-36 83 -113 132 -210 132
c-153 0 -246 -109 -246 -320v-42c0 -211 93 -320 246 -320c120 0 224 66 224 198v106h-176v20h198v-332h-21z" />
    <glyph glyph-name="gcommaaccent" unicode="&#x123;" horiz-adv-x="527" 
d="M263 599c-16 0 -22 9 -22 22v11c0 34 19 84 45 113h18c-29 -32 -42 -74 -45 -96c22 0 28 -9 28 -20v-8c0 -13 -6 -22 -24 -22zM501 -65c0 -101 -87 -147 -239 -147c-149 0 -212 52 -212 130c0 60 37 100 99 120v3c-37 11 -53 35 -53 67c0 46 41 73 85 86v3
c-57 25 -91 76 -91 152c0 102 66 169 173 169c27 0 51 -4 72 -12h166v-19h-130c41 -28 65 -77 65 -138c0 -102 -70 -169 -173 -169c-20 0 -36 3 -56 7c-60 -16 -91 -41 -91 -78c0 -28 17 -56 87 -56h135c115 0 163 -46 163 -118zM263 199c95 0 149 57 149 131v38
c0 74 -54 131 -149 131s-149 -57 -149 -131v-38c0 -74 56 -131 149 -131zM479 -65c0 61 -36 98 -144 98h-155c-63 -16 -108 -52 -108 -116c0 -66 64 -110 166 -110h49c113 0 192 39 192 128z" />
    <glyph glyph-name="Hcircumflex" unicode="&#x124;" horiz-adv-x="692" 
d="M334 923h24l128 -133l-14 -11l-126 127l-126 -127l-14 11zM562 0v344h-432v-344h-22v698h22v-334h432v334h22v-698h-22z" />
    <glyph glyph-name="hcircumflex" unicode="&#x125;" horiz-adv-x="556" 
d="M103 901h24l128 -133l-14 -11l-126 127l-126 -127l-14 11zM105 0v740h21v-310h3c18 45 67 88 158 88c113 0 174 -67 174 -193v-325h-21v321c0 123 -56 178 -155 178c-83 0 -159 -45 -159 -137v-362h-21z" />
    <glyph glyph-name="Hbar" unicode="&#x126;" horiz-adv-x="698" 
d="M565 0v344h-432v-344h-22v537h-83v19h83v142h22v-142h432v142h22v-142h83v-19h-83v-537h-22zM133 364h432v173h-432v-173z" />
    <glyph glyph-name="hbar" unicode="&#x127;" horiz-adv-x="559" 
d="M129 0h-21v629h-66v18h66v93h21v-93h163v-18h-163v-199h3c18 45 67 88 158 88c113 0 174 -67 174 -193v-325h-21v321c0 123 -56 178 -155 178c-83 0 -159 -45 -159 -137v-362z" />
    <glyph glyph-name="Itilde" unicode="&#x128;" horiz-adv-x="372" 
d="M256 808c-23 0 -43 8 -77 30c-29 19 -47 26 -66 26c-24 0 -44 -11 -65 -33l-12 12c24 27 50 39 78 39c23 0 43 -8 77 -30c29 -19 47 -26 66 -26c24 0 44 11 65 33l12 -12c-24 -27 -50 -39 -78 -39zM304 0h-236v19h107v660h-107v19h236v-19h-107v-660h107v-19z" />
    <glyph glyph-name="itilde" unicode="&#x129;" horiz-adv-x="231" 
d="M186 628c-23 0 -43 8 -77 30c-29 19 -47 26 -66 26c-24 0 -44 -11 -65 -33l-12 12c24 27 50 39 78 39c23 0 43 -8 77 -30c29 -19 47 -26 66 -26c24 0 44 11 65 33l12 -12c-24 -27 -50 -39 -78 -39zM126 0h-21v506h21v-506z" />
    <glyph glyph-name="Imacron" unicode="&#x12a;" horiz-adv-x="372" 
d="M56 838v18h258v-18h-258zM304 0h-236v19h107v660h-107v19h236v-19h-107v-660h107v-19z" />
    <glyph glyph-name="imacron" unicode="&#x12b;" horiz-adv-x="231" 
d="M-14 658v18h258v-18h-258zM126 0h-21v506h21v-506z" />
    <glyph glyph-name="Ibreve" unicode="&#x12c;" horiz-adv-x="372" 
d="M185 786c-68 0 -95 44 -132 117l16 7l15 -27c35 -63 57 -78 101 -78s66 15 101 78l15 27l16 -7c-37 -73 -64 -117 -132 -117zM304 0h-236v19h107v660h-107v19h236v-19h-107v-660h107v-19z" />
    <glyph glyph-name="ibreve" unicode="&#x12d;" horiz-adv-x="231" 
d="M115 606c-68 0 -95 44 -132 117l16 7l15 -27c35 -63 57 -78 101 -78s66 15 101 78l15 27l16 -7c-37 -73 -64 -117 -132 -117zM126 0h-21v506h21v-506z" />
    <glyph glyph-name="Iogonek" unicode="&#x12e;" horiz-adv-x="372" 
d="M68 0v19h107v660h-107v19h236v-19h-107v-660h107v-19c-79 -51 -119 -82 -119 -132c0 -37 24 -52 59 -52c32 0 50 13 60 25l14 -11c-13 -18 -39 -32 -75 -32c-45 0 -79 23 -79 67c0 38 25 81 112 132l-1 3h-207z" />
    <glyph glyph-name="iogonek" unicode="&#x12f;" horiz-adv-x="231" 
d="M105 0v506h21v-506c-58 -55 -89 -84 -89 -130c0 -37 24 -54 59 -54c32 0 50 13 60 25l14 -11c-13 -18 -39 -32 -75 -32c-45 0 -79 25 -79 69c0 46 27 82 89 133zM116 673c-17 0 -23 10 -23 21v7c0 11 6 21 23 21s23 -10 23 -21v-7c0 -11 -6 -21 -23 -21z" />
    <glyph glyph-name="Idotaccent" unicode="&#x130;" horiz-adv-x="372" 
d="M185 822c-17 0 -23 10 -23 21v7c0 11 6 21 23 21s23 -10 23 -21v-7c0 -11 -6 -21 -23 -21zM304 0h-236v19h107v660h-107v19h236v-19h-107v-660h107v-19z" />
    <glyph glyph-name="dotlessi" unicode="&#x131;" horiz-adv-x="231" 
d="M126 0h-21v506h21v-506z" />
    <glyph glyph-name="IJ" unicode="&#x132;" horiz-adv-x="631" 
d="M313 698h218v-496c0 -138 -78 -214 -221 -214c-122 0 -186 45 -210 145l19 6c27 -91 82 -131 191 -131c128 0 199 69 199 194v476h-196v20zM100 290v408h22v-408h-22z" />
    <glyph glyph-name="ij" unicode="&#x133;" horiz-adv-x="462" 
d="M336 -181v687h21v-677c0 -20 -9 -29 -29 -29h-77v19h85zM346 673c-17 0 -23 10 -23 21v7c0 11 6 21 23 21s23 -10 23 -21v-7c0 -11 -6 -21 -23 -21zM115 673c-17 0 -23 10 -23 21v7c0 11 6 21 23 21s23 -10 23 -21v-7c0 -11 -6 -21 -23 -21zM105 0v506h21v-506h-21z" />
    <glyph glyph-name="Jcircumflex" unicode="&#x134;" horiz-adv-x="464" 
d="M220 923h24l128 -133l-14 -11l-126 127l-126 -127l-14 11zM96 698h268v-515c0 -128 -65 -195 -172 -195c-83 0 -152 51 -170 125l19 6c19 -63 74 -111 151 -111c100 0 150 63 150 175v495h-246v20z" />
    <glyph glyph-name="jcircumflex" unicode="&#x135;" horiz-adv-x="231" 
d="M103 743h24l128 -133l-14 -11l-126 127l-126 -127l-14 11zM20 -200v19h85v687h21v-677c0 -20 -9 -29 -29 -29h-77z" />
    <glyph glyph-name="Kcommaaccent" unicode="&#x136;" horiz-adv-x="572" 
d="M315 -66c16 0 22 -9 22 -22v-11c0 -34 -19 -84 -45 -113h-18c29 32 42 74 45 96c-22 0 -28 9 -28 20v8c0 13 6 22 24 22zM526 0l-261 387l-135 -148v-239h-22v698h22v-427h2l130 142l259 285h28l-269 -295l272 -403h-26z" />
    <glyph glyph-name="kcommaaccent" unicode="&#x137;" horiz-adv-x="490" 
d="M271 -66c16 0 22 -9 22 -22v-11c0 -34 -19 -84 -45 -113h-18c29 32 42 74 45 96c-22 0 -28 9 -28 20v8c0 13 6 22 24 22zM105 0v740h21v-520h3l80 79l207 207h28l-215 -214l242 -292h-26l-231 277l-88 -87v-190h-21z" />
    <glyph glyph-name="kgreenlandic" unicode="&#x138;" horiz-adv-x="490" 
d="M445 0l-230 267l-89 -87v-180h-21v506h21v-297h3l81 80l217 217h27l-224 -224l241 -282h-26z" />
    <glyph glyph-name="Lacute" unicode="&#x139;" horiz-adv-x="475" 
d="M216 919l-115 -152l-15 10l111 154zM455 0h-347v698h22v-678h325v-20z" />
    <glyph glyph-name="lacute" unicode="&#x13a;" horiz-adv-x="251" 
d="M212 939l-115 -152l-15 10l111 154zM211 0h-77c-20 0 -29 9 -29 29v711h21v-721h85v-19z" />
    <glyph glyph-name="Lcommaaccent" unicode="&#x13b;" horiz-adv-x="475" 
d="M293 -66c16 0 22 -9 22 -22v-11c0 -34 -19 -84 -45 -113h-18c29 32 42 74 45 96c-22 0 -28 9 -28 20v8c0 13 6 22 24 22zM455 0h-347v698h22v-678h325v-20z" />
    <glyph glyph-name="lcommaaccent" unicode="&#x13c;" horiz-adv-x="251" 
d="M163 -66c16 0 22 -9 22 -22v-11c0 -34 -19 -84 -45 -113h-18c29 32 42 74 45 96c-22 0 -28 9 -28 20v8c0 13 6 22 24 22zM211 0h-77c-20 0 -29 9 -29 29v711h21v-721h85v-19z" />
    <glyph glyph-name="Lcaron" unicode="&#x13d;" horiz-adv-x="475" 
d="M271 740l-24 -176h-17l16 176h25zM455 0h-347v698h22v-678h325v-20z" />
    <glyph glyph-name="lcaron" unicode="&#x13e;" horiz-adv-x="251" 
d="M261 740l-24 -176h-17l16 176h25zM211 0h-77c-20 0 -29 9 -29 29v711h21v-721h85v-19z" />
    <glyph glyph-name="Ldot" unicode="&#x13f;" horiz-adv-x="475" 
d="M359 270c-17 0 -23 10 -23 21v7c0 11 6 21 23 21s23 -10 23 -21v-7c0 -11 -6 -21 -23 -21zM455 0h-347v698h22v-678h325v-20z" />
    <glyph glyph-name="ldot" unicode="&#x140;" horiz-adv-x="276" 
d="M250 239c-17 0 -23 10 -23 21v7c0 11 6 21 23 21s23 -10 23 -21v-7c0 -11 -6 -21 -23 -21zM211 0h-77c-20 0 -29 9 -29 29v711h21v-721h85v-19z" />
    <glyph glyph-name="Lslash" unicode="&#x141;" horiz-adv-x="478" 
d="M458 20v-20h-347v303l-97 -31v20l97 31v375h22v-368l204 64v-20l-204 -64v-290h325z" />
    <glyph glyph-name="lslash" unicode="&#x142;" horiz-adv-x="257" 
d="M214 19v-19h-77c-20 0 -29 9 -29 29v322l-74 -24v20l74 24v369h21v-362l92 30v-20l-92 -30v-339h85z" />
    <glyph glyph-name="Nacute" unicode="&#x143;" horiz-adv-x="692" 
d="M443 919l-115 -152l-15 10l111 154zM552 0l-420 671h-3v-671h-21v698h32l420 -671h3v671h21v-698h-32z" />
    <glyph glyph-name="nacute" unicode="&#x144;" horiz-adv-x="556" 
d="M381 739l-115 -152l-15 10l111 154zM126 0h-21v506h21v-76h3c18 45 67 88 158 88c113 0 174 -67 174 -193v-325h-21v321c0 123 -56 178 -155 178c-83 0 -159 -45 -159 -137v-362z" />
    <glyph glyph-name="Ncommaaccent" unicode="&#x145;" horiz-adv-x="692" 
d="M347 -66c16 0 22 -9 22 -22v-11c0 -34 -19 -84 -45 -113h-18c29 32 42 74 45 96c-22 0 -28 9 -28 20v8c0 13 6 22 24 22zM552 0l-420 671h-3v-671h-21v698h32l420 -671h3v671h21v-698h-32z" />
    <glyph glyph-name="ncommaaccent" unicode="&#x146;" horiz-adv-x="556" 
d="M284 -66c16 0 22 -9 22 -22v-11c0 -34 -19 -84 -45 -113h-18c29 32 42 74 45 96c-22 0 -28 9 -28 20v8c0 13 6 22 24 22zM126 0h-21v506h21v-76h3c18 45 67 88 158 88c113 0 174 -67 174 -193v-325h-21v321c0 123 -56 178 -155 178c-83 0 -159 -45 -159 -137v-362z" />
    <glyph glyph-name="Ncaron" unicode="&#x147;" horiz-adv-x="692" 
d="M358 783h-24l-128 133l14 11l126 -127l126 127l14 -11zM552 0l-420 671h-3v-671h-21v698h32l420 -671h3v671h21v-698h-32z" />
    <glyph glyph-name="ncaron" unicode="&#x148;" horiz-adv-x="556" 
d="M296 603h-24l-128 133l14 11l126 -127l126 127l14 -11zM126 0h-21v506h21v-76h3c18 45 67 88 158 88c113 0 174 -67 174 -193v-325h-21v321c0 123 -56 178 -155 178c-83 0 -159 -45 -159 -137v-362z" />
    <glyph glyph-name="napostrophe" unicode="&#x149;" horiz-adv-x="761" 
d="M331 0h-21v506h21v-76h3c18 45 67 88 158 88c113 0 174 -67 174 -193v-325h-21v321c0 123 -56 178 -155 178c-83 0 -159 -45 -159 -137v-362zM129 750c18 0 26 -11 26 -26v-12c0 -55 -34 -122 -77 -162h-19c51 50 70 105 74 142c-24 0 -32 11 -32 23v9c0 15 8 26 28 26z
" />
    <glyph glyph-name="Eng" unicode="&#x14a;" horiz-adv-x="692" 
d="M129 0h-21v698h32l420 -671h3v671h21v-869c0 -20 -9 -29 -29 -29h-77v19h85v181h-11l-420 671h-3v-671z" />
    <glyph glyph-name="eng" unicode="&#x14b;" horiz-adv-x="556" 
d="M355 -200v19h85v502c0 123 -56 178 -155 178c-83 0 -159 -45 -159 -137v-362h-21v506h21v-76h3c18 45 67 88 158 88c113 0 174 -67 174 -193v-496c0 -20 -9 -29 -29 -29h-77z" />
    <glyph glyph-name="Omacron" unicode="&#x14c;" horiz-adv-x="680" 
d="M211 838v18h258v-18h-258zM340 -12c-173 0 -270 121 -270 361s97 361 270 361s270 -121 270 -361s-97 -361 -270 -361zM340 8c153 0 246 109 246 320v42c0 211 -93 320 -246 320s-246 -109 -246 -320v-42c0 -211 93 -320 246 -320z" />
    <glyph glyph-name="omacron" unicode="&#x14d;" horiz-adv-x="540" 
d="M141 658v18h258v-18h-258zM270 -12c-132 0 -210 90 -210 265s78 265 210 265s210 -90 210 -265s-78 -265 -210 -265zM270 7c120 0 187 86 187 222v48c0 136 -67 222 -187 222s-187 -86 -187 -222v-48c0 -136 67 -222 187 -222z" />
    <glyph glyph-name="Obreve" unicode="&#x14e;" horiz-adv-x="680" 
d="M340 786c-68 0 -95 44 -132 117l16 7l15 -27c35 -63 57 -78 101 -78s66 15 101 78l15 27l16 -7c-37 -73 -64 -117 -132 -117zM340 -12c-173 0 -270 121 -270 361s97 361 270 361s270 -121 270 -361s-97 -361 -270 -361zM340 8c153 0 246 109 246 320v42
c0 211 -93 320 -246 320s-246 -109 -246 -320v-42c0 -211 93 -320 246 -320z" />
    <glyph glyph-name="obreve" unicode="&#x14f;" horiz-adv-x="540" 
d="M270 606c-68 0 -95 44 -132 117l16 7l15 -27c35 -63 57 -78 101 -78s66 15 101 78l15 27l16 -7c-37 -73 -64 -117 -132 -117zM270 -12c-132 0 -210 90 -210 265s78 265 210 265s210 -90 210 -265s-78 -265 -210 -265zM270 7c120 0 187 86 187 222v48
c0 136 -67 222 -187 222s-187 -86 -187 -222v-48c0 -136 67 -222 187 -222z" />
    <glyph glyph-name="Ohungarumlaut" unicode="&#x150;" horiz-adv-x="680" 
d="M375 919l-115 -152l-15 10l111 154zM535 919l-115 -152l-15 10l111 154zM340 -12c-173 0 -270 121 -270 361s97 361 270 361s270 -121 270 -361s-97 -361 -270 -361zM340 8c153 0 246 109 246 320v42c0 211 -93 320 -246 320s-246 -109 -246 -320v-42
c0 -211 93 -320 246 -320z" />
    <glyph glyph-name="ohungarumlaut" unicode="&#x151;" horiz-adv-x="540" 
d="M305 739l-115 -152l-15 10l111 154zM465 739l-115 -152l-15 10l111 154zM270 -12c-132 0 -210 90 -210 265s78 265 210 265s210 -90 210 -265s-78 -265 -210 -265zM270 7c120 0 187 86 187 222v48c0 136 -67 222 -187 222s-187 -86 -187 -222v-48
c0 -136 67 -222 187 -222z" />
    <glyph glyph-name="OE" unicode="&#x152;" horiz-adv-x="967" 
d="M895 0h-381c-32 -5 -84 -12 -144 -12c-193 0 -300 121 -300 361s107 361 300 361c60 0 112 -7 144 -12h381v-20h-359v-314h347v-20h-347v-324h359v-20zM370 8c60 0 110 7 144 14v654c-34 7 -84 14 -144 14c-172 0 -276 -109 -276 -320v-42c0 -211 104 -320 276 -320z" />
    <glyph glyph-name="oe" unicode="&#x153;" horiz-adv-x="929" 
d="M270 7c120 0 187 86 187 222v48c0 136 -67 222 -187 222s-187 -86 -187 -222v-48c0 -136 67 -222 187 -222zM479 275h367v4c0 133 -73 220 -182 220c-118 0 -185 -86 -185 -222v-2zM668 -12c-102 0 -172 54 -199 158h-3c-26 -104 -94 -158 -196 -158
c-132 0 -210 90 -210 265s78 265 210 265c101 0 171 -54 197 -156h3c27 101 95 156 194 156c122 0 205 -97 205 -252v-10h-390v-27c0 -136 69 -222 189 -222c85 0 144 42 175 124l18 -7c-30 -83 -96 -136 -193 -136z" />
    <glyph glyph-name="Racute" unicode="&#x154;" horiz-adv-x="630" 
d="M401 919l-115 -152l-15 10l111 154zM130 322v-322h-22v698h268c114 0 174 -74 174 -188s-60 -188 -176 -188l192 -322h-25l-192 322h-219zM130 342h246c103 0 150 71 150 147v42c0 76 -47 147 -150 147h-246v-336z" />
    <glyph glyph-name="racute" unicode="&#x155;" horiz-adv-x="341" 
d="M318 739l-115 -152l-15 10l111 154zM126 0h-21v506h21v-87h3c23 47 65 87 158 87h41v-19h-44c-82 0 -158 -45 -158 -138v-349z" />
    <glyph glyph-name="Rcommaaccent" unicode="&#x156;" horiz-adv-x="630" 
d="M306 -66c16 0 22 -9 22 -22v-11c0 -34 -19 -84 -45 -113h-18c29 32 42 74 45 96c-22 0 -28 9 -28 20v8c0 13 6 22 24 22zM130 322v-322h-22v698h268c114 0 174 -74 174 -188s-60 -188 -176 -188l192 -322h-25l-192 322h-219zM130 342h246c103 0 150 71 150 147v42
c0 76 -47 147 -150 147h-246v-336z" />
    <glyph glyph-name="rcommaaccent" unicode="&#x157;" horiz-adv-x="341" 
d="M117 -66c16 0 22 -9 22 -22v-11c0 -34 -19 -84 -45 -113h-18c29 32 42 74 45 96c-22 0 -28 9 -28 20v8c0 13 6 22 24 22zM126 0h-21v506h21v-87h3c23 47 65 87 158 87h41v-19h-44c-82 0 -158 -45 -158 -138v-349z" />
    <glyph glyph-name="Rcaron" unicode="&#x158;" horiz-adv-x="630" 
d="M316 783h-24l-128 133l14 11l126 -127l126 127l14 -11zM130 322v-322h-22v698h268c114 0 174 -74 174 -188s-60 -188 -176 -188l192 -322h-25l-192 322h-219zM130 342h246c103 0 150 71 150 147v42c0 76 -47 147 -150 147h-246v-336z" />
    <glyph glyph-name="rcaron" unicode="&#x159;" horiz-adv-x="341" 
d="M233 603h-24l-128 133l14 11l126 -127l126 127l14 -11zM126 0h-21v506h21v-87h3c23 47 65 87 158 87h41v-19h-44c-82 0 -158 -45 -158 -138v-349z" />
    <glyph glyph-name="Sacute" unicode="&#x15a;" horiz-adv-x="547" 
d="M365 919l-115 -152l-15 10l111 154zM276 -12c-116 0 -184 48 -234 114l18 13c49 -64 109 -107 216 -107c121 0 191 58 191 168c0 117 -77 149 -161 165l-70 13c-140 26 -178 98 -178 180c0 119 84 176 213 176c103 0 168 -39 206 -95l-18 -13c-40 58 -100 88 -190 88
c-118 0 -189 -51 -189 -156c0 -109 75 -143 162 -159l70 -13c143 -27 177 -102 177 -184c0 -126 -83 -190 -213 -190z" />
    <glyph glyph-name="sacute" unicode="&#x15b;" horiz-adv-x="462" 
d="M320 739l-115 -152l-15 10l111 154zM236 -12c-81 0 -140 27 -187 93l18 12c46 -63 95 -86 169 -86c95 0 146 42 146 117c0 76 -44 108 -128 121l-44 7c-89 14 -144 49 -144 137c0 85 70 129 160 129c88 0 134 -36 167 -73l-16 -14c-31 35 -70 68 -150 68
c-84 0 -140 -38 -140 -109c0 -75 41 -104 127 -118l44 -7c88 -14 145 -51 145 -140c0 -87 -64 -137 -167 -137z" />
    <glyph glyph-name="Scircumflex" unicode="&#x15c;" horiz-adv-x="547" 
d="M256 923h24l128 -133l-14 -11l-126 127l-126 -127l-14 11zM276 -12c-116 0 -184 48 -234 114l18 13c49 -64 109 -107 216 -107c121 0 191 58 191 168c0 117 -77 149 -161 165l-70 13c-140 26 -178 98 -178 180c0 119 84 176 213 176c103 0 168 -39 206 -95l-18 -13
c-40 58 -100 88 -190 88c-118 0 -189 -51 -189 -156c0 -109 75 -143 162 -159l70 -13c143 -27 177 -102 177 -184c0 -126 -83 -190 -213 -190z" />
    <glyph glyph-name="scircumflex" unicode="&#x15d;" horiz-adv-x="462" 
d="M211 743h24l128 -133l-14 -11l-126 127l-126 -127l-14 11zM236 -12c-81 0 -140 27 -187 93l18 12c46 -63 95 -86 169 -86c95 0 146 42 146 117c0 76 -44 108 -128 121l-44 7c-89 14 -144 49 -144 137c0 85 70 129 160 129c88 0 134 -36 167 -73l-16 -14
c-31 35 -70 68 -150 68c-84 0 -140 -38 -140 -109c0 -75 41 -104 127 -118l44 -7c88 -14 145 -51 145 -140c0 -87 -64 -137 -167 -137z" />
    <glyph glyph-name="Scedilla" unicode="&#x15e;" horiz-adv-x="547" 
d="M269 690c-118 0 -189 -51 -189 -156c0 -109 75 -143 162 -159l70 -13c143 -27 177 -102 177 -184c0 -126 -83 -190 -208 -190l-15 -61l2 -2c9 2 21 3 30 3c39 0 67 -23 67 -59c0 -38 -31 -71 -82 -71c-38 0 -69 15 -81 32l13 13c14 -17 38 -27 68 -27c36 0 61 18 61 52
c0 25 -16 44 -61 46l-37 2l17 72c-108 4 -173 50 -221 114l18 13c49 -64 109 -107 216 -107c121 0 191 58 191 168c0 117 -77 149 -161 165l-70 13c-140 26 -178 98 -178 180c0 119 84 176 213 176c103 0 168 -39 206 -95l-18 -13c-40 58 -100 88 -190 88z" />
    <glyph glyph-name="scedilla" unicode="&#x15f;" horiz-adv-x="462" 
d="M328 -131c0 -38 -31 -71 -82 -71c-38 0 -69 15 -81 32l13 13c14 -17 38 -27 68 -27c36 0 61 18 61 52c0 25 -16 44 -61 46l-37 2l17 72c-76 2 -132 30 -177 93l18 12c46 -63 95 -86 169 -86c95 0 146 42 146 117c0 76 -44 108 -128 121l-44 7c-89 14 -144 49 -144 137
c0 85 70 129 160 129c88 0 134 -36 167 -73l-16 -14c-31 35 -70 68 -150 68c-84 0 -140 -38 -140 -109c0 -75 41 -104 127 -118l44 -7c88 -14 145 -51 145 -140c0 -85 -61 -134 -159 -137l-15 -61l2 -2c9 2 21 3 30 3c39 0 67 -23 67 -59z" />
    <glyph glyph-name="Scaron" unicode="&#x160;" horiz-adv-x="547" 
d="M280 783h-24l-128 133l14 11l126 -127l126 127l14 -11zM276 -12c-116 0 -184 48 -234 114l18 13c49 -64 109 -107 216 -107c121 0 191 58 191 168c0 117 -77 149 -161 165l-70 13c-140 26 -178 98 -178 180c0 119 84 176 213 176c103 0 168 -39 206 -95l-18 -13
c-40 58 -100 88 -190 88c-118 0 -189 -51 -189 -156c0 -109 75 -143 162 -159l70 -13c143 -27 177 -102 177 -184c0 -126 -83 -190 -213 -190z" />
    <glyph glyph-name="scaron" unicode="&#x161;" horiz-adv-x="462" 
d="M235 603h-24l-128 133l14 11l126 -127l126 127l14 -11zM236 -12c-81 0 -140 27 -187 93l18 12c46 -63 95 -86 169 -86c95 0 146 42 146 117c0 76 -44 108 -128 121l-44 7c-89 14 -144 49 -144 137c0 85 70 129 160 129c88 0 134 -36 167 -73l-16 -14
c-31 35 -70 68 -150 68c-84 0 -140 -38 -140 -109c0 -75 41 -104 127 -118l44 -7c88 -14 145 -51 145 -140c0 -87 -64 -137 -167 -137z" />
    <glyph glyph-name="uni0162" unicode="&#x162;" horiz-adv-x="560" 
d="M281 -66c16 0 22 -9 22 -22v-11c0 -34 -19 -84 -45 -113h-18c29 32 42 74 45 96c-22 0 -28 9 -28 20v8c0 13 6 22 24 22zM543 678h-252v-678h-22v678h-252v20h526v-20z" />
    <glyph glyph-name="uni0163" unicode="&#x163;" horiz-adv-x="310" 
d="M191 -66c16 0 22 -9 22 -22v-11c0 -34 -19 -84 -45 -113h-18c29 32 42 74 45 96c-22 0 -28 9 -28 20v8c0 13 6 22 24 22zM259 0h-105c-20 0 -29 9 -29 29v458h-95v19h72c18 0 23 7 23 25v119h21v-144h121v-19h-121v-468h113v-19z" />
    <glyph glyph-name="Tcaron" unicode="&#x164;" horiz-adv-x="560" 
d="M292 783h-24l-128 133l14 11l126 -127l126 127l14 -11zM543 678h-252v-678h-22v678h-252v20h526v-20z" />
    <glyph glyph-name="tcaron" unicode="&#x165;" horiz-adv-x="310" 
d="M287 740l-24 -176h-17l16 176h25zM259 0h-105c-20 0 -29 9 -29 29v458h-95v19h72c18 0 23 7 23 25v119h21v-144h121v-19h-121v-468h113v-19z" />
    <glyph glyph-name="Tbar" unicode="&#x166;" horiz-adv-x="560" 
d="M479 365h-188v-365h-22v365h-187v19h187v294h-252v20h526v-20h-252v-294h188v-19z" />
    <glyph glyph-name="tbar" unicode="&#x167;" horiz-adv-x="316" 
d="M262 19v-19h-105c-20 0 -29 9 -29 29v251h-69v18h69v189h-95v19h72c18 0 23 7 23 25v119h21v-144h121v-19h-121v-189h101v-18h-101v-261h113z" />
    <glyph glyph-name="Utilde" unicode="&#x168;" horiz-adv-x="652" 
d="M396 808c-23 0 -43 8 -77 30c-29 19 -47 26 -66 26c-24 0 -44 -11 -65 -33l-12 12c24 27 50 39 78 39c23 0 43 -8 77 -30c29 -19 47 -26 66 -26c24 0 44 11 65 33l12 -12c-24 -27 -50 -39 -78 -39zM100 698h22v-430c0 -190 48 -260 204 -260s204 70 204 260v430h22v-428
c0 -207 -58 -282 -226 -282s-226 75 -226 282v428z" />
    <glyph glyph-name="utilde" unicode="&#x169;" horiz-adv-x="556" 
d="M344 628c-23 0 -43 8 -77 30c-29 19 -47 26 -66 26c-24 0 -44 -11 -65 -33l-12 12c24 27 50 39 78 39c23 0 43 -8 77 -30c29 -19 47 -26 66 -26c24 0 44 11 65 33l12 -12c-24 -27 -50 -39 -78 -39zM430 0v76h-3c-18 -45 -67 -88 -158 -88c-113 0 -174 67 -174 193v325h21
v-321c0 -123 56 -178 155 -178c83 0 159 45 159 137v362h21v-506h-21z" />
    <glyph glyph-name="Umacron" unicode="&#x16a;" horiz-adv-x="652" 
d="M196 838v18h258v-18h-258zM100 698h22v-430c0 -190 48 -260 204 -260s204 70 204 260v430h22v-428c0 -207 -58 -282 -226 -282s-226 75 -226 282v428z" />
    <glyph glyph-name="umacron" unicode="&#x16b;" horiz-adv-x="556" 
d="M144 658v18h258v-18h-258zM430 0v76h-3c-18 -45 -67 -88 -158 -88c-113 0 -174 67 -174 193v325h21v-321c0 -123 56 -178 155 -178c83 0 159 45 159 137v362h21v-506h-21z" />
    <glyph glyph-name="Ubreve" unicode="&#x16c;" horiz-adv-x="652" 
d="M325 786c-68 0 -95 44 -132 117l16 7l15 -27c35 -63 57 -78 101 -78s66 15 101 78l15 27l16 -7c-37 -73 -64 -117 -132 -117zM100 698h22v-430c0 -190 48 -260 204 -260s204 70 204 260v430h22v-428c0 -207 -58 -282 -226 -282s-226 75 -226 282v428z" />
    <glyph glyph-name="ubreve" unicode="&#x16d;" horiz-adv-x="556" 
d="M273 606c-68 0 -95 44 -132 117l16 7l15 -27c35 -63 57 -78 101 -78s66 15 101 78l15 27l16 -7c-37 -73 -64 -117 -132 -117zM430 0v76h-3c-18 -45 -67 -88 -158 -88c-113 0 -174 67 -174 193v325h21v-321c0 -123 56 -178 155 -178c83 0 159 45 159 137v362h21v-506h-21z
" />
    <glyph glyph-name="Uring" unicode="&#x16e;" horiz-adv-x="652" 
d="M325 769c-54 0 -90 37 -90 91s36 91 90 91s90 -37 90 -91s-36 -91 -90 -91zM325 787c43 0 70 27 70 68v10c0 41 -27 68 -70 68s-70 -27 -70 -68v-10c0 -41 27 -68 70 -68zM100 698h22v-430c0 -190 48 -260 204 -260s204 70 204 260v430h22v-428
c0 -207 -58 -282 -226 -282s-226 75 -226 282v428z" />
    <glyph glyph-name="uring" unicode="&#x16f;" horiz-adv-x="556" 
d="M273 589c-54 0 -90 37 -90 91s36 91 90 91s90 -37 90 -91s-36 -91 -90 -91zM273 607c43 0 70 27 70 68v10c0 41 -27 68 -70 68s-70 -27 -70 -68v-10c0 -41 27 -68 70 -68zM430 0v76h-3c-18 -45 -67 -88 -158 -88c-113 0 -174 67 -174 193v325h21v-321
c0 -123 56 -178 155 -178c83 0 159 45 159 137v362h21v-506h-21z" />
    <glyph glyph-name="Uhungarumlaut" unicode="&#x170;" horiz-adv-x="652" 
d="M360 919l-115 -152l-15 10l111 154zM520 919l-115 -152l-15 10l111 154zM100 698h22v-430c0 -190 48 -260 204 -260s204 70 204 260v430h22v-428c0 -207 -58 -282 -226 -282s-226 75 -226 282v428z" />
    <glyph glyph-name="uhungarumlaut" unicode="&#x171;" horiz-adv-x="556" 
d="M308 739l-115 -152l-15 10l111 154zM468 739l-115 -152l-15 10l111 154zM430 0v76h-3c-18 -45 -67 -88 -158 -88c-113 0 -174 67 -174 193v325h21v-321c0 -123 56 -178 155 -178c83 0 159 45 159 137v362h21v-506h-21z" />
    <glyph glyph-name="Uogonek" unicode="&#x172;" horiz-adv-x="652" 
d="M100 698h22v-430c0 -190 48 -260 204 -260s204 70 204 260v430h22v-428c0 -142 -28 -221 -102 -260c-86 -44 -132 -91 -132 -141c0 -36 23 -53 58 -53c32 0 50 13 60 25l14 -11c-13 -18 -39 -32 -75 -32c-45 0 -78 23 -78 68c0 38 20 81 102 128l-1 2
c-22 -5 -44 -8 -72 -8c-168 0 -226 75 -226 282v428z" />
    <glyph glyph-name="uogonek" unicode="&#x173;" horiz-adv-x="556" 
d="M451 0c-66 -52 -99 -79 -99 -127c0 -39 24 -57 59 -57c32 0 50 13 60 25l14 -11c-13 -18 -39 -32 -75 -32c-45 0 -79 25 -79 72c0 37 21 79 99 131v75h-3c-18 -45 -67 -88 -158 -88c-113 0 -174 67 -174 193v325h21v-321c0 -123 56 -178 155 -178c83 0 159 45 159 137
v362h21v-506z" />
    <glyph glyph-name="Wcircumflex" unicode="&#x174;" horiz-adv-x="872" 
d="M421 923h24l128 -133l-14 -11l-126 127l-126 -127l-14 11zM246 0h-30l-186 698h24l176 -667h3l187 667h32l187 -667h3l177 667h23l-186 -698h-30l-189 674h-3z" />
    <glyph glyph-name="wcircumflex" unicode="&#x175;" horiz-adv-x="725" 
d="M351 743h24l128 -133l-14 -11l-126 127l-126 -127l-14 11zM189 0l-154 506h22l144 -479h3l148 479h22l148 -479h3l144 479h21l-154 -506h-26l-146 472h-3l-146 -472h-26z" />
    <glyph glyph-name="Ycircumflex" unicode="&#x176;" horiz-adv-x="546" 
d="M260 923h24l128 -133l-14 -11l-126 127l-126 -127l-14 11zM284 0h-22v294l-241 404h25l226 -378h3l226 378h24l-241 -404v-294z" />
    <glyph glyph-name="ycircumflex" unicode="&#x177;" horiz-adv-x="452" 
d="M216 743h24l128 -133l-14 -11l-126 127l-126 -127l-14 11zM228 24l178 482h21l-255 -687c-5 -13 -16 -19 -31 -19h-84v19h93l66 174l-191 513h22l178 -482h3z" />
    <glyph glyph-name="Ydieresis" unicode="&#x178;" horiz-adv-x="546" 
d="M181 819c-17 0 -23 10 -23 21v7c0 11 6 21 23 21s23 -10 23 -21v-7c0 -11 -6 -21 -23 -21zM363 819c-17 0 -23 10 -23 21v7c0 11 6 21 23 21s23 -10 23 -21v-7c0 -11 -6 -21 -23 -21zM284 0h-22v294l-241 404h25l226 -378h3l226 378h24l-241 -404v-294z" />
    <glyph glyph-name="Zacute" unicode="&#x179;" horiz-adv-x="555" 
d="M379 919l-115 -152l-15 10l111 154zM527 20v-20h-488v22l443 656h-420v20h444v-22l-443 -656h464z" />
    <glyph glyph-name="zacute" unicode="&#x17a;" horiz-adv-x="417" 
d="M306 739l-115 -152l-15 10l111 154zM396 0h-369v21l337 466h-327v19h349v-21l-337 -466h347v-19z" />
    <glyph glyph-name="Zdotaccent" unicode="&#x17b;" horiz-adv-x="555" 
d="M282 822c-17 0 -23 10 -23 21v7c0 11 6 21 23 21s23 -10 23 -21v-7c0 -11 -6 -21 -23 -21zM527 20v-20h-488v22l443 656h-420v20h444v-22l-443 -656h464z" />
    <glyph glyph-name="zdotaccent" unicode="&#x17c;" horiz-adv-x="417" 
d="M209 642c-17 0 -23 10 -23 21v7c0 11 6 21 23 21s23 -10 23 -21v-7c0 -11 -6 -21 -23 -21zM396 0h-369v21l337 466h-327v19h349v-21l-337 -466h347v-19z" />
    <glyph glyph-name="Zcaron" unicode="&#x17d;" horiz-adv-x="555" 
d="M294 783h-24l-128 133l14 11l126 -127l126 127l14 -11zM527 20v-20h-488v22l443 656h-420v20h444v-22l-443 -656h464z" />
    <glyph glyph-name="zcaron" unicode="&#x17e;" horiz-adv-x="417" 
d="M221 603h-24l-128 133l14 11l126 -127l126 127l14 -11zM396 0h-369v21l337 466h-327v19h349v-21l-337 -466h347v-19z" />
    <glyph glyph-name="uni018F" unicode="&#x18f;" horiz-adv-x="680" 
d="M70 349v2h516v19c0 211 -93 320 -246 320c-113 0 -193 -60 -228 -176l-19 10c38 124 123 186 247 186c171 0 270 -121 270 -361s-97 -361 -270 -361s-270 121 -270 361zM340 8c153 0 246 109 246 320v3h-492v-3c0 -211 93 -320 246 -320z" />
    <glyph glyph-name="florin" unicode="&#x192;" horiz-adv-x="488" 
d="M-3 -134l2 19h178l42 426h-173l2 19h173l34 339c2 20 13 29 33 29h176l-2 -19h-185l-35 -349h210l-2 -19h-210l-41 -416c-2 -20 -14 -29 -34 -29h-168z" />
    <glyph glyph-name="Ohorn" unicode="&#x1a0;" horiz-adv-x="680" 
d="M588 812h20v-103c0 -20 -9 -29 -29 -29h-109c89 -51 140 -152 140 -331c0 -240 -97 -361 -270 -361s-270 121 -270 361s97 361 270 361c35 0 59 -3 88 -12h160v114zM340 8c153 0 246 109 246 320v42c0 211 -93 320 -246 320s-246 -109 -246 -320v-42
c0 -211 93 -320 246 -320z" />
    <glyph glyph-name="ohorn" unicode="&#x1a1;" horiz-adv-x="540" 
d="M451 607h20v-90c0 -20 -9 -29 -29 -29h-59c59 -36 97 -117 97 -235c0 -175 -78 -265 -210 -265s-210 90 -210 265s78 265 210 265c20 0 53 -3 78 -12h103v101zM270 7c120 0 187 86 187 222v48c0 136 -67 222 -187 222s-187 -86 -187 -222v-48c0 -136 67 -222 187 -222z
" />
    <glyph glyph-name="Uhorn" unicode="&#x1af;" horiz-adv-x="652" 
d="M100 698h22v-430c0 -190 48 -260 204 -260s204 70 204 260v430h80v111h20v-100c0 -20 -9 -29 -29 -29h-49v-410c0 -207 -58 -282 -226 -282s-226 75 -226 282v428z" />
    <glyph glyph-name="uhorn" unicode="&#x1b0;" horiz-adv-x="556" 
d="M530 617v-100c0 -20 -9 -29 -29 -29h-50v-488h-21v76h-3c-18 -45 -67 -88 -158 -88c-113 0 -174 67 -174 193v325h21v-321c0 -123 56 -178 155 -178c83 0 159 45 159 137v362h80v111h20z" />
    <glyph glyph-name="Aringacute" unicode="&#x1fa;" 
d="M383 1078l-84 -99l-15 9l80 103zM299 769c-54 0 -90 37 -90 91s36 91 90 91s90 -37 90 -91s-36 -91 -90 -91zM299 787c43 0 70 27 70 68v10c0 41 -27 68 -70 68s-70 -27 -70 -68v-10c0 -41 27 -68 70 -68zM568 0h-23l-85 234h-320l-85 -234h-23l253 698h30zM453 253
l-152 422h-3l-151 -422h306z" />
    <glyph glyph-name="aringacute" unicode="&#x1fb;" horiz-adv-x="519" 
d="M333 898l-84 -99l-15 9l80 103zM249 589c-54 0 -90 37 -90 91s36 91 90 91s90 -37 90 -91s-36 -91 -90 -91zM249 607c43 0 70 27 70 68v10c0 41 -27 68 -70 68s-70 -27 -70 -68v-10c0 -41 27 -68 70 -68zM499 0h-77c-20 0 -29 9 -29 29v48h-3c-25 -48 -73 -89 -166 -89
c-104 0 -163 51 -163 142c0 84 45 145 190 145h142v74c0 104 -50 150 -144 150c-76 0 -125 -29 -153 -95l-18 8c28 65 77 106 171 106c110 0 165 -59 165 -166v-333h85v-19zM224 7c90 0 169 47 169 141v109h-141c-119 0 -168 -45 -168 -112v-30c0 -70 58 -108 140 -108z" />
    <glyph glyph-name="AEacute" unicode="&#x1fc;" horiz-adv-x="861" 
d="M699 919l-115 -152l-15 10l111 154zM408 0v234h-253l-129 -234h-24l383 698h404v-20h-359v-314h347v-20h-347v-324h359v-20h-381zM408 678h-11l-232 -425h243v425z" />
    <glyph glyph-name="aeacute" unicode="&#x1fd;" horiz-adv-x="861" 
d="M525 739l-115 -152l-15 10l111 154zM388 257h-141c-119 0 -168 -45 -168 -112v-30c0 -70 58 -108 140 -108c90 0 169 47 169 141v109zM411 275h367v4c0 133 -73 220 -182 220c-118 0 -185 -86 -185 -222v-2zM600 7c85 0 144 42 175 124l18 -7c-30 -83 -96 -136 -193 -136
c-93 0 -161 45 -192 133h-3c-17 -89 -93 -133 -186 -133c-104 0 -163 51 -163 142c0 84 45 145 190 145h142v74c0 104 -50 150 -144 150c-76 0 -125 -29 -153 -95l-18 8c28 65 77 106 171 106c98 0 153 -49 161 -136h3c30 87 97 136 188 136c122 0 205 -97 205 -252v-10
h-390v-27c0 -136 69 -222 189 -222z" />
    <glyph glyph-name="Oslashacute" unicode="&#x1fe;" horiz-adv-x="680" 
d="M437 919l-115 -152l-15 10l111 154zM340 -12c-79 0 -142 25 -187 75l-65 -94l-18 11l69 100c-45 60 -69 150 -69 269c0 240 97 361 270 361c78 0 141 -25 187 -74l66 95l17 -11l-70 -101c46 -60 70 -150 70 -270c0 -240 -97 -361 -270 -361zM94 328
c0 -99 21 -176 58 -230l362 519c-42 48 -101 73 -174 73c-153 0 -246 -109 -246 -320v-42zM586 370c0 100 -21 177 -59 230l-361 -519c42 -48 101 -73 174 -73c153 0 246 109 246 320v42z" />
    <glyph glyph-name="oslashacute" unicode="&#x1ff;" horiz-adv-x="548" 
d="M371 739l-115 -152l-15 10l111 154zM54 -26l-14 11l68 84c-29 44 -45 105 -45 184c0 175 78 265 210 265c63 0 114 -21 150 -61l69 85l14 -11l-72 -89c32 -44 49 -107 49 -189c0 -175 -78 -265 -210 -265c-66 0 -118 22 -154 66zM273 7c120 0 187 86 187 222v48
c0 61 -13 112 -39 149l-289 -356c32 -40 79 -63 141 -63zM86 229c0 -58 12 -107 35 -144l289 356c-32 37 -78 58 -137 58c-120 0 -187 -86 -187 -222v-48z" />
    <glyph glyph-name="Scommaaccent" unicode="&#x218;" horiz-adv-x="547" 
d="M275 -66c16 0 22 -9 22 -22v-11c0 -34 -19 -84 -45 -113h-18c29 32 42 74 45 96c-22 0 -28 9 -28 20v8c0 13 6 22 24 22zM276 -12c-116 0 -184 48 -234 114l18 13c49 -64 109 -107 216 -107c121 0 191 58 191 168c0 117 -77 149 -161 165l-70 13
c-140 26 -178 98 -178 180c0 119 84 176 213 176c103 0 168 -39 206 -95l-18 -13c-40 58 -100 88 -190 88c-118 0 -189 -51 -189 -156c0 -109 75 -143 162 -159l70 -13c143 -27 177 -102 177 -184c0 -126 -83 -190 -213 -190z" />
    <glyph glyph-name="scommaaccent" unicode="&#x219;" horiz-adv-x="462" 
d="M238 -66c16 0 22 -9 22 -22v-11c0 -34 -19 -84 -45 -113h-18c29 32 42 74 45 96c-22 0 -28 9 -28 20v8c0 13 6 22 24 22zM236 -12c-81 0 -140 27 -187 93l18 12c46 -63 95 -86 169 -86c95 0 146 42 146 117c0 76 -44 108 -128 121l-44 7c-89 14 -144 49 -144 137
c0 85 70 129 160 129c88 0 134 -36 167 -73l-16 -14c-31 35 -70 68 -150 68c-84 0 -140 -38 -140 -109c0 -75 41 -104 127 -118l44 -7c88 -14 145 -51 145 -140c0 -87 -64 -137 -167 -137z" />
    <glyph glyph-name="uni021A" unicode="&#x21a;" horiz-adv-x="560" 
d="M281 -66c16 0 22 -9 22 -22v-11c0 -34 -19 -84 -45 -113h-18c29 32 42 74 45 96c-22 0 -28 9 -28 20v8c0 13 6 22 24 22zM543 678h-252v-678h-22v678h-252v20h526v-20z" />
    <glyph glyph-name="uni021B" unicode="&#x21b;" horiz-adv-x="310" 
d="M191 -66c16 0 22 -9 22 -22v-11c0 -34 -19 -84 -45 -113h-18c29 32 42 74 45 96c-22 0 -28 9 -28 20v8c0 13 6 22 24 22zM259 0h-105c-20 0 -29 9 -29 29v458h-95v19h72c18 0 23 7 23 25v119h21v-144h121v-19h-121v-468h113v-19z" />
    <glyph glyph-name="uni0237" unicode="&#x237;" horiz-adv-x="231" 
d="M20 -200v19h85v687h21v-677c0 -20 -9 -29 -29 -29h-77z" />
    <glyph glyph-name="uni0259" unicode="&#x259;" horiz-adv-x="533" 
d="M60 250h390v27c0 136 -69 222 -189 222c-85 0 -145 -42 -176 -124l-17 7c30 83 96 136 193 136c132 0 212 -90 212 -265c0 -173 -78 -265 -208 -265c-122 0 -205 97 -205 252v10zM83 231v-4c0 -133 73 -220 182 -220c118 0 185 86 185 222v2h-367z" />
    <glyph glyph-name="uni02BB" unicode="&#x2bb;" 
d="M299 599c-16 0 -22 9 -22 22v11c0 34 19 84 45 113h18c-29 -32 -42 -74 -45 -96c22 0 28 -9 28 -20v-8c0 -13 -6 -22 -24 -22z" />
    <glyph glyph-name="uni02BC" unicode="&#x2bc;" 
d="M278 740l-24 -176h-17l16 176h25z" />
    <glyph glyph-name="circumflex" unicode="&#x2c6;" 
d="M288 743h24l128 -133l-14 -11l-126 127l-126 -127l-14 11z" />
    <glyph glyph-name="caron" unicode="&#x2c7;" 
d="M312 603h-24l-128 133l14 11l126 -127l126 127l14 -11z" />
    <glyph glyph-name="breve" unicode="&#x2d8;" 
d="M300 606c-68 0 -95 44 -132 117l16 7l15 -27c35 -63 57 -78 101 -78s66 15 101 78l15 27l16 -7c-37 -73 -64 -117 -132 -117z" />
    <glyph glyph-name="dotaccent" unicode="&#x2d9;" 
d="M300 642c-17 0 -23 10 -23 21v7c0 11 6 21 23 21s23 -10 23 -21v-7c0 -11 -6 -21 -23 -21z" />
    <glyph glyph-name="ring" unicode="&#x2da;" 
d="M300 589c-54 0 -90 37 -90 91s36 91 90 91s90 -37 90 -91s-36 -91 -90 -91zM300 607c43 0 70 27 70 68v10c0 41 -27 68 -70 68s-70 -27 -70 -68v-10c0 -41 27 -68 70 -68z" />
    <glyph glyph-name="ogonek" unicode="&#x2db;" 
d="M239 -202c-45 0 -79 23 -79 67c0 39 26 84 119 137l-5 9l20 5l6 -16c-79 -51 -119 -82 -119 -132c0 -37 24 -52 59 -52c32 0 50 13 60 25l14 -11c-13 -18 -39 -32 -75 -32z" />
    <glyph glyph-name="tilde" unicode="&#x2dc;" 
d="M371 628c-23 0 -43 8 -77 30c-29 19 -47 26 -66 26c-24 0 -44 -11 -65 -33l-12 12c24 27 50 39 78 39c23 0 43 -8 77 -30c29 -19 47 -26 66 -26c24 0 44 11 65 33l12 -12c-24 -27 -50 -39 -78 -39z" />
    <glyph glyph-name="hungarumlaut" unicode="&#x2dd;" 
d="M335 739l-115 -152l-15 10l111 154zM495 739l-115 -152l-15 10l111 154z" />
    <glyph glyph-name="uni0300" unicode="&#x300;" horiz-adv-x="0" 
d="M17 587l-115 152l19 12l111 -154z" />
    <glyph glyph-name="uni0301" unicode="&#x301;" horiz-adv-x="0" 
d="M97 739l-115 -152l-15 10l111 154z" />
    <glyph glyph-name="uni0302" unicode="&#x302;" horiz-adv-x="0" 
d="M-12 743h24l128 -133l-14 -11l-126 127l-126 -127l-14 11z" />
    <glyph glyph-name="uni0303" unicode="&#x303;" horiz-adv-x="0" 
d="M71 628c-23 0 -43 8 -77 30c-29 19 -47 26 -66 26c-24 0 -44 -11 -65 -33l-12 12c24 27 50 39 78 39c23 0 43 -8 77 -30c29 -19 47 -26 66 -26c24 0 44 11 65 33l12 -12c-24 -27 -50 -39 -78 -39z" />
    <glyph glyph-name="uni0304" unicode="&#x304;" horiz-adv-x="0" 
d="M-129 658v18h258v-18h-258z" />
    <glyph glyph-name="uni0306" unicode="&#x306;" horiz-adv-x="0" 
d="M0 606c-68 0 -95 44 -132 117l16 7l15 -27c35 -63 57 -78 101 -78s66 15 101 78l15 27l16 -7c-37 -73 -64 -117 -132 -117z" />
    <glyph glyph-name="uni0307" unicode="&#x307;" horiz-adv-x="0" 
d="M0 642c-17 0 -23 10 -23 21v7c0 11 6 21 23 21s23 -10 23 -21v-7c0 -11 -6 -21 -23 -21z" />
    <glyph glyph-name="uni0308" unicode="&#x308;" horiz-adv-x="0" 
d="M-91 642c-17 0 -23 10 -23 21v7c0 11 6 21 23 21s23 -10 23 -21v-7c0 -11 -6 -21 -23 -21zM91 642c-17 0 -23 10 -23 21v7c0 11 6 21 23 21s23 -10 23 -21v-7c0 -11 -6 -21 -23 -21z" />
    <glyph glyph-name="uni0309" unicode="&#x309;" horiz-adv-x="0" 
d="M-74 719v18h137c15 0 23 -7 23 -18c0 -8 -5 -18 -31 -58l-49 -76l-16 8l77 126h-141z" />
    <glyph glyph-name="uni030A" unicode="&#x30a;" horiz-adv-x="0" 
d="M0 589c-54 0 -90 37 -90 91s36 91 90 91s90 -37 90 -91s-36 -91 -90 -91zM0 607c43 0 70 27 70 68v10c0 41 -27 68 -70 68s-70 -27 -70 -68v-10c0 -41 27 -68 70 -68z" />
    <glyph glyph-name="uni030B" unicode="&#x30b;" horiz-adv-x="0" 
d="M35 739l-115 -152l-15 10l111 154zM195 739l-115 -152l-15 10l111 154z" />
    <glyph glyph-name="uni030C" unicode="&#x30c;" horiz-adv-x="0" 
d="M12 603h-24l-128 133l14 11l126 -127l126 127l14 -11z" />
    <glyph glyph-name="uni0312" unicode="&#x312;" horiz-adv-x="0" 
d="M-1 599c-16 0 -22 9 -22 22v11c0 34 19 84 45 113h18c-29 -32 -42 -74 -45 -96c22 0 28 -9 28 -20v-8c0 -13 -6 -22 -24 -22z" />
    <glyph glyph-name="uni0315" unicode="&#x315;" horiz-adv-x="0" 
d="M41 740l-24 -176h-17l16 176h25z" />
    <glyph glyph-name="uni031B" unicode="&#x31b;" horiz-adv-x="0" 
d="M26 619v-102c0 -20 -9 -29 -29 -29h-71v18h80v113h20z" />
    <glyph glyph-name="uni0323" unicode="&#x323;" horiz-adv-x="0" 
d="M0 -134c-17 0 -23 10 -23 21v7c0 11 6 21 23 21s23 -10 23 -21v-7c0 -11 -6 -21 -23 -21z" />
    <glyph glyph-name="uni0326" unicode="&#x326;" horiz-adv-x="0" 
d="M1 -66c16 0 22 -9 22 -22v-11c0 -34 -19 -84 -45 -113h-18c29 32 42 74 45 96c-22 0 -28 9 -28 20v8c0 13 6 22 24 22z" />
    <glyph glyph-name="uni0327" unicode="&#x327;" horiz-adv-x="0" 
d="M9 -202c-38 0 -69 15 -81 32l13 13c14 -17 38 -27 68 -27c36 0 61 18 61 52c0 25 -16 44 -61 46l-37 2l21 87h18l-19 -76l2 -2c9 2 21 3 30 3c39 0 67 -23 67 -59c0 -38 -31 -71 -82 -71z" />
    <glyph glyph-name="uni0328" unicode="&#x328;" horiz-adv-x="0" 
d="M-61 -202c-45 0 -79 23 -79 67c0 39 26 84 119 137l-5 9l20 5l6 -16c-79 -51 -119 -82 -119 -132c0 -37 24 -52 59 -52c32 0 50 13 60 25l14 -11c-13 -18 -39 -32 -75 -32z" />
    <glyph glyph-name="uni037E" unicode="&#x37e;" horiz-adv-x="258" 
d="M128 436c-18 0 -27 9 -27 25v8c0 16 9 25 27 25s27 -9 27 -25v-8c0 -16 -9 -25 -27 -25zM130 53c18 0 26 -11 26 -26v-12c0 -55 -34 -122 -77 -162h-19c51 50 70 105 74 142c-24 0 -32 11 -32 23v9c0 15 8 26 28 26z" />
    <glyph glyph-name="tonos" unicode="&#x384;" 
d="M377 743l-73 -156l-16 6l68 158z" />
    <glyph glyph-name="dieresistonos" unicode="&#x385;" 
d="M209 642c-17 0 -23 10 -23 21v7c0 11 6 21 23 21s23 -10 23 -21v-7c0 -11 -6 -21 -23 -21zM391 642c-17 0 -23 10 -23 21v7c0 11 6 21 23 21s23 -10 23 -21v-7c0 -11 -6 -21 -23 -21zM346 743l-73 -156l-16 6l68 158z" />
    <glyph glyph-name="Alphatonos" unicode="&#x386;" 
d="M177 743l-73 -156l-16 6l68 158zM568 0h-23l-85 234h-320l-85 -234h-23l253 698h30zM453 253l-152 422h-3l-151 -422h306z" />
    <glyph glyph-name="anoteleia" unicode="&#x387;" horiz-adv-x="258" 
d="M129 436c-18 0 -27 9 -27 25v8c0 16 9 25 27 25s27 -9 27 -25v-8c0 -16 -9 -25 -27 -25z" />
    <glyph glyph-name="Epsilontonos" unicode="&#x388;" horiz-adv-x="583" 
d="M67 743l-73 -156l-16 6l68 158zM511 0h-381v698h381v-20h-359v-314h347v-20h-347v-324h359v-20z" />
    <glyph glyph-name="Etatonos" unicode="&#x389;" horiz-adv-x="714" 
d="M67 743l-73 -156l-16 6l68 158zM584 0v344h-432v-344h-22v698h22v-334h432v334h22v-698h-22z" />
    <glyph glyph-name="Iotatonos" unicode="&#x38a;" horiz-adv-x="423" 
d="M67 743l-73 -156l-16 6l68 158zM355 0h-236v19h107v660h-107v19h236v-19h-107v-660h107v-19z" />
    <glyph glyph-name="Omicrontonos" unicode="&#x38c;" horiz-adv-x="680" 
d="M67 743l-73 -156l-16 6l68 158zM340 -12c-173 0 -270 121 -270 361s97 361 270 361s270 -121 270 -361s-97 -361 -270 -361zM340 8c153 0 246 109 246 320v42c0 211 -93 320 -246 320s-246 -109 -246 -320v-42c0 -211 93 -320 246 -320z" />
    <glyph glyph-name="Upsilontonos" unicode="&#x38e;" horiz-adv-x="626" 
d="M67 743l-73 -156l-16 6l68 158zM364 0h-22v294l-241 404h25l226 -378h3l226 378h24l-241 -404v-294z" />
    <glyph glyph-name="Omegatonos" unicode="&#x38f;" horiz-adv-x="694" 
d="M67 743l-73 -156l-16 6l68 158zM82 0v20h177v17c-136 78 -184 174 -184 342c0 213 98 331 274 331s274 -118 274 -331c0 -168 -48 -264 -184 -342v-17h177v-20h-197v49c76 36 180 125 180 298v64c0 171 -98 279 -250 279s-250 -108 -250 -279v-64
c0 -173 104 -262 180 -298v-49h-197z" />
    <glyph glyph-name="iotadieresistonos" unicode="&#x390;" horiz-adv-x="269" 
d="M39 642c-17 0 -23 10 -23 21v7c0 11 6 21 23 21s23 -10 23 -21v-7c0 -11 -6 -21 -23 -21zM221 642c-17 0 -23 10 -23 21v7c0 11 6 21 23 21s23 -10 23 -21v-7c0 -11 -6 -21 -23 -21zM176 743l-73 -156l-16 6l68 158zM239 19v-19h-105c-20 0 -29 9 -29 29v477h21v-487h113
z" />
    <glyph glyph-name="Alpha" unicode="&#x391;" 
d="M568 0h-23l-85 234h-320l-85 -234h-23l253 698h30zM453 253l-152 422h-3l-151 -422h306z" />
    <glyph glyph-name="Beta" unicode="&#x392;" horiz-adv-x="615" 
d="M108 0v698h252c99 0 158 -59 158 -170c0 -87 -36 -137 -98 -157v-2c87 -16 130 -82 130 -180c0 -115 -60 -189 -174 -189h-268zM130 358v-338h246c103 0 150 71 150 148v42c0 76 -47 148 -150 148h-246zM130 678v-300h230c92 0 134 62 134 129v42c0 67 -42 129 -134 129
h-230z" />
    <glyph glyph-name="Gamma" unicode="&#x393;" horiz-adv-x="506" 
d="M108 0v698h354v-20h-332v-678h-22z" />
    <glyph glyph-name="uni0394" unicode="&#x394;" 
d="M39 0v19l246 679h30l246 -679v-19h-522zM538 19l-237 656h-3l-236 -656h476z" />
    <glyph glyph-name="Epsilon" unicode="&#x395;" horiz-adv-x="561" 
d="M489 0h-381v698h381v-20h-359v-314h347v-20h-347v-324h359v-20z" />
    <glyph glyph-name="Zeta" unicode="&#x396;" horiz-adv-x="555" 
d="M527 20v-20h-488v22l443 656h-420v20h444v-22l-443 -656h464z" />
    <glyph glyph-name="Eta" unicode="&#x397;" horiz-adv-x="692" 
d="M562 0v344h-432v-344h-22v698h22v-334h432v334h22v-698h-22z" />
    <glyph glyph-name="Theta" unicode="&#x398;" horiz-adv-x="680" 
d="M340 -12c-173 0 -270 121 -270 361s97 361 270 361s270 -121 270 -361s-97 -361 -270 -361zM340 8c153 0 246 109 246 320v42c0 211 -93 320 -246 320s-246 -109 -246 -320v-42c0 -211 93 -320 246 -320zM502 344h-324v20h324v-20z" />
    <glyph glyph-name="Iota" unicode="&#x399;" horiz-adv-x="372" 
d="M304 0h-236v19h107v660h-107v19h236v-19h-107v-660h107v-19z" />
    <glyph glyph-name="Kappa" unicode="&#x39a;" horiz-adv-x="572" 
d="M526 0l-261 387l-135 -148v-239h-22v698h22v-427h2l130 142l259 285h28l-269 -295l272 -403h-26z" />
    <glyph glyph-name="Lambda" unicode="&#x39b;" horiz-adv-x="590" 
d="M280 698h30l248 -698h-23l-239 675h-3l-238 -675h-23z" />
    <glyph glyph-name="Mu" unicode="&#x39c;" horiz-adv-x="796" 
d="M667 0v673h-3l-266 -437l-266 437h-3v-673h-21v698h33l256 -420h3l255 420h33v-698h-21z" />
    <glyph glyph-name="Nu" unicode="&#x39d;" horiz-adv-x="692" 
d="M552 0l-420 671h-3v-671h-21v698h32l420 -671h3v671h21v-698h-32z" />
    <glyph glyph-name="Xi" unicode="&#x39e;" horiz-adv-x="555" 
d="M72 678v20h411v-20h-411zM104 344v20h347v-20h-347zM72 0v20h411v-20h-411z" />
    <glyph glyph-name="Omicron" unicode="&#x39f;" horiz-adv-x="680" 
d="M340 -12c-173 0 -270 121 -270 361s97 361 270 361s270 -121 270 -361s-97 -361 -270 -361zM340 8c153 0 246 109 246 320v42c0 211 -93 320 -246 320s-246 -109 -246 -320v-42c0 -211 93 -320 246 -320z" />
    <glyph glyph-name="Pi" unicode="&#x3a0;" horiz-adv-x="678" 
d="M108 0v698h462v-698h-22v678h-418v-678h-22z" />
    <glyph glyph-name="Rho" unicode="&#x3a1;" horiz-adv-x="594" 
d="M130 0h-22v698h268c114 0 174 -74 174 -188s-60 -188 -174 -188h-246v-322zM130 678v-336h246c103 0 150 71 150 147v42c0 76 -47 147 -150 147h-246z" />
    <glyph glyph-name="Sigma" unicode="&#x3a3;" horiz-adv-x="572" 
d="M504 0h-454v22l276 332l-270 322v22h448v-20h-424l272 -324l-278 -334h430v-20z" />
    <glyph glyph-name="Tau" unicode="&#x3a4;" horiz-adv-x="560" 
d="M543 678h-252v-678h-22v678h-252v20h526v-20z" />
    <glyph glyph-name="Upsilon" unicode="&#x3a5;" horiz-adv-x="546" 
d="M284 0h-22v294l-241 404h25l226 -378h3l226 378h24l-241 -404v-294z" />
    <glyph glyph-name="Phi" unicode="&#x3a6;" horiz-adv-x="826" 
d="M402 -29v66h-36c-194 0 -300 123 -300 317s106 317 300 317h36v54h22v-54h36c194 0 300 -123 300 -317s-106 -317 -300 -317h-36v-66h-22zM402 57v594h-36c-184 0 -276 -127 -276 -267v-60c0 -140 92 -267 276 -267h36zM424 57h36c184 0 276 127 276 267v60
c0 140 -92 267 -276 267h-36v-594z" />
    <glyph glyph-name="Chi" unicode="&#x3a7;" horiz-adv-x="558" 
d="M293 357l237 -357h-26l-223 335h-2l-225 -335h-26l238 354l-229 344h26l215 -322h2l215 322h26z" />
    <glyph glyph-name="Psi" unicode="&#x3a8;" horiz-adv-x="750" 
d="M364 0v208c-180 0 -284 69 -284 272v218h22v-220c0 -184 92 -250 262 -250v470h22v-470c170 0 262 66 262 250v220h22v-218c0 -203 -104 -272 -284 -272v-208h-22z" />
    <glyph glyph-name="uni03A9" unicode="&#x3a9;" horiz-adv-x="694" 
d="M82 0v20h177v17c-136 78 -184 174 -184 342c0 213 98 331 274 331s274 -118 274 -331c0 -168 -48 -264 -184 -342v-17h177v-20h-197v49c76 36 180 125 180 298v64c0 171 -98 279 -250 279s-250 -108 -250 -279v-64c0 -173 104 -262 180 -298v-49h-197z" />
    <glyph glyph-name="Iotadieresis" unicode="&#x3aa;" horiz-adv-x="372" 
d="M94 819c-17 0 -23 10 -23 21v7c0 11 6 21 23 21s23 -10 23 -21v-7c0 -11 -6 -21 -23 -21zM276 819c-17 0 -23 10 -23 21v7c0 11 6 21 23 21s23 -10 23 -21v-7c0 -11 -6 -21 -23 -21zM304 0h-236v19h107v660h-107v19h236v-19h-107v-660h107v-19z" />
    <glyph glyph-name="Upsilondieresis" unicode="&#x3ab;" horiz-adv-x="546" 
d="M181 819c-17 0 -23 10 -23 21v7c0 11 6 21 23 21s23 -10 23 -21v-7c0 -11 -6 -21 -23 -21zM363 819c-17 0 -23 10 -23 21v7c0 11 6 21 23 21s23 -10 23 -21v-7c0 -11 -6 -21 -23 -21zM284 0h-22v294l-241 404h25l226 -378h3l226 378h24l-241 -404v-294z" />
    <glyph glyph-name="alphatonos" unicode="&#x3ac;" horiz-adv-x="635" 
d="M343 743l-73 -156l-16 6l68 158zM593 19v-19h-59c-18 0 -26 5 -33 35l-42 192h-3c-52 -188 -108 -239 -208 -239c-108 0 -188 89 -188 265s80 265 188 265c102 0 172 -49 208 -239h3l22 67l54 160h22l-87 -249l58 -238h65zM248 7c92 0 137 51 183 200l14 46l-15 59
c-37 144 -92 187 -182 187c-96 0 -165 -85 -165 -222v-48c0 -137 69 -222 165 -222z" />
    <glyph glyph-name="epsilontonos" unicode="&#x3ad;" horiz-adv-x="526" 
d="M346 743l-73 -156l-16 6l68 158zM457 95l16 -11c-33 -57 -90 -96 -205 -96c-121 0 -186 52 -186 141c0 68 45 119 117 131v3c-60 20 -98 56 -98 122c0 88 66 133 177 133c105 0 149 -36 182 -73l-16 -14c-31 35 -68 68 -165 68c-105 0 -155 -42 -155 -108v-12
c0 -59 53 -109 132 -109h121v-19h-122c-93 0 -150 -46 -150 -113v-21c0 -68 62 -110 163 -110c99 0 155 30 189 88z" />
    <glyph glyph-name="etatonos" unicode="&#x3ae;" horiz-adv-x="566" 
d="M367 743l-73 -156l-16 6l68 158zM136 0h-21v487h-85v19h77c20 0 29 -9 29 -29v-47h3c18 45 67 88 158 88c113 0 174 -67 174 -193v-525h-21v521c0 123 -56 178 -155 178c-83 0 -159 -45 -159 -137v-362z" />
    <glyph glyph-name="iotatonos" unicode="&#x3af;" horiz-adv-x="269" 
d="M197 743l-73 -156l-16 6l68 158zM239 19v-19h-105c-20 0 -29 9 -29 29v477h21v-487h113z" />
    <glyph glyph-name="upsilondieresistonos" unicode="&#x3b0;" horiz-adv-x="546" 
d="M188 642c-17 0 -23 10 -23 21v7c0 11 6 21 23 21s23 -10 23 -21v-7c0 -11 -6 -21 -23 -21zM370 642c-17 0 -23 10 -23 21v7c0 11 6 21 23 21s23 -10 23 -21v-7c0 -11 -6 -21 -23 -21zM325 743l-73 -156l-16 6l68 158zM116 506v-291c0 -158 53 -208 157 -208
s157 50 157 208v291h21v-277c0 -176 -54 -241 -178 -241s-178 65 -178 241v277h21z" />
    <glyph glyph-name="alpha" unicode="&#x3b1;" horiz-adv-x="635" 
d="M593 19v-19h-59c-18 0 -26 5 -33 35l-42 192h-3c-52 -188 -108 -239 -208 -239c-108 0 -188 89 -188 265s80 265 188 265c102 0 172 -49 208 -239h3l22 67l54 160h22l-87 -249l58 -238h65zM248 7c92 0 137 51 183 200l14 46l-15 59c-37 144 -92 187 -182 187
c-96 0 -165 -85 -165 -222v-48c0 -137 69 -222 165 -222z" />
    <glyph glyph-name="beta" unicode="&#x3b2;" horiz-adv-x="569" 
d="M105 -200v713c0 154 57 239 185 239c98 0 177 -66 177 -178c0 -92 -50 -147 -118 -165v-3c102 -18 155 -85 155 -204c0 -130 -81 -214 -207 -214c-93 0 -147 46 -168 90h-3v-278h-21zM209 396v19h92c87 0 143 65 143 145v28c0 84 -68 145 -154 145
c-112 0 -164 -74 -164 -212v-378c0 -81 79 -136 171 -136c123 0 184 91 184 171v48c0 100 -67 170 -179 170h-93z" />
    <glyph glyph-name="gamma" unicode="&#x3b3;" horiz-adv-x="469" 
d="M232 -200v200l-173 487h-55v19h49c16 0 23 -5 28 -18l132 -375l28 -89h3l32 89l147 393h21l-191 -506v-200h-21z" />
    <glyph glyph-name="delta" unicode="&#x3b4;" horiz-adv-x="540" 
d="M449 721h-267l-54 3v-1l146 -135c170 -158 206 -242 206 -356c0 -155 -78 -244 -210 -244s-210 94 -210 255c0 163 102 261 268 263v2c-19 20 -41 42 -66 65l-155 146v21h342v-19zM457 245c0 81 -20 144 -115 248c-180 -4 -259 -110 -259 -226v-48
c0 -122 67 -212 187 -212s187 86 187 202v36z" />
    <glyph glyph-name="epsilon" unicode="&#x3b5;" horiz-adv-x="526" 
d="M457 95l16 -11c-33 -57 -90 -96 -205 -96c-121 0 -186 52 -186 141c0 68 45 119 117 131v3c-60 20 -98 56 -98 122c0 88 66 133 177 133c105 0 149 -36 182 -73l-16 -14c-31 35 -68 68 -165 68c-105 0 -155 -42 -155 -108v-12c0 -59 53 -109 132 -109h121v-19h-122
c-93 0 -150 -46 -150 -113v-21c0 -68 62 -110 163 -110c99 0 155 30 189 88z" />
    <glyph glyph-name="zeta" unicode="&#x3b6;" horiz-adv-x="428" 
d="M72 721v19h332v-21l-224 -272c-72 -87 -99 -152 -99 -212v-16c0 -96 51 -153 206 -193l70 -18c16 -4 22 -13 22 -23c0 -4 -1 -9 -2 -13l-35 -132l-19 6l37 141l-77 20c-172 45 -225 110 -225 220c0 65 28 137 106 231l221 265v1l-54 -3h-259z" />
    <glyph glyph-name="eta" unicode="&#x3b7;" horiz-adv-x="566" 
d="M136 0h-21v487h-85v19h77c20 0 29 -9 29 -29v-47h3c18 45 67 88 158 88c113 0 174 -67 174 -193v-525h-21v521c0 123 -56 178 -155 178c-83 0 -159 -45 -159 -137v-362z" />
    <glyph glyph-name="theta" unicode="&#x3b8;" horiz-adv-x="548" 
d="M274 752c126 0 204 -90 204 -382s-78 -382 -204 -382s-204 90 -204 382s78 382 204 382zM274 7c114 0 181 86 181 339v15h-362v-15c0 -253 67 -339 181 -339zM93 394v-14h362v14c0 253 -67 339 -181 339s-181 -86 -181 -339z" />
    <glyph glyph-name="iota" unicode="&#x3b9;" horiz-adv-x="269" 
d="M239 19v-19h-105c-20 0 -29 9 -29 29v477h21v-487h113z" />
    <glyph glyph-name="kappa" unicode="&#x3ba;" horiz-adv-x="490" 
d="M450 0l-237 269l-87 -89v-180h-21v506h21v-297h3l76 79l200 209c6 6 13 9 23 9h44v-19h-50l-194 -203l248 -284h-26z" />
    <glyph glyph-name="lambda" unicode="&#x3bb;" horiz-adv-x="468" 
d="M208 508l-74 213h-65v19h59c16 0 22 -5 27 -18l244 -703h55v-19h-48c-16 0 -23 5 -28 18l-159 458h-3l-178 -476h-21z" />
    <glyph glyph-name="uni03BC" unicode="&#x3bc;" horiz-adv-x="576" 
d="M126 -200h-21v706h21v-321c0 -123 56 -178 155 -178c83 0 159 45 159 137v362h21v-487h85v-19h-77c-20 0 -29 9 -29 29v47h-3c-18 -45 -67 -88 -158 -88c-77 0 -129 31 -155 91h-3l5 -123v-156z" />
    <glyph glyph-name="nu" unicode="&#x3bd;" horiz-adv-x="469" 
d="M256 0h-26l-171 487h-55v19h49c16 0 23 -5 28 -18l161 -464h3l178 482h21z" />
    <glyph glyph-name="xi" unicode="&#x3be;" horiz-adv-x="463" 
d="M411 721h-113c-116 0 -173 -74 -173 -147v-14c0 -90 59 -145 149 -145h79v-19h-78c-121 0 -187 -72 -187 -161v-16c0 -100 47 -150 216 -193l70 -18c16 -4 22 -13 22 -23c0 -4 -1 -9 -2 -13l-35 -132l-19 6l37 141l-77 20c-183 47 -235 104 -235 220c0 86 53 162 155 178
v3c-78 20 -118 73 -118 159c0 68 41 133 114 151v3h-137v19h332v-19z" />
    <glyph glyph-name="omicron" unicode="&#x3bf;" horiz-adv-x="540" 
d="M270 -12c-132 0 -210 90 -210 265s78 265 210 265s210 -90 210 -265s-78 -265 -210 -265zM270 7c120 0 187 86 187 222v48c0 136 -67 222 -187 222s-187 -86 -187 -222v-48c0 -136 67 -222 187 -222z" />
    <glyph glyph-name="pi" unicode="&#x3c0;" horiz-adv-x="590" 
d="M445 487v-468h75v-19h-67c-20 0 -29 9 -29 29v458h-278v-487h-21v487h-95v19h522v-19h-107z" />
    <glyph glyph-name="rho" unicode="&#x3c1;" horiz-adv-x="535" 
d="M75 -200v453c0 175 75 265 200 265s200 -90 200 -265c0 -176 -79 -265 -212 -265c-89 0 -143 46 -164 90h-3v-278h-21zM263 7c121 0 189 85 189 222v48c0 136 -64 222 -177 222s-179 -86 -179 -234v-122c0 -81 79 -136 167 -136z" />
    <glyph glyph-name="sigma1" unicode="&#x3c2;" horiz-adv-x="487" 
d="M349 -154l37 141l-77 20c-165 43 -249 112 -249 266c0 151 78 245 210 245c80 0 134 -40 165 -100l-18 -9c-32 58 -75 90 -147 90c-120 0 -187 -88 -187 -210v-32c0 -126 74 -191 230 -231l70 -18c16 -4 22 -13 22 -23c0 -4 -1 -9 -2 -13l-35 -132z" />
    <glyph glyph-name="sigma" unicode="&#x3c3;" horiz-adv-x="550" 
d="M523 487h-156v-3c74 -44 113 -117 113 -237c0 -169 -78 -259 -210 -259s-210 90 -210 259c0 166 82 259 216 259h247v-19zM340 487h-64c-124 0 -193 -89 -193 -216v-48c0 -130 67 -216 187 -216s187 86 187 216v48c0 90 -35 166 -117 216z" />
    <glyph glyph-name="tau" unicode="&#x3c4;" horiz-adv-x="482" 
d="M360 0h-110c-20 0 -29 9 -29 29v458h-186v19h409v-19h-202v-468h118v-19z" />
    <glyph glyph-name="upsilon" unicode="&#x3c5;" horiz-adv-x="546" 
d="M116 506v-291c0 -158 53 -208 157 -208s157 50 157 208v291h21v-277c0 -176 -54 -241 -178 -241s-178 65 -178 241v277h21z" />
    <glyph glyph-name="phi" unicode="&#x3c6;" horiz-adv-x="677" 
d="M315 -200v188c-166 0 -255 89 -255 269c0 132 42 217 124 261l11 -17c-76 -38 -112 -122 -112 -220v-48c0 -141 78 -226 232 -226v264c0 175 52 247 148 247s148 -72 148 -251c0 -196 -98 -279 -275 -279v-188h-21zM336 281v-274c168 0 252 81 252 236v48
c0 144 -41 208 -125 208c-87 0 -127 -70 -127 -218z" />
    <glyph glyph-name="chi" unicode="&#x3c7;" horiz-adv-x="457" 
d="M10 506h49c16 0 23 -5 29 -19l138 -306h2l175 325h22l-186 -343l151 -344h55v-19h-49c-16 0 -23 5 -29 19l-141 326h-2l-180 -345h-22l191 363l-148 324h-55v19z" />
    <glyph glyph-name="psi" unicode="&#x3c8;" horiz-adv-x="693" 
d="M357 -200h-21v188c-166 0 -241 65 -241 241v277h21v-291c0 -160 78 -208 220 -208v703h21v-703c142 0 220 48 220 208v291h21v-277c0 -176 -75 -241 -241 -241v-188z" />
    <glyph glyph-name="omega" unicode="&#x3c9;" horiz-adv-x="699" 
d="M360 349v-124c0 -170 53 -218 126 -218c84 0 124 64 124 208v48c0 116 -36 200 -112 238l11 17c82 -44 124 -129 124 -279c0 -179 -51 -251 -147 -251c-78 0 -123 50 -135 142h-3c-12 -92 -57 -142 -135 -142c-96 0 -147 72 -147 251c0 150 42 235 124 279l11 -17
c-76 -38 -112 -122 -112 -238v-48c0 -144 40 -208 124 -208c73 0 126 48 126 218v124h21z" />
    <glyph glyph-name="iotadieresis" unicode="&#x3ca;" horiz-adv-x="269" 
d="M33 642c-17 0 -23 10 -23 21v7c0 11 6 21 23 21s23 -10 23 -21v-7c0 -11 -6 -21 -23 -21zM215 642c-17 0 -23 10 -23 21v7c0 11 6 21 23 21s23 -10 23 -21v-7c0 -11 -6 -21 -23 -21zM239 19v-19h-105c-20 0 -29 9 -29 29v477h21v-487h113z" />
    <glyph glyph-name="upsilondieresis" unicode="&#x3cb;" horiz-adv-x="546" 
d="M182 642c-17 0 -23 10 -23 21v7c0 11 6 21 23 21s23 -10 23 -21v-7c0 -11 -6 -21 -23 -21zM364 642c-17 0 -23 10 -23 21v7c0 11 6 21 23 21s23 -10 23 -21v-7c0 -11 -6 -21 -23 -21zM116 506v-291c0 -158 53 -208 157 -208s157 50 157 208v291h21v-277
c0 -176 -54 -241 -178 -241s-178 65 -178 241v277h21z" />
    <glyph glyph-name="omicrontonos" unicode="&#x3cc;" horiz-adv-x="540" 
d="M343 743l-73 -156l-16 6l68 158zM270 -12c-132 0 -210 90 -210 265s78 265 210 265s210 -90 210 -265s-78 -265 -210 -265zM270 7c120 0 187 86 187 222v48c0 136 -67 222 -187 222s-187 -86 -187 -222v-48c0 -136 67 -222 187 -222z" />
    <glyph glyph-name="upsilontonos" unicode="&#x3cd;" horiz-adv-x="546" 
d="M346 743l-73 -156l-16 6l68 158zM116 506v-291c0 -158 53 -208 157 -208s157 50 157 208v291h21v-277c0 -176 -54 -241 -178 -241s-178 65 -178 241v277h21z" />
    <glyph glyph-name="omegatonos" unicode="&#x3ce;" horiz-adv-x="699" 
d="M422 743l-73 -156l-16 6l68 158zM360 349v-124c0 -170 53 -218 126 -218c84 0 124 64 124 208v48c0 116 -36 200 -112 238l11 17c82 -44 124 -129 124 -279c0 -179 -51 -251 -147 -251c-78 0 -123 50 -135 142h-3c-12 -92 -57 -142 -135 -142c-96 0 -147 72 -147 251
c0 150 42 235 124 279l11 -17c-76 -38 -112 -122 -112 -238v-48c0 -144 40 -208 124 -208c73 0 126 48 126 218v124h21z" />
    <glyph glyph-name="uni0400" unicode="&#x400;" horiz-adv-x="561" 
d="M316 767l-115 152l19 12l111 -154zM489 0h-381v698h381v-20h-359v-314h347v-20h-347v-324h359v-20z" />
    <glyph glyph-name="uni0401" unicode="&#x401;" horiz-adv-x="561" 
d="M208 819c-17 0 -23 10 -23 21v7c0 11 6 21 23 21s23 -10 23 -21v-7c0 -11 -6 -21 -23 -21zM390 819c-17 0 -23 10 -23 21v7c0 11 6 21 23 21s23 -10 23 -21v-7c0 -11 -6 -21 -23 -21zM489 0h-381v698h381v-20h-359v-314h347v-20h-347v-324h359v-20z" />
    <glyph glyph-name="uni0402" unicode="&#x402;" horiz-adv-x="772" 
d="M516 -164v20h85c48 14 81 66 81 186v151c0 146 -75 208 -205 208c-78 0 -140 -11 -186 -29v-372h-22v678h-252v20h526v-20h-252v-285h5c44 17 106 28 183 28c150 0 225 -74 225 -228v-151c0 -154 -51 -206 -125 -206h-63z" />
    <glyph glyph-name="uni0403" unicode="&#x403;" horiz-adv-x="506" 
d="M382 919l-115 -152l-15 10l111 154zM108 0v698h354v-20h-332v-678h-22z" />
    <glyph glyph-name="uni0404" unicode="&#x404;" horiz-adv-x="610" 
d="M329 -12c-165 0 -259 121 -259 361s94 361 259 361c102 0 178 -58 216 -143l-19 -9c-36 82 -106 132 -197 132c-146 0 -235 -105 -235 -320v-6h347v-20h-347v-16c0 -215 89 -320 235 -320c99 0 168 53 202 140l19 -8c-36 -91 -114 -152 -221 -152z" />
    <glyph glyph-name="uni0405" unicode="&#x405;" horiz-adv-x="547" 
d="M276 -12c-116 0 -184 48 -234 114l18 13c49 -64 109 -107 216 -107c121 0 191 58 191 168c0 117 -77 149 -161 165l-70 13c-140 26 -178 98 -178 180c0 119 84 176 213 176c103 0 168 -39 206 -95l-18 -13c-40 58 -100 88 -190 88c-118 0 -189 -51 -189 -156
c0 -109 75 -143 162 -159l70 -13c143 -27 177 -102 177 -184c0 -126 -83 -190 -213 -190z" />
    <glyph glyph-name="uni0406" unicode="&#x406;" horiz-adv-x="372" 
d="M304 0h-236v19h107v660h-107v19h236v-19h-107v-660h107v-19z" />
    <glyph glyph-name="uni0407" unicode="&#x407;" horiz-adv-x="372" 
d="M94 819c-17 0 -23 10 -23 21v7c0 11 6 21 23 21s23 -10 23 -21v-7c0 -11 -6 -21 -23 -21zM276 819c-17 0 -23 10 -23 21v7c0 11 6 21 23 21s23 -10 23 -21v-7c0 -11 -6 -21 -23 -21zM304 0h-236v19h107v660h-107v19h236v-19h-107v-660h107v-19z" />
    <glyph glyph-name="uni0408" unicode="&#x408;" horiz-adv-x="464" 
d="M96 698h268v-515c0 -128 -65 -195 -172 -195c-83 0 -152 51 -170 125l19 6c19 -63 74 -111 151 -111c100 0 150 63 150 175v495h-246v20z" />
    <glyph glyph-name="uni0409" unicode="&#x409;" horiz-adv-x="977" 
d="M8 0v20h63c64 62 110 215 110 493v185h326v-300h236c114 0 174 -78 174 -199s-60 -199 -174 -199h-258v678h-282v-165c0 -272 -45 -433 -105 -493c-16 -16 -29 -20 -49 -20h-41zM507 20h236c103 0 150 76 150 158v42c0 82 -47 158 -150 158h-236v-358z" />
    <glyph glyph-name="uni040A" unicode="&#x40a;" horiz-adv-x="1033" 
d="M108 0v698h22v-320h407v320h22v-320h240c114 0 174 -74 174 -189s-60 -189 -174 -189h-262v358h-407v-358h-22zM559 20h240c103 0 150 71 150 148v42c0 77 -47 148 -150 148h-240v-338z" />
    <glyph glyph-name="uni040B" unicode="&#x40b;" horiz-adv-x="782" 
d="M269 0v678h-252v20h526v-20h-252v-285h5c44 17 106 28 183 28c160 0 235 -74 235 -230v-191h-22v191c0 148 -75 210 -215 210c-78 0 -140 -11 -186 -29v-372h-22z" />
    <glyph glyph-name="uni040C" unicode="&#x40c;" horiz-adv-x="616" 
d="M403 919l-115 -152l-15 10l111 154zM108 0v698h22v-334h161l185 313c10 17 19 21 35 21h49v-20h-59l-172 -291c-14 -23 -23 -31 -35 -33v-2c12 -2 22 -7 34 -27l185 -305h59v-20h-50c-16 0 -25 5 -35 21l-196 323h-161v-344h-22z" />
    <glyph glyph-name="uni040D" unicode="&#x40d;" horiz-adv-x="692" 
d="M361 767l-115 152l19 12l111 -154zM108 0v698h21v-597l-4 -74h3l41 73l396 598h19v-698h-21v597l4 74h-3l-41 -73l-396 -598h-19z" />
    <glyph glyph-name="uni040E" unicode="&#x40e;" horiz-adv-x="573" 
d="M299 786c-65 0 -96 43 -119 91l-12 25l18 8l35 -66c20 -28 46 -40 78 -40s58 12 78 40l35 66l18 -8l-12 -25c-23 -48 -54 -91 -119 -91zM158 0v19h91l51 128l-270 551h24l219 -445l37 -76h2l30 76l178 445h23l-272 -679c-6 -13 -18 -19 -33 -19h-80z" />
    <glyph glyph-name="uni040F" unicode="&#x40f;" horiz-adv-x="678" 
d="M328 -150v150h-220v698h22v-678h418v678h22v-698h-220v-150h-22z" />
    <glyph glyph-name="uni0410" unicode="&#x410;" 
d="M568 0h-23l-85 234h-320l-85 -234h-23l253 698h30zM453 253l-152 422h-3l-151 -422h306z" />
    <glyph glyph-name="uni0411" unicode="&#x411;" horiz-adv-x="605" 
d="M108 0v698h372v-20h-350v-280h236c114 0 174 -78 174 -199s-60 -199 -174 -199h-258zM130 20h236c103 0 150 76 150 158v42c0 82 -47 158 -150 158h-236v-358z" />
    <glyph glyph-name="uni0412" unicode="&#x412;" horiz-adv-x="615" 
d="M108 0v698h252c99 0 158 -59 158 -170c0 -87 -36 -137 -98 -157v-2c87 -16 130 -82 130 -180c0 -115 -60 -189 -174 -189h-268zM130 358v-338h246c103 0 150 71 150 148v42c0 76 -47 148 -150 148h-246zM130 678v-300h230c92 0 134 62 134 129v42c0 67 -42 129 -134 129
h-230z" />
    <glyph glyph-name="uni0413" unicode="&#x413;" horiz-adv-x="506" 
d="M108 0v698h354v-20h-332v-678h-22z" />
    <glyph glyph-name="uni0414" unicode="&#x414;" horiz-adv-x="667" 
d="M10 -150v170h71c62 91 98 257 98 492v186h350v-678h88v-170h-22v150h-563v-150h-22zM109 20h398v658h-306v-165c0 -234 -36 -398 -92 -490v-3z" />
    <glyph glyph-name="uni0415" unicode="&#x415;" horiz-adv-x="561" 
d="M489 0h-381v698h381v-20h-359v-314h347v-20h-347v-324h359v-20z" />
    <glyph glyph-name="uni0416" unicode="&#x416;" horiz-adv-x="904" 
d="M44 0v20h59l168 307c9 17 18 23 31 25v2c-12 2 -20 8 -30 26l-157 298h-59v20h49c16 0 26 -5 35 -21l165 -313h136v334h22v-334h136l165 313c9 16 19 21 35 21h49v-20h-59l-157 -298c-10 -18 -18 -24 -30 -26v-2c13 -2 22 -8 31 -25l168 -307h59v-20h-50
c-16 0 -26 5 -32 17l-179 327h-136v-344h-22v344h-136l-179 -327c-6 -12 -16 -17 -32 -17h-50z" />
    <glyph glyph-name="uni0417" unicode="&#x417;" horiz-adv-x="575" 
d="M283 -12c-101 0 -176 33 -223 107l18 11c44 -69 111 -98 205 -98c120 0 203 64 203 161v28c0 89 -75 147 -194 147h-116v20h114c107 0 181 65 181 157v24c0 86 -75 145 -184 145c-98 0 -154 -38 -184 -99l-18 8c28 66 97 111 202 111c126 0 208 -69 208 -175
c0 -105 -58 -163 -140 -179v-3c94 -12 155 -70 155 -167c0 -123 -88 -198 -227 -198z" />
    <glyph glyph-name="uni0418" unicode="&#x418;" horiz-adv-x="692" 
d="M108 0v698h21v-597l-4 -74h3l41 73l396 598h19v-698h-21v597l4 74h-3l-41 -73l-396 -598h-19z" />
    <glyph glyph-name="uni0419" unicode="&#x419;" horiz-adv-x="692" 
d="M344 786c-65 0 -96 43 -119 91l-12 25l18 8l35 -66c20 -28 46 -40 78 -40s58 12 78 40l35 66l18 -8l-12 -25c-23 -48 -54 -91 -119 -91zM108 0v698h21v-597l-4 -74h3l41 73l396 598h19v-698h-21v597l4 74h-3l-41 -73l-396 -598h-19z" />
    <glyph glyph-name="uni041A" unicode="&#x41a;" horiz-adv-x="616" 
d="M108 0v698h22v-334h161l185 313c10 17 19 21 35 21h49v-20h-59l-172 -291c-14 -23 -23 -31 -35 -33v-2c12 -2 22 -7 34 -27l185 -305h59v-20h-50c-16 0 -25 5 -35 21l-196 323h-161v-344h-22z" />
    <glyph glyph-name="uni041B" unicode="&#x41b;" horiz-adv-x="639" 
d="M8 0v20h63c64 62 110 215 110 493v185h350v-698h-22v678h-306v-165c0 -272 -45 -433 -105 -493c-16 -16 -29 -20 -49 -20h-41z" />
    <glyph glyph-name="uni041C" unicode="&#x41c;" horiz-adv-x="796" 
d="M667 0v673h-3l-266 -437l-266 437h-3v-673h-21v698h33l256 -420h3l255 420h33v-698h-21z" />
    <glyph glyph-name="uni041D" unicode="&#x41d;" horiz-adv-x="692" 
d="M562 0v344h-432v-344h-22v698h22v-334h432v334h22v-698h-22z" />
    <glyph glyph-name="uni041E" unicode="&#x41e;" horiz-adv-x="680" 
d="M340 -12c-173 0 -270 121 -270 361s97 361 270 361s270 -121 270 -361s-97 -361 -270 -361zM340 8c153 0 246 109 246 320v42c0 211 -93 320 -246 320s-246 -109 -246 -320v-42c0 -211 93 -320 246 -320z" />
    <glyph glyph-name="uni041F" unicode="&#x41f;" horiz-adv-x="678" 
d="M108 0v698h462v-698h-22v678h-418v-678h-22z" />
    <glyph glyph-name="uni0420" unicode="&#x420;" horiz-adv-x="594" 
d="M130 0h-22v698h268c114 0 174 -74 174 -188s-60 -188 -174 -188h-246v-322zM130 678v-336h246c103 0 150 71 150 147v42c0 76 -47 147 -150 147h-246z" />
    <glyph glyph-name="uni0421" unicode="&#x421;" horiz-adv-x="610" 
d="M329 -12c-165 0 -259 121 -259 361s94 361 259 361c102 0 178 -58 216 -143l-19 -9c-36 82 -106 132 -197 132c-146 0 -235 -105 -235 -320v-42c0 -215 89 -320 235 -320c99 0 168 53 202 140l19 -8c-36 -91 -114 -152 -221 -152z" />
    <glyph glyph-name="uni0422" unicode="&#x422;" horiz-adv-x="560" 
d="M543 678h-252v-678h-22v678h-252v20h526v-20z" />
    <glyph glyph-name="uni0423" unicode="&#x423;" horiz-adv-x="573" 
d="M158 0v19h91l51 128l-270 551h24l219 -445l37 -76h2l30 76l178 445h23l-272 -679c-6 -13 -18 -19 -33 -19h-80z" />
    <glyph glyph-name="uni0424" unicode="&#x424;" horiz-adv-x="814" 
d="M396 -29v90h-56c-174 0 -280 123 -280 287s106 287 280 287h56v90h22v-90h56c174 0 280 -123 280 -287s-106 -287 -280 -287h-56v-90h-22zM340 81h56v534h-56c-164 0 -256 -127 -256 -237v-60c0 -110 92 -237 256 -237zM418 81h56c164 0 256 127 256 237v60
c0 110 -92 237 -256 237h-56v-534z" />
    <glyph glyph-name="uni0425" unicode="&#x425;" horiz-adv-x="558" 
d="M293 357l237 -357h-26l-223 335h-2l-225 -335h-26l238 354l-229 344h26l215 -322h2l215 322h26z" />
    <glyph glyph-name="uni0426" unicode="&#x426;" horiz-adv-x="708" 
d="M636 -150v150h-528v698h22v-678h418v678h22v-678h88v-170h-22z" />
    <glyph glyph-name="uni0427" unicode="&#x427;" horiz-adv-x="621" 
d="M491 0v305h-5c-44 -17 -106 -28 -183 -28c-160 0 -235 74 -235 230v191h22v-191c0 -148 75 -210 215 -210c78 0 140 11 186 29v372h22v-698h-22z" />
    <glyph glyph-name="uni0428" unicode="&#x428;" horiz-adv-x="904" 
d="M108 0v698h22v-676h311v676h22v-676h311v676h22v-698h-688z" />
    <glyph glyph-name="uni0429" unicode="&#x429;" horiz-adv-x="934" 
d="M862 -150v150h-754v698h22v-678h311v678h22v-678h311v678h22v-678h88v-170h-22z" />
    <glyph glyph-name="uni042A" unicode="&#x42a;" horiz-adv-x="726" 
d="M224 0v678h-207v20h229v-300h246c114 0 174 -78 174 -199s-60 -199 -174 -199h-268zM246 20h246c103 0 150 76 150 158v42c0 82 -47 158 -150 158h-246v-358z" />
    <glyph glyph-name="uni042B" unicode="&#x42b;" horiz-adv-x="822" 
d="M108 0v698h22v-300h236c114 0 174 -78 174 -199s-60 -199 -174 -199h-258zM130 20h236c103 0 150 76 150 158v42c0 82 -47 158 -150 158h-236v-358zM692 0v698h22v-698h-22z" />
    <glyph glyph-name="uni042C" unicode="&#x42c;" horiz-adv-x="610" 
d="M108 0v698h22v-300h246c114 0 174 -78 174 -199s-60 -199 -174 -199h-268zM130 20h246c103 0 150 76 150 158v42c0 82 -47 158 -150 158h-246v-358z" />
    <glyph glyph-name="uni042D" unicode="&#x42d;" horiz-adv-x="610" 
d="M169 344v20h347v6c0 215 -89 320 -235 320c-91 0 -161 -50 -197 -132l-19 9c38 85 114 143 216 143c165 0 259 -121 259 -361s-94 -361 -259 -361c-107 0 -185 61 -221 152l19 8c34 -87 103 -140 202 -140c146 0 235 105 235 320v16h-347z" />
    <glyph glyph-name="uni042E" unicode="&#x42e;" horiz-adv-x="905" 
d="M569 -12c-170 0 -266 121 -266 356h-173v-344h-22v698h22v-334h173c4 230 100 346 266 346c170 0 266 -121 266 -361s-96 -361 -266 -361zM569 8c150 0 242 109 242 320v42c0 211 -92 320 -242 320s-242 -109 -242 -320v-42c0 -211 92 -320 242 -320z" />
    <glyph glyph-name="uni042F" unicode="&#x42f;" horiz-adv-x="630" 
d="M35 0v20h59l141 270c11 20 18 27 28 29v3h-9c-113 0 -174 74 -174 188s60 188 174 188h268v-698h-22v322h-223l-160 -305c-6 -12 -16 -17 -32 -17h-50zM254 342h246v336h-246c-103 0 -150 -71 -150 -147v-42c0 -76 47 -147 150 -147z" />
    <glyph glyph-name="uni0430" unicode="&#x430;" horiz-adv-x="519" 
d="M499 0h-77c-20 0 -29 9 -29 29v48h-3c-25 -48 -73 -89 -166 -89c-104 0 -163 51 -163 142c0 84 45 145 190 145h142v74c0 104 -50 150 -144 150c-76 0 -125 -29 -153 -95l-18 8c28 65 77 106 171 106c110 0 165 -59 165 -166v-333h85v-19zM224 7c90 0 169 47 169 141v109
h-141c-119 0 -168 -45 -168 -112v-30c0 -70 58 -108 140 -108z" />
    <glyph glyph-name="uni0431" unicode="&#x431;" horiz-adv-x="544" 
d="M274 -12c-94 0 -160 44 -191 133c-14 41 -19 89 -19 149c0 350 53 448 250 464l134 11v-19l-134 -11c-183 -15 -211 -116 -226 -337h3c35 98 108 128 183 128c137 0 210 -95 210 -259s-75 -259 -210 -259zM274 7c115 0 187 82 187 217v46c0 135 -70 217 -187 217
c-115 0 -187 -82 -187 -217v-46c0 -135 72 -217 187 -217z" />
    <glyph glyph-name="uni0432" unicode="&#x432;" horiz-adv-x="550" 
d="M105 0v506h226c71 0 114 -42 114 -124c0 -67 -31 -104 -82 -120v-2c70 -12 105 -52 105 -123c0 -83 -43 -137 -126 -137h-237zM126 19h216c71 0 103 50 103 103v30c0 50 -37 98 -119 98h-200v-231zM126 269h195c69 0 101 46 101 98v30c0 49 -29 90 -91 90h-205v-218z" />
    <glyph glyph-name="uni0433" unicode="&#x433;" horiz-adv-x="442" 
d="M105 0v506h297v-19h-276v-487h-21z" />
    <glyph glyph-name="uni0434" unicode="&#x434;" horiz-adv-x="548" 
d="M5 -140v159h52c54 82 84 197 84 336v151h287v-487h75v-159h-21v140h-456v-140h-21zM79 19h328v468h-245v-132c0 -145 -35 -266 -83 -336z" />
    <glyph glyph-name="uni0435" unicode="&#x435;" horiz-adv-x="533" 
d="M272 -12c-132 0 -212 90 -212 265c0 173 78 265 208 265c122 0 205 -97 205 -252v-10h-390v-27c0 -136 69 -222 189 -222c85 0 144 42 175 124l18 -7c-30 -83 -96 -136 -193 -136zM268 499c-118 0 -185 -86 -185 -222v-2h367v4c0 133 -73 220 -182 220z" />
    <glyph glyph-name="uni0436" unicode="&#x436;" horiz-adv-x="737" 
d="M42 0v19h57l107 205c16 31 22 37 36 40v3c-13 3 -20 10 -34 36l-102 184h-57v19h49c15 0 23 -6 32 -22l116 -209h112v231h21v-231h112l116 209c9 16 17 22 32 22h49v-19h-57l-102 -184c-14 -26 -21 -33 -34 -36v-3c14 -3 20 -9 36 -40l107 -205h57v-19h-54
c-12 0 -19 4 -25 16l-125 240h-112v-256h-21v256h-112l-125 -240c-6 -12 -13 -16 -25 -16h-54z" />
    <glyph glyph-name="uni0437" unicode="&#x437;" horiz-adv-x="494" 
d="M232 -12c-94 0 -146 39 -179 96l16 11c34 -58 85 -88 163 -88c94 0 159 46 159 114v21c0 69 -56 109 -142 109h-101v19h100c76 0 131 48 131 107v18c0 63 -54 104 -138 104c-83 0 -129 -32 -161 -90l-18 9c31 60 85 100 179 100c99 0 159 -50 159 -130
c0 -70 -43 -114 -104 -125v-3c70 -9 116 -50 116 -127c0 -89 -66 -145 -180 -145z" />
    <glyph glyph-name="uni0438" unicode="&#x438;" horiz-adv-x="576" 
d="M105 0v506h21v-405l-3 -69h4l38 61l287 413h19v-506h-21v405l3 69h-4l-38 -61l-287 -413h-19z" />
    <glyph glyph-name="uni0439" unicode="&#x439;" horiz-adv-x="576" 
d="M286 606c-65 0 -96 43 -119 91l-12 25l18 8l35 -66c20 -28 46 -40 78 -40s58 12 78 40l35 66l18 -8l-12 -25c-23 -48 -54 -91 -119 -91zM105 0v506h21v-405l-3 -69h4l38 61l287 413h19v-506h-21v405l3 69h-4l-38 -61l-287 -413h-19z" />
    <glyph glyph-name="uni043A" unicode="&#x43a;" horiz-adv-x="520" 
d="M105 0v506h21v-231h122l143 213c9 13 16 18 30 18h50v-19h-57l-125 -186c-15 -23 -23 -31 -37 -34v-3c14 -4 24 -12 40 -38l129 -207h57v-19h-54c-12 0 -18 3 -25 14l-151 242h-122v-256h-21z" />
    <glyph glyph-name="uni043B" unicode="&#x43b;" horiz-adv-x="539" 
d="M4 0v19h57c44 44 86 142 86 336v151h287v-506h-21v487h-245v-132c0 -192 -43 -298 -87 -342c-10 -10 -20 -13 -34 -13h-43z" />
    <glyph glyph-name="uni043C" unicode="&#x43c;" horiz-adv-x="682" 
d="M105 0v506h34l201 -329h3l200 329h34v-506h-21v480h-5l-37 -60l-173 -282l-173 282l-37 60h-5v-480h-21z" />
    <glyph glyph-name="uni043D" unicode="&#x43d;" horiz-adv-x="576" 
d="M105 0v506h21v-231h324v231h21v-506h-21v256h-324v-256h-21z" />
    <glyph glyph-name="uni043E" unicode="&#x43e;" horiz-adv-x="540" 
d="M270 -12c-132 0 -210 90 -210 265s78 265 210 265s210 -90 210 -265s-78 -265 -210 -265zM270 7c120 0 187 86 187 222v48c0 136 -67 222 -187 222s-187 -86 -187 -222v-48c0 -136 67 -222 187 -222z" />
    <glyph glyph-name="uni043F" unicode="&#x43f;" horiz-adv-x="566" 
d="M105 0v506h356v-506h-21v487h-314v-487h-21z" />
    <glyph glyph-name="uni0440" unicode="&#x440;" horiz-adv-x="565" 
d="M105 -200v706h21v-78h3c21 44 75 90 164 90c133 0 212 -89 212 -265s-79 -265 -212 -265c-89 0 -143 46 -164 90h-3v-278h-21zM293 7c121 0 189 85 189 222v48c0 137 -68 222 -189 222c-88 0 -167 -55 -167 -136v-220c0 -81 79 -136 167 -136z" />
    <glyph glyph-name="uni0441" unicode="&#x441;" horiz-adv-x="487" 
d="M270 -12c-132 0 -210 90 -210 265s78 265 210 265c80 0 134 -40 165 -100l-18 -9c-32 58 -75 90 -147 90c-120 0 -187 -86 -187 -222v-48c0 -136 67 -222 187 -222c78 0 126 33 158 88l16 -11c-33 -57 -86 -96 -174 -96z" />
    <glyph glyph-name="uni0442" unicode="&#x442;" horiz-adv-x="479" 
d="M229 0v487h-194v19h409v-19h-194v-487h-21z" />
    <glyph glyph-name="uni0443" unicode="&#x443;" horiz-adv-x="452" 
d="M228 24l178 482h21l-255 -687c-5 -13 -16 -19 -31 -19h-84v19h93l66 174l-191 513h22l178 -482h3z" />
    <glyph glyph-name="uni0444" unicode="&#x444;" horiz-adv-x="727" 
d="M353 -200v268h-3c-20 -42 -61 -80 -123 -80c-113 0 -163 89 -163 265s50 265 163 265c62 0 103 -38 123 -80h3v272h21v-272h3c20 42 61 80 123 80c113 0 163 -89 163 -265s-50 -265 -163 -265c-62 0 -103 38 -123 80h-3v-268h-21zM227 7c76 0 126 69 126 112v268
c0 43 -50 112 -126 112c-100 0 -140 -85 -140 -222v-48c0 -137 40 -222 140 -222zM500 7c100 0 140 85 140 222v48c0 137 -40 222 -140 222c-76 0 -126 -70 -126 -112v-268c0 -42 50 -112 126 -112z" />
    <glyph glyph-name="uni0445" unicode="&#x445;" horiz-adv-x="470" 
d="M58 0h-24l188 255l-183 251h24l171 -235h2l171 235h24l-183 -251l188 -255h-24l-176 239h-2z" />
    <glyph glyph-name="uni0446" unicode="&#x446;" horiz-adv-x="581" 
d="M515 -140v140h-410v506h21v-487h314v487h21v-487h75v-159h-21z" />
    <glyph glyph-name="uni0447" unicode="&#x447;" horiz-adv-x="521" 
d="M395 0v278h-3c-20 -44 -69 -83 -160 -83c-108 0 -172 49 -172 161v150h21v-146c0 -106 57 -146 153 -146c98 0 161 51 161 132v160h21v-506h-21z" />
    <glyph glyph-name="uni0448" unicode="&#x448;" horiz-adv-x="779" 
d="M105 0v506h21v-487h253v487h21v-487h253v487h21v-506h-569z" />
    <glyph glyph-name="uni0449" unicode="&#x449;" horiz-adv-x="794" 
d="M728 -140v140h-623v506h21v-487h253v487h21v-487h253v487h21v-487h75v-159h-21z" />
    <glyph glyph-name="uni044A" unicode="&#x44a;" horiz-adv-x="588" 
d="M184 0v487h-149v19h170v-213h169c102 0 156 -58 156 -146c0 -89 -54 -147 -156 -147h-190zM205 19h169c91 0 133 54 133 114v27c0 60 -42 114 -133 114h-169v-255z" />
    <glyph glyph-name="uni044B" unicode="&#x44b;" horiz-adv-x="672" 
d="M105 0v506h21v-213h151c102 0 156 -58 156 -146c0 -89 -54 -147 -156 -147h-172zM126 19h151c91 0 133 54 133 114v27c0 60 -42 114 -133 114h-151v-255zM546 0v506h21v-506h-21z" />
    <glyph glyph-name="uni044C" unicode="&#x44c;" horiz-adv-x="509" 
d="M105 0v506h21v-213h169c102 0 156 -58 156 -146c0 -89 -54 -147 -156 -147h-190zM126 19h169c91 0 133 54 133 114v27c0 60 -42 114 -133 114h-169v-255z" />
    <glyph glyph-name="uni044D" unicode="&#x44d;" horiz-adv-x="497" 
d="M148 246v19h266v12c0 136 -67 222 -187 222c-72 0 -115 -32 -147 -90l-18 9c31 60 85 100 165 100c132 0 210 -90 210 -265s-78 -265 -210 -265c-88 0 -141 39 -174 96l16 11c32 -55 80 -88 158 -88c120 0 187 86 187 222v17h-266z" />
    <glyph glyph-name="uni044E" unicode="&#x44e;" horiz-adv-x="734" 
d="M470 -12c-128 0 -204 92 -204 268h-140v-256h-21v506h21v-231h140c7 159 82 243 204 243c128 0 204 -92 204 -265s-76 -265 -204 -265zM470 7c116 0 181 88 181 222v48c0 134 -65 222 -181 222s-181 -88 -181 -222v-48c0 -134 65 -222 181 -222z" />
    <glyph glyph-name="uni044F" unicode="&#x44f;" horiz-adv-x="518" 
d="M38 0v19h57l89 167c7 13 14 21 24 25v3c-92 6 -141 62 -141 145c0 89 54 147 156 147h190v-506h-21v213h-170l-105 -197c-6 -12 -13 -16 -25 -16h-54zM223 232h169v255h-169c-91 0 -133 -54 -133 -114v-27c0 -60 42 -114 133 -114z" />
    <glyph glyph-name="uni0450" unicode="&#x450;" horiz-adv-x="533" 
d="M285 587l-115 152l19 12l111 -154zM272 -12c-132 0 -212 90 -212 265c0 173 78 265 208 265c122 0 205 -97 205 -252v-10h-390v-27c0 -136 69 -222 189 -222c85 0 144 42 175 124l18 -7c-30 -83 -96 -136 -193 -136zM268 499c-118 0 -185 -86 -185 -222v-2h367v4
c0 133 -73 220 -182 220z" />
    <glyph glyph-name="uni0451" unicode="&#x451;" horiz-adv-x="533" 
d="M177 642c-17 0 -23 10 -23 21v7c0 11 6 21 23 21s23 -10 23 -21v-7c0 -11 -6 -21 -23 -21zM359 642c-17 0 -23 10 -23 21v7c0 11 6 21 23 21s23 -10 23 -21v-7c0 -11 -6 -21 -23 -21zM272 -12c-132 0 -212 90 -212 265c0 173 78 265 208 265c122 0 205 -97 205 -252v-10
h-390v-27c0 -136 69 -222 189 -222c85 0 144 42 175 124l18 -7c-30 -83 -96 -136 -193 -136zM268 499c-118 0 -185 -86 -185 -222v-2h367v4c0 133 -73 220 -182 220z" />
    <glyph glyph-name="uni0452" unicode="&#x452;" horiz-adv-x="559" 
d="M358 -200v19h85v502c0 123 -56 178 -155 178c-83 0 -159 -45 -159 -137v-362h-21v629h-66v18h66v93h21v-93h163v-18h-163v-199h3c18 45 67 88 158 88c113 0 174 -67 174 -193v-496c0 -20 -9 -29 -29 -29h-77z" />
    <glyph glyph-name="uni0453" unicode="&#x453;" horiz-adv-x="442" 
d="M351 739l-115 -152l-15 10l111 154zM105 0v506h297v-19h-276v-487h-21z" />
    <glyph glyph-name="uni0454" unicode="&#x454;" horiz-adv-x="497" 
d="M270 -12c-132 0 -210 90 -210 265s78 265 210 265c80 0 134 -40 165 -100l-18 -9c-32 58 -75 90 -147 90c-120 0 -187 -86 -187 -222v-12h266v-19h-266v-17c0 -136 67 -222 187 -222c78 0 126 33 158 88l16 -11c-33 -57 -86 -96 -174 -96z" />
    <glyph glyph-name="uni0455" unicode="&#x455;" horiz-adv-x="462" 
d="M236 -12c-81 0 -140 27 -187 93l18 12c46 -63 95 -86 169 -86c95 0 146 42 146 117c0 76 -44 108 -128 121l-44 7c-89 14 -144 49 -144 137c0 85 70 129 160 129c88 0 134 -36 167 -73l-16 -14c-31 35 -70 68 -150 68c-84 0 -140 -38 -140 -109c0 -75 41 -104 127 -118
l44 -7c88 -14 145 -51 145 -140c0 -87 -64 -137 -167 -137z" />
    <glyph glyph-name="uni0456" unicode="&#x456;" horiz-adv-x="231" 
d="M115 673c-17 0 -23 10 -23 21v7c0 11 6 21 23 21s23 -10 23 -21v-7c0 -11 -6 -21 -23 -21zM105 0v506h21v-506h-21z" />
    <glyph glyph-name="uni0457" unicode="&#x457;" horiz-adv-x="231" 
d="M24 642c-17 0 -23 10 -23 21v7c0 11 6 21 23 21s23 -10 23 -21v-7c0 -11 -6 -21 -23 -21zM206 642c-17 0 -23 10 -23 21v7c0 11 6 21 23 21s23 -10 23 -21v-7c0 -11 -6 -21 -23 -21zM126 0h-21v506h21v-506z" />
    <glyph glyph-name="uni0458" unicode="&#x458;" horiz-adv-x="231" 
d="M105 -181v687h21v-677c0 -20 -9 -29 -29 -29h-77v19h85zM115 673c-17 0 -23 10 -23 21v7c0 11 6 21 23 21s23 -10 23 -21v-7c0 -11 -6 -21 -23 -21z" />
    <glyph glyph-name="uni0459" unicode="&#x459;" horiz-adv-x="766" 
d="M4 0v19h57c44 44 86 142 86 336v151h254v-213h151c102 0 156 -58 156 -146c0 -89 -54 -147 -156 -147h-172v487h-212v-132c0 -192 -43 -298 -87 -342c-10 -10 -20 -13 -34 -13h-43zM401 19h151c91 0 133 54 133 114v27c0 60 -42 114 -133 114h-151v-255z" />
    <glyph glyph-name="uni045A" unicode="&#x45a;" horiz-adv-x="806" 
d="M105 0v506h21v-222h294v222h21v-222h151c102 0 156 -54 156 -142s-54 -142 -156 -142h-172v265h-294v-265h-21zM441 19h151c91 0 133 49 133 109v28c0 60 -42 109 -133 109h-151v-246z" />
    <glyph glyph-name="uni045B" unicode="&#x45b;" horiz-adv-x="559" 
d="M129 0h-21v629h-66v18h66v93h21v-93h163v-18h-163v-199h3c18 45 67 88 158 88c113 0 174 -67 174 -193v-325h-21v321c0 123 -56 178 -155 178c-83 0 -159 -45 -159 -137v-362z" />
    <glyph glyph-name="uni045C" unicode="&#x45c;" horiz-adv-x="520" 
d="M366 739l-115 -152l-15 10l111 154zM105 0v506h21v-231h122l143 213c9 13 16 18 30 18h50v-19h-57l-125 -186c-15 -23 -23 -31 -37 -34v-3c14 -4 24 -12 40 -38l129 -207h57v-19h-54c-12 0 -18 3 -25 14l-151 242h-122v-256h-21z" />
    <glyph glyph-name="uni045D" unicode="&#x45d;" horiz-adv-x="576" 
d="M303 587l-115 152l19 12l111 -154zM105 0v506h21v-405l-3 -69h4l38 61l287 413h19v-506h-21v405l3 69h-4l-38 -61l-287 -413h-19z" />
    <glyph glyph-name="uni045E" unicode="&#x45e;" horiz-adv-x="452" 
d="M228 606c-65 0 -96 43 -119 91l-12 25l18 8l35 -66c20 -28 46 -40 78 -40s58 12 78 40l35 66l18 -8l-12 -25c-23 -48 -54 -91 -119 -91zM228 24l178 482h21l-255 -687c-5 -13 -16 -19 -31 -19h-84v19h93l66 174l-191 513h22l178 -482h3z" />
    <glyph glyph-name="uni045F" unicode="&#x45f;" horiz-adv-x="567" 
d="M273 -140v140h-168v506h21v-487h315v487h21v-506h-168v-140h-21z" />
    <glyph glyph-name="uni0472" unicode="&#x472;" horiz-adv-x="680" 
d="M340 -12c-173 0 -270 121 -270 361s97 361 270 361s270 -121 270 -361s-97 -361 -270 -361zM340 8c153 0 246 109 246 320v16h-492v-16c0 -211 93 -320 246 -320zM94 370v-6h492v6c0 211 -93 320 -246 320s-246 -109 -246 -320z" />
    <glyph glyph-name="uni0473" unicode="&#x473;" horiz-adv-x="540" 
d="M270 -12c-132 0 -210 90 -210 265s78 265 210 265s210 -90 210 -265s-78 -265 -210 -265zM270 7c120 0 187 86 187 222v20h-374v-20c0 -136 67 -222 187 -222zM83 277v-9h374v9c0 136 -67 222 -187 222s-187 -86 -187 -222z" />
    <glyph glyph-name="uni0490" unicode="&#x490;" horiz-adv-x="506" 
d="M108 0v698h332v150h22v-170h-332v-678h-22z" />
    <glyph glyph-name="uni0491" unicode="&#x491;" horiz-adv-x="442" 
d="M105 0v506h276v140h21v-159h-276v-487h-21z" />
    <glyph glyph-name="uni0492" unicode="&#x492;" horiz-adv-x="526" 
d="M128 0v365h-102v19h102v314h354v-20h-332v-294h220v-19h-220v-365h-22z" />
    <glyph glyph-name="uni0493" unicode="&#x493;" horiz-adv-x="451" 
d="M114 0v257h-84v18h84v231h297v-19h-276v-212h186v-18h-186v-257h-21z" />
    <glyph glyph-name="uni0494" unicode="&#x494;" horiz-adv-x="611" 
d="M355 -164v20h85c48 14 81 66 81 186v114c0 146 -75 208 -224 208c-60 0 -130 -10 -167 -25v-339h-22v698h334v-20h-312v-317h5c39 15 102 23 165 23c168 0 243 -74 243 -228v-114c0 -154 -51 -206 -125 -206h-63z" />
    <glyph glyph-name="uni0495" unicode="&#x495;" horiz-adv-x="526" 
d="M312 -200v19h85c26 26 43 64 43 146v146c0 110 -52 146 -153 146c-98 0 -161 -51 -161 -132v-125h-21v506h297v-19h-276v-294h3c20 44 69 83 160 83c112 0 172 -45 172 -161v-154c0 -116 -40 -161 -78 -161h-71z" />
    <glyph glyph-name="uni0496" unicode="&#x496;" horiz-adv-x="914" 
d="M850 -150v150h-40c-16 0 -26 5 -32 17l-179 327h-136v-344h-22v344h-136l-179 -327c-6 -12 -16 -17 -32 -17h-50v20h59l168 307c9 17 18 23 31 25v2c-12 2 -20 8 -30 26l-157 298h-59v20h49c16 0 26 -5 35 -21l165 -313h136v334h22v-334h136l165 313c9 16 19 21 35 21h49
v-20h-59l-157 -298c-10 -18 -18 -24 -30 -26v-2c13 -2 22 -8 31 -25l168 -307h71v-170h-22z" />
    <glyph glyph-name="uni0497" unicode="&#x497;" horiz-adv-x="745" 
d="M684 -140v140h-43c-12 0 -19 4 -25 16l-125 240h-112v-256h-21v256h-112l-125 -240c-6 -12 -13 -16 -25 -16h-54v19h57l107 205c16 31 22 37 36 40v3c-13 3 -20 10 -34 36l-102 184h-57v19h49c15 0 23 -6 32 -22l116 -209h112v231h21v-231h112l116 209c9 16 17 22 32 22
h49v-19h-57l-102 -184c-14 -26 -21 -33 -34 -36v-3c14 -3 20 -9 36 -40l107 -205h67v-159h-21z" />
    <glyph glyph-name="uni0498" unicode="&#x498;" horiz-adv-x="575" 
d="M272 -150v138c-95 2 -167 36 -212 107l18 11c44 -69 111 -98 205 -98c120 0 203 64 203 161v28c0 89 -75 147 -194 147h-116v20h114c107 0 181 65 181 157v24c0 86 -75 145 -184 145c-98 0 -154 -38 -184 -99l-18 8c28 66 97 111 202 111c126 0 208 -69 208 -175
c0 -105 -58 -163 -140 -179v-3c94 -12 155 -70 155 -167c0 -120 -83 -194 -216 -198v-138h-22z" />
    <glyph glyph-name="uni0499" unicode="&#x499;" horiz-adv-x="494" 
d="M222 -140v128c-88 3 -137 41 -169 96l16 11c34 -58 85 -88 163 -88c94 0 159 46 159 114v21c0 69 -56 109 -142 109h-101v19h100c76 0 131 48 131 107v18c0 63 -54 104 -138 104c-83 0 -129 -32 -161 -90l-18 9c31 60 85 100 179 100c99 0 159 -50 159 -130
c0 -70 -43 -114 -104 -125v-3c70 -9 116 -50 116 -127c0 -86 -62 -141 -169 -145v-128h-21z" />
    <glyph glyph-name="uni049A" unicode="&#x49a;" horiz-adv-x="626" 
d="M562 -150v150h-40c-16 0 -25 5 -35 21l-196 323h-161v-344h-22v698h22v-334h161l185 313c10 17 19 21 35 21h49v-20h-59l-172 -291c-14 -23 -23 -31 -35 -33v-2c12 -2 22 -7 34 -27l185 -305h71v-170h-22z" />
    <glyph glyph-name="uni049B" unicode="&#x49b;" horiz-adv-x="528" 
d="M467 -140v140h-43c-12 0 -18 3 -25 14l-151 242h-122v-256h-21v506h21v-231h122l143 213c9 13 16 18 30 18h50v-19h-57l-125 -186c-15 -23 -23 -31 -37 -34v-3c14 -4 24 -12 40 -38l129 -207h67v-159h-21z" />
    <glyph glyph-name="uni049C" unicode="&#x49c;" horiz-adv-x="626" 
d="M108 0v698h22v-334h83v173h22v-173h66l185 313c10 17 19 21 35 21h49v-20h-59l-172 -291c-14 -23 -23 -31 -35 -33v-2c12 -2 22 -7 34 -27l185 -305h59v-20h-50c-16 0 -25 5 -35 21l-196 323h-66v-171h-22v171h-83v-344h-22z" />
    <glyph glyph-name="uni049D" unicode="&#x49d;" horiz-adv-x="540" 
d="M105 0v506h21v-231h67v130h20v-130h55l143 213c9 13 16 18 30 18h50v-19h-57l-125 -186c-15 -23 -23 -31 -37 -34v-3c14 -4 24 -12 40 -38l129 -207h57v-19h-54c-12 0 -18 3 -25 14l-151 242h-55v-131h-20v131h-67v-256h-21z" />
    <glyph glyph-name="uni04A0" unicode="&#x4a0;" horiz-adv-x="732" 
d="M224 0v678h-207v20h229v-334h161l185 313c10 17 19 21 35 21h49v-20h-59l-172 -291c-14 -23 -23 -31 -35 -33v-2c12 -2 22 -7 34 -27l185 -305h59v-20h-50c-16 0 -25 5 -35 21l-196 323h-161v-344h-22z" />
    <glyph glyph-name="uni04A1" unicode="&#x4a1;" horiz-adv-x="599" 
d="M184 0v487h-149v19h170v-231h122l143 213c9 13 16 18 30 18h50v-19h-57l-125 -186c-15 -23 -23 -31 -37 -34v-3c14 -4 24 -12 40 -38l129 -207h57v-19h-54c-12 0 -18 3 -25 14l-151 242h-122v-256h-21z" />
    <glyph glyph-name="uni04A2" unicode="&#x4a2;" horiz-adv-x="722" 
d="M650 -150v150h-88v344h-432v-344h-22v698h22v-334h432v334h22v-678h88v-170h-22z" />
    <glyph glyph-name="uni04A3" unicode="&#x4a3;" horiz-adv-x="591" 
d="M525 -140v140h-75v256h-324v-256h-21v506h21v-231h324v231h21v-487h75v-159h-21z" />
    <glyph glyph-name="uni04A4" unicode="&#x4a4;" horiz-adv-x="935" 
d="M108 0v698h22v-334h407v334h354v-20h-332v-678h-22v344h-407v-344h-22z" />
    <glyph glyph-name="uni04A5" unicode="&#x4a5;" horiz-adv-x="762" 
d="M105 0v506h21v-222h294v222h297v-19h-276v-487h-21v265h-294v-265h-21z" />
    <glyph glyph-name="uni04AA" unicode="&#x4aa;" horiz-adv-x="610" 
d="M318 -150v138c-158 5 -248 126 -248 361c0 240 94 361 259 361c102 0 178 -58 216 -143l-19 -9c-36 82 -106 132 -197 132c-146 0 -235 -105 -235 -320v-42c0 -215 89 -320 235 -320c99 0 168 53 202 140l19 -8c-35 -88 -109 -148 -210 -152v-138h-22z" />
    <glyph glyph-name="uni04AB" unicode="&#x4ab;" horiz-adv-x="487" 
d="M260 -140v128c-126 5 -200 94 -200 265c0 175 78 265 210 265c80 0 134 -40 165 -100l-18 -9c-32 58 -75 90 -147 90c-120 0 -187 -86 -187 -222v-48c0 -136 67 -222 187 -222c78 0 126 33 158 88l16 -11c-32 -55 -82 -93 -163 -96v-128h-21z" />
    <glyph glyph-name="uni04AE" unicode="&#x4ae;" horiz-adv-x="546" 
d="M284 0h-22v294l-241 404h25l226 -378h3l226 378h24l-241 -404v-294z" />
    <glyph glyph-name="uni04AF" unicode="&#x4af;" horiz-adv-x="452" 
d="M215 -200v200l-190 506h22l147 -393l30 -89h3l32 89l147 393h21l-191 -506v-200h-21z" />
    <glyph glyph-name="uni04B0" unicode="&#x4b0;" horiz-adv-x="546" 
d="M262 0v274h-181v20h181l-241 404h25l226 -378h3l226 378h24l-241 -404h181v-20h-181v-274h-22z" />
    <glyph glyph-name="uni04B1" unicode="&#x4b1;" horiz-adv-x="452" 
d="M215 -200v181h-130v19h130l-190 506h22l147 -393l30 -89h3l32 89l147 393h21l-191 -506h130v-19h-130v-181h-21z" />
    <glyph glyph-name="uni04B2" unicode="&#x4b2;" horiz-adv-x="590" 
d="M566 -150v150h-62l-223 335h-2l-225 -335h-26l238 354l-229 344h26l215 -322h2l215 322h26l-228 -341l224 -337h71v-170h-22z" />
    <glyph glyph-name="uni04B3" unicode="&#x4b3;" horiz-adv-x="489" 
d="M468 -140v140h-56l-176 239h-2l-176 -239h-24l188 255l-183 251h24l171 -235h2l171 235h24l-183 -251l174 -236h67v-159h-21z" />
    <glyph glyph-name="uni04B6" unicode="&#x4b6;" horiz-adv-x="651" 
d="M579 -150v150h-88v305h-5c-44 -17 -106 -28 -183 -28c-160 0 -235 74 -235 230v191h22v-191c0 -148 75 -210 215 -210c78 0 140 11 186 29v372h22v-678h88v-170h-22z" />
    <glyph glyph-name="uni04B7" unicode="&#x4b7;" horiz-adv-x="536" 
d="M470 -140v140h-75v278h-3c-20 -44 -69 -83 -160 -83c-108 0 -172 49 -172 161v150h21v-146c0 -106 57 -146 153 -146c98 0 161 51 161 132v160h21v-487h75v-159h-21z" />
    <glyph glyph-name="uni04B8" unicode="&#x4b8;" horiz-adv-x="621" 
d="M491 0v305h-5c-43 -17 -104 -28 -180 -28v-159h-20v159c-148 5 -218 80 -218 230v191h22v-191c0 -141 68 -204 196 -210v185h20v-185c78 0 139 11 185 29v372h22v-698h-22z" />
    <glyph glyph-name="uni04B9" unicode="&#x4b9;" horiz-adv-x="521" 
d="M395 0v278h-3c-19 -42 -64 -79 -145 -83v-102h-20v102c-105 2 -167 51 -167 161v150h21v-146c0 -103 54 -144 146 -146v159h20v-159c91 5 148 55 148 132v160h21v-506h-21z" />
    <glyph glyph-name="uni04BA" unicode="&#x4ba;" horiz-adv-x="621" 
d="M108 0v698h22v-305h5c44 17 106 28 183 28c160 0 235 -74 235 -230v-191h-22v191c0 148 -75 210 -215 210c-78 0 -140 -11 -186 -29v-372h-22z" />
    <glyph glyph-name="uni04BB" unicode="&#x4bb;" horiz-adv-x="556" 
d="M105 0v740h21v-310h3c18 45 67 88 158 88c113 0 174 -67 174 -193v-325h-21v321c0 123 -56 178 -155 178c-83 0 -159 -45 -159 -137v-362h-21z" />
    <glyph glyph-name="uni04C0" unicode="&#x4c0;" horiz-adv-x="372" 
d="M304 0h-236v19h107v660h-107v19h236v-19h-107v-660h107v-19z" />
    <glyph glyph-name="uni04C1" unicode="&#x4c1;" horiz-adv-x="904" 
d="M452 786c-65 0 -96 43 -119 91l-12 25l18 8l35 -66c20 -28 46 -40 78 -40s58 12 78 40l35 66l18 -8l-12 -25c-23 -48 -54 -91 -119 -91zM44 0v20h59l168 307c9 17 18 23 31 25v2c-12 2 -20 8 -30 26l-157 298h-59v20h49c16 0 26 -5 35 -21l165 -313h136v334h22v-334h136
l165 313c9 16 19 21 35 21h49v-20h-59l-157 -298c-10 -18 -18 -24 -30 -26v-2c13 -2 22 -8 31 -25l168 -307h59v-20h-50c-16 0 -26 5 -32 17l-179 327h-136v-344h-22v344h-136l-179 -327c-6 -12 -16 -17 -32 -17h-50z" />
    <glyph glyph-name="uni04C2" unicode="&#x4c2;" horiz-adv-x="737" 
d="M368 606c-65 0 -96 43 -119 91l-12 25l18 8l35 -66c20 -28 46 -40 78 -40s58 12 78 40l35 66l18 -8l-12 -25c-23 -48 -54 -91 -119 -91zM42 0v19h57l107 205c16 31 22 37 36 40v3c-13 3 -20 10 -34 36l-102 184h-57v19h49c15 0 23 -6 32 -22l116 -209h112v231h21v-231
h112l116 209c9 16 17 22 32 22h49v-19h-57l-102 -184c-14 -26 -21 -33 -34 -36v-3c14 -3 20 -9 36 -40l107 -205h57v-19h-54c-12 0 -19 4 -25 16l-125 240h-112v-256h-21v256h-112l-125 -240c-6 -12 -13 -16 -25 -16h-54z" />
    <glyph glyph-name="uni04CF" unicode="&#x4cf;" horiz-adv-x="231" 
d="M105 0v740h21v-740h-21z" />
    <glyph glyph-name="uni04D0" unicode="&#x4d0;" 
d="M299 786c-65 0 -96 43 -119 91l-12 25l18 8l35 -66c20 -28 46 -40 78 -40s58 12 78 40l35 66l18 -8l-12 -25c-23 -48 -54 -91 -119 -91zM568 0h-23l-85 234h-320l-85 -234h-23l253 698h30zM453 253l-152 422h-3l-151 -422h306z" />
    <glyph glyph-name="uni04D1" unicode="&#x4d1;" horiz-adv-x="519" 
d="M249 606c-65 0 -96 43 -119 91l-12 25l18 8l35 -66c20 -28 46 -40 78 -40s58 12 78 40l35 66l18 -8l-12 -25c-23 -48 -54 -91 -119 -91zM499 0h-77c-20 0 -29 9 -29 29v48h-3c-25 -48 -73 -89 -166 -89c-104 0 -163 51 -163 142c0 84 45 145 190 145h142v74
c0 104 -50 150 -144 150c-76 0 -125 -29 -153 -95l-18 8c28 65 77 106 171 106c110 0 165 -59 165 -166v-333h85v-19zM224 7c90 0 169 47 169 141v109h-141c-119 0 -168 -45 -168 -112v-30c0 -70 58 -108 140 -108z" />
    <glyph glyph-name="uni04D2" unicode="&#x4d2;" 
d="M208 819c-17 0 -23 10 -23 21v7c0 11 6 21 23 21s23 -10 23 -21v-7c0 -11 -6 -21 -23 -21zM390 819c-17 0 -23 10 -23 21v7c0 11 6 21 23 21s23 -10 23 -21v-7c0 -11 -6 -21 -23 -21zM568 0h-23l-85 234h-320l-85 -234h-23l253 698h30zM453 253l-152 422h-3l-151 -422
h306z" />
    <glyph glyph-name="uni04D3" unicode="&#x4d3;" horiz-adv-x="519" 
d="M158 642c-17 0 -23 10 -23 21v7c0 11 6 21 23 21s23 -10 23 -21v-7c0 -11 -6 -21 -23 -21zM340 642c-17 0 -23 10 -23 21v7c0 11 6 21 23 21s23 -10 23 -21v-7c0 -11 -6 -21 -23 -21zM499 0h-77c-20 0 -29 9 -29 29v48h-3c-25 -48 -73 -89 -166 -89
c-104 0 -163 51 -163 142c0 84 45 145 190 145h142v74c0 104 -50 150 -144 150c-76 0 -125 -29 -153 -95l-18 8c28 65 77 106 171 106c110 0 165 -59 165 -166v-333h85v-19zM224 7c90 0 169 47 169 141v109h-141c-119 0 -168 -45 -168 -112v-30c0 -70 58 -108 140 -108z" />
    <glyph glyph-name="uni04D4" unicode="&#x4d4;" horiz-adv-x="861" 
d="M408 0v234h-253l-129 -234h-24l383 698h404v-20h-359v-314h347v-20h-347v-324h359v-20h-381zM408 678h-11l-232 -425h243v425z" />
    <glyph glyph-name="uni04D5" unicode="&#x4d5;" horiz-adv-x="861" 
d="M388 257h-141c-119 0 -168 -45 -168 -112v-30c0 -70 58 -108 140 -108c90 0 169 47 169 141v109zM411 275h367v4c0 133 -73 220 -182 220c-118 0 -185 -86 -185 -222v-2zM600 7c85 0 144 42 175 124l18 -7c-30 -83 -96 -136 -193 -136c-93 0 -161 45 -192 133h-3
c-17 -89 -93 -133 -186 -133c-104 0 -163 51 -163 142c0 84 45 145 190 145h142v74c0 104 -50 150 -144 150c-76 0 -125 -29 -153 -95l-18 8c28 65 77 106 171 106c98 0 153 -49 161 -136h3c30 87 97 136 188 136c122 0 205 -97 205 -252v-10h-390v-27
c0 -136 69 -222 189 -222z" />
    <glyph glyph-name="uni04D6" unicode="&#x4d6;" horiz-adv-x="561" 
d="M299 786c-65 0 -96 43 -119 91l-12 25l18 8l35 -66c20 -28 46 -40 78 -40s58 12 78 40l35 66l18 -8l-12 -25c-23 -48 -54 -91 -119 -91zM489 0h-381v698h381v-20h-359v-314h347v-20h-347v-324h359v-20z" />
    <glyph glyph-name="uni04D7" unicode="&#x4d7;" horiz-adv-x="533" 
d="M268 606c-65 0 -96 43 -119 91l-12 25l18 8l35 -66c20 -28 46 -40 78 -40s58 12 78 40l35 66l18 -8l-12 -25c-23 -48 -54 -91 -119 -91zM272 -12c-132 0 -212 90 -212 265c0 173 78 265 208 265c122 0 205 -97 205 -252v-10h-390v-27c0 -136 69 -222 189 -222
c85 0 144 42 175 124l18 -7c-30 -83 -96 -136 -193 -136zM268 499c-118 0 -185 -86 -185 -222v-2h367v4c0 133 -73 220 -182 220z" />
    <glyph glyph-name="uni04D8" unicode="&#x4d8;" horiz-adv-x="680" 
d="M70 349v2h516v19c0 211 -93 320 -246 320c-113 0 -193 -60 -228 -176l-19 10c38 124 123 186 247 186c171 0 270 -121 270 -361s-97 -361 -270 -361s-270 121 -270 361zM340 8c153 0 246 109 246 320v3h-492v-3c0 -211 93 -320 246 -320z" />
    <glyph glyph-name="uni04D9" unicode="&#x4d9;" horiz-adv-x="533" 
d="M60 250h390v27c0 136 -69 222 -189 222c-85 0 -145 -42 -176 -124l-17 7c30 83 96 136 193 136c132 0 212 -90 212 -265c0 -173 -78 -265 -208 -265c-122 0 -205 97 -205 252v10zM83 231v-4c0 -133 73 -220 182 -220c118 0 185 86 185 222v2h-367z" />
    <glyph glyph-name="uni04DC" unicode="&#x4dc;" horiz-adv-x="904" 
d="M361 819c-17 0 -23 10 -23 21v7c0 11 6 21 23 21s23 -10 23 -21v-7c0 -11 -6 -21 -23 -21zM543 819c-17 0 -23 10 -23 21v7c0 11 6 21 23 21s23 -10 23 -21v-7c0 -11 -6 -21 -23 -21zM44 0v20h59l168 307c9 17 18 23 31 25v2c-12 2 -20 8 -30 26l-157 298h-59v20h49
c16 0 26 -5 35 -21l165 -313h136v334h22v-334h136l165 313c9 16 19 21 35 21h49v-20h-59l-157 -298c-10 -18 -18 -24 -30 -26v-2c13 -2 22 -8 31 -25l168 -307h59v-20h-50c-16 0 -26 5 -32 17l-179 327h-136v-344h-22v344h-136l-179 -327c-6 -12 -16 -17 -32 -17h-50z" />
    <glyph glyph-name="uni04DD" unicode="&#x4dd;" horiz-adv-x="737" 
d="M277 642c-17 0 -23 10 -23 21v7c0 11 6 21 23 21s23 -10 23 -21v-7c0 -11 -6 -21 -23 -21zM459 642c-17 0 -23 10 -23 21v7c0 11 6 21 23 21s23 -10 23 -21v-7c0 -11 -6 -21 -23 -21zM42 0v19h57l107 205c16 31 22 37 36 40v3c-13 3 -20 10 -34 36l-102 184h-57v19h49
c15 0 23 -6 32 -22l116 -209h112v231h21v-231h112l116 209c9 16 17 22 32 22h49v-19h-57l-102 -184c-14 -26 -21 -33 -34 -36v-3c14 -3 20 -9 36 -40l107 -205h57v-19h-54c-12 0 -19 4 -25 16l-125 240h-112v-256h-21v256h-112l-125 -240c-6 -12 -13 -16 -25 -16h-54z" />
    <glyph glyph-name="uni04DE" unicode="&#x4de;" horiz-adv-x="575" 
d="M196 819c-17 0 -23 10 -23 21v7c0 11 6 21 23 21s23 -10 23 -21v-7c0 -11 -6 -21 -23 -21zM378 819c-17 0 -23 10 -23 21v7c0 11 6 21 23 21s23 -10 23 -21v-7c0 -11 -6 -21 -23 -21zM283 -12c-101 0 -176 33 -223 107l18 11c44 -69 111 -98 205 -98
c120 0 203 64 203 161v28c0 89 -75 147 -194 147h-116v20h114c107 0 181 65 181 157v24c0 86 -75 145 -184 145c-98 0 -154 -38 -184 -99l-18 8c28 66 97 111 202 111c126 0 208 -69 208 -175c0 -105 -58 -163 -140 -179v-3c94 -12 155 -70 155 -167
c0 -123 -88 -198 -227 -198z" />
    <glyph glyph-name="uni04DF" unicode="&#x4df;" horiz-adv-x="494" 
d="M152 642c-17 0 -23 10 -23 21v7c0 11 6 21 23 21s23 -10 23 -21v-7c0 -11 -6 -21 -23 -21zM334 642c-17 0 -23 10 -23 21v7c0 11 6 21 23 21s23 -10 23 -21v-7c0 -11 -6 -21 -23 -21zM232 -12c-94 0 -146 39 -179 96l16 11c34 -58 85 -88 163 -88c94 0 159 46 159 114v21
c0 69 -56 109 -142 109h-101v19h100c76 0 131 48 131 107v18c0 63 -54 104 -138 104c-83 0 -129 -32 -161 -90l-18 9c31 60 85 100 179 100c99 0 159 -50 159 -130c0 -70 -43 -114 -104 -125v-3c70 -9 116 -50 116 -127c0 -89 -66 -145 -180 -145z" />
    <glyph glyph-name="uni04E2" unicode="&#x4e2;" horiz-adv-x="692" 
d="M215 838v18h258v-18h-258zM108 0v698h21v-597l-4 -74h3l41 73l396 598h19v-698h-21v597l4 74h-3l-41 -73l-396 -598h-19z" />
    <glyph glyph-name="uni04E3" unicode="&#x4e3;" horiz-adv-x="576" 
d="M157 658v18h258v-18h-258zM105 0v506h21v-405l-3 -69h4l38 61l287 413h19v-506h-21v405l3 69h-4l-38 -61l-287 -413h-19z" />
    <glyph glyph-name="uni04E4" unicode="&#x4e4;" horiz-adv-x="692" 
d="M253 819c-17 0 -23 10 -23 21v7c0 11 6 21 23 21s23 -10 23 -21v-7c0 -11 -6 -21 -23 -21zM435 819c-17 0 -23 10 -23 21v7c0 11 6 21 23 21s23 -10 23 -21v-7c0 -11 -6 -21 -23 -21zM108 0v698h21v-597l-4 -74h3l41 73l396 598h19v-698h-21v597l4 74h-3l-41 -73
l-396 -598h-19z" />
    <glyph glyph-name="uni04E5" unicode="&#x4e5;" horiz-adv-x="576" 
d="M195 642c-17 0 -23 10 -23 21v7c0 11 6 21 23 21s23 -10 23 -21v-7c0 -11 -6 -21 -23 -21zM377 642c-17 0 -23 10 -23 21v7c0 11 6 21 23 21s23 -10 23 -21v-7c0 -11 -6 -21 -23 -21zM105 0v506h21v-405l-3 -69h4l38 61l287 413h19v-506h-21v405l3 69h-4l-38 -61
l-287 -413h-19z" />
    <glyph glyph-name="uni04E6" unicode="&#x4e6;" horiz-adv-x="680" 
d="M249 819c-17 0 -23 10 -23 21v7c0 11 6 21 23 21s23 -10 23 -21v-7c0 -11 -6 -21 -23 -21zM431 819c-17 0 -23 10 -23 21v7c0 11 6 21 23 21s23 -10 23 -21v-7c0 -11 -6 -21 -23 -21zM340 -12c-173 0 -270 121 -270 361s97 361 270 361s270 -121 270 -361
s-97 -361 -270 -361zM340 8c153 0 246 109 246 320v42c0 211 -93 320 -246 320s-246 -109 -246 -320v-42c0 -211 93 -320 246 -320z" />
    <glyph glyph-name="uni04E7" unicode="&#x4e7;" horiz-adv-x="540" 
d="M179 642c-17 0 -23 10 -23 21v7c0 11 6 21 23 21s23 -10 23 -21v-7c0 -11 -6 -21 -23 -21zM361 642c-17 0 -23 10 -23 21v7c0 11 6 21 23 21s23 -10 23 -21v-7c0 -11 -6 -21 -23 -21zM270 -12c-132 0 -210 90 -210 265s78 265 210 265s210 -90 210 -265
s-78 -265 -210 -265zM270 7c120 0 187 86 187 222v48c0 136 -67 222 -187 222s-187 -86 -187 -222v-48c0 -136 67 -222 187 -222z" />
    <glyph glyph-name="uni04E8" unicode="&#x4e8;" horiz-adv-x="680" 
d="M340 -12c-173 0 -270 121 -270 361s97 361 270 361s270 -121 270 -361s-97 -361 -270 -361zM340 8c153 0 246 109 246 320v16h-492v-16c0 -211 93 -320 246 -320zM94 370v-6h492v6c0 211 -93 320 -246 320s-246 -109 -246 -320z" />
    <glyph glyph-name="uni04E9" unicode="&#x4e9;" horiz-adv-x="540" 
d="M270 -12c-132 0 -210 90 -210 265s78 265 210 265s210 -90 210 -265s-78 -265 -210 -265zM270 7c120 0 187 86 187 222v20h-374v-20c0 -136 67 -222 187 -222zM83 277v-9h374v9c0 136 -67 222 -187 222s-187 -86 -187 -222z" />
    <glyph glyph-name="uni04EE" unicode="&#x4ee;" horiz-adv-x="573" 
d="M170 838v18h258v-18h-258zM158 0v19h91l51 128l-270 551h24l219 -445l37 -76h2l30 76l178 445h23l-272 -679c-6 -13 -18 -19 -33 -19h-80z" />
    <glyph glyph-name="uni04EF" unicode="&#x4ef;" horiz-adv-x="452" 
d="M99 658v18h258v-18h-258zM228 24l178 482h21l-255 -687c-5 -13 -16 -19 -31 -19h-84v19h93l66 174l-191 513h22l178 -482h3z" />
    <glyph glyph-name="uni04F0" unicode="&#x4f0;" horiz-adv-x="573" 
d="M208 819c-17 0 -23 10 -23 21v7c0 11 6 21 23 21s23 -10 23 -21v-7c0 -11 -6 -21 -23 -21zM390 819c-17 0 -23 10 -23 21v7c0 11 6 21 23 21s23 -10 23 -21v-7c0 -11 -6 -21 -23 -21zM158 0v19h91l51 128l-270 551h24l219 -445l37 -76h2l30 76l178 445h23l-272 -679
c-6 -13 -18 -19 -33 -19h-80z" />
    <glyph glyph-name="uni04F1" unicode="&#x4f1;" horiz-adv-x="452" 
d="M137 642c-17 0 -23 10 -23 21v7c0 11 6 21 23 21s23 -10 23 -21v-7c0 -11 -6 -21 -23 -21zM319 642c-17 0 -23 10 -23 21v7c0 11 6 21 23 21s23 -10 23 -21v-7c0 -11 -6 -21 -23 -21zM228 24l178 482h21l-255 -687c-5 -13 -16 -19 -31 -19h-84v19h93l66 174l-191 513h22
l178 -482h3z" />
    <glyph glyph-name="uni04F2" unicode="&#x4f2;" horiz-adv-x="573" 
d="M334 919l-115 -152l-15 10l111 154zM494 919l-115 -152l-15 10l111 154zM158 0v19h91l51 128l-270 551h24l219 -445l37 -76h2l30 76l178 445h23l-272 -679c-6 -13 -18 -19 -33 -19h-80z" />
    <glyph glyph-name="uni04F3" unicode="&#x4f3;" horiz-adv-x="452" 
d="M263 739l-115 -152l-15 10l111 154zM423 739l-115 -152l-15 10l111 154zM228 24l178 482h21l-255 -687c-5 -13 -16 -19 -31 -19h-84v19h93l66 174l-191 513h22l178 -482h3z" />
    <glyph glyph-name="uni04F4" unicode="&#x4f4;" horiz-adv-x="621" 
d="M199 819c-17 0 -23 10 -23 21v7c0 11 6 21 23 21s23 -10 23 -21v-7c0 -11 -6 -21 -23 -21zM381 819c-17 0 -23 10 -23 21v7c0 11 6 21 23 21s23 -10 23 -21v-7c0 -11 -6 -21 -23 -21zM491 0v305h-5c-44 -17 -106 -28 -183 -28c-160 0 -235 74 -235 230v191h22v-191
c0 -148 75 -210 215 -210c78 0 140 11 186 29v372h22v-698h-22z" />
    <glyph glyph-name="uni04F5" unicode="&#x4f5;" horiz-adv-x="521" 
d="M146 642c-17 0 -23 10 -23 21v7c0 11 6 21 23 21s23 -10 23 -21v-7c0 -11 -6 -21 -23 -21zM328 642c-17 0 -23 10 -23 21v7c0 11 6 21 23 21s23 -10 23 -21v-7c0 -11 -6 -21 -23 -21zM395 0v278h-3c-20 -44 -69 -83 -160 -83c-108 0 -172 49 -172 161v150h21v-146
c0 -106 57 -146 153 -146c98 0 161 51 161 132v160h21v-506h-21z" />
    <glyph glyph-name="uni04F8" unicode="&#x4f8;" horiz-adv-x="822" 
d="M320 819c-17 0 -23 10 -23 21v7c0 11 6 21 23 21s23 -10 23 -21v-7c0 -11 -6 -21 -23 -21zM502 819c-17 0 -23 10 -23 21v7c0 11 6 21 23 21s23 -10 23 -21v-7c0 -11 -6 -21 -23 -21zM108 0v698h22v-300h236c114 0 174 -78 174 -199s-60 -199 -174 -199h-258zM130 20h236
c103 0 150 76 150 158v42c0 82 -47 158 -150 158h-236v-358zM692 0v698h22v-698h-22z" />
    <glyph glyph-name="uni04F9" unicode="&#x4f9;" horiz-adv-x="672" 
d="M245 642c-17 0 -23 10 -23 21v7c0 11 6 21 23 21s23 -10 23 -21v-7c0 -11 -6 -21 -23 -21zM427 642c-17 0 -23 10 -23 21v7c0 11 6 21 23 21s23 -10 23 -21v-7c0 -11 -6 -21 -23 -21zM105 0v506h21v-213h151c102 0 156 -58 156 -146c0 -89 -54 -147 -156 -147h-172z
M126 19h151c91 0 133 54 133 114v27c0 60 -42 114 -133 114h-151v-255zM546 0v506h21v-506h-21z" />
    <glyph glyph-name="uni0E3F" unicode="&#xe3f;" horiz-adv-x="605" 
d="M306 21v-103h-20v103h-178v656h178v103h20v-103h44c102 0 158 -60 158 -161c0 -82 -36 -126 -97 -146v-2c87 -13 129 -79 129 -169c0 -108 -60 -178 -174 -178h-60zM130 376h156v281h-156v-281zM306 657v-281h44c92 0 134 57 134 119v43c0 63 -42 119 -134 119h-44z
M130 41h156v315h-156v-315zM306 356v-315h60c103 0 150 66 150 136v43c0 70 -47 136 -150 136h-60z" />
    <glyph glyph-name="Wgrave" unicode="&#x1e80;" horiz-adv-x="872" 
d="M450 767l-115 152l19 12l111 -154zM246 0h-30l-186 698h24l176 -667h3l187 667h32l187 -667h3l177 667h23l-186 -698h-30l-189 674h-3z" />
    <glyph glyph-name="wgrave" unicode="&#x1e81;" horiz-adv-x="725" 
d="M380 587l-115 152l19 12l111 -154zM189 0l-154 506h22l144 -479h3l148 479h22l148 -479h3l144 479h21l-154 -506h-26l-146 472h-3l-146 -472h-26z" />
    <glyph glyph-name="Wacute" unicode="&#x1e82;" horiz-adv-x="872" 
d="M530 919l-115 -152l-15 10l111 154zM246 0h-30l-186 698h24l176 -667h3l187 667h32l187 -667h3l177 667h23l-186 -698h-30l-189 674h-3z" />
    <glyph glyph-name="wacute" unicode="&#x1e83;" horiz-adv-x="725" 
d="M460 739l-115 -152l-15 10l111 154zM189 0l-154 506h22l144 -479h3l148 479h22l148 -479h3l144 479h21l-154 -506h-26l-146 472h-3l-146 -472h-26z" />
    <glyph glyph-name="Wdieresis" unicode="&#x1e84;" horiz-adv-x="872" 
d="M342 819c-17 0 -23 10 -23 21v7c0 11 6 21 23 21s23 -10 23 -21v-7c0 -11 -6 -21 -23 -21zM524 819c-17 0 -23 10 -23 21v7c0 11 6 21 23 21s23 -10 23 -21v-7c0 -11 -6 -21 -23 -21zM246 0h-30l-186 698h24l176 -667h3l187 667h32l187 -667h3l177 667h23l-186 -698h-30
l-189 674h-3z" />
    <glyph glyph-name="wdieresis" unicode="&#x1e85;" horiz-adv-x="725" 
d="M272 642c-17 0 -23 10 -23 21v7c0 11 6 21 23 21s23 -10 23 -21v-7c0 -11 -6 -21 -23 -21zM454 642c-17 0 -23 10 -23 21v7c0 11 6 21 23 21s23 -10 23 -21v-7c0 -11 -6 -21 -23 -21zM189 0l-154 506h22l144 -479h3l148 479h22l148 -479h3l144 479h21l-154 -506h-26
l-146 472h-3l-146 -472h-26z" />
    <glyph glyph-name="uni1E9E" unicode="&#x1e9e;" horiz-adv-x="680" 
d="M625 192c0 -137 -79 -204 -196 -204c-93 0 -149 38 -188 91l18 13c38 -50 86 -84 170 -84c98 0 172 53 172 161v42c0 106 -65 168 -216 168h-25v20l196 279h-426v-678h-22v698h471v-22l-193 -274v-4c163 0 239 -69 239 -206z" />
    <glyph glyph-name="uni1EA0" unicode="&#x1ea0;" 
d="M306 -134c-17 0 -23 10 -23 21v7c0 11 6 21 23 21s23 -10 23 -21v-7c0 -11 -6 -21 -23 -21zM568 0h-23l-85 234h-320l-85 -234h-23l253 698h30zM453 253l-152 422h-3l-151 -422h306z" />
    <glyph glyph-name="uni1EA1" unicode="&#x1ea1;" horiz-adv-x="519" 
d="M224 -134c-17 0 -23 10 -23 21v7c0 11 6 21 23 21s23 -10 23 -21v-7c0 -11 -6 -21 -23 -21zM499 0h-77c-20 0 -29 9 -29 29v48h-3c-25 -48 -73 -89 -166 -89c-104 0 -163 51 -163 142c0 84 45 145 190 145h142v74c0 104 -50 150 -144 150c-76 0 -125 -29 -153 -95l-18 8
c28 65 77 106 171 106c110 0 165 -59 165 -166v-333h85v-19zM224 7c90 0 169 47 169 141v109h-141c-119 0 -168 -45 -168 -112v-30c0 -70 58 -108 140 -108z" />
    <glyph glyph-name="uni1EA2" unicode="&#x1ea2;" 
d="M225 899v18h137c15 0 23 -7 23 -18c0 -8 -5 -18 -31 -58l-49 -76l-16 8l77 126h-141zM568 0h-23l-85 234h-320l-85 -234h-23l253 698h30zM453 253l-152 422h-3l-151 -422h306z" />
    <glyph glyph-name="uni1EA3" unicode="&#x1ea3;" horiz-adv-x="519" 
d="M175 719v18h137c15 0 23 -7 23 -18c0 -8 -5 -18 -31 -58l-49 -76l-16 8l77 126h-141zM499 0h-77c-20 0 -29 9 -29 29v48h-3c-25 -48 -73 -89 -166 -89c-104 0 -163 51 -163 142c0 84 45 145 190 145h142v74c0 104 -50 150 -144 150c-76 0 -125 -29 -153 -95l-18 8
c28 65 77 106 171 106c110 0 165 -59 165 -166v-333h85v-19zM224 7c90 0 169 47 169 141v109h-141c-119 0 -168 -45 -168 -112v-30c0 -70 58 -108 140 -108z" />
    <glyph glyph-name="uni1EA4" unicode="&#x1ea4;" 
d="M528 1029l-115 -152l-15 10l111 154zM287 915h24l128 -133l-14 -11l-126 127l-126 -127l-14 11zM568 0h-23l-85 234h-320l-85 -234h-23l253 698h30zM453 253l-152 422h-3l-151 -422h306z" />
    <glyph glyph-name="uni1EA5" unicode="&#x1ea5;" horiz-adv-x="519" 
d="M478 849l-115 -152l-15 10l111 154zM237 735h24l128 -133l-14 -11l-126 127l-126 -127l-14 11zM499 0h-77c-20 0 -29 9 -29 29v48h-3c-25 -48 -73 -89 -166 -89c-104 0 -163 51 -163 142c0 84 45 145 190 145h142v74c0 104 -50 150 -144 150c-76 0 -125 -29 -153 -95
l-18 8c28 65 77 106 171 106c110 0 165 -59 165 -166v-333h85v-19zM224 7c90 0 169 47 169 141v109h-141c-119 0 -168 -45 -168 -112v-30c0 -70 58 -108 140 -108z" />
    <glyph glyph-name="uni1EA6" unicode="&#x1ea6;" 
d="M185 877l-115 152l19 12l111 -154zM287 915h24l128 -133l-14 -11l-126 127l-126 -127l-14 11zM568 0h-23l-85 234h-320l-85 -234h-23l253 698h30zM453 253l-152 422h-3l-151 -422h306z" />
    <glyph glyph-name="uni1EA7" unicode="&#x1ea7;" horiz-adv-x="519" 
d="M135 697l-115 152l19 12l111 -154zM237 735h24l128 -133l-14 -11l-126 127l-126 -127l-14 11zM499 0h-77c-20 0 -29 9 -29 29v48h-3c-25 -48 -73 -89 -166 -89c-104 0 -163 51 -163 142c0 84 45 145 190 145h142v74c0 104 -50 150 -144 150c-76 0 -125 -29 -153 -95
l-18 8c28 65 77 106 171 106c110 0 165 -59 165 -166v-333h85v-19zM224 7c90 0 169 47 169 141v109h-141c-119 0 -168 -45 -168 -112v-30c0 -70 58 -108 140 -108z" />
    <glyph glyph-name="uni1EA8" unicode="&#x1ea8;" 
d="M338 1009v18h137c15 0 23 -7 23 -18c0 -8 -5 -18 -31 -58l-49 -76l-16 8l77 126h-141zM287 915h24l128 -133l-14 -11l-126 127l-126 -127l-14 11zM568 0h-23l-85 234h-320l-85 -234h-23l253 698h30zM453 253l-152 422h-3l-151 -422h306z" />
    <glyph glyph-name="uni1EA9" unicode="&#x1ea9;" horiz-adv-x="519" 
d="M288 829v18h137c15 0 23 -7 23 -18c0 -8 -5 -18 -31 -58l-49 -76l-16 8l77 126h-141zM237 735h24l128 -133l-14 -11l-126 127l-126 -127l-14 11zM499 0h-77c-20 0 -29 9 -29 29v48h-3c-25 -48 -73 -89 -166 -89c-104 0 -163 51 -163 142c0 84 45 145 190 145h142v74
c0 104 -50 150 -144 150c-76 0 -125 -29 -153 -95l-18 8c28 65 77 106 171 106c110 0 165 -59 165 -166v-333h85v-19zM224 7c90 0 169 47 169 141v109h-141c-119 0 -168 -45 -168 -112v-30c0 -70 58 -108 140 -108z" />
    <glyph glyph-name="uni1EAA" unicode="&#x1eaa;" 
d="M228 1027c23 0 43 -8 77 -30c29 -19 47 -26 66 -26c24 0 44 11 65 33l12 -12c-24 -27 -50 -39 -78 -39c-23 0 -43 8 -77 30c-29 19 -47 26 -66 26c-24 0 -44 -11 -65 -33l-12 12c24 27 50 39 78 39zM287 915h24l128 -133l-14 -11l-126 127l-126 -127l-14 11zM568 0h-23
l-85 234h-320l-85 -234h-23l253 698h30zM453 253l-152 422h-3l-151 -422h306z" />
    <glyph glyph-name="uni1EAB" unicode="&#x1eab;" horiz-adv-x="519" 
d="M178 847c23 0 43 -8 77 -30c29 -19 47 -26 66 -26c24 0 44 11 65 33l12 -12c-24 -27 -50 -39 -78 -39c-23 0 -43 8 -77 30c-29 19 -47 26 -66 26c-24 0 -44 -11 -65 -33l-12 12c24 27 50 39 78 39zM237 735h24l128 -133l-14 -11l-126 127l-126 -127l-14 11zM499 0h-77
c-20 0 -29 9 -29 29v48h-3c-25 -48 -73 -89 -166 -89c-104 0 -163 51 -163 142c0 84 45 145 190 145h142v74c0 104 -50 150 -144 150c-76 0 -125 -29 -153 -95l-18 8c28 65 77 106 171 106c110 0 165 -59 165 -166v-333h85v-19zM224 7c90 0 169 47 169 141v109h-141
c-119 0 -168 -45 -168 -112v-30c0 -70 58 -108 140 -108z" />
    <glyph glyph-name="uni1EAC" unicode="&#x1eac;" 
d="M306 -134c-17 0 -23 10 -23 21v7c0 11 6 21 23 21s23 -10 23 -21v-7c0 -11 -6 -21 -23 -21zM287 923h24l128 -133l-14 -11l-126 127l-126 -127l-14 11zM568 0h-23l-85 234h-320l-85 -234h-23l253 698h30zM453 253l-152 422h-3l-151 -422h306z" />
    <glyph glyph-name="uni1EAD" unicode="&#x1ead;" horiz-adv-x="519" 
d="M224 -134c-17 0 -23 10 -23 21v7c0 11 6 21 23 21s23 -10 23 -21v-7c0 -11 -6 -21 -23 -21zM237 743h24l128 -133l-14 -11l-126 127l-126 -127l-14 11zM499 0h-77c-20 0 -29 9 -29 29v48h-3c-25 -48 -73 -89 -166 -89c-104 0 -163 51 -163 142c0 84 45 145 190 145h142
v74c0 104 -50 150 -144 150c-76 0 -125 -29 -153 -95l-18 8c28 65 77 106 171 106c110 0 165 -59 165 -166v-333h85v-19zM224 7c90 0 169 47 169 141v109h-141c-119 0 -168 -45 -168 -112v-30c0 -70 58 -108 140 -108z" />
    <glyph glyph-name="uni1EAE" unicode="&#x1eae;" 
d="M299 774c-68 0 -98 39 -132 107l16 7l16 -27c33 -56 56 -68 100 -68s67 12 100 68l16 27l16 -7c-34 -69 -64 -107 -132 -107zM405 1029l-115 -152l-15 10l111 154zM568 0h-23l-85 234h-320l-85 -234h-23l253 698h30zM453 253l-152 422h-3l-151 -422h306z" />
    <glyph glyph-name="uni1EAF" unicode="&#x1eaf;" horiz-adv-x="519" 
d="M249 594c-68 0 -98 39 -132 107l16 7l16 -27c33 -56 56 -68 100 -68s67 12 100 68l16 27l16 -7c-34 -69 -64 -107 -132 -107zM355 849l-115 -152l-15 10l111 154zM499 0h-77c-20 0 -29 9 -29 29v48h-3c-25 -48 -73 -89 -166 -89c-104 0 -163 51 -163 142
c0 84 45 145 190 145h142v74c0 104 -50 150 -144 150c-76 0 -125 -29 -153 -95l-18 8c28 65 77 106 171 106c110 0 165 -59 165 -166v-333h85v-19zM224 7c90 0 169 47 169 141v109h-141c-119 0 -168 -45 -168 -112v-30c0 -70 58 -108 140 -108z" />
    <glyph glyph-name="uni1EB0" unicode="&#x1eb0;" 
d="M299 774c-68 0 -98 39 -132 107l16 7l16 -27c33 -56 56 -68 100 -68s67 12 100 68l16 27l16 -7c-34 -69 -64 -107 -132 -107zM308 877l-115 152l19 12l111 -154zM568 0h-23l-85 234h-320l-85 -234h-23l253 698h30zM453 253l-152 422h-3l-151 -422h306z" />
    <glyph glyph-name="uni1EB1" unicode="&#x1eb1;" horiz-adv-x="519" 
d="M249 594c-68 0 -98 39 -132 107l16 7l16 -27c33 -56 56 -68 100 -68s67 12 100 68l16 27l16 -7c-34 -69 -64 -107 -132 -107zM258 697l-115 152l19 12l111 -154zM499 0h-77c-20 0 -29 9 -29 29v48h-3c-25 -48 -73 -89 -166 -89c-104 0 -163 51 -163 142
c0 84 45 145 190 145h142v74c0 104 -50 150 -144 150c-76 0 -125 -29 -153 -95l-18 8c28 65 77 106 171 106c110 0 165 -59 165 -166v-333h85v-19zM224 7c90 0 169 47 169 141v109h-141c-119 0 -168 -45 -168 -112v-30c0 -70 58 -108 140 -108z" />
    <glyph glyph-name="uni1EB2" unicode="&#x1eb2;" 
d="M225 1009v18h137c15 0 23 -7 23 -18c0 -8 -5 -18 -31 -58l-49 -76l-16 8l77 126h-141zM299 774c-68 0 -98 39 -132 107l16 7l16 -27c33 -56 56 -68 100 -68s67 12 100 68l16 27l16 -7c-34 -69 -64 -107 -132 -107zM568 0h-23l-85 234h-320l-85 -234h-23l253 698h30z
M453 253l-152 422h-3l-151 -422h306z" />
    <glyph glyph-name="uni1EB3" unicode="&#x1eb3;" horiz-adv-x="519" 
d="M249 594c-68 0 -98 39 -132 107l16 7l16 -27c33 -56 56 -68 100 -68s67 12 100 68l16 27l16 -7c-34 -69 -64 -107 -132 -107zM175 829v18h137c15 0 23 -7 23 -18c0 -8 -5 -18 -31 -58l-49 -76l-16 8l77 126h-141zM499 0h-77c-20 0 -29 9 -29 29v48h-3
c-25 -48 -73 -89 -166 -89c-104 0 -163 51 -163 142c0 84 45 145 190 145h142v74c0 104 -50 150 -144 150c-76 0 -125 -29 -153 -95l-18 8c28 65 77 106 171 106c110 0 165 -59 165 -166v-333h85v-19zM224 7c90 0 169 47 169 141v109h-141c-119 0 -168 -45 -168 -112v-30
c0 -70 58 -108 140 -108z" />
    <glyph glyph-name="uni1EB4" unicode="&#x1eb4;" 
d="M370 943c-23 0 -43 8 -77 30c-29 19 -47 26 -66 26c-24 0 -44 -11 -65 -33l-12 12c24 27 50 39 78 39c23 0 43 -8 77 -30c29 -19 47 -26 66 -26c24 0 44 11 65 33l12 -12c-24 -27 -50 -39 -78 -39zM299 774c-68 0 -98 39 -132 107l16 7l16 -27c33 -56 56 -68 100 -68
s67 12 100 68l16 27l16 -7c-34 -69 -64 -107 -132 -107zM568 0h-23l-85 234h-320l-85 -234h-23l253 698h30zM453 253l-152 422h-3l-151 -422h306z" />
    <glyph glyph-name="uni1EB5" unicode="&#x1eb5;" horiz-adv-x="519" 
d="M249 594c-68 0 -98 39 -132 107l16 7l16 -27c33 -56 56 -68 100 -68s67 12 100 68l16 27l16 -7c-34 -69 -64 -107 -132 -107zM320 763c-23 0 -43 8 -77 30c-29 19 -47 26 -66 26c-24 0 -44 -11 -65 -33l-12 12c24 27 50 39 78 39c23 0 43 -8 77 -30c29 -19 47 -26 66 -26
c24 0 44 11 65 33l12 -12c-24 -27 -50 -39 -78 -39zM499 0h-77c-20 0 -29 9 -29 29v48h-3c-25 -48 -73 -89 -166 -89c-104 0 -163 51 -163 142c0 84 45 145 190 145h142v74c0 104 -50 150 -144 150c-76 0 -125 -29 -153 -95l-18 8c28 65 77 106 171 106
c110 0 165 -59 165 -166v-333h85v-19zM224 7c90 0 169 47 169 141v109h-141c-119 0 -168 -45 -168 -112v-30c0 -70 58 -108 140 -108z" />
    <glyph glyph-name="uni1EB6" unicode="&#x1eb6;" 
d="M306 -134c-17 0 -23 10 -23 21v7c0 11 6 21 23 21s23 -10 23 -21v-7c0 -11 -6 -21 -23 -21zM299 786c-68 0 -95 44 -132 117l16 7l15 -27c35 -63 57 -78 101 -78s66 15 101 78l15 27l16 -7c-37 -73 -64 -117 -132 -117zM568 0h-23l-85 234h-320l-85 -234h-23l253 698h30z
M453 253l-152 422h-3l-151 -422h306z" />
    <glyph glyph-name="uni1EB7" unicode="&#x1eb7;" horiz-adv-x="519" 
d="M224 -134c-17 0 -23 10 -23 21v7c0 11 6 21 23 21s23 -10 23 -21v-7c0 -11 -6 -21 -23 -21zM249 606c-68 0 -95 44 -132 117l16 7l15 -27c35 -63 57 -78 101 -78s66 15 101 78l15 27l16 -7c-37 -73 -64 -117 -132 -117zM499 0h-77c-20 0 -29 9 -29 29v48h-3
c-25 -48 -73 -89 -166 -89c-104 0 -163 51 -163 142c0 84 45 145 190 145h142v74c0 104 -50 150 -144 150c-76 0 -125 -29 -153 -95l-18 8c28 65 77 106 171 106c110 0 165 -59 165 -166v-333h85v-19zM224 7c90 0 169 47 169 141v109h-141c-119 0 -168 -45 -168 -112v-30
c0 -70 58 -108 140 -108z" />
    <glyph glyph-name="uni1EB8" unicode="&#x1eb8;" horiz-adv-x="561" 
d="M299 -134c-17 0 -23 10 -23 21v7c0 11 6 21 23 21s23 -10 23 -21v-7c0 -11 -6 -21 -23 -21zM489 0h-381v698h381v-20h-359v-314h347v-20h-347v-324h359v-20z" />
    <glyph glyph-name="uni1EB9" unicode="&#x1eb9;" horiz-adv-x="533" 
d="M272 -134c-17 0 -23 10 -23 21v7c0 11 6 21 23 21s23 -10 23 -21v-7c0 -11 -6 -21 -23 -21zM272 -12c-132 0 -212 90 -212 265c0 173 78 265 208 265c122 0 205 -97 205 -252v-10h-390v-27c0 -136 69 -222 189 -222c85 0 144 42 175 124l18 -7
c-30 -83 -96 -136 -193 -136zM268 499c-118 0 -185 -86 -185 -222v-2h367v4c0 133 -73 220 -182 220z" />
    <glyph glyph-name="uni1EBA" unicode="&#x1eba;" horiz-adv-x="561" 
d="M225 899v18h137c15 0 23 -7 23 -18c0 -8 -5 -18 -31 -58l-49 -76l-16 8l77 126h-141zM489 0h-381v698h381v-20h-359v-314h347v-20h-347v-324h359v-20z" />
    <glyph glyph-name="uni1EBB" unicode="&#x1ebb;" horiz-adv-x="533" 
d="M194 719v18h137c15 0 23 -7 23 -18c0 -8 -5 -18 -31 -58l-49 -76l-16 8l77 126h-141zM272 -12c-132 0 -212 90 -212 265c0 173 78 265 208 265c122 0 205 -97 205 -252v-10h-390v-27c0 -136 69 -222 189 -222c85 0 144 42 175 124l18 -7c-30 -83 -96 -136 -193 -136z
M268 499c-118 0 -185 -86 -185 -222v-2h367v4c0 133 -73 220 -182 220z" />
    <glyph glyph-name="uni1EBC" unicode="&#x1ebc;" horiz-adv-x="561" 
d="M370 808c-23 0 -43 8 -77 30c-29 19 -47 26 -66 26c-24 0 -44 -11 -65 -33l-12 12c24 27 50 39 78 39c23 0 43 -8 77 -30c29 -19 47 -26 66 -26c24 0 44 11 65 33l12 -12c-24 -27 -50 -39 -78 -39zM489 0h-381v698h381v-20h-359v-314h347v-20h-347v-324h359v-20z" />
    <glyph glyph-name="uni1EBD" unicode="&#x1ebd;" horiz-adv-x="533" 
d="M339 628c-23 0 -43 8 -77 30c-29 19 -47 26 -66 26c-24 0 -44 -11 -65 -33l-12 12c24 27 50 39 78 39c23 0 43 -8 77 -30c29 -19 47 -26 66 -26c24 0 44 11 65 33l12 -12c-24 -27 -50 -39 -78 -39zM272 -12c-132 0 -212 90 -212 265c0 173 78 265 208 265
c122 0 205 -97 205 -252v-10h-390v-27c0 -136 69 -222 189 -222c85 0 144 42 175 124l18 -7c-30 -83 -96 -136 -193 -136zM268 499c-118 0 -185 -86 -185 -222v-2h367v4c0 133 -73 220 -182 220z" />
    <glyph glyph-name="uni1EBE" unicode="&#x1ebe;" horiz-adv-x="561" 
d="M528 1029l-115 -152l-15 10l111 154zM287 915h24l128 -133l-14 -11l-126 127l-126 -127l-14 11zM489 0h-381v698h381v-20h-359v-314h347v-20h-347v-324h359v-20z" />
    <glyph glyph-name="uni1EBF" unicode="&#x1ebf;" horiz-adv-x="533" 
d="M497 849l-115 -152l-15 10l111 154zM256 735h24l128 -133l-14 -11l-126 127l-126 -127l-14 11zM272 -12c-132 0 -212 90 -212 265c0 173 78 265 208 265c122 0 205 -97 205 -252v-10h-390v-27c0 -136 69 -222 189 -222c85 0 144 42 175 124l18 -7
c-30 -83 -96 -136 -193 -136zM268 499c-118 0 -185 -86 -185 -222v-2h367v4c0 133 -73 220 -182 220z" />
    <glyph glyph-name="uni1EC0" unicode="&#x1ec0;" horiz-adv-x="561" 
d="M185 877l-115 152l19 12l111 -154zM287 915h24l128 -133l-14 -11l-126 127l-126 -127l-14 11zM489 0h-381v698h381v-20h-359v-314h347v-20h-347v-324h359v-20z" />
    <glyph glyph-name="uni1EC1" unicode="&#x1ec1;" horiz-adv-x="533" 
d="M154 697l-115 152l19 12l111 -154zM256 735h24l128 -133l-14 -11l-126 127l-126 -127l-14 11zM272 -12c-132 0 -212 90 -212 265c0 173 78 265 208 265c122 0 205 -97 205 -252v-10h-390v-27c0 -136 69 -222 189 -222c85 0 144 42 175 124l18 -7
c-30 -83 -96 -136 -193 -136zM268 499c-118 0 -185 -86 -185 -222v-2h367v4c0 133 -73 220 -182 220z" />
    <glyph glyph-name="uni1EC2" unicode="&#x1ec2;" horiz-adv-x="561" 
d="M338 1009v18h137c15 0 23 -7 23 -18c0 -8 -5 -18 -31 -58l-49 -76l-16 8l77 126h-141zM287 915h24l128 -133l-14 -11l-126 127l-126 -127l-14 11zM489 0h-381v698h381v-20h-359v-314h347v-20h-347v-324h359v-20z" />
    <glyph glyph-name="uni1EC3" unicode="&#x1ec3;" horiz-adv-x="533" 
d="M307 829v18h137c15 0 23 -7 23 -18c0 -8 -5 -18 -31 -58l-49 -76l-16 8l77 126h-141zM256 735h24l128 -133l-14 -11l-126 127l-126 -127l-14 11zM272 -12c-132 0 -212 90 -212 265c0 173 78 265 208 265c122 0 205 -97 205 -252v-10h-390v-27c0 -136 69 -222 189 -222
c85 0 144 42 175 124l18 -7c-30 -83 -96 -136 -193 -136zM268 499c-118 0 -185 -86 -185 -222v-2h367v4c0 133 -73 220 -182 220z" />
    <glyph glyph-name="uni1EC4" unicode="&#x1ec4;" horiz-adv-x="561" 
d="M228 1027c23 0 43 -8 77 -30c29 -19 47 -26 66 -26c24 0 44 11 65 33l12 -12c-24 -27 -50 -39 -78 -39c-23 0 -43 8 -77 30c-29 19 -47 26 -66 26c-24 0 -44 -11 -65 -33l-12 12c24 27 50 39 78 39zM287 915h24l128 -133l-14 -11l-126 127l-126 -127l-14 11zM489 0h-381
v698h381v-20h-359v-314h347v-20h-347v-324h359v-20z" />
    <glyph glyph-name="uni1EC5" unicode="&#x1ec5;" horiz-adv-x="533" 
d="M197 847c23 0 43 -8 77 -30c29 -19 47 -26 66 -26c24 0 44 11 65 33l12 -12c-24 -27 -50 -39 -78 -39c-23 0 -43 8 -77 30c-29 19 -47 26 -66 26c-24 0 -44 -11 -65 -33l-12 12c24 27 50 39 78 39zM256 735h24l128 -133l-14 -11l-126 127l-126 -127l-14 11zM272 -12
c-132 0 -212 90 -212 265c0 173 78 265 208 265c122 0 205 -97 205 -252v-10h-390v-27c0 -136 69 -222 189 -222c85 0 144 42 175 124l18 -7c-30 -83 -96 -136 -193 -136zM268 499c-118 0 -185 -86 -185 -222v-2h367v4c0 133 -73 220 -182 220z" />
    <glyph glyph-name="uni1EC6" unicode="&#x1ec6;" horiz-adv-x="561" 
d="M299 -134c-17 0 -23 10 -23 21v7c0 11 6 21 23 21s23 -10 23 -21v-7c0 -11 -6 -21 -23 -21zM287 923h24l128 -133l-14 -11l-126 127l-126 -127l-14 11zM489 0h-381v698h381v-20h-359v-314h347v-20h-347v-324h359v-20z" />
    <glyph glyph-name="uni1EC7" unicode="&#x1ec7;" horiz-adv-x="533" 
d="M272 -134c-17 0 -23 10 -23 21v7c0 11 6 21 23 21s23 -10 23 -21v-7c0 -11 -6 -21 -23 -21zM256 743h24l128 -133l-14 -11l-126 127l-126 -127l-14 11zM272 -12c-132 0 -212 90 -212 265c0 173 78 265 208 265c122 0 205 -97 205 -252v-10h-390v-27
c0 -136 69 -222 189 -222c85 0 144 42 175 124l18 -7c-30 -83 -96 -136 -193 -136zM268 499c-118 0 -185 -86 -185 -222v-2h367v4c0 133 -73 220 -182 220z" />
    <glyph glyph-name="uni1EC8" unicode="&#x1ec8;" horiz-adv-x="372" 
d="M111 899v18h137c15 0 23 -7 23 -18c0 -8 -5 -18 -31 -58l-49 -76l-16 8l77 126h-141zM304 0h-236v19h107v660h-107v19h236v-19h-107v-660h107v-19z" />
    <glyph glyph-name="uni1EC9" unicode="&#x1ec9;" horiz-adv-x="231" 
d="M41 719v18h137c15 0 23 -7 23 -18c0 -8 -5 -18 -31 -58l-49 -76l-16 8l77 126h-141zM126 0h-21v506h21v-506z" />
    <glyph glyph-name="uni1ECA" unicode="&#x1eca;" horiz-adv-x="372" 
d="M185 -134c-17 0 -23 10 -23 21v7c0 11 6 21 23 21s23 -10 23 -21v-7c0 -11 -6 -21 -23 -21zM304 0h-236v19h107v660h-107v19h236v-19h-107v-660h107v-19z" />
    <glyph glyph-name="uni1ECB" unicode="&#x1ecb;" horiz-adv-x="231" 
d="M116 -134c-17 0 -23 10 -23 21v7c0 11 6 21 23 21s23 -10 23 -21v-7c0 -11 -6 -21 -23 -21zM115 673c-17 0 -23 10 -23 21v7c0 11 6 21 23 21s23 -10 23 -21v-7c0 -11 -6 -21 -23 -21zM105 0v506h21v-506h-21z" />
    <glyph glyph-name="uni1ECC" unicode="&#x1ecc;" horiz-adv-x="680" 
d="M340 -134c-17 0 -23 10 -23 21v7c0 11 6 21 23 21s23 -10 23 -21v-7c0 -11 -6 -21 -23 -21zM340 -12c-173 0 -270 121 -270 361s97 361 270 361s270 -121 270 -361s-97 -361 -270 -361zM340 8c153 0 246 109 246 320v42c0 211 -93 320 -246 320s-246 -109 -246 -320v-42
c0 -211 93 -320 246 -320z" />
    <glyph glyph-name="uni1ECD" unicode="&#x1ecd;" horiz-adv-x="540" 
d="M270 -134c-17 0 -23 10 -23 21v7c0 11 6 21 23 21s23 -10 23 -21v-7c0 -11 -6 -21 -23 -21zM270 -12c-132 0 -210 90 -210 265s78 265 210 265s210 -90 210 -265s-78 -265 -210 -265zM270 7c120 0 187 86 187 222v48c0 136 -67 222 -187 222s-187 -86 -187 -222v-48
c0 -136 67 -222 187 -222z" />
    <glyph glyph-name="uni1ECE" unicode="&#x1ece;" horiz-adv-x="680" 
d="M266 899v18h137c15 0 23 -7 23 -18c0 -8 -5 -18 -31 -58l-49 -76l-16 8l77 126h-141zM340 -12c-173 0 -270 121 -270 361s97 361 270 361s270 -121 270 -361s-97 -361 -270 -361zM340 8c153 0 246 109 246 320v42c0 211 -93 320 -246 320s-246 -109 -246 -320v-42
c0 -211 93 -320 246 -320z" />
    <glyph glyph-name="uni1ECF" unicode="&#x1ecf;" horiz-adv-x="540" 
d="M196 719v18h137c15 0 23 -7 23 -18c0 -8 -5 -18 -31 -58l-49 -76l-16 8l77 126h-141zM270 -12c-132 0 -210 90 -210 265s78 265 210 265s210 -90 210 -265s-78 -265 -210 -265zM270 7c120 0 187 86 187 222v48c0 136 -67 222 -187 222s-187 -86 -187 -222v-48
c0 -136 67 -222 187 -222z" />
    <glyph glyph-name="uni1ED0" unicode="&#x1ed0;" horiz-adv-x="680" 
d="M569 1029l-115 -152l-15 10l111 154zM328 915h24l128 -133l-14 -11l-126 127l-126 -127l-14 11zM340 -12c-173 0 -270 121 -270 361s97 361 270 361s270 -121 270 -361s-97 -361 -270 -361zM340 8c153 0 246 109 246 320v42c0 211 -93 320 -246 320s-246 -109 -246 -320
v-42c0 -211 93 -320 246 -320z" />
    <glyph glyph-name="uni1ED1" unicode="&#x1ed1;" horiz-adv-x="540" 
d="M499 849l-115 -152l-15 10l111 154zM258 735h24l128 -133l-14 -11l-126 127l-126 -127l-14 11zM270 -12c-132 0 -210 90 -210 265s78 265 210 265s210 -90 210 -265s-78 -265 -210 -265zM270 7c120 0 187 86 187 222v48c0 136 -67 222 -187 222s-187 -86 -187 -222v-48
c0 -136 67 -222 187 -222z" />
    <glyph glyph-name="uni1ED2" unicode="&#x1ed2;" horiz-adv-x="680" 
d="M226 877l-115 152l19 12l111 -154zM328 915h24l128 -133l-14 -11l-126 127l-126 -127l-14 11zM340 -12c-173 0 -270 121 -270 361s97 361 270 361s270 -121 270 -361s-97 -361 -270 -361zM340 8c153 0 246 109 246 320v42c0 211 -93 320 -246 320s-246 -109 -246 -320
v-42c0 -211 93 -320 246 -320z" />
    <glyph glyph-name="uni1ED3" unicode="&#x1ed3;" horiz-adv-x="540" 
d="M156 697l-115 152l19 12l111 -154zM258 735h24l128 -133l-14 -11l-126 127l-126 -127l-14 11zM270 -12c-132 0 -210 90 -210 265s78 265 210 265s210 -90 210 -265s-78 -265 -210 -265zM270 7c120 0 187 86 187 222v48c0 136 -67 222 -187 222s-187 -86 -187 -222v-48
c0 -136 67 -222 187 -222z" />
    <glyph glyph-name="uni1ED4" unicode="&#x1ed4;" horiz-adv-x="680" 
d="M379 1009v18h137c15 0 23 -7 23 -18c0 -8 -5 -18 -31 -58l-49 -76l-16 8l77 126h-141zM328 915h24l128 -133l-14 -11l-126 127l-126 -127l-14 11zM340 -12c-173 0 -270 121 -270 361s97 361 270 361s270 -121 270 -361s-97 -361 -270 -361zM340 8c153 0 246 109 246 320
v42c0 211 -93 320 -246 320s-246 -109 -246 -320v-42c0 -211 93 -320 246 -320z" />
    <glyph glyph-name="uni1ED5" unicode="&#x1ed5;" horiz-adv-x="540" 
d="M309 829v18h137c15 0 23 -7 23 -18c0 -8 -5 -18 -31 -58l-49 -76l-16 8l77 126h-141zM258 735h24l128 -133l-14 -11l-126 127l-126 -127l-14 11zM270 -12c-132 0 -210 90 -210 265s78 265 210 265s210 -90 210 -265s-78 -265 -210 -265zM270 7c120 0 187 86 187 222v48
c0 136 -67 222 -187 222s-187 -86 -187 -222v-48c0 -136 67 -222 187 -222z" />
    <glyph glyph-name="uni1ED6" unicode="&#x1ed6;" horiz-adv-x="680" 
d="M269 1027c23 0 43 -8 77 -30c29 -19 47 -26 66 -26c24 0 44 11 65 33l12 -12c-24 -27 -50 -39 -78 -39c-23 0 -43 8 -77 30c-29 19 -47 26 -66 26c-24 0 -44 -11 -65 -33l-12 12c24 27 50 39 78 39zM328 915h24l128 -133l-14 -11l-126 127l-126 -127l-14 11zM340 -12
c-173 0 -270 121 -270 361s97 361 270 361s270 -121 270 -361s-97 -361 -270 -361zM340 8c153 0 246 109 246 320v42c0 211 -93 320 -246 320s-246 -109 -246 -320v-42c0 -211 93 -320 246 -320z" />
    <glyph glyph-name="uni1ED7" unicode="&#x1ed7;" horiz-adv-x="540" 
d="M199 847c23 0 43 -8 77 -30c29 -19 47 -26 66 -26c24 0 44 11 65 33l12 -12c-24 -27 -50 -39 -78 -39c-23 0 -43 8 -77 30c-29 19 -47 26 -66 26c-24 0 -44 -11 -65 -33l-12 12c24 27 50 39 78 39zM258 735h24l128 -133l-14 -11l-126 127l-126 -127l-14 11zM270 -12
c-132 0 -210 90 -210 265s78 265 210 265s210 -90 210 -265s-78 -265 -210 -265zM270 7c120 0 187 86 187 222v48c0 136 -67 222 -187 222s-187 -86 -187 -222v-48c0 -136 67 -222 187 -222z" />
    <glyph glyph-name="uni1ED8" unicode="&#x1ed8;" horiz-adv-x="680" 
d="M340 -134c-17 0 -23 10 -23 21v7c0 11 6 21 23 21s23 -10 23 -21v-7c0 -11 -6 -21 -23 -21zM328 923h24l128 -133l-14 -11l-126 127l-126 -127l-14 11zM340 -12c-173 0 -270 121 -270 361s97 361 270 361s270 -121 270 -361s-97 -361 -270 -361zM340 8
c153 0 246 109 246 320v42c0 211 -93 320 -246 320s-246 -109 -246 -320v-42c0 -211 93 -320 246 -320z" />
    <glyph glyph-name="uni1ED9" unicode="&#x1ed9;" horiz-adv-x="540" 
d="M270 -134c-17 0 -23 10 -23 21v7c0 11 6 21 23 21s23 -10 23 -21v-7c0 -11 -6 -21 -23 -21zM258 743h24l128 -133l-14 -11l-126 127l-126 -127l-14 11zM270 -12c-132 0 -210 90 -210 265s78 265 210 265s210 -90 210 -265s-78 -265 -210 -265zM270 7
c120 0 187 86 187 222v48c0 136 -67 222 -187 222s-187 -86 -187 -222v-48c0 -136 67 -222 187 -222z" />
    <glyph glyph-name="uni1EDA" unicode="&#x1eda;" horiz-adv-x="680" 
d="M437 919l-115 -152l-15 10l111 154zM588 812h20v-103c0 -20 -9 -29 -29 -29h-109c89 -51 140 -152 140 -331c0 -240 -97 -361 -270 -361s-270 121 -270 361s97 361 270 361c35 0 59 -3 88 -12h160v114zM340 8c153 0 246 109 246 320v42c0 211 -93 320 -246 320
s-246 -109 -246 -320v-42c0 -211 93 -320 246 -320z" />
    <glyph glyph-name="uni1EDB" unicode="&#x1edb;" horiz-adv-x="540" 
d="M367 739l-115 -152l-15 10l111 154zM451 607h20v-90c0 -20 -9 -29 -29 -29h-59c59 -36 97 -117 97 -235c0 -175 -78 -265 -210 -265s-210 90 -210 265s78 265 210 265c20 0 53 -3 78 -12h103v101zM270 7c120 0 187 86 187 222v48c0 136 -67 222 -187 222
s-187 -86 -187 -222v-48c0 -136 67 -222 187 -222z" />
    <glyph glyph-name="uni1EDC" unicode="&#x1edc;" horiz-adv-x="680" 
d="M357 767l-115 152l19 12l111 -154zM588 812h20v-103c0 -20 -9 -29 -29 -29h-109c89 -51 140 -152 140 -331c0 -240 -97 -361 -270 -361s-270 121 -270 361s97 361 270 361c35 0 59 -3 88 -12h160v114zM340 8c153 0 246 109 246 320v42c0 211 -93 320 -246 320
s-246 -109 -246 -320v-42c0 -211 93 -320 246 -320z" />
    <glyph glyph-name="uni1EDD" unicode="&#x1edd;" horiz-adv-x="540" 
d="M287 587l-115 152l19 12l111 -154zM451 607h20v-90c0 -20 -9 -29 -29 -29h-59c59 -36 97 -117 97 -235c0 -175 -78 -265 -210 -265s-210 90 -210 265s78 265 210 265c20 0 53 -3 78 -12h103v101zM270 7c120 0 187 86 187 222v48c0 136 -67 222 -187 222
s-187 -86 -187 -222v-48c0 -136 67 -222 187 -222z" />
    <glyph glyph-name="uni1EDE" unicode="&#x1ede;" horiz-adv-x="680" 
d="M266 899v18h137c15 0 23 -7 23 -18c0 -8 -5 -18 -31 -58l-49 -76l-16 8l77 126h-141zM588 812h20v-103c0 -20 -9 -29 -29 -29h-109c89 -51 140 -152 140 -331c0 -240 -97 -361 -270 -361s-270 121 -270 361s97 361 270 361c35 0 59 -3 88 -12h160v114zM340 8
c153 0 246 109 246 320v42c0 211 -93 320 -246 320s-246 -109 -246 -320v-42c0 -211 93 -320 246 -320z" />
    <glyph glyph-name="uni1EDF" unicode="&#x1edf;" horiz-adv-x="540" 
d="M196 719v18h137c15 0 23 -7 23 -18c0 -8 -5 -18 -31 -58l-49 -76l-16 8l77 126h-141zM451 607h20v-90c0 -20 -9 -29 -29 -29h-59c59 -36 97 -117 97 -235c0 -175 -78 -265 -210 -265s-210 90 -210 265s78 265 210 265c20 0 53 -3 78 -12h103v101zM270 7
c120 0 187 86 187 222v48c0 136 -67 222 -187 222s-187 -86 -187 -222v-48c0 -136 67 -222 187 -222z" />
    <glyph glyph-name="uni1EE0" unicode="&#x1ee0;" horiz-adv-x="680" 
d="M416 808c-23 0 -43 8 -77 30c-29 19 -47 26 -66 26c-24 0 -44 -11 -65 -33l-12 12c24 27 50 39 78 39c23 0 43 -8 77 -30c29 -19 47 -26 66 -26c24 0 44 11 65 33l12 -12c-24 -27 -50 -39 -78 -39zM588 812h20v-103c0 -20 -9 -29 -29 -29h-109c89 -51 140 -152 140 -331
c0 -240 -97 -361 -270 -361s-270 121 -270 361s97 361 270 361c35 0 59 -3 88 -12h160v114zM340 8c153 0 246 109 246 320v42c0 211 -93 320 -246 320s-246 -109 -246 -320v-42c0 -211 93 -320 246 -320z" />
    <glyph glyph-name="uni1EE1" unicode="&#x1ee1;" horiz-adv-x="540" 
d="M341 628c-23 0 -43 8 -77 30c-29 19 -47 26 -66 26c-24 0 -44 -11 -65 -33l-12 12c24 27 50 39 78 39c23 0 43 -8 77 -30c29 -19 47 -26 66 -26c24 0 44 11 65 33l12 -12c-24 -27 -50 -39 -78 -39zM451 607h20v-90c0 -20 -9 -29 -29 -29h-59c59 -36 97 -117 97 -235
c0 -175 -78 -265 -210 -265s-210 90 -210 265s78 265 210 265c20 0 53 -3 78 -12h103v101zM270 7c120 0 187 86 187 222v48c0 136 -67 222 -187 222s-187 -86 -187 -222v-48c0 -136 67 -222 187 -222z" />
    <glyph glyph-name="uni1EE2" unicode="&#x1ee2;" horiz-adv-x="680" 
d="M346 -134c-17 0 -23 10 -23 21v7c0 11 6 21 23 21s23 -10 23 -21v-7c0 -11 -6 -21 -23 -21zM588 812h20v-103c0 -20 -9 -29 -29 -29h-109c89 -51 140 -152 140 -331c0 -240 -97 -361 -270 -361s-270 121 -270 361s97 361 270 361c35 0 59 -3 88 -12h160v114zM340 8
c153 0 246 109 246 320v42c0 211 -93 320 -246 320s-246 -109 -246 -320v-42c0 -211 93 -320 246 -320z" />
    <glyph glyph-name="uni1EE3" unicode="&#x1ee3;" horiz-adv-x="540" 
d="M270 -134c-17 0 -23 10 -23 21v7c0 11 6 21 23 21s23 -10 23 -21v-7c0 -11 -6 -21 -23 -21zM451 607h20v-90c0 -20 -9 -29 -29 -29h-59c59 -36 97 -117 97 -235c0 -175 -78 -265 -210 -265s-210 90 -210 265s78 265 210 265c20 0 53 -3 78 -12h103v101zM270 7
c120 0 187 86 187 222v48c0 136 -67 222 -187 222s-187 -86 -187 -222v-48c0 -136 67 -222 187 -222z" />
    <glyph glyph-name="uni1EE4" unicode="&#x1ee4;" horiz-adv-x="652" 
d="M326 -134c-17 0 -23 10 -23 21v7c0 11 6 21 23 21s23 -10 23 -21v-7c0 -11 -6 -21 -23 -21zM100 698h22v-430c0 -190 48 -260 204 -260s204 70 204 260v430h22v-428c0 -207 -58 -282 -226 -282s-226 75 -226 282v428z" />
    <glyph glyph-name="uni1EE5" unicode="&#x1ee5;" horiz-adv-x="556" 
d="M269 -134c-17 0 -23 10 -23 21v7c0 11 6 21 23 21s23 -10 23 -21v-7c0 -11 -6 -21 -23 -21zM430 0v76h-3c-18 -45 -67 -88 -158 -88c-113 0 -174 67 -174 193v325h21v-321c0 -123 56 -178 155 -178c83 0 159 45 159 137v362h21v-506h-21z" />
    <glyph glyph-name="uni1EE6" unicode="&#x1ee6;" horiz-adv-x="652" 
d="M251 899v18h137c15 0 23 -7 23 -18c0 -8 -5 -18 -31 -58l-49 -76l-16 8l77 126h-141zM100 698h22v-430c0 -190 48 -260 204 -260s204 70 204 260v430h22v-428c0 -207 -58 -282 -226 -282s-226 75 -226 282v428z" />
    <glyph glyph-name="uni1EE7" unicode="&#x1ee7;" horiz-adv-x="556" 
d="M199 719v18h137c15 0 23 -7 23 -18c0 -8 -5 -18 -31 -58l-49 -76l-16 8l77 126h-141zM430 0v76h-3c-18 -45 -67 -88 -158 -88c-113 0 -174 67 -174 193v325h21v-321c0 -123 56 -178 155 -178c83 0 159 45 159 137v362h21v-506h-21z" />
    <glyph glyph-name="uni1EE8" unicode="&#x1ee8;" horiz-adv-x="652" 
d="M422 919l-115 -152l-15 10l111 154zM100 698h22v-430c0 -190 48 -260 204 -260s204 70 204 260v430h80v111h20v-100c0 -20 -9 -29 -29 -29h-49v-410c0 -207 -58 -282 -226 -282s-226 75 -226 282v428z" />
    <glyph glyph-name="uni1EE9" unicode="&#x1ee9;" horiz-adv-x="556" 
d="M370 739l-115 -152l-15 10l111 154zM530 617v-100c0 -20 -9 -29 -29 -29h-50v-488h-21v76h-3c-18 -45 -67 -88 -158 -88c-113 0 -174 67 -174 193v325h21v-321c0 -123 56 -178 155 -178c83 0 159 45 159 137v362h80v111h20z" />
    <glyph glyph-name="uni1EEA" unicode="&#x1eea;" horiz-adv-x="652" 
d="M342 767l-115 152l19 12l111 -154zM100 698h22v-430c0 -190 48 -260 204 -260s204 70 204 260v430h80v111h20v-100c0 -20 -9 -29 -29 -29h-49v-410c0 -207 -58 -282 -226 -282s-226 75 -226 282v428z" />
    <glyph glyph-name="uni1EEB" unicode="&#x1eeb;" horiz-adv-x="556" 
d="M290 587l-115 152l19 12l111 -154zM530 617v-100c0 -20 -9 -29 -29 -29h-50v-488h-21v76h-3c-18 -45 -67 -88 -158 -88c-113 0 -174 67 -174 193v325h21v-321c0 -123 56 -178 155 -178c83 0 159 45 159 137v362h80v111h20z" />
    <glyph glyph-name="uni1EEC" unicode="&#x1eec;" horiz-adv-x="652" 
d="M251 899v18h137c15 0 23 -7 23 -18c0 -8 -5 -18 -31 -58l-49 -76l-16 8l77 126h-141zM100 698h22v-430c0 -190 48 -260 204 -260s204 70 204 260v430h80v111h20v-100c0 -20 -9 -29 -29 -29h-49v-410c0 -207 -58 -282 -226 -282s-226 75 -226 282v428z" />
    <glyph glyph-name="uni1EED" unicode="&#x1eed;" horiz-adv-x="556" 
d="M199 719v18h137c15 0 23 -7 23 -18c0 -8 -5 -18 -31 -58l-49 -76l-16 8l77 126h-141zM530 617v-100c0 -20 -9 -29 -29 -29h-50v-488h-21v76h-3c-18 -45 -67 -88 -158 -88c-113 0 -174 67 -174 193v325h21v-321c0 -123 56 -178 155 -178c83 0 159 45 159 137v362h80v111
h20z" />
    <glyph glyph-name="uni1EEE" unicode="&#x1eee;" horiz-adv-x="652" 
d="M399 808c-23 0 -43 8 -77 30c-29 19 -47 26 -66 26c-24 0 -44 -11 -65 -33l-12 12c24 27 50 39 78 39c23 0 43 -8 77 -30c29 -19 47 -26 66 -26c24 0 44 11 65 33l12 -12c-24 -27 -50 -39 -78 -39zM100 698h22v-430c0 -190 48 -260 204 -260s204 70 204 260v430h80v111
h20v-100c0 -20 -9 -29 -29 -29h-49v-410c0 -207 -58 -282 -226 -282s-226 75 -226 282v428z" />
    <glyph glyph-name="uni1EEF" unicode="&#x1eef;" horiz-adv-x="556" 
d="M344 628c-23 0 -43 8 -77 30c-29 19 -47 26 -66 26c-24 0 -44 -11 -65 -33l-12 12c24 27 50 39 78 39c23 0 43 -8 77 -30c29 -19 47 -26 66 -26c24 0 44 11 65 33l12 -12c-24 -27 -50 -39 -78 -39zM530 617v-100c0 -20 -9 -29 -29 -29h-50v-488h-21v76h-3
c-18 -45 -67 -88 -158 -88c-113 0 -174 67 -174 193v325h21v-321c0 -123 56 -178 155 -178c83 0 159 45 159 137v362h80v111h20z" />
    <glyph glyph-name="uni1EF0" unicode="&#x1ef0;" horiz-adv-x="652" 
d="M328 -134c-17 0 -23 10 -23 21v7c0 11 6 21 23 21s23 -10 23 -21v-7c0 -11 -6 -21 -23 -21zM100 698h22v-430c0 -190 48 -260 204 -260s204 70 204 260v430h80v111h20v-100c0 -20 -9 -29 -29 -29h-49v-410c0 -207 -58 -282 -226 -282s-226 75 -226 282v428z" />
    <glyph glyph-name="uni1EF1" unicode="&#x1ef1;" horiz-adv-x="556" 
d="M265 -134c-17 0 -23 10 -23 21v7c0 11 6 21 23 21s23 -10 23 -21v-7c0 -11 -6 -21 -23 -21zM530 617v-100c0 -20 -9 -29 -29 -29h-50v-488h-21v76h-3c-18 -45 -67 -88 -158 -88c-113 0 -174 67 -174 193v325h21v-321c0 -123 56 -178 155 -178c83 0 159 45 159 137v362h80
v111h20z" />
    <glyph glyph-name="Ygrave" unicode="&#x1ef2;" horiz-adv-x="546" 
d="M289 767l-115 152l19 12l111 -154zM284 0h-22v294l-241 404h25l226 -378h3l226 378h24l-241 -404v-294z" />
    <glyph glyph-name="ygrave" unicode="&#x1ef3;" horiz-adv-x="452" 
d="M245 587l-115 152l19 12l111 -154zM228 24l178 482h21l-255 -687c-5 -13 -16 -19 -31 -19h-84v19h93l66 174l-191 513h22l178 -482h3z" />
    <glyph glyph-name="uni1EF4" unicode="&#x1ef4;" horiz-adv-x="546" 
d="M273 -134c-17 0 -23 10 -23 21v7c0 11 6 21 23 21s23 -10 23 -21v-7c0 -11 -6 -21 -23 -21zM284 0h-22v294l-241 404h25l226 -378h3l226 378h24l-241 -404v-294z" />
    <glyph glyph-name="uni1EF5" unicode="&#x1ef5;" horiz-adv-x="452" 
d="M356 -134c-17 0 -23 10 -23 21v7c0 11 6 21 23 21s23 -10 23 -21v-7c0 -11 -6 -21 -23 -21zM228 24l178 482h21l-255 -687c-5 -13 -16 -19 -31 -19h-84v19h93l66 174l-191 513h22l178 -482h3z" />
    <glyph glyph-name="uni1EF6" unicode="&#x1ef6;" horiz-adv-x="546" 
d="M198 899v18h137c15 0 23 -7 23 -18c0 -8 -5 -18 -31 -58l-49 -76l-16 8l77 126h-141zM284 0h-22v294l-241 404h25l226 -378h3l226 378h24l-241 -404v-294z" />
    <glyph glyph-name="uni1EF7" unicode="&#x1ef7;" horiz-adv-x="452" 
d="M154 719v18h137c15 0 23 -7 23 -18c0 -8 -5 -18 -31 -58l-49 -76l-16 8l77 126h-141zM228 24l178 482h21l-255 -687c-5 -13 -16 -19 -31 -19h-84v19h93l66 174l-191 513h22l178 -482h3z" />
    <glyph glyph-name="uni1EF8" unicode="&#x1ef8;" horiz-adv-x="546" 
d="M343 808c-23 0 -43 8 -77 30c-29 19 -47 26 -66 26c-24 0 -44 -11 -65 -33l-12 12c24 27 50 39 78 39c23 0 43 -8 77 -30c29 -19 47 -26 66 -26c24 0 44 11 65 33l12 -12c-24 -27 -50 -39 -78 -39zM284 0h-22v294l-241 404h25l226 -378h3l226 378h24l-241 -404v-294z" />
    <glyph glyph-name="uni1EF9" unicode="&#x1ef9;" horiz-adv-x="452" 
d="M299 628c-23 0 -43 8 -77 30c-29 19 -47 26 -66 26c-24 0 -44 -11 -65 -33l-12 12c24 27 50 39 78 39c23 0 43 -8 77 -30c29 -19 47 -26 66 -26c24 0 44 11 65 33l12 -12c-24 -27 -50 -39 -78 -39zM228 24l178 482h21l-255 -687c-5 -13 -16 -19 -31 -19h-84v19h93l66 174
l-191 513h22l178 -482h3z" />
    <glyph glyph-name="endash" unicode="&#x2013;" horiz-adv-x="588" 
d="M552 296h-516v18h516v-18z" />
    <glyph glyph-name="emdash" unicode="&#x2014;" horiz-adv-x="780" 
d="M744 296h-708v18h708v-18z" />
    <glyph glyph-name="quoteleft" unicode="&#x2018;" horiz-adv-x="240" 
d="M115 540c-18 0 -26 11 -26 26v12c0 55 34 122 77 162h19c-51 -50 -70 -105 -74 -142c24 0 32 -11 32 -23v-9c0 -15 -8 -26 -28 -26z" />
    <glyph glyph-name="quoteright" unicode="&#x2019;" horiz-adv-x="240" 
d="M129 750c18 0 26 -11 26 -26v-12c0 -55 -34 -122 -77 -162h-19c51 50 70 105 74 142c-24 0 -32 11 -32 23v9c0 15 8 26 28 26z" />
    <glyph glyph-name="quotesinglbase" unicode="&#x201a;" horiz-adv-x="240" 
d="M122 66c18 0 26 -11 26 -26v-12c0 -55 -34 -122 -77 -162h-19c51 50 70 105 74 142c-24 0 -32 11 -32 23v9c0 15 8 26 28 26z" />
    <glyph glyph-name="quotedblleft" unicode="&#x201c;" horiz-adv-x="400" 
d="M275 540c-18 0 -26 11 -26 26v12c0 55 34 122 77 162h19c-51 -50 -70 -105 -74 -142c24 0 32 -11 32 -23v-9c0 -15 -8 -26 -28 -26zM115 540c-18 0 -26 11 -26 26v12c0 55 34 122 77 162h19c-51 -50 -70 -105 -74 -142c24 0 32 -11 32 -23v-9c0 -15 -8 -26 -28 -26z" />
    <glyph glyph-name="quotedblright" unicode="&#x201d;" horiz-adv-x="400" 
d="M289 750c18 0 26 -11 26 -26v-12c0 -55 -34 -122 -77 -162h-19c51 50 70 105 74 142c-24 0 -32 11 -32 23v9c0 15 8 26 28 26zM129 750c18 0 26 -11 26 -26v-12c0 -55 -34 -122 -77 -162h-19c51 50 70 105 74 142c-24 0 -32 11 -32 23v9c0 15 8 26 28 26z" />
    <glyph glyph-name="quotedblbase" unicode="&#x201e;" horiz-adv-x="400" 
d="M282 66c18 0 26 -11 26 -26v-12c0 -55 -34 -122 -77 -162h-19c51 50 70 105 74 142c-24 0 -32 11 -32 23v9c0 15 8 26 28 26zM122 66c18 0 26 -11 26 -26v-12c0 -55 -34 -122 -77 -162h-19c51 50 70 105 74 142c-24 0 -32 11 -32 23v9c0 15 8 26 28 26z" />
    <glyph glyph-name="dagger" unicode="&#x2020;" horiz-adv-x="561" 
d="M291 -200h-21v687h-212v19h212v234h21v-234h212v-19h-212v-687z" />
    <glyph glyph-name="daggerdbl" unicode="&#x2021;" horiz-adv-x="561" 
d="M291 -200h-21v234h-212v19h212v434h-212v19h212v234h21v-234h212v-19h-212v-434h212v-19h-212v-234z" />
    <glyph glyph-name="bullet" unicode="&#x2022;" horiz-adv-x="336" 
d="M168 218c-62 0 -86 33 -86 75v22c0 42 24 75 86 75s86 -33 86 -75v-22c0 -42 -24 -75 -86 -75z" />
    <glyph glyph-name="ellipsis" unicode="&#x2026;" horiz-adv-x="720" 
d="M600 -5c-18 0 -27 9 -27 25v8c0 16 9 25 27 25s27 -9 27 -25v-8c0 -16 -9 -25 -27 -25zM360 -5c-18 0 -27 9 -27 25v8c0 16 9 25 27 25s27 -9 27 -25v-8c0 -16 -9 -25 -27 -25zM120 -5c-18 0 -27 9 -27 25v8c0 16 9 25 27 25s27 -9 27 -25v-8c0 -16 -9 -25 -27 -25z" />
    <glyph glyph-name="perthousand" unicode="&#x2030;" horiz-adv-x="1240" 
d="M210 0h-23l484 698h23zM217 326c-77 0 -142 55 -142 192s65 192 142 192s142 -55 142 -192s-65 -192 -142 -192zM217 343c62 0 120 45 120 159v32c0 114 -58 159 -120 159s-120 -45 -120 -159v-32c0 -114 58 -159 120 -159zM665 -12c-77 0 -142 55 -142 192
s65 192 142 192s142 -55 142 -192s-65 -192 -142 -192zM665 5c62 0 120 45 120 159v32c0 114 -58 159 -120 159s-120 -45 -120 -159v-32c0 -114 58 -159 120 -159zM1023 -12c-77 0 -142 55 -142 192s65 192 142 192s142 -55 142 -192s-65 -192 -142 -192zM1023 5
c62 0 120 45 120 159v32c0 114 -58 159 -120 159s-120 -45 -120 -159v-32c0 -114 58 -159 120 -159z" />
    <glyph glyph-name="uni2032" unicode="&#x2032;" horiz-adv-x="220" 
d="M92 386h-20l57 312h20z" />
    <glyph glyph-name="uni2033" unicode="&#x2033;" horiz-adv-x="373" 
d="M245 386h-20l57 312h20zM92 386h-20l57 312h20z" />
    <glyph glyph-name="guilsinglleft" unicode="&#x2039;" horiz-adv-x="292" 
d="M241 121l-9 -15l-198 178v20l198 178l9 -15l-184 -173z" />
    <glyph glyph-name="guilsinglright" unicode="&#x203a;" horiz-adv-x="292" 
d="M60 106l-9 15l184 173l-184 173l9 15l198 -178v-20z" />
    <glyph glyph-name="fraction" unicode="&#x2044;" horiz-adv-x="147" 
d="M-138 0h-22l447 698h22z" />
    </font>
</defs>
</svg>
